  0
SECTION
  2
HEADER
  9
$ACADVER
  1
AC1015
  9
$ACADMAINTVER
 70
               6
  9
$DWGCODEPAGE
  3
ANSI_932
  9
$INSBASE
 10
0.0
 20
0.0
 30
0.0
  9
$EXTMIN
 10
2353.4858730004648
 20
-1594.1359342287747
 30
-21.507449999999999
  9
$EXTMAX
 10
5053.4858730004644
 20
2411.873502617203
 30
21.507449999999999
  9
$LIMMIN
 10
0.0
 20
0.0
  9
$LIMMAX
 10
0.0
 20
0.0
  9
$ORTHOMODE
 70
               0
  9
$REGENMODE
 70
               1
  9
$FILLMODE
 70
               1
  9
$QTEXTMODE
 70
               0
  9
$MIRRTEXT
 70
               1
  9
$LTSCALE
 40
76.199999999999989
  9
$ATTMODE
 70
               1
  9
$TEXTSIZE
 40
0.2
  9
$TRACEWID
 40
1.0
  9
$TEXTSTYLE
  7
Standard
  9
$CLAYER
  8
0
  9
$CELTYPE
  6
Continuous
  9
$CECOLOR
 62
             256
  9
$CELTSCALE
 40
1.0
  9
$DISPSILH
 70
               0
  9
$DIMSCALE
 40
1.0
  9
$DIMASZ
 40
37.50933837890625
  9
$DIMEXO
 40
29.999999999999996
  9
$DIMDLI
 40
4.9999999999999991
  9
$DIMRND
 40
0.0
  9
$DIMDLE
 40
0.0
  9
$DIMEXE
 40
29.999999999999996
  9
$DIMTP
 40
0.0
  9
$DIMTM
 40
0.0
  9
$DIMTXT
 40
48.865234375000092
  9
$DIMCEN
 40
0.0
  9
$DIMTSZ
 40
0.0
  9
$DIMTOL
 70
               0
  9
$DIMLIM
 70
               0
  9
$DIMTIH
 70
               0
  9
$DIMTOH
 70
               0
  9
$DIMSE1
 70
               0
  9
$DIMSE2
 70
               0
  9
$DIMTAD
 70
               1
  9
$DIMZIN
 70
              11
  9
$DIMBLK
  1
VW_EMPTYARROW
  9
$DIMASO
 70
               1
  9
$DIMSHO
 70
               1
  9
$DIMPOST
  1
<>
  9
$DIMAPOST
  1
[]
  9
$DIMALT
 70
               0
  9
$DIMALTD
 70
               2
  9
$DIMALTF
 40
1.0
  9
$DIMLFAC
 40
1.0
  9
$DIMTOFL
 70
               1
  9
$DIMTVP
 40
0.0
  9
$DIMTIX
 70
               1
  9
$DIMSOXD
 70
               0
  9
$DIMSAH
 70
               0
  9
$DIMBLK1
  1

  9
$DIMBLK2
  1

  9
$DIMSTYLE
  2
HIBINO
  9
$DIMCLRD
 70
               0
  9
$DIMCLRE
 70
               0
  9
$DIMCLRT
 70
               0
  9
$DIMTFAC
 40
1.0
  9
$DIMGAP
 40
0.4999999999999999
  9
$DIMJUST
 70
               0
  9
$DIMSD1
 70
               0
  9
$DIMSD2
 70
               0
  9
$DIMTOLJ
 70
               1
  9
$DIMTZIN
 70
              11
  9
$DIMALTZ
 70
              11
  9
$DIMALTTZ
 70
              11
  9
$DIMUPT
 70
               0
  9
$DIMDEC
 70
               2
  9
$DIMTDEC
 70
               2
  9
$DIMALTU
 70
               2
  9
$DIMALTTD
 70
               2
  9
$DIMTXSTY
  7
ＭＳ ゴシック
  9
$DIMAUNIT
 70
               0
  9
$DIMADEC
 70
               0
  9
$DIMALTRND
 40
0.0
  9
$DIMAZIN
 70
               0
  9
$DIMDSEP
 70
              46
  9
$DIMATFIT
 70
               0
  9
$DIMFRAC
 70
               2
  9
$DIMLDRBLK
  1

  9
$DIMLUNIT
 70
               2
  9
$DIMLWD
 70
              -2
  9
$DIMLWE
 70
              -2
  9
$DIMTMOVE
 70
               0
  9
$LUNITS
 70
               2
  9
$LUPREC
 70
               4
  9
$SKETCHINC
 40
0.1
  9
$FILLETRAD
 40
0.0
  9
$AUNITS
 70
               0
  9
$AUPREC
 70
               0
  9
$MENU
  1
acad
  9
$ELEVATION
 40
0.0
  9
$PELEVATION
 40
0.0
  9
$THICKNESS
 40
0.0
  9
$LIMCHECK
 70
               0
  9
$CHAMFERA
 40
0.0
  9
$CHAMFERB
 40
0.0
  9
$CHAMFERC
 40
0.0
  9
$CHAMFERD
 40
0.0
  9
$SKPOLY
 70
               0
  9
$TDCREATE
 40
2457767.502685185
  9
$TDUCREATE
 40
0.000000000
  9
$TDUPDATE
 40
2457767.502685185
  9
$TDUUPDATE
 40
0.000000000
  9
$TDINDWG
 40
0.0000000000
  9
$TDUSRTIMER
 40
0.0000000000
  9
$USRTIMER
 70
               1
  9
$ANGBASE
 50
0.0
  9
$ANGDIR
 70
               0
  9
$PDMODE
 70
               1
  9
$PDSIZE
 40
-2.0
  9
$PLINEWID
 40
0.0
  9
$SPLFRAME
 70
               0
  9
$SPLINETYPE
 70
               6
  9
$SPLINESEGS
 70
               8
  9
$HANDSEED
  5
2B2
  9
$SURFTAB1
 70
               6
  9
$SURFTAB2
 70
               6
  9
$SURFTYPE
 70
               6
  9
$SURFU
 70
               6
  9
$SURFV
 70
               6
  9
$UCSBASE
  2

  9
$UCSNAME
  2

  9
$UCSORG
 10
0.0
 20
0.0
 30
0.0
  9
$UCSXDIR
 10
1.0
 20
0.0
 30
0.0
  9
$UCSYDIR
 10
0.0
 20
1.0
 30
0.0
  9
$UCSORTHOREF
  2

  9
$UCSORTHOVIEW
 70
               0
  9
$UCSORGTOP
 10
0.0
 20
0.0
 30
0.0
  9
$UCSORGBOTTOM
 10
0.0
 20
0.0
 30
0.0
  9
$UCSORGLEFT
 10
0.0
 20
0.0
 30
0.0
  9
$UCSORGRIGHT
 10
0.0
 20
0.0
 30
0.0
  9
$UCSORGFRONT
 10
0.0
 20
0.0
 30
0.0
  9
$UCSORGBACK
 10
0.0
 20
0.0
 30
0.0
  9
$PUCSBASE
  2

  9
$PUCSNAME
  2

  9
$PUCSORG
 10
0.0
 20
0.0
 30
0.0
  9
$PUCSXDIR
 10
1.0
 20
0.0
 30
0.0
  9
$PUCSYDIR
 10
0.0
 20
1.0
 30
0.0
  9
$PUCSORTHOREF
  2

  9
$PUCSORTHOVIEW
 70
               0
  9
$PUCSORGTOP
 10
0.0
 20
0.0
 30
0.0
  9
$PUCSORGBOTTOM
 10
0.0
 20
0.0
 30
0.0
  9
$PUCSORGLEFT
 10
0.0
 20
0.0
 30
0.0
  9
$PUCSORGRIGHT
 10
0.0
 20
0.0
 30
0.0
  9
$PUCSORGFRONT
 10
0.0
 20
0.0
 30
0.0
  9
$PUCSORGBACK
 10
0.0
 20
0.0
 30
0.0
  9
$USERI1
 70
               0
  9
$USERI2
 70
               0
  9
$USERI3
 70
               0
  9
$USERI4
 70
               0
  9
$USERI5
 70
               0
  9
$USERR1
 40
0.0
  9
$USERR2
 40
0.0
  9
$USERR3
 40
0.0
  9
$USERR4
 40
0.0
  9
$USERR5
 40
0.0
  9
$WORLDVIEW
 70
               1
  9
$SHADEDGE
 70
               3
  9
$SHADEDIF
 70
              70
  9
$TILEMODE
 70
               1
  9
$MAXACTVP
 70
              64
  9
$PINSBASE
 10
0.0
 20
0.0
 30
0.0
  9
$PLIMCHECK
 70
               0
  9
$PEXTMIN
 10
1.0000000000000000E+20
 20
1.0000000000000000E+20
 30
1.0000000000000000E+20
  9
$PEXTMAX
 10
-1.0000000000000000E+20
 20
-1.0000000000000000E+20
 30
-1.0000000000000000E+20
  9
$PLIMMIN
 10
0.0
 20
0.0
  9
$PLIMMAX
 10
12.0
 20
9.0
  9
$UNITMODE
 70
               0
  9
$VISRETAIN
 70
               0
  9
$PLINEGEN
 70
               1
  9
$PSLTSCALE
 70
               0
  9
$TREEDEPTH
 70
            3020
  9
$CMLSTYLE
  2
Standard
  9
$CMLJUST
 70
               0
  9
$CMLSCALE
 40
1.0
  9
$PROXYGRAPHICS
 70
               0
  9
$MEASUREMENT
 70
               1
  9
$CELWEIGHT
370
               0
  9
$ENDCAPS
280
               0
  9
$JOINSTYLE
280
               0
  9
$LWDISPLAY
290
               0
  9
$INSUNITS
 70
               4
  9
$HYPERLINKBASE
  1

  9
$STYLESHEET
  1

  9
$XEDIT
290
               1
  9
$CEPSNTYPE
380
               0
  9
$PSTYLEMODE
290
               1
  9
$FINGERPRINTGUID
  2

  9
$VERSIONGUID
  2

  9
$EXTNAMES
290
               1
  9
$PSVPSCALE
 40
0.0
  0
ENDSEC
  0
SECTION
  2
CLASSES
  0
CLASS
  1
LWPOLYLINE
  2
AcDbPolyline
  3
AutoCAD 2000
 90
        0
280
               0
281
               1
  0
CLASS
  1
IMAGE
  2
AcDbRasterImage
  3
ISM
 90
      127
280
               0
281
               1
  0
CLASS
  1
OLE2FRAME
  2
AcDbOle2Frame
  3
AutoCAD 2000
 90
        0
280
               0
281
               1
  0
CLASS
  1
HATCH
  2
AcDbHatch
  3
AutoCAD 2000
 90
        0
280
               0
281
               1
  0
CLASS
  1
DICTIONARYVAR
  2
AcDbDictionaryVar
  3
AutoCAD 2000
 90
        0
280
               0
281
               0
  0
CLASS
  1
RASTERVARIABLES
  2
AcDbRasterVariables
  3
ISM
 90
        0
280
               0
281
               0
  0
CLASS
  1
IMAGEDEF
  2
AcDbRasterImageDef
  3
ISM
 90
        0
280
               0
281
               0
  0
CLASS
  1
IMAGEDEF_REACTOR
  2
AcDbRasterImageDefReactor
  3
ISM
 90
        1
280
               0
281
               0
  0
CLASS
  1
IDBUFFER
  2
AcDbIdBuffer
  3
AutoCAD 2000
 90
        0
280
               0
281
               0
  0
CLASS
  1
SPATIAL_FILTER
  2
AcDbSpatialFilter
  3
AutoCAD 2000
 90
        0
280
               0
281
               0
  0
CLASS
  1
XRECORD
  2
AcDbXrecord
  3
AutoCAD 2000
 90
        0
280
               0
281
               0
  0
CLASS
  1
SORTENTSTABLE
  2
AcDbSortentsTable
  3
AutoCAD 2000
 90
        0
280
               0
281
               0
  0
CLASS
  1
LAYER_INDEX
  2
AcDbLayerIndex
  3
AutoCAD 2000
 90
        0
280
               0
281
               0
  0
CLASS
  1
SPATIAL_INDEX
  2
AcDbSpatialIndex
  3
AutoCAD 2000
 90
        0
280
               0
281
               0
  0
CLASS
  1
OBJECT_PTR
  2
CAseDLPNTableRecord
  3
"ASE-LPNTableRecord"
 90
        1
280
               0
281
               0
  0
CLASS
  1
LAYOUT
  2
AcDbLayout
  3
AutoCAD 2000
 90
        0
280
               0
281
               0
  0
CLASS
  1
PLOTSETTINGS
  2
AcDbPlotSettings
  3
AutoCAD 2000
 90
        0
280
               0
281
               0
  0
CLASS
  1
ACDBDICTIONARYWDFLT
  2
AcDbDictionaryWithDefault
  3
AutoCAD 2000
 90
        0
280
               0
281
               0
  0
CLASS
  1
ACDBPLACEHOLDER
  2
AcDbPlaceHolder
  3
AutoCAD 2000
 90
        0
280
               0
281
               0
  0
CLASS
  1
VBA_PROJECT
  2
AcDbVbaProject
  3
acadvba
 90
        0
280
               0
281
               0
  0
CLASS
  1
WIPEOUT
  2
AcDbWipeout
  3
WipeOut|AutoCAD Express Tool|expresstools@autodesk.com
 90
      127
280
               0
281
               1
  0
CLASS
  1
WIPEOUTVARIABLES
  2
AcDbWipeoutVariables
  3
WipeOut|AutoCAD Express Tool|expresstools@autodesk.com
 90
        0
280
               0
281
               0
  0
CLASS
  1
RTEXT
  2
RText
  3
RText|AutoCAD Express Tool|expresstools@autodesk.com
 90
        0
280
               0
281
               1
  0
CLASS
  1
ARCALIGNEDTEXT
  2
AcDbArcAlignedText
  3
ATEXT|AutoCAD Express Tool|expresstools@autodesk.com
 90
        0
280
               0
281
               1
  0
ENDSEC
  0
SECTION
  2
TABLES
  0
TABLE
  2
VPORT
  5
7
100
AcDbSymbolTable
 70
               1
  0
VPORT
  5
15
100
AcDbSymbolTableRecord
100
AcDbViewportTableRecord
  2
*ACTIVE
 70
               0
 10
0.0
 20
0.0
 11
1.0
 21
1.0
 12
3703.4858730004644
 22
408.86878419421419
 13
0.0
 23
0.0
 14
1.0
 24
1.0
 15
0.0
 25
0.0
 16
0.0
 26
0.0
 36
1.0
 17
0.0
 27
0.0
 37
0.0
 40
4006.0094368459777
 41
0.688564
 42
50.0
 43
0.0
 44
0.0
 50
0.0
 51
0.0
 71
               0
 72
            2000
 73
               1
 74
               1
 75
               0
 76
               0
 77
               0
 78
               0
281
               0
 65
               0
110
0.0
120
0.0
130
0.0
111
1.0
121
0.0
131
0.0
112
0.0
122
1.0
132
0.0
345
0
346
0
 79
               0
146
0.0
  0
ENDTAB
  0
TABLE
  2
LTYPE
  5
4
100
AcDbSymbolTable
 70
              13
  0
LTYPE
  5
11
100
AcDbSymbolTableRecord
100
AcDbLinetypeTableRecord
  2
ByBlock
 70
              64
  3

 72
              65
 73
               0
 40
0.0
  0
LTYPE
  5
12
100
AcDbSymbolTableRecord
100
AcDbLinetypeTableRecord
  2
ByLayer
 70
              64
  3

 72
              65
 73
               0
 40
0.0
  0
LTYPE
  5
13
100
AcDbSymbolTableRecord
100
AcDbLinetypeTableRecord
  2
Continuous
 70
              64
  3
Solid line
 72
              65
 73
               0
 40
0.0
  0
LTYPE
  5
2B
100
AcDbSymbolTableRecord
100
AcDbLinetypeTableRecord
  2
STYLE_01
 70
               0
  3

 72
              65
 73
               4
 40
0.2666666666666667
 49
0.1666666666666667
 74
               0
 49
-0.0333333333333333
 74
               0
 49
0.0333333333333333
 74
               0
 49
-0.0333333333333333
 74
               0
  0
LTYPE
  5
2C
100
AcDbSymbolTableRecord
100
AcDbLinetypeTableRecord
  2
STYLE_02
 70
               0
  3

 72
              65
 73
               2
 40
0.694427490234375
 49
0.4860687255859375
 74
               0
 49
-0.2083587646484375
 74
               0
  0
LTYPE
  5
2D
100
AcDbSymbolTableRecord
100
AcDbLinetypeTableRecord
  2
STYLE_03
 70
               0
  3

 72
              65
 73
               2
 40
1.25
 49
1.0416412353515625
 74
               0
 49
-0.2083587646484375
 74
               0
  0
LTYPE
  5
2E
100
AcDbSymbolTableRecord
100
AcDbLinetypeTableRecord
  2
STYLE_04
 70
               0
  3

 72
              65
 73
               2
 40
1.5277099609375
 49
1.319427490234375
 74
               0
 49
-0.208282470703125
 74
               0
  0
LTYPE
  5
2F
100
AcDbSymbolTableRecord
100
AcDbLinetypeTableRecord
  2
STYLE_05
 70
               0
  3

 72
              65
 73
               2
 40
0.208282470703125
 49
0.069427490234375
 74
               0
 49
-0.13885498046875
 74
               0
  0
LTYPE
  5
30
100
AcDbSymbolTableRecord
100
AcDbLinetypeTableRecord
  2
STYLE_06
 70
               0
  3

 72
              65
 73
               4
 40
1.0416412353515625
 49
0.625
 74
               0
 49
-0.208282470703125
 74
               0
 49
0.069427490234375
 74
               0
 49
-0.1389312744140625
 74
               0
  0
LTYPE
  5
31
100
AcDbSymbolTableRecord
100
AcDbLinetypeTableRecord
  2
STYLE_07
 70
               0
  3

 72
              65
 73
               6
 40
1.875
 49
0.625
 74
               0
 49
-0.208282470703125
 74
               0
 49
0.625
 74
               0
 49
-0.2083587646484375
 74
               0
 49
0.069427490234375
 74
               0
 49
-0.1389312744140625
 74
               0
  0
LTYPE
  5
32
100
AcDbSymbolTableRecord
100
AcDbLinetypeTableRecord
  2
STYLE_08
 70
               0
  3

 72
              65
 73
               6
 40
1.25
 49
0.625
 74
               0
 49
-0.208282470703125
 74
               0
 49
0.069427490234375
 74
               0
 49
-0.1389312744140625
 74
               0
 49
0.069427490234375
 74
               0
 49
-0.1389312744140625
 74
               0
  0
LTYPE
  5
33
100
AcDbSymbolTableRecord
100
AcDbLinetypeTableRecord
  2
STYLE_09
 70
               0
  3

 72
              65
 73
               4
 40
5.0
 49
3.75
 74
               0
 49
-0.2777862548828125
 74
               0
 49
0.694427490234375
 74
               0
 49
-0.2777862548828125
 74
               0
  0
LTYPE
  5
34
100
AcDbSymbolTableRecord
100
AcDbLinetypeTableRecord
  2
STYLE_10
 70
               0
  3

 72
              65
 73
               6
 40
5.9375
 49
3.75
 74
               0
 49
-0.2777862548828125
 74
               0
 49
0.694427490234375
 74
               0
 49
-0.2777862548828125
 74
               0
 49
0.625
 74
               0
 49
-0.3125
 74
               0
  0
ENDTAB
  0
TABLE
  2
LAYER
  5
2
100
AcDbSymbolTable
 70
              16
  0
LAYER
  5
14
100
AcDbSymbolTableRecord
100
AcDbLayerTableRecord
  2
0
 70
               0
 62
               7
  6
Continuous
290
               1
370
               0
390
1D
  0
LAYER
  5
35
100
AcDbSymbolTableRecord
100
AcDbLayerTableRecord
  2
DATA
 70
               0
 62
               7
  6
Continuous
290
               1
370
               0
390
1D
  0
LAYER
  5
36
100
AcDbSymbolTableRecord
100
AcDbLayerTableRecord
  2
一般
 70
               0
 62
               7
  6
Continuous
290
               1
370
               0
390
1D
  0
LAYER
  5
37
100
AcDbSymbolTableRecord
100
AcDbLayerTableRecord
  2
寸法
 70
               0
 62
               7
  6
Continuous
290
               1
370
               0
390
1D
  0
LAYER
  5
38
100
AcDbSymbolTableRecord
100
AcDbLayerTableRecord
  2
HIBINO-BASE
 70
               0
 62
               7
  6
Continuous
290
               1
370
               0
390
1D
  0
LAYER
  5
39
100
AcDbSymbolTableRecord
100
AcDbLayerTableRecord
  2
SPEC
 70
               0
 62
               7
  6
Continuous
290
               1
370
               0
390
1D
  0
LAYER
  5
3A
100
AcDbSymbolTableRecord
100
AcDbLayerTableRecord
  2
DIMNSIONS
 70
               0
 62
               7
  6
Continuous
290
               1
370
               0
390
1D
  0
LAYER
  5
3B
100
AcDbSymbolTableRecord
100
AcDbLayerTableRecord
  2
Layer1
 70
               0
 62
               3
  6
Continuous
290
               1
370
               0
390
1D
  0
LAYER
  5
3C
100
AcDbSymbolTableRecord
100
AcDbLayerTableRecord
  2
2D
 70
               0
 62
              82
  6
Continuous
290
               1
370
               0
390
1D
  0
LAYER
  5
3D
100
AcDbSymbolTableRecord
100
AcDbLayerTableRecord
  2
FORMAT
 70
               0
 62
               7
  6
Continuous
290
               1
370
               0
390
1D
  0
LAYER
  5
3E
100
AcDbSymbolTableRecord
100
AcDbLayerTableRecord
  2
Defpoints
 70
               0
 62
               7
  6
Continuous
290
               0
370
               0
390
1D
  0
LAYER
  5
3F
100
AcDbSymbolTableRecord
100
AcDbLayerTableRecord
  2
5in
 70
               0
 62
               7
  6
Continuous
290
               1
370
               0
390
1D
  0
LAYER
  5
40
100
AcDbSymbolTableRecord
100
AcDbLayerTableRecord
  2
MD_Visible
 70
               0
 62
               7
  6
Continuous
290
               1
370
               0
390
1D
  0
LAYER
  5
41
100
AcDbSymbolTableRecord
100
AcDbLayerTableRecord
  2
AM_0
 70
               0
 62
               7
  6
Continuous
290
               1
370
               0
390
1D
  0
LAYER
  5
42
100
AcDbSymbolTableRecord
100
AcDbLayerTableRecord
  2
MD_Visible Narrow
 70
               0
 62
               7
  6
Continuous
290
               1
370
               0
390
1D
  0
LAYER
  5
43
100
AcDbSymbolTableRecord
100
AcDbLayerTableRecord
  2
3
 70
               0
 62
               7
  6
Continuous
290
               1
370
               0
390
1D
  0
ENDTAB
  0
TABLE
  2
STYLE
  5
3
100
AcDbSymbolTable
 70
               2
  0
STYLE
  5
17
100
AcDbSymbolTableRecord
100
AcDbTextStyleTableRecord
  2
Standard
 70
               0
 40
0.0
 41
1.0
 50
0.0
 71
               0
 42
0.0
  3
txt
  4
BIGFONT.SHX
  0
STYLE
  5
2A
100
AcDbSymbolTableRecord
100
AcDbTextStyleTableRecord
  2
ＭＳ ゴシック
 70
               0
 40
0.0
 41
1.0
 50
0.0
 71
               0
 42
0.0
  3

  4
ＭＳ ゴシック
1001
ACAD
1000
ＭＳ ゴシック
1071
        0
  0
ENDTAB
  0
TABLE
  2
VIEW
  5
5
100
AcDbSymbolTable
 70
               0
  0
ENDTAB
  0
TABLE
  2
UCS
  5
6
100
AcDbSymbolTable
 70
               0
  0
ENDTAB
  0
TABLE
  2
APPID
  5
8
100
AcDbSymbolTable
 70
               1
  0
APPID
  5
16
100
AcDbSymbolTableRecord
100
AcDbRegAppTableRecord
  2
ACAD
 70
               0
  0
ENDTAB
  0
TABLE
  2
DIMSTYLE
  5
9
100
AcDbSymbolTable
 70
               2
100
AcDbDimStyleTable
 71
               0
  0
DIMSTYLE
105
18
100
AcDbSymbolTableRecord
100
AcDbDimStyleTableRecord
  2
Standard
 70
               0
  3

  4

 40
1.0
 41
0.18
 42
0.0625
 43
0.38
 44
0.18
 45
0.0
 46
0.0
 47
0.0
 48
0.0
 71
               0
 72
               0
 73
               1
 74
               1
 75
               0
 76
               0
 77
               0
 78
               0
 79
               0
140
0.18
141
0.09
142
0.0
143
25.399999999999999
144
1.0
145
0.0
146
1.0
147
0.09
148
0.0
170
               0
171
               2
172
               0
173
               0
174
               0
175
               0
176
               0
177
               0
178
               0
179
               0
271
               4
272
               4
273
               2
274
               2
275
               0
276
               0
277
               2
278
              46
279
               0
280
               0
281
               0
282
               0
283
               1
284
               0
285
               0
286
               0
288
               0
289
               3
340
17
341
0
342
0
343
0
344
0
371
              -2
372
              -2
  0
DIMSTYLE
105
4D
100
AcDbSymbolTableRecord
100
AcDbDimStyleTableRecord
  2
HIBINO
 70
               0
  3
<>
  4
[]
 40
1.0
 41
37.50933837890625
 42
29.999999999999996
 43
4.9999999999999991
 44
29.999999999999996
 45
0.0
 46
0.0
 47
0.0
 48
0.0
 71
               0
 72
               0
 73
               0
 74
               0
 75
               0
 76
               0
 77
               1
 78
              11
 79
               0
140
48.865234375000092
141
0.0
142
0.0
143
1.0
144
1.0
145
0.0
146
1.0
147
0.4999999999999999
148
0.0
170
               0
171
               2
172
               1
173
               0
174
               1
175
               0
176
               0
177
               0
178
               0
179
               0
271
               2
272
               2
273
               2
274
               2
275
               0
276
               2
277
               2
278
              46
279
               0
280
               0
281
               0
282
               0
283
               1
284
              11
285
              11
286
              11
288
               0
289
               0
340
2A
341
44
342
44
343
0
344
0
371
              -2
372
              -2
  0
ENDTAB
  0
TABLE
  2
BLOCK_RECORD
  5
1
100
AcDbSymbolTable
 70
               7
  0
BLOCK_RECORD
  5
A
100
AcDbSymbolTableRecord
100
AcDbBlockTableRecord
  2
*MODEL_SPACE
340
20
  0
BLOCK_RECORD
  5
B
100
AcDbSymbolTableRecord
100
AcDbBlockTableRecord
  2
*PAPER_SPACE
340
21
  0
BLOCK_RECORD
  5
44
100
AcDbSymbolTableRecord
100
AcDbBlockTableRecord
  2
VW_EMPTYARROW
340
0
  0
BLOCK_RECORD
  5
24
100
AcDbSymbolTableRecord
100
AcDbBlockTableRecord
  2
グループ
340
0
102
{BLKREFS
331
2AC
102
}
  0
BLOCK_RECORD
  5
25
100
AcDbSymbolTableRecord
100
AcDbBlockTableRecord
  2
グループ-1
340
0
102
{BLKREFS
331
2AD
102
}
  0
BLOCK_RECORD
  5
26
100
AcDbSymbolTableRecord
100
AcDbBlockTableRecord
  2
*D3
340
0
  0
BLOCK_RECORD
  5
27
100
AcDbSymbolTableRecord
100
AcDbBlockTableRecord
  2
*D4
340
0
  0
BLOCK_RECORD
  5
28
100
AcDbSymbolTableRecord
100
AcDbBlockTableRecord
  2
*D5
340
0
  0
BLOCK_RECORD
  5
29
100
AcDbSymbolTableRecord
100
AcDbBlockTableRecord
  2
グループ-2
340
0
102
{BLKREFS
331
2B1
102
}
  0
ENDTAB
  0
ENDSEC
  0
SECTION
  2
BLOCKS
  0
BLOCK
  5
D
100
AcDbEntity
  8
0
390
0
100
AcDbBlockBegin
  2
*MODEL_SPACE
 70
               0
 10
0.0
 20
0.0
 30
0.0
  3
*MODEL_SPACE
  1

  0
ENDBLK
  5
E
100
AcDbEntity
  8
0
390
0
100
AcDbBlockEnd
  0
BLOCK
  5
F
100
AcDbEntity
 67
               1
  8
0
390
0
100
AcDbBlockBegin
  2
*PAPER_SPACE
 70
               0
 10
0.0
 20
0.0
 30
0.0
  3
*PAPER_SPACE
  1

  0
ENDBLK
  5
10
100
AcDbEntity
 67
               1
  8
0
390
0
100
AcDbBlockEnd
  0
BLOCK
  5
45
100
AcDbEntity
  8
0
370
              -2
390
0
  6
ByBlock
 62
               0
100
AcDbBlockBegin
  2
VW_EMPTYARROW
 70
               0
 10
0.0
 20
0.0
 30
0.0
  3
VW_EMPTYARROW
  1

  0
LINE
  5
46
100
AcDbEntity
  8
0
370
              -2
390
0
  6
ByBlock
 62
               0
100
AcDbLine
 10
0.0
 20
0.0
 30
0.0
 11
-1.0
 21
0.0
 31
0.0
  0
POLYLINE
  5
47
100
AcDbEntity
  8
0
370
              -2
390
0
  6
Continuous
 62
               0
100
AcDb2dPolyline
 66
               1
 10
0.0
 20
0.0
 30
0.0
 75
               5
  0
VERTEX
  5
48
100
AcDbEntity
  8
0
370
              -2
390
0
  6
Continuous
 62
               0
100
AcDbVertex
100
AcDb2dVertex
 10
-0.99993896484375
 20
0.2679328381102957
 30
0.0
  0
VERTEX
  5
49
100
AcDbEntity
  8
0
370
              -2
390
0
  6
Continuous
 62
               0
100
AcDbVertex
100
AcDb2dVertex
 10
0.0
 20
0.0
 30
0.0
  0
VERTEX
  5
4A
100
AcDbEntity
  8
0
370
              -2
390
0
  6
Continuous
 62
               0
100
AcDbVertex
100
AcDb2dVertex
 10
-0.9999389648437499
 20
-0.2679328381102959
 30
0.0
  0
SEQEND
  5
4B
100
AcDbEntity
  8
0
370
              -2
390
0
  6
Continuous
 62
               0
  0
ENDBLK
  5
4C
100
AcDbEntity
  8
0
390
0
100
AcDbBlockEnd
  0
BLOCK
  5
4E
100
AcDbEntity
  8
0
390
0
100
AcDbBlockBegin
  2
グループ
 70
               0
 10
0.0
 20
0.0
 30
0.0
  3
グループ
  1

  0
CIRCLE
  5
4F
100
AcDbEntity
  8
0
370
               0
390
0
  6
Continuous
 62
              30
100
AcDbCircle
 10
-171.98661074573604
 20
467.96736866241019
 30
0.0
 40
4.0
  0
ARC
  5
50
100
AcDbEntity
  8
0
370
               0
390
0
  6
Continuous
 62
              30
100
AcDbCircle
 10
-76.986570963034438
 20
415.96826826792585
 30
0.0
 40
19.999999998814864
100
AcDbArc
 50
279.6281752609886
 51
0.000000002866102
  0
ARC
  5
51
100
AcDbEntity
  8
0
370
               0
390
0
  6
Continuous
 62
              30
100
AcDbCircle
 10
-171.98661074573513
 20
975.96736866241099
 30
0.0
 40
588.00000000000102
100
AcDbArc
 50
260.37182473763681
 51
279.62817526244191
  0
ARC
  5
52
100
AcDbEntity
  8
0
370
               0
390
0
  6
Continuous
 62
              30
100
AcDbCircle
 10
-266.986650527253
 20
415.9682682689272
 30
0.0
 40
20.0
100
AcDbArc
 50
180.0
 51
260.37182473763693
  0
LINE
  5
53
100
AcDbEntity
  8
0
370
               0
390
0
  6
Continuous
 62
              30
100
AcDbLine
 10
-286.98696567049228
 20
415.96826363032528
 30
0.0
 11
-286.98696567049228
 21
422.37930942004391
 31
0.0
  0
LINE
  5
54
100
AcDbEntity
  8
0
370
               0
390
0
  6
Continuous
 62
              30
100
AcDbLine
 10
-286.98696567049228
 20
422.37930942004391
 30
0.0
 11
-246.76800145139899
 21
618.00082225030133
 31
0.0
  0
ARC
  5
55
100
AcDbEntity
  8
0
370
               0
390
0
  6
Continuous
 62
              30
100
AcDbCircle
 10
-187.98733295820924
 20
605.96612832113362
 30
0.0
 40
59.999999999996717
100
AcDbArc
 50
20.00784785279572
 51
168.42922526325646
  0
LINE
  5
56
100
AcDbEntity
  8
0
370
               0
390
0
  6
Continuous
 62
              30
100
AcDbLine
 10
-131.60858674278464
 20
626.49505782550045
 30
0.0
 11
-56.986767783071656
 21
421.56063962405392
 31
0.0
  0
LINE
  5
57
100
AcDbEntity
  8
0
370
               0
390
0
  6
Continuous
 62
              30
100
AcDbLine
 10
-56.986767783071656
 20
421.56063962405392
 30
0.0
 11
-56.986767783071656
 21
415.96826363032528
 31
0.0
  0
LINE
  5
58
100
AcDbEntity
  8
0
370
               0
390
0
  6
Continuous
 62
              30
100
AcDbLine
 10
-222.28232397070136
 20
629.18443429892727
 30
0.0
 11
-222.28232397070136
 21
625.96219230120846
 31
0.0
  0
ARC
  5
59
100
AcDbEntity
  8
0
370
               0
390
0
  6
Continuous
 62
              30
100
AcDbCircle
 10
-216.28232062444252
 20
625.96219130546899
 30
0.0
 40
6.0000000000004547
100
AcDbArc
 50
180.0
 51
270.0
  0
LINE
  5
5A
100
AcDbEntity
  8
0
370
               0
390
0
  6
Continuous
 62
              30
100
AcDbLine
 10
-216.28232671251502
 20
619.96218759244152
 30
0.0
 11
-158.28231348028388
 21
619.96218759244152
 31
0.0
  0
ARC
  5
5B
100
AcDbEntity
  8
0
370
               0
390
0
  6
Continuous
 62
              30
100
AcDbCircle
 10
-158.28232062444343
 20
625.96219130546933
 30
0.0
 40
6.0000000000005684
100
AcDbArc
 50
270.0
 51
0.0
  0
LINE
  5
5C
100
AcDbEntity
  8
0
370
               0
390
0
  6
Continuous
 62
              30
100
AcDbLine
 10
-152.28231622209753
 20
625.96219230120846
 30
0.0
 11
-152.28231622209753
 21
628.12142643755146
 31
0.0
  0
ARC
  5
5D
100
AcDbEntity
  8
0
370
               0
390
0
  6
Continuous
 62
              30
100
AcDbCircle
 10
-164.28232062444343
 20
628.12142492607552
 30
0.0
 40
12.000000000000455
100
AcDbArc
 50
0.0
 51
58.022704828588303
  0
ARC
  5
5E
100
AcDbEntity
  8
0
370
               0
390
0
  6
Continuous
 62
              30
100
AcDbCircle
 10
-188.17913449356232
 20
589.84478493446215
 30
0.0
 40
57.12381723816047
100
AcDbArc
 50
58.022704828589021
 51
119.32968054678656
  0
ARC
  5
5F
100
AcDbEntity
  8
0
370
               0
390
0
  6
Continuous
 62
              30
100
AcDbCircle
 10
-210.28232062444252
 20
629.1844347169208
 30
0.0
 40
12.000000000000625
100
AcDbArc
 50
119.32968054678645
 51
179.99999999999349
  0
CIRCLE
  5
60
100
AcDbEntity
  8
0
370
               0
390
0
  6
Continuous
 62
              30
100
AcDbCircle
 10
-171.98661074573604
 20
547.96736866241008
 30
0.0
 40
4.0
  0
LWPOLYLINE
  5
61
100
AcDbEntity
  8
0
370
               0
390
0
  6
Continuous
 62
              30
100
AcDbPolyline
 90
       29
 70
             128
 10
-286.98630397239731
 20
559.16064360028861
 42
-0.0008252668075372
 10
-286.98613276746619
 20
559.26396904668422
 10
-286.98502187433451
 20
559.59984078158163
 42
-0.0114167555288633
 10
-286.96476905759516
 20
560.37444691199369
 10
-286.94832859287459
 20
560.70988646269427
 42
-0.0064984450457183
 10
-286.89713983229649
 20
561.5348640010609
 42
-0.0064868852250739
 10
-286.82454558337281
 20
562.35823633113898
 42
-0.0064780847868317
 10
-286.73062794606722
 20
563.17945362325383
 42
-0.0064736846087328
 10
-286.61547169228311
 20
563.99796539856914
 42
-0.0064736955728886
 10
-286.47916155601479
 20
564.81322122569509
 42
-0.0064781134015473
 10
-286.32178224238351
 20
565.62467066332044
 42
-0.0064869159554544
 10
-286.14341842742442
 20
566.43176326412049
 42
-0.0065000596344401
 10
-285.94415476504855
 20
567.23394857456651
 42
-0.006517414219342
 10
-285.72407605291937
 20
568.03067602302656
 42
-0.0065418806332767
 10
-285.48326471278369
 20
568.82138733179477
 42
-0.006534735425392
 10
-285.22185902881961
 20
569.60553031616394
 42
-0.0065126250868104
 10
-284.94008411582467
 20
570.38258282536276
 42
-0.0064963647114419
 10
-284.63818972369404
 20
571.15204216488507
 42
-0.0064842717738273
 10
-284.31642203646174
 20
571.91340883713315
 42
-0.0064765715123181
 10
-283.97502745063821
 20
572.66618339407057
 42
-0.0064732703287159
 10
-283.61425222088087
 20
573.40986655131769
 42
-0.0064743914285177
 10
-283.23434280419838
 20
574.14395855139719
 42
-0.0064799033746542
 10
-282.83554558335436
 20
574.8679597182313
 42
-0.0064897981087204
 10
-282.41810669909387
 20
575.58137079887274
 42
-0.0065024371394894
 10
-281.98227454764503
 20
576.28369375703039
 10
-281.92663644261415
 20
576.37080274450136
 42
-0.0097930143110223
 10
-281.35355538176952
 20
577.23045003698701
 10
-281.29457695856399
 20
577.31527272988353
 42
-0.0008212717710146
 10
-281.23544944466812
 20
577.40001256403775
 42
-0.0008212717710146
  0
LINE
  5
62
100
AcDbEntity
  8
0
370
               0
390
0
  6
Continuous
 62
              30
100
AcDbLine
 10
-237.13666571607794
 20
640.38041803663441
 30
0.0
 11
-281.23544527521335
 21
577.40001577561566
 31
0.0
  0
LINE
  5
63
100
AcDbEntity
  8
0
370
               0
390
0
  6
Continuous
 62
              30
100
AcDbLine
 10
-286.98663784494602
 20
422.38085914080807
 30
0.0
 11
-286.98631001939975
 21
559.16064429705807
 31
0.0
  0
ARC
  5
64
100
AcDbEntity
  8
0
370
               0
390
0
  6
Continuous
 62
              30
100
AcDbCircle
 10
-88.786228361486366
 20
570.94984641559859
 30
0.0
 40
31.799999999984834
100
AcDbArc
 50
359.99963252620705
 51
54.993189039134741
  0
LINE
  5
65
100
AcDbEntity
  8
0
370
               0
390
0
  6
Continuous
 62
              30
100
AcDbLine
 10
-56.986227615978379
 20
570.94964582150646
 30
0.0
 11
-56.986570342685837
 21
415.96826363032528
 31
0.0
  0
LINE
  5
66
100
AcDbEntity
  8
0
370
               0
390
0
  6
Continuous
 62
              30
100
AcDbLine
 10
-70.543400927688737
 20
596.99671167557904
 30
0.0
 11
-153.58038617601599
 21
655.12060198610493
 31
0.0
  0
LINE
  5
67
100
AcDbEntity
  8
0
370
               0
390
0
  6
Continuous
 62
              30
100
AcDbLine
 10
-231.05833305349555
 20
647.73799676125714
 30
0.0
 11
-231.05653001299109
 21
647.73985568111607
 31
0.0
  0
ENDBLK
  5
68
100
AcDbEntity
  8
0
390
0
100
AcDbBlockEnd
  0
BLOCK
  5
69
100
AcDbEntity
  8
0
390
0
100
AcDbBlockBegin
  2
グループ-1
 70
               0
 10
0.0
 20
0.0
 30
0.0
  3
グループ-1
  1

  0
CIRCLE
  5
6A
100
AcDbEntity
  8
0
370
               0
390
0
  6
Continuous
 62
              30
100
AcDbCircle
 10
-167.10785941069528
 20
-607.72616469020045
 30
0.0
 40
4.0
  0
LINE
  5
6B
100
AcDbEntity
  8
0
370
               0
390
0
  6
Continuous
 62
              30
100
AcDbLine
 10
-52.108016448030895
 20
-561.31943565184395
 30
0.0
 11
-126.72983540774388
 21
-766.25385385329059
 31
0.0
  0
ARC
  5
6C
100
AcDbEntity
  8
0
370
               0
390
0
  6
Continuous
 62
              30
100
AcDbCircle
 10
-183.10858162316848
 20
-745.72492434892365
 30
0.0
 40
59.999999999996845
100
AcDbArc
 50
191.5707747367434
 51
339.9921521472088
  0
LINE
  5
6D
100
AcDbEntity
  8
0
370
               0
390
0
  6
Continuous
 62
              30
100
AcDbLine
 10
-241.88925011635823
 20
-757.75961827809147
 30
0.0
 11
-282.10821433545152
 21
-562.13810544783394
 31
0.0
  0
LINE
  5
6E
100
AcDbEntity
  8
0
370
               0
390
0
  6
Continuous
 62
              30
100
AcDbLine
 10
-282.10821433545152
 20
-562.13810544783394
 30
0.0
 11
-282.10821433545152
 21
-555.72705965811531
 31
0.0
  0
ARC
  5
6F
100
AcDbEntity
  8
0
370
               0
390
0
  6
Continuous
 62
              30
100
AcDbCircle
 10
-262.10789919221224
 20
-555.72706429671746
 30
0.0
 40
19.999999999999787
100
AcDbArc
 50
99.628175262363072
 51
180.0
  0
ARC
  5
70
100
AcDbEntity
  8
0
370
               0
390
0
  6
Continuous
 62
              30
100
AcDbCircle
 10
-167.10785941069437
 20
-1115.7261646902009
 30
0.0
 40
588.00000000000057
100
AcDbArc
 50
80.371824737558043
 51
99.628175262389192
  0
ARC
  5
71
100
AcDbEntity
  8
0
370
               0
390
0
  6
Continuous
 62
              30
100
AcDbCircle
 10
-72.107819627993678
 20
-555.7270642957161
 30
0.0
 40
19.999999998814928
100
AcDbArc
 50
359.99999999713395
 51
80.371824739011529
  0
LINE
  5
72
100
AcDbEntity
  8
0
370
               0
390
0
  6
Continuous
 62
              30
100
AcDbLine
 10
-52.108016448030895
 20
-555.72705965811531
 30
0.0
 11
-52.108016448030895
 21
-561.31943565184395
 31
0.0
  0
LINE
  5
73
100
AcDbEntity
  8
0
370
               0
390
0
  6
Continuous
 62
              30
100
AcDbLine
 10
-217.40357263566059
 20
-765.7209883289986
 30
0.0
 11
-217.40357263566059
 21
-768.94323032671741
 31
0.0
  0
ARC
  5
74
100
AcDbEntity
  8
0
370
               0
390
0
  6
Continuous
 62
              30
100
AcDbCircle
 10
-205.40356928940176
 20
-768.94323074471095
 30
0.0
 40
12.000000000000909
100
AcDbArc
 50
180.00000000000651
 51
240.67031945321358
  0
ARC
  5
75
100
AcDbEntity
  8
0
370
               0
390
0
  6
Continuous
 62
              30
100
AcDbCircle
 10
-183.30038315852156
 20
-729.60358096225218
 30
0.0
 40
57.123817238160896
100
AcDbArc
 50
240.6703194532131
 51
301.97729517141079
  0
ARC
  5
76
100
AcDbEntity
  8
0
370
               0
390
0
  6
Continuous
 62
              30
100
AcDbCircle
 10
-159.40356928940267
 20
-767.88022095386577
 30
0.0
 40
12.000000000000558
100
AcDbArc
 50
301.9772951714117
 51
0.0
  0
LINE
  5
77
100
AcDbEntity
  8
0
370
               0
390
0
  6
Continuous
 62
              30
100
AcDbLine
 10
-147.40356488705677
 20
-767.8802224653416
 30
0.0
 11
-147.40356488705677
 21
-765.7209883289986
 31
0.0
  0
ARC
  5
78
100
AcDbEntity
  8
0
370
               0
390
0
  6
Continuous
 62
              30
100
AcDbCircle
 10
-153.40356928940267
 20
-765.72098733325947
 30
0.0
 40
6.0000000000004547
100
AcDbArc
 50
0.0
 51
90.0
  0
LINE
  5
79
100
AcDbEntity
  8
0
370
               0
390
0
  6
Continuous
 62
              30
100
AcDbLine
 10
-153.40356214524311
 20
-759.72098362023166
 30
0.0
 11
-211.40357537747425
 21
-759.72098362023166
 31
0.0
  0
ARC
  5
7A
100
AcDbEntity
  8
0
370
               0
390
0
  6
Continuous
 62
              30
100
AcDbCircle
 10
-211.40356928940176
 20
-765.72098733325925
 30
0.0
 40
6.0000000000004547
100
AcDbArc
 50
90.0
 51
180.0
  0
CIRCLE
  5
7B
100
AcDbEntity
  8
0
370
               0
390
0
  6
Continuous
 62
              30
100
AcDbCircle
 10
-167.10785941069528
 20
-687.72616469020045
 30
0.0
 40
4.0
  0
LWPOLYLINE
  5
7C
100
AcDbEntity
  8
0
370
               0
390
0
  6
Continuous
 62
              30
100
AcDbPolyline
 90
       29
 70
             128
 10
-276.35669810962736
 20
-717.15880859182812
 42
-0.0008230575890568
 10
-276.41582331320893
 20
-717.07407142382658
 10
-276.57805483805782
 20
-716.84074664065088
 42
-0.0097906626973772
 10
-276.95056092324728
 20
-716.28196771720695
 10
-277.10352786639288
 20
-716.04247838964648
 42
-0.0065029772524356
 10
-277.53936071094654
 20
-715.34015599282884
 42
-0.0064897688167849
 10
-277.95679956241474
 20
-714.62674495455644
 42
-0.0064798708444943
 10
-278.35559672665522
 20
-713.90274390024456
 42
-0.0064743719065055
 10
-278.73550615579074
 20
-713.16865188392899
 42
-0.0064732778851681
 10
-279.09628144068984
 20
-712.42496863651434
 42
-0.0064766079330205
 10
-279.43767600112938
 20
-711.67219411470865
 42
-0.0064842557284627
 10
-279.75944374567507
 20
-710.91082743203197
 42
-0.0064965778095104
 10
-280.06133797873031
 20
-710.14136796919263
 42
-0.0065118908345572
 10
-280.34311355812338
 20
-709.36431555990964
 42
-0.0065368761458563
 10
-280.60451759653051
 20
-708.58017194204331
 42
-0.0065402072565579
 10
-280.84532649177731
 20
-707.78945988722171
 42
-0.0065175247268913
 10
-281.06540528929872
 20
-706.99273259122856
 42
-0.0065000499446437
 10
-281.26466892673602
 20
-706.19054736898363
 42
-0.0064868838405706
 10
-281.44303272460411
 20
-705.38345483255989
 42
-0.0064780850896331
 10
-281.60041203251922
 20
-704.57200543772797
 42
-0.006473684500373
 10
-281.73672217191142
 20
-703.75674962667301
 42
-0.0064736957107314
 10
-281.85187843123936
 20
-702.93823785702352
 42
-0.0064781096967788
 10
-281.94579608369691
 20
-702.11702049182941
 42
-0.0064869333374871
 10
-282.01839031267536
 20
-701.29364826321682
 42
-0.0064975588188165
 10
-282.06958047511239
 20
-700.46867115810028
 10
-282.07717123636326
 20
-700.3138057417417
 42
-0.0114200724604221
 10
-282.10687082604301
 20
-699.17775412222738
 10
-282.10738191815744
 20
-699.02277081617046
 42
-0.0008228704125184
 10
-282.10755263735655
 20
-698.91943962807863
 42
-0.0008228704125184
  0
LINE
  5
7D
100
AcDbEntity
  8
0
370
               0
390
0
  6
Continuous
 62
              30
100
AcDbLine
 10
-232.25791438103718
 20
-780.13921406442455
 30
0.0
 11
-276.35669394017259
 21
-717.1588118034058
 31
0.0
  0
LINE
  5
7E
100
AcDbEntity
  8
0
370
               0
390
0
  6
Continuous
 62
              30
100
AcDbLine
 10
-282.10755868435899
 20
-698.91944032484821
 30
0.0
 11
-282.10788650990526
 21
-562.1396551685981
 31
0.0
  0
LINE
  5
7F
100
AcDbEntity
  8
0
370
               0
390
0
  6
Continuous
 62
              30
100
AcDbLine
 10
-52.107819007645077
 20
-555.72705965811531
 30
0.0
 11
-52.107476280937618
 21
-710.70844184929661
 31
0.0
  0
ARC
  5
80
100
AcDbEntity
  8
0
370
               0
390
0
  6
Continuous
 62
              30
100
AcDbCircle
 10
-83.907477026445605
 20
-710.70864244338873
 30
0.0
 40
31.799999999984816
100
AcDbArc
 50
305.0068109608672
 51
0.0003674737929487
  0
LINE
  5
81
100
AcDbEntity
  8
0
370
               0
390
0
  6
Continuous
 62
              30
100
AcDbLine
 10
-65.664649592647976
 20
-736.75550770336918
 30
0.0
 11
-148.70163484097523
 21
-794.87939801389507
 31
0.0
  0
LINE
  5
82
100
AcDbEntity
  8
0
370
               0
390
0
  6
Continuous
 62
              30
100
AcDbLine
 10
-226.17777867795033
 20
-787.49865170890621
 30
0.0
 11
-226.17958171845478
 21
-787.49679278904728
 31
0.0
  0
ENDBLK
  5
83
100
AcDbEntity
  8
0
390
0
100
AcDbBlockEnd
  0
BLOCK
  5
84
100
AcDbEntity
  8
寸法
390
0
100
AcDbBlockBegin
  2
*D3
 70
               1
 10
0.0
 20
0.0
 30
0.0
  3
*D3
  1

  0
LINE
  5
85
100
AcDbEntity
  8
寸法
370
              -2
390
0
  6
Continuous
 62
               0
100
AcDbLine
 10
3417.2891130313697
 20
50.36403524279558
 30
0.0
 11
3417.2891130313697
 21
-55.0
 31
0.0
  0
LINE
  5
86
100
AcDbEntity
  8
寸法
370
              -2
390
0
  6
Continuous
 62
               0
100
AcDbLine
 10
3647.2891805336299
 20
50.36403524279558
 30
0.0
 11
3647.2891805336299
 21
-55.0
 31
0.0
  0
LINE
  5
87
100
AcDbEntity
  8
寸法
370
              -2
390
0
  6
Continuous
 62
               0
100
AcDbLine
 10
3417.2891130313697
 20
-25.0
 30
0.0
 11
3647.2891805336299
 21
-25.0
 31
0.0
  0
POLYLINE
  5
88
100
AcDbEntity
  8
0
370
              -2
390
0
  6
Continuous
 62
               0
100
AcDb2dPolyline
 66
               1
 10
0.0
 20
0.0
 30
0.0
 75
               5
  0
VERTEX
  5
89
100
AcDbEntity
  8
0
370
              -2
390
0
  6
Continuous
 62
               0
100
AcDbVertex
100
AcDb2dVertex
 10
3454.7984514102759
 20
-35.05059692725365
 30
0.0
  0
VERTEX
  5
8A
100
AcDbEntity
  8
0
370
              -2
390
0
  6
Continuous
 62
               0
100
AcDbVertex
100
AcDb2dVertex
 10
3417.2891130313697
 20
-25.0
 30
0.0
  0
VERTEX
  5
8B
100
AcDbEntity
  8
0
370
              -2
390
0
  6
Continuous
 62
               0
100
AcDbVertex
100
AcDb2dVertex
 10
3454.7984514102759
 20
-14.94940307274635
 30
0.0
  0
SEQEND
  5
8C
100
AcDbEntity
  8
0
370
              -2
390
0
  6
Continuous
 62
               0
  0
POLYLINE
  5
8D
100
AcDbEntity
  8
0
370
              -2
390
0
  6
Continuous
 62
               0
100
AcDb2dPolyline
 66
               1
 10
0.0
 20
0.0
 30
0.0
 75
               5
  0
VERTEX
  5
8E
100
AcDbEntity
  8
0
370
              -2
390
0
  6
Continuous
 62
               0
100
AcDbVertex
100
AcDb2dVertex
 10
3609.7798421547236
 20
-14.94940307274635
 30
0.0
  0
VERTEX
  5
8F
100
AcDbEntity
  8
0
370
              -2
390
0
  6
Continuous
 62
               0
100
AcDbVertex
100
AcDb2dVertex
 10
3647.2891805336299
 20
-25.0
 30
0.0
  0
VERTEX
  5
90
100
AcDbEntity
  8
0
370
              -2
390
0
  6
Continuous
 62
               0
100
AcDbVertex
100
AcDb2dVertex
 10
3609.7798421547236
 20
-35.05059692725365
 30
0.0
  0
SEQEND
  5
91
100
AcDbEntity
  8
0
370
              -2
390
0
  6
Continuous
 62
               0
  0
WIPEOUT
  5
92
100
AcDbEntity
  8
寸法
370
              -2
390
0
  6
Continuous
 62
               0
 92
        0
100
AcDbWipeout
 90
        0
 10
3484.6641467824998
 20
3291.8963528624204
 30
0.0
 11
95.25
 21
0.0
 31
0.0
 12
0.0
 22
95.25
 32
0.0
 13
1.0
 23
1.0
340
0
 70
               7
280
               1
281
              50
282
              50
283
               0
360
0
 71
               2
 91
        5
 14
-0.5
 24
35.244318665222259
 14
0.5
 24
35.244318665222259
 14
0.5
 24
34.577651998555595
 14
-0.5
 24
34.577651998555595
 14
-0.5
 24
35.244318665222259
  0
MTEXT
  5
93
100
AcDbEntity
  8
寸法
390
0
 62
               0
100
AcDbMText
 10
3484.6641467824998
 20
40.2552343750001
 30
0.0
 40
48.865234375000092
 41
0.0
 71
               1
 72
               1
  1
{\fＭＳ ゴシック|b0|i0|c128|p0;\l230}
 73
               1
 44
0.7828267384257843
  0
POINT
  5
94
100
AcDbEntity
  8
Defpoints
370
               0
390
0
 62
               0
100
AcDbPoint
 10
3647.2891805336299
 20
80.36403524279558
 30
0.0
  0
POINT
  5
95
100
AcDbEntity
  8
Defpoints
370
               0
390
0
 62
               0
100
AcDbPoint
 10
3417.2891130313697
 20
80.36403524279558
 30
0.0
  0
POINT
  5
96
100
AcDbEntity
  8
Defpoints
370
               0
390
0
 62
               0
100
AcDbPoint
 10
3417.2891130313697
 20
-25.0
 30
0.0
  0
ENDBLK
  5
97
100
AcDbEntity
  8
寸法
390
0
100
AcDbBlockEnd
  0
BLOCK
  5
98
100
AcDbEntity
  8
寸法
390
0
100
AcDbBlockBegin
  2
*D4
 70
               1
 10
0.0
 20
0.0
 30
0.0
  3
*D4
  1

  0
LINE
  5
99
100
AcDbEntity
  8
寸法
370
              -2
390
0
  6
Continuous
 62
               0
100
AcDbLine
 10
3387.2891130313697
 20
80.36403524279558
 30
0.0
 11
3270.0
 21
80.36403524279558
 31
0.0
  0
LINE
  5
9A
100
AcDbEntity
  8
寸法
370
              -2
390
0
  6
Continuous
 62
               0
100
AcDbLine
 10
3387.2891130313697
 20
620.36404924988722
 30
0.0
 11
3270.0
 21
620.36404924988722
 31
0.0
  0
LINE
  5
9B
100
AcDbEntity
  8
寸法
370
              -2
390
0
  6
Continuous
 62
               0
100
AcDbLine
 10
3300.0
 20
80.36403524279558
 30
0.0
 11
3300.0
 21
620.36404924988722
 31
0.0
  0
POLYLINE
  5
9C
100
AcDbEntity
  8
0
370
              -2
390
0
  6
Continuous
 62
               0
100
AcDb2dPolyline
 66
               1
 10
0.0
 20
0.0
 30
0.0
 75
               5
  0
VERTEX
  5
9D
100
AcDbEntity
  8
0
370
              -2
390
0
  6
Continuous
 62
               0
100
AcDbVertex
100
AcDb2dVertex
 10
3310.0505969272535
 20
117.87337362170183
 30
0.0
  0
VERTEX
  5
9E
100
AcDbEntity
  8
0
370
              -2
390
0
  6
Continuous
 62
               0
100
AcDbVertex
100
AcDb2dVertex
 10
3300.0
 20
80.36403524279558
 30
0.0
  0
VERTEX
  5
9F
100
AcDbEntity
  8
0
370
              -2
390
0
  6
Continuous
 62
               0
100
AcDbVertex
100
AcDb2dVertex
 10
3289.9494030727465
 20
117.87337362170183
 30
0.0
  0
SEQEND
  5
A0
100
AcDbEntity
  8
0
370
              -2
390
0
  6
Continuous
 62
               0
  0
POLYLINE
  5
A1
100
AcDbEntity
  8
0
370
              -2
390
0
  6
Continuous
 62
               0
100
AcDb2dPolyline
 66
               1
 10
0.0
 20
0.0
 30
0.0
 75
               5
  0
VERTEX
  5
A2
100
AcDbEntity
  8
0
370
              -2
390
0
  6
Continuous
 62
               0
100
AcDbVertex
100
AcDb2dVertex
 10
3289.9494030727465
 20
582.85471087098097
 30
0.0
  0
VERTEX
  5
A3
100
AcDbEntity
  8
0
370
              -2
390
0
  6
Continuous
 62
               0
100
AcDbVertex
100
AcDb2dVertex
 10
3300.0
 20
620.36404924988722
 30
0.0
  0
VERTEX
  5
A4
100
AcDbEntity
  8
0
370
              -2
390
0
  6
Continuous
 62
               0
100
AcDbVertex
100
AcDb2dVertex
 10
3310.0505969272535
 20
582.85471087098097
 30
0.0
  0
SEQEND
  5
A5
100
AcDbEntity
  8
0
370
              -2
390
0
  6
Continuous
 62
               0
  0
WIPEOUT
  5
A6
100
AcDbEntity
  8
寸法
370
              -2
390
0
  6
Continuous
 62
               0
 92
        0
100
AcDbWipeout
 90
        0
 10
3229.0
 20
3636.7713528624204
 30
0.0
 11
95.25
 21
0.0
 31
0.0
 12
0.0
 22
95.25
 32
0.0
 13
1.0
 23
1.0
340
0
 70
               7
280
               1
281
              50
282
              50
283
               0
360
0
 71
               2
 91
        5
 14
0.1666666666666666
 24
35.244318665222259
 14
0.1666666666666666
 24
34.244318665222259
 14
-0.5
 24
34.244318665222259
 14
-0.5
 24
35.244318665222259
 14
0.1666666666666666
 24
35.244318665222259
  0
MTEXT
  5
A7
100
AcDbEntity
  8
寸法
390
0
 62
               0
100
AcDbMText
 10
3234.7447656249997
 20
327.375
 30
0.0
 40
48.865234375000092
 41
0.0
 71
               1
 72
               1
  1
{\fＭＳ ゴシック|b0|i0|c128|p0;\l540}
 11
0.0
 21
1.0
 31
0.0
 73
               1
 44
0.7828267384257843
  0
POINT
  5
A8
100
AcDbEntity
  8
Defpoints
370
               0
390
0
 62
               0
100
AcDbPoint
 10
3417.2891130313697
 20
620.36404924988722
 30
0.0
  0
POINT
  5
A9
100
AcDbEntity
  8
Defpoints
370
               0
390
0
 62
               0
100
AcDbPoint
 10
3417.2891130313697
 20
80.36403524279558
 30
0.0
  0
POINT
  5
AA
100
AcDbEntity
  8
Defpoints
370
               0
390
0
 62
               0
100
AcDbPoint
 10
3300.0
 20
80.36403524279558
 30
0.0
  0
ENDBLK
  5
AB
100
AcDbEntity
  8
寸法
390
0
100
AcDbBlockEnd
  0
BLOCK
  5
AC
100
AcDbEntity
  8
寸法
390
0
100
AcDbBlockBegin
  2
*D5
 70
               1
 10
0.0
 20
0.0
 30
0.0
  3
*D5
  1

  0
LINE
  5
AD
100
AcDbEntity
  8
寸法
370
              -2
390
0
  6
Continuous
 62
               0
100
AcDbLine
 10
3488.4954376037349
 20
1060.8049214629557
 30
0.0
 11
3270.0
 21
1060.8049214629557
 31
0.0
  0
LINE
  5
AE
100
AcDbEntity
  8
寸法
370
              -2
390
0
  6
Continuous
 62
               0
100
AcDbLine
 10
3488.4954376037349
 20
783.00857995261038
 30
0.0
 11
3270.0
 21
783.00857995261038
 31
0.0
  0
LINE
  5
AF
100
AcDbEntity
  8
寸法
370
              -2
390
0
  6
Continuous
 62
               0
100
AcDbLine
 10
3300.0
 20
1060.8049214629557
 30
0.0
 11
3300.0
 21
783.00857995261038
 31
0.0
  0
POLYLINE
  5
B0
100
AcDbEntity
  8
0
370
              -2
390
0
  6
Continuous
 62
               0
100
AcDb2dPolyline
 66
               1
 10
0.0
 20
0.0
 30
0.0
 75
               5
  0
VERTEX
  5
B1
100
AcDbEntity
  8
0
370
              -2
390
0
  6
Continuous
 62
               0
100
AcDbVertex
100
AcDb2dVertex
 10
3289.9494030727465
 20
1023.2955830840494
 30
0.0
  0
VERTEX
  5
B2
100
AcDbEntity
  8
0
370
              -2
390
0
  6
Continuous
 62
               0
100
AcDbVertex
100
AcDb2dVertex
 10
3300.0
 20
1060.8049214629557
 30
0.0
  0
VERTEX
  5
B3
100
AcDbEntity
  8
0
370
              -2
390
0
  6
Continuous
 62
               0
100
AcDbVertex
100
AcDb2dVertex
 10
3310.0505969272535
 20
1023.2955830840494
 30
0.0
  0
SEQEND
  5
B4
100
AcDbEntity
  8
0
370
              -2
390
0
  6
Continuous
 62
               0
  0
POLYLINE
  5
B5
100
AcDbEntity
  8
0
370
              -2
390
0
  6
Continuous
 62
               0
100
AcDb2dPolyline
 66
               1
 10
0.0
 20
0.0
 30
0.0
 75
               5
  0
VERTEX
  5
B6
100
AcDbEntity
  8
0
370
              -2
390
0
  6
Continuous
 62
               0
100
AcDbVertex
100
AcDb2dVertex
 10
3310.0505969272535
 20
820.51791833151663
 30
0.0
  0
VERTEX
  5
B7
100
AcDbEntity
  8
0
370
              -2
390
0
  6
Continuous
 62
               0
100
AcDbVertex
100
AcDb2dVertex
 10
3300.0
 20
783.00857995261038
 30
0.0
  0
VERTEX
  5
B8
100
AcDbEntity
  8
0
370
              -2
390
0
  6
Continuous
 62
               0
100
AcDbVertex
100
AcDb2dVertex
 10
3289.9494030727465
 20
820.51791833151663
 30
0.0
  0
SEQEND
  5
B9
100
AcDbEntity
  8
0
370
              -2
390
0
  6
Continuous
 62
               0
  0
WIPEOUT
  5
BA
100
AcDbEntity
  8
寸法
370
              -2
390
0
  6
Continuous
 62
               0
 92
        0
100
AcDbWipeout
 90
        0
 10
3229.0
 20
4161.7713528624208
 30
0.0
 11
95.25
 21
0.0
 31
0.0
 12
0.0
 22
95.25
 32
0.0
 13
1.0
 23
1.0
340
0
 70
               7
280
               1
281
              50
282
              50
283
               0
360
0
 71
               2
 91
        5
 14
0.1666666666666666
 24
35.244318665222266
 14
0.1666666666666666
 24
34.244318665222266
 14
-0.5
 24
34.244318665222266
 14
-0.5
 24
35.244318665222266
 14
0.1666666666666666
 24
35.244318665222266
  0
MTEXT
  5
BB
100
AcDbEntity
  8
寸法
390
0
 62
               0
100
AcDbMText
 10
3234.7447656249997
 20
852.375
 30
0.0
 40
48.865234375000092
 41
0.0
 71
               1
 72
               1
  1
{\fＭＳ ゴシック|b0|i0|c128|p0;\l278}
 11
0.0
 21
1.0
 31
0.0
 73
               1
 44
0.7828267384257843
  0
POINT
  5
BC
100
AcDbEntity
  8
Defpoints
370
               0
390
0
 62
               0
100
AcDbPoint
 10
3518.4954376037349
 20
783.00857995261038
 30
0.0
  0
POINT
  5
BD
100
AcDbEntity
  8
Defpoints
370
               0
390
0
 62
               0
100
AcDbPoint
 10
3518.4954376037349
 20
1060.8049214629557
 30
0.0
  0
POINT
  5
BE
100
AcDbEntity
  8
Defpoints
370
               0
390
0
 62
               0
100
AcDbPoint
 10
3300.0
 20
1060.8049214629557
 30
0.0
  0
ENDBLK
  5
BF
100
AcDbEntity
  8
寸法
390
0
100
AcDbBlockEnd
  0
BLOCK
  5
C0
100
AcDbEntity
  8
0
390
0
100
AcDbBlockBegin
  2
グループ-2
 70
               0
 10
0.0
 20
0.0
 30
0.0
  3
グループ-2
  1

  0
CIRCLE
  5
C1
100
AcDbEntity
  8
0
370
               0
390
0
  6
Continuous
 62
              30
100
AcDbCircle
 10
945.72424912368433
 20
-1298.8793980138953
 30
0.0
 40
4.0
  0
ARC
  5
C2
100
AcDbEntity
  8
0
370
               0
390
0
  6
Continuous
 62
              30
100
AcDbCircle
 10
850.72420934098272
 20
-1350.8784984083795
 30
0.0
 40
19.999999998814928
100
AcDbArc
 50
179.99999999713395
 51
260.37182473901146
  0
ARC
  5
C3
100
AcDbEntity
  8
0
370
               0
390
0
  6
Continuous
 62
              30
100
AcDbCircle
 10
945.72424912368342
 20
-790.8793980138945
 30
0.0
 40
588.00000000000114
100
AcDbArc
 50
260.37182473755809
 51
279.62817526236319
  0
ARC
  5
C4
100
AcDbEntity
  8
0
370
               0
390
0
  6
Continuous
 62
              30
100
AcDbCircle
 10
1040.7242889052013
 20
-1350.8784984073782
 30
0.0
 40
20.000000000000011
100
AcDbArc
 50
279.62817526236296
 51
0.0
  0
LINE
  5
C5
100
AcDbEntity
  8
0
370
               0
390
0
  6
Continuous
 62
              30
100
AcDbLine
 10
1060.7246040484406
 20
-1350.8785030459803
 30
0.0
 11
1060.7246040484406
 21
-1344.4674572562617
 31
0.0
  0
LINE
  5
C6
100
AcDbEntity
  8
0
370
               0
390
0
  6
Continuous
 62
              30
100
AcDbLine
 10
1060.7246040484406
 20
-1344.4674572562617
 30
0.0
 11
1020.5056398293473
 21
-1148.8459444260043
 31
0.0
  0
ARC
  5
C7
100
AcDbEntity
  8
0
370
               0
390
0
  6
Continuous
 62
              30
100
AcDbCircle
 10
961.72497133615752
 20
-1160.8806383551719
 30
0.0
 40
59.999999999996888
100
AcDbArc
 50
11.57077473674364
 51
159.99215214720419
  0
LINE
  5
C8
100
AcDbEntity
  8
0
370
               0
390
0
  6
Continuous
 62
              30
100
AcDbLine
 10
905.34622512073292
 20
-1140.3517088508052
 30
0.0
 11
830.72440616101994
 21
-1345.2861270522517
 31
0.0
  0
LINE
  5
C9
100
AcDbEntity
  8
0
370
               0
390
0
  6
Continuous
 62
              30
100
AcDbLine
 10
830.72440616101994
 20
-1345.2861270522517
 30
0.0
 11
830.72440616101994
 21
-1350.8785030459803
 31
0.0
  0
LINE
  5
CA
100
AcDbEntity
  8
0
370
               0
390
0
  6
Continuous
 62
              30
100
AcDbLine
 10
996.01996234864964
 20
-1137.6623323773783
 30
0.0
 11
996.01996234864964
 21
-1140.8845743750971
 31
0.0
  0
ARC
  5
CB
100
AcDbEntity
  8
0
370
               0
390
0
  6
Continuous
 62
              30
100
AcDbCircle
 10
990.01995900239081
 20
-1140.8845753708365
 30
0.0
 40
6.0000000000004547
100
AcDbArc
 50
270.0
 51
0.0
  0
LINE
  5
CC
100
AcDbEntity
  8
0
370
               0
390
0
  6
Continuous
 62
              30
100
AcDbLine
 10
990.0199650904633
 20
-1146.8845790838641
 30
0.0
 11
932.01995185823216
 21
-1146.8845790838641
 31
0.0
  0
ARC
  5
CD
100
AcDbEntity
  8
0
370
               0
390
0
  6
Continuous
 62
              30
100
AcDbCircle
 10
932.01995900239172
 20
-1140.884575370836
 30
0.0
 40
6.0000000000004547
100
AcDbArc
 50
180.0
 51
270.0
  0
LINE
  5
CE
100
AcDbEntity
  8
0
370
               0
390
0
  6
Continuous
 62
              30
100
AcDbLine
 10
926.01995460004582
 20
-1140.8845743750971
 30
0.0
 11
926.01995460004582
 21
-1138.7253402387541
 31
0.0
  0
ARC
  5
CF
100
AcDbEntity
  8
0
370
               0
390
0
  6
Continuous
 62
              30
100
AcDbCircle
 10
938.01995900239172
 20
-1138.72534175023
 30
0.0
 40
12.000000000000462
100
AcDbArc
 50
121.97729517141198
 51
180.0
  0
ARC
  5
D0
100
AcDbEntity
  8
0
370
               0
390
0
  6
Continuous
 62
              30
100
AcDbCircle
 10
961.9167728715106
 20
-1177.0019817418433
 30
0.0
 40
57.123817238160477
100
AcDbArc
 50
60.67031945321343
 51
121.97729517141099
  0
ARC
  5
D1
100
AcDbEntity
  8
0
370
               0
390
0
  6
Continuous
 62
              30
100
AcDbCircle
 10
984.01995900239081
 20
-1137.6623319593846
 30
0.0
 40
12.000000000000909
100
AcDbArc
 50
0.0000000000065138
 51
60.67031945321331
  0
CIRCLE
  5
D2
100
AcDbEntity
  8
0
370
               0
390
0
  6
Continuous
 62
              30
100
AcDbCircle
 10
945.72424912368433
 20
-1218.8793980138953
 30
0.0
 40
4.0
  0
LWPOLYLINE
  5
D3
100
AcDbEntity
  8
0
370
               0
390
0
  6
Continuous
 62
              30
100
AcDbPolyline
 90
       29
 70
             128
 10
1060.7239423503456
 20
-1207.6861230760169
 42
0.0008252668075456
 10
1060.7237711454145
 20
-1207.5827976296212
 10
1060.7226602522828
 20
-1207.2469258947237
 42
0.0114167555287921
 10
1060.7024074355436
 20
-1206.4723197643116
 10
1060.6859669708228
 20
-1206.136880213611
 42
0.006498445045713
 10
1060.6347782102448
 20
-1205.3119026752445
 42
0.0064869163820571
 10
1060.5621839613211
 20
-1204.4885303451665
 42
0.0064781118256189
 10
1060.4682663240155
 20
-1203.6673130530517
 42
0.0064736952046226
 10
1060.3531100702314
 20
-1202.8488012777364
 42
0.0064736852405746
 10
1060.2167999339631
 20
-1202.0335454506105
 42
0.0064780865442803
 10
1060.0594206203318
 20
-1201.222096012985
 42
0.0064868857852667
 10
1059.8810568053727
 20
-1200.4150034121849
 42
0.0065000482814405
 10
1059.6817931429969
 20
-1199.6128181017389
 42
0.0065174504593045
 10
1059.4617144308677
 20
-1198.8160906532789
 42
0.0065419024950305
 10
1059.220903090732
 20
-1198.0253793445108
 42
0.0065346984722057
 10
1058.9594974067679
 20
-1197.2412363601416
 42
0.0065126024660165
 10
1058.677722493773
 20
-1196.4641838509428
 42
0.0064963836450974
 10
1058.3758281016424
 20
-1195.6947245114204
 42
0.0064843034303045
 10
1058.0540604144101
 20
-1194.9333578391725
 42
0.0064765955408901
 10
1057.7126658285865
 20
-1194.1805832822349
 42
0.0064732793900407
 10
1057.3518905988292
 20
-1193.4369001249877
 42
0.0064743715982095
 10
1056.9719811821467
 20
-1192.7028081249082
 42
0.006479874643084
 10
1056.5731839613027
 20
-1191.9788069580741
 42
0.0064897701695538
 10
1056.1557450770422
 20
-1191.2653958774326
 42
0.0065024371395855
 10
1055.7199129255932
 20
-1190.5630729192751
 10
1055.6642748205625
 20
-1190.475963931804
 42
0.0097930143109507
 10
1055.091193759718
 20
-1189.6163166393185
 10
1055.0322153365123
 20
-1189.531493946422
 42
0.000821216009405
 10
1054.9730878226164
 20
-1189.4467541122676
 42
0.000821216009405
  0
LINE
  5
D4
100
AcDbEntity
  8
0
370
               0
390
0
  6
Continuous
 62
              30
100
AcDbLine
 10
1010.8743040940262
 20
-1126.4663486396712
 30
0.0
 11
1054.9730836531617
 21
-1189.4467509006899
 31
0.0
  0
LINE
  5
D5
100
AcDbEntity
  8
0
370
               0
390
0
  6
Continuous
 62
              30
100
AcDbLine
 10
1060.7242762228943
 20
-1344.4659075354975
 30
0.0
 11
1060.7239483973481
 21
-1207.6861223792475
 31
0.0
  0
ARC
  5
D6
100
AcDbEntity
  8
0
370
               0
390
0
  6
Continuous
 62
              30
100
AcDbCircle
 10
862.52386673943465
 20
-1195.8969202607068
 30
0.0
 40
31.799999999984667
100
AcDbArc
 50
125.00681096086537
 51
180.00036747379318
  0
LINE
  5
D7
100
AcDbEntity
  8
0
370
               0
390
0
  6
Continuous
 62
              30
100
AcDbLine
 10
830.72386599392667
 20
-1195.8971208547991
 30
0.0
 11
830.72420872063412
 21
-1350.8785030459803
 31
0.0
  0
LINE
  5
D8
100
AcDbEntity
  8
0
370
               0
390
0
  6
Continuous
 62
              30
100
AcDbLine
 10
844.28103930563702
 20
-1169.8500550007266
 30
0.0
 11
927.31802455396428
 21
-1111.7261646902007
 31
0.0
  0
LINE
  5
D9
100
AcDbEntity
  8
0
370
               0
390
0
  6
Continuous
 62
              30
100
AcDbLine
 10
1004.7959714314438
 20
-1119.1087699150485
 30
0.0
 11
1004.7941683909394
 21
-1119.1069109951895
 31
0.0
  0
ENDBLK
  5
DA
100
AcDbEntity
  8
0
390
0
100
AcDbBlockEnd
  0
ENDSEC
  0
SECTION
  2
ENTITIES
  0
LINE
  5
DB
100
AcDbEntity
  8
一般
370
               0
390
0
  6
Continuous
 62
               2
100
AcDbLine
 10
2353.4858730004648
 20
2411.873502617203
 30
0.0
 11
5053.4858730004644
 21
2411.873502617203
 31
0.0
  0
LINE
  5
DC
100
AcDbEntity
  8
一般
370
               0
390
0
  6
Continuous
 62
               2
100
AcDbLine
 10
5053.4858730004644
 20
-1488.126497382797
 30
0.0
 11
2353.4858730004648
 21
-1488.126497382797
 31
0.0
  0
LINE
  5
DD
100
AcDbEntity
  8
一般
370
               0
390
0
  6
Continuous
 62
               2
100
AcDbLine
 10
2353.4858730004648
 20
-1488.126497382797
 30
0.0
 11
2353.4858730004648
 21
2411.873502617203
 31
0.0
  0
LINE
  5
DE
100
AcDbEntity
  8
一般
370
               0
390
0
  6
Continuous
 62
               2
100
AcDbLine
 10
5053.4858730004644
 20
2411.873502617203
 30
0.0
 11
5053.4858730004644
 21
-1488.126497382797
 31
0.0
  0
LINE
  5
DF
100
AcDbEntity
  8
一般
370
               0
390
0
  6
Continuous
 62
               2
100
AcDbLine
 10
3703.4858730004644
 20
-1150.626497382797
 30
0.0
 11
5053.4858730004644
 21
-1150.626497382797
 31
0.0
  0
LINE
  5
E0
100
AcDbEntity
  8
一般
370
               0
390
0
  6
Continuous
 62
               2
100
AcDbLine
 10
3703.4858730004644
 20
-1488.126497382797
 30
0.0
 11
3703.4858730004644
 21
-1150.626497382797
 31
0.0
  0
MTEXT
  5
E1
100
AcDbEntity
  8
一般
390
0
 62
               1
100
AcDbMText
 10
3716.9858730004644
 20
-1163.824280195297
 30
0.0
 40
24.432617187499996
 41
0.0
 71
               1
 72
               1
  1
{\fＭＳ ゴシック|b0|i0|c128|p0;\lNOTE}
 73
               1
 44
0.7828267384257843
  0
LINE
  5
E2
100
AcDbEntity
  8
一般
370
               0
390
0
  6
Continuous
 62
               1
100
AcDbLine
 10
4228.4858730004644
 20
-1488.126497382797
 30
0.0
 11
4228.4858730004644
 21
-1150.626497382797
 31
0.0
  0
MTEXT
  5
E3
100
AcDbEntity
  8
一般
390
0
 62
               1
100
AcDbMText
 10
4241.9858730004644
 20
-1163.824280195297
 30
0.0
 40
24.432617187499996
 41
0.0
 71
               1
 72
               1
  1
{\fＭＳ ゴシック|b0|i0|c128|p0;\lTITLE}
 73
               1
 44
0.7828267384257843
  0
LINE
  5
E4
100
AcDbEntity
  8
一般
370
               0
390
0
  6
Continuous
 62
               1
100
AcDbLine
 10
3703.4858730004644
 20
-1338.126497382797
 30
0.0
 11
5053.4858730004644
 21
-1338.126497382797
 31
0.0
  0
MTEXT
  5
E5
100
AcDbEntity
  8
一般
390
0
 62
               1
100
AcDbMText
 10
4429.4858730004644
 20
-1350.4794801952971
 30
0.0
 40
24.432617187499996
 41
0.0
 71
               1
 72
               1
  1
{\fＭＳ ゴシック|b0|i0|c128|p0;\lDRAWN}
 73
               1
 44
0.7828267384257843
  0
MTEXT
  5
E6
100
AcDbEntity
  8
一般
390
0
 62
               1
100
AcDbMText
 10
4054.4858730004644
 20
-1350.4794801952971
 30
0.0
 40
24.432617187499996
 41
0.0
 71
               1
 72
               1
  1
{\fＭＳ ゴシック|b0|i0|c128|p0;\lDATE}
 73
               1
 44
0.7828267384257843
  0
MTEXT
  5
E7
100
AcDbEntity
  8
一般
390
0
 62
               1
100
AcDbMText
 10
3904.4858730004644
 20
-1350.4794801952971
 30
0.0
 40
24.432617187499996
 41
0.0
 71
               1
 72
               1
  1
{\fＭＳ ゴシック|b0|i0|c128|p0;\lSCALE}
 73
               1
 44
0.7828267384257843
  0
MTEXT
  5
E8
100
AcDbEntity
  8
一般
390
0
 62
               1
100
AcDbMText
 10
4241.9858730004644
 20
-1350.4794801952971
 30
0.0
 40
24.432617187499996
 41
0.0
 71
               1
 72
               1
  1
{\fＭＳ ゴシック|b0|i0|c128|p0;\lDESIGN}
 73
               1
 44
0.7828267384257843
  0
MTEXT
  5
E9
100
AcDbEntity
  8
一般
390
0
 62
               1
100
AcDbMText
 10
4804.4858730004644
 20
-1350.4794801952971
 30
0.0
 40
24.432617187499996
 41
0.0
 71
               1
 72
               1
  1
{\fＭＳ ゴシック|b0|i0|c128|p0;\lDRAWING NO.}
 73
               1
 44
0.7828267384257843
  0
MTEXT
  5
EA
100
AcDbEntity
  8
一般
390
0
 62
               1
100
AcDbMText
 10
4616.9858730004644
 20
-1350.4794801952971
 30
0.0
 40
24.432617187499996
 41
0.0
 71
               1
 72
               1
  1
{\fＭＳ ゴシック|b0|i0|c128|p0;\lCHECK}
 73
               1
 44
0.7828267384257843
  0
LINE
  5
EB
100
AcDbEntity
  8
一般
370
               0
390
0
  6
Continuous
 62
               1
100
AcDbLine
 10
3919.1108730004644
 20
-1469.376497382797
 30
0.0
 11
3975.3608730004644
 21
-1413.126497382797
 31
0.0
  0
MTEXT
  5
EC
100
AcDbEntity
  8
一般
390
0
 62
               1
100
AcDbMText
 10
3909.7358730004644
 20
-1405.3280301952968
 30
0.0
 40
24.432617187499996
 41
0.0
 71
               1
 72
               1
  1
{\fＭＳ ゴシック|b0|i0|c128|p0;\l1}
 73
               1
 44
0.7828267384257843
  0
LINE
  5
ED
100
AcDbEntity
  8
一般
370
               0
390
0
  6
Continuous
 62
               1
100
AcDbLine
 10
3890.9858730004644
 20
-1488.126497382797
 30
0.0
 11
3890.9858730004644
 21
-1338.126497382797
 31
0.0
  0
LINE
  5
EE
100
AcDbEntity
  8
一般
370
               0
390
0
  6
Continuous
 62
               1
100
AcDbLine
 10
4040.9858730004644
 20
-1488.126497382797
 30
0.0
 11
4040.9858730004644
 21
-1338.126497382797
 31
0.0
  0
LINE
  5
EF
100
AcDbEntity
  8
一般
370
               0
390
0
  6
Continuous
 62
               1
100
AcDbLine
 10
4415.9858730004644
 20
-1338.126497382797
 30
0.0
 11
4415.9858730004644
 21
-1488.126497382797
 31
0.0
  0
LINE
  5
F0
100
AcDbEntity
  8
一般
370
               0
390
0
  6
Continuous
 62
               1
100
AcDbLine
 10
4790.9858730004644
 20
-1338.126497382797
 30
0.0
 11
4790.9858730004644
 21
-1488.126497382797
 31
0.0
  0
LINE
  5
F1
100
AcDbEntity
  8
一般
370
               0
390
0
  6
Continuous
 62
               1
100
AcDbLine
 10
4603.4858730004644
 20
-1488.126497382797
 30
0.0
 11
4603.4858730004644
 21
-1338.126497382797
 31
0.0
  0
MTEXT
  5
F2
100
AcDbEntity
  8
一般
390
0
 62
               1
100
AcDbMText
 10
4073.8339730004645
 20
-1410.7391801952976
 30
0.0
 40
24.432617187499996
 41
0.0
 71
               1
 72
               1
  1
{\fＭＳ ゴシック|b0|i0|c128|p0;\l2017.01}
 73
               1
 44
0.7828267384257843
  0
MTEXT
  5
F3
100
AcDbEntity
  8
一般
390
0
 62
               1
100
AcDbMText
 10
3965.9858730004644
 20
-1433.4530301952968
 30
0.0
 40
24.432617187499996
 41
0.0
 71
               1
 72
               1
  1
{\fＭＳ ゴシック|b0|i0|c128|p0;\l15}
 73
               1
 44
0.7828267384257843
  0
MTEXT
  5
F4
100
AcDbEntity
  8
一般
390
0
 62
               1
100
AcDbMText
 10
4448.5730231659836
 20
-1400.7391801952976
 30
0.0
 40
24.432617187499996
 41
0.0
 71
               1
 72
               1
  1
{\fＭＳ ゴシック|b0|i0|c128|p0;\lKojima\P Shohei}
 73
               1
 44
0.7828267384257843
  0
MTEXT
  5
F5
100
AcDbEntity
  8
一般
390
0
 62
               1
100
AcDbMText
 10
3761.7358730004648
 20
-1409.6212630077971
 30
0.0
 40
48.865234374999993
 41
0.0
 71
               1
 72
               1
  1
{\fＭＳ ゴシック|b0|i0|c128|p0;\lA4}
 73
               1
 44
0.7828267384257843
  0
MTEXT
  5
F6
100
AcDbEntity
  8
一般
390
0
 62
               1
100
AcDbMText
 10
3717.8608730004644
 20
-1352.9857051952972
 30
0.0
 40
24.432617187499996
 41
0.0
 71
               1
 72
               1
  1
{\fＭＳ ゴシック|b0|i0|c128|p0;\lPAPER SIZE}
 73
               1
 44
0.7828267384257843
  0
MTEXT
  5
F7
100
AcDbEntity
  8
一般
390
0
 62
               1
100
AcDbMText
 10
2394.8804018538171
 20
-1531.5677636558576
 30
0.0
 40
52.937337239583329
 41
0.0
 71
               1
 72
               1
  1
{\fＭＳ ゴシック|b0|i0|c128|p0;\lHibino-Intersound Corporation}
 73
               1
 44
0.7828267384257843
  0
MTEXT
  5
F8
100
AcDbEntity
  8
一般
390
0
 62
               1
100
AcDbMText
 10
4006.1950182036726
 20
-1526.3014398565165
 30
0.0
 40
52.937337239583329
 41
0.0
 71
               1
 72
               1
  1
{\fＭＳ ゴシック|b0|i0|c128|p0;\lヒビノインタ ーサウンド株式会社}
 73
               1
 44
0.7828267384257843
  0
MTEXT
  5
F9
100
AcDbEntity
  8
0
390
0
 62
               1
100
AcDbMText
 10
2610.2053538944047
 20
-934.39385065017893
 30
0.0
 40
48.865234375000092
 41
0.0
 71
               1
 72
               1
  1
{\fＭＳ ゴシック|b0|i0|c128|p0;\l(単位：mm）}
 73
               1
 44
0.7828267384257843
  0
MTEXT
  5
FA
100
AcDbEntity
  8
0
390
0
 62
               1
100
AcDbMText
 10
4329.3987228349442
 20
-1209.144402070297
 30
0.0
 40
40.721028645833343
 41
590.90278868393318
 71
               1
 72
               1
  1
{\fＭＳ ゴシック|b0|i0|c128|p0;\lCODA AUDIO \P    HOPS8i-L/R}
 73
               1
 44
0.7828267384257843
  0
MTEXT
  5
FB
100
AcDbEntity
  8
一般
390
0
 62
               1
100
AcDbMText
 10
2499.4969344336846
 20
-1405.0065288476449
 30
0.0
 40
24.432617187500004
 41
0.0
 71
               1
 72
               1
  1
{\fＭＳ ゴシック|b0|i0|c128|p0;\l仕様および外観は予告なく変更されることがありますので、ご了承ください。}
 73
               1
 44
0.7828267384257843
  0
MTEXT
  5
FC
100
AcDbEntity
  8
一般
390
0
 62
               1
100
AcDbMText
 10
2609.8015115188778
 20
2310.1532892435134
 30
0.0
 40
36.64892578125
 41
0.0
 71
               1
 72
               1
  1
{\fＭＳ ゴシック|b0|i0|c128|p0;\l仕様}
 73
               1
 44
0.7828267384257843
  0
LINE
  5
FD
100
AcDbEntity
  8
一般
370
               0
390
0
  6
Continuous
 62
               1
100
AcDbLine
 10
2591.0515115188778
 20
2252.6053134622634
 30
0.0
 11
4803.5515115188773
 21
2252.6053134622634
 31
0.0
  0
LINE
  5
FE
100
AcDbEntity
  8
一般
370
               0
390
0
  6
Continuous
 62
               1
100
AcDbLine
 10
2591.0515115188778
 20
2196.3553134622634
 30
0.0
 11
4803.5515115188773
 21
2196.3553134622634
 31
0.0
  0
LINE
  5
FF
100
AcDbEntity
  8
一般
370
               0
390
0
  6
Continuous
 62
               1
100
AcDbLine
 10
2591.0515115188778
 20
2083.8553134622634
 30
0.0
 11
4803.5515115188773
 21
2083.8553134622634
 31
0.0
  0
LINE
  5
100
100
AcDbEntity
  8
一般
370
               0
390
0
  6
Continuous
 62
               1
100
AcDbLine
 10
3078.5515115188778
 20
2140.1053134622634
 30
0.0
 11
4803.5515115188773
 21
2140.1053134622634
 31
0.0
  0
LINE
  5
101
100
AcDbEntity
  8
一般
370
               0
390
0
  6
Continuous
 62
               1
100
AcDbLine
 10
2591.0515115188778
 20
2252.6053134622634
 30
0.0
 11
2591.0515115188778
 21
1240.1053134622634
 31
0.0
  0
LINE
  5
102
100
AcDbEntity
  8
一般
370
               0
390
0
  6
Continuous
 62
               1
100
AcDbLine
 10
3078.5515115188778
 20
2252.6053134622634
 30
0.0
 11
3078.5515115188778
 21
1240.1053134622634
 31
0.0
  0
LINE
  5
103
100
AcDbEntity
  8
一般
370
               0
390
0
  6
Continuous
 62
               1
100
AcDbLine
 10
4803.5515115188773
 20
2252.6053134622634
 30
0.0
 11
4803.5515115188773
 21
1240.1053134622634
 31
0.0
  0
LINE
  5
104
100
AcDbEntity
  8
一般
370
               0
390
0
  6
Continuous
 62
               1
100
AcDbLine
 10
2591.0515115188778
 20
2027.6053134622634
 30
0.0
 11
4803.5515115188773
 21
2027.6053134622634
 31
0.0
  0
LINE
  5
105
100
AcDbEntity
  8
一般
370
               0
390
0
  6
Continuous
 62
               1
100
AcDbLine
 10
2591.0515115188778
 20
1971.3553134622634
 30
0.0
 11
4803.5515115188773
 21
1971.3553134622634
 31
0.0
  0
LINE
  5
106
100
AcDbEntity
  8
一般
370
               0
390
0
  6
Continuous
 62
               1
100
AcDbLine
 10
2591.0515115188778
 20
1915.1053134622634
 30
0.0
 11
4803.5515115188773
 21
1915.1053134622634
 31
0.0
  0
LINE
  5
107
100
AcDbEntity
  8
一般
370
               0
390
0
  6
Continuous
 62
               1
100
AcDbLine
 10
2591.0515115188778
 20
1858.8553134622634
 30
0.0
 11
4803.5515115188773
 21
1858.8553134622634
 31
0.0
  0
LINE
  5
108
100
AcDbEntity
  8
一般
370
               0
390
0
  6
Continuous
 62
               1
100
AcDbLine
 10
3078.5515115188778
 20
1802.6053134622634
 30
0.0
 11
4803.5515115188773
 21
1802.6053134622634
 31
0.0
  0
LINE
  5
109
100
AcDbEntity
  8
一般
370
               0
390
0
  6
Continuous
 62
               1
100
AcDbLine
 10
3078.5515115188778
 20
1746.3553134622634
 30
0.0
 11
4803.5515115188773
 21
1746.3553134622634
 31
0.0
  0
LINE
  5
10A
100
AcDbEntity
  8
一般
370
               0
390
0
  6
Continuous
 62
               1
100
AcDbLine
 10
3078.5515115188778
 20
1690.1053134622634
 30
0.0
 11
4803.5515115188773
 21
1690.1053134622634
 31
0.0
  0
LINE
  5
10B
100
AcDbEntity
  8
一般
370
               0
390
0
  6
Continuous
 62
               1
100
AcDbLine
 10
2591.0515115188778
 20
1633.8553134622634
 30
0.0
 11
4803.5515115188773
 21
1633.8553134622634
 31
0.0
  0
LINE
  5
10C
100
AcDbEntity
  8
一般
370
               0
390
0
  6
Continuous
 62
               1
100
AcDbLine
 10
2591.0515115188778
 20
1577.6053134622634
 30
0.0
 11
4803.5515115188773
 21
1577.6053134622634
 31
0.0
  0
LINE
  5
10D
100
AcDbEntity
  8
一般
370
               0
390
0
  6
Continuous
 62
               1
100
AcDbLine
 10
2591.0515115188778
 20
1521.3553134622634
 30
0.0
 11
4803.5515115188773
 21
1521.3553134622634
 31
0.0
  0
MTEXT
  5
10E
100
AcDbEntity
  8
一般
390
0
 62
               1
100
AcDbMText
 10
2602.2981092582718
 20
1507.8226318553493
 30
0.0
 40
28.504720052083332
 41
0.0
 71
               1
 72
               1
  1
{\fＭＳ ゴシック|b0|i0|c128|p0;\lエンクロージャー}
 73
               1
 44
0.7828267384257843
  0
MTEXT
  5
10F
100
AcDbEntity
  8
一般
390
0
 62
               1
100
AcDbMText
 10
3092.5030442855109
 20
1393.3997198265843
 30
0.0
 40
28.504720052083332
 41
0.0
 71
               1
 72
               1
  1
{\fＭＳ ゴシック|b0|i0|c128|p0;\l230(W)×540(H)×278(D)mm}
 73
               1
 44
0.7828267384257843
  0
MTEXT
  5
110
100
AcDbEntity
  8
一般
390
0
 62
               1
100
AcDbMText
 10
3091.8511822115402
 20
1451.5705135511598
 30
0.0
 40
28.504720052083332
 41
0.0
 71
               1
 72
               1
  1
{\fＭＳ ゴシック|b0|i0|c128|p0;\lポリウレア樹脂塗装　黒色}
 73
               1
 44
0.7828267384257843
  0
MTEXT
  5
111
100
AcDbEntity
  8
一般
390
0
 62
               1
100
AcDbMText
 10
2604.4018713488772
 20
1453.2059869106897
 30
0.0
 40
28.504720052083332
 41
0.0
 71
               1
 72
               1
  1
{\fＭＳ ゴシック|b0|i0|c128|p0;\l仕上げ}
 73
               1
 44
0.7828267384257843
  0
MTEXT
  5
112
100
AcDbEntity
  8
一般
390
0
 62
               1
100
AcDbMText
 10
2603.9775448243367
 20
1621.2402806878613
 30
0.0
 40
28.504720052083332
 41
0.0
 71
               1
 72
               1
  1
{\fＭＳ ゴシック|b0|i0|c128|p0;\l入力コネクタ ー}
 73
               1
 44
0.7828267384257843
  0
MTEXT
  5
113
100
AcDbEntity
  8
一般
390
0
 62
               1
100
AcDbMText
 10
3092.1617029986542
 20
1618.9964625715879
 30
0.0
 40
28.504720052083332
 41
0.0
 71
               1
 72
               1
  1
{\fＭＳ ゴシック|b0|i0|c128|p0;\l2×Neutrik NL4MP}
 73
               1
 44
0.7828267384257843
  0
MTEXT
  5
114
100
AcDbEntity
  8
一般
390
0
 62
               1
100
AcDbMText
 10
2604.3127876279673
 20
1564.0090963744983
 30
0.0
 40
28.504720052083332
 41
0.0
 71
               1
 72
               1
  1
{\fＭＳ ゴシック|b0|i0|c128|p0;\l公称インピーダンス}
 73
               1
 44
0.7828267384257843
  0
MTEXT
  5
115
100
AcDbEntity
  8
一般
390
0
 62
               1
100
AcDbMText
 10
3091.8550159000556
 20
1563.6221135393362
 30
0.0
 40
28.504720052083332
 41
0.0
 71
               1
 72
               1
  1
{\fＭＳ ゴシック|b0|i0|c128|p0;\l8Ω}
 73
               1
 44
0.7828267384257843
  0
MTEXT
  5
116
100
AcDbEntity
  8
一般
390
0
 62
               1
100
AcDbMText
 10
2603.7440695618102
 20
2183.5305662764604
 30
0.0
 40
28.504720052083332
 41
0.0
 71
               1
 72
               1
  1
{\fＭＳ ゴシック|b0|i0|c128|p0;\l形式}
 73
               1
 44
0.7828267384257843
  0
MTEXT
  5
117
100
AcDbEntity
  8
一般
390
0
 62
               1
100
AcDbMText
 10
3092.0693467005626
 20
2181.1531259971534
 30
0.0
 40
28.504720052083332
 41
0.0
 71
               1
 72
               1
  1
{\fＭＳ ゴシック|b0|i0|c128|p0;\l2-Way フルレンジ・スピーカーシステム}
 73
               1
 44
0.7828267384257843
  0
MTEXT
  5
118
100
AcDbEntity
  8
一般
390
0
 62
               1
100
AcDbMText
 10
2604.204449281146
 20
2070.2927300268029
 30
0.0
 40
28.504720052083332
 41
0.0
 71
               1
 72
               1
  1
{\fＭＳ ゴシック|b0|i0|c128|p0;\l周波数特性}
 73
               1
 44
0.7828267384257843
  0
MTEXT
  5
119
100
AcDbEntity
  8
一般
390
0
 62
               1
100
AcDbMText
 10
2603.5649684313798
 20
2013.8075992759013
 30
0.0
 40
28.504720052083332
 41
0.0
 71
               1
 72
               1
  1
{\fＭＳ ゴシック|b0|i0|c128|p0;\l許容入力(AES/ピーク）}
 73
               1
 44
0.7828267384257843
  0
MTEXT
  5
11A
100
AcDbEntity
  8
一般
390
0
 62
               1
100
AcDbMText
 10
2604.0574626995954
 20
1959.0318436654734
 30
0.0
 40
28.504720052083332
 41
0.0
 71
               1
 72
               1
  1
{\fＭＳ ゴシック|b0|i0|c128|p0;\l感度}
 73
               1
 44
0.7828267384257843
  0
MTEXT
  5
11B
100
AcDbEntity
  8
一般
390
0
 62
               1
100
AcDbMText
 10
2604.6016642788586
 20
1902.5986599790976
 30
0.0
 40
28.504720052083332
 41
0.0
 71
               1
 72
               1
  1
{\fＭＳ ゴシック|b0|i0|c128|p0;\l最大音圧}
 73
               1
 44
0.7828267384257843
  0
MTEXT
  5
11C
100
AcDbEntity
  8
一般
390
0
 62
               1
100
AcDbMText
 10
2601.69060528196
 20
1845.9273768294001
 30
0.0
 40
28.504720052083332
 41
0.0
 71
               1
 72
               1
  1
{\fＭＳ ゴシック|b0|i0|c128|p0;\lカバレージ角}
 73
               1
 44
0.7828267384257843
  0
MTEXT
  5
11D
100
AcDbEntity
  8
一般
390
0
 62
               1
100
AcDbMText
 10
2592.9566254918477
 20
1792.5898983363663
 30
0.0
 40
28.504720052083332
 41
0.0
 71
               1
 72
               1
  1
{\fＭＳ ゴシック|b0|i0|c128|p0;\lドライバー構成}
 73
               1
 44
0.7828267384257843
  0
MTEXT
  5
11E
100
AcDbEntity
  8
一般
390
0
 62
               1
100
AcDbMText
 10
2602.3832716456577
 20
1676.0980844675341
 30
0.0
 40
28.504720052083332
 41
0.0
 71
               1
 72
               1
  1
{\fＭＳ ゴシック|b0|i0|c128|p0;\lクロスオーバー}
 73
               1
 44
0.7828267384257843
  0
MTEXT
  5
11F
100
AcDbEntity
  8
一般
390
0
 62
               1
100
AcDbMText
 10
2603.0665405268151
 20
1395.3447357956984
 30
0.0
 40
28.504720052083332
 41
0.0
 71
               1
 72
               1
  1
{\fＭＳ ゴシック|b0|i0|c128|p0;\l寸法}
 73
               1
 44
0.7828267384257843
  0
MTEXT
  5
120
100
AcDbEntity
  8
一般
390
0
 62
               1
100
AcDbMText
 10
3091.623394224534
 20
1340.3597315792772
 30
0.0
 40
28.504720052083332
 41
0.0
 71
               1
 72
               1
  1
{\fＭＳ ゴシック|b0|i0|c128|p0;\l約12kg}
 73
               1
 44
0.7828267384257843
  0
MTEXT
  5
121
100
AcDbEntity
  8
一般
390
0
 62
               1
100
AcDbMText
 10
2603.7111646293729
 20
1339.6612414588426
 30
0.0
 40
28.504720052083332
 41
0.0
 71
               1
 72
               1
  1
{\fＭＳ ゴシック|b0|i0|c128|p0;\l重量}
 73
               1
 44
0.7828267384257843
  0
MTEXT
  5
122
100
AcDbEntity
  8
一般
390
0
 62
               1
100
AcDbMText
 10
3092.1881738650304
 20
2068.0469315697992
 30
0.0
 40
28.504720052083332
 41
0.0
 71
               1
 72
               1
  1
{\fＭＳ ゴシック|b0|i0|c128|p0;\l60Hz～20kHz(-6dB)}
 73
               1
 44
0.7828267384257843
  0
MTEXT
  5
123
100
AcDbEntity
  8
一般
390
0
 62
               1
100
AcDbMText
 10
3091.5803911374928
 20
2012.3474179505629
 30
0.0
 40
28.504720052083332
 41
0.0
 71
               1
 72
               1
  1
{\fＭＳ ゴシック|b0|i0|c128|p0;\l450W/1800W}
 73
               1
 44
0.7828267384257843
  0
MTEXT
  5
124
100
AcDbEntity
  8
一般
390
0
 62
               1
100
AcDbMText
 10
3092.009985757993
 20
1956.5295516224937
 30
0.0
 40
28.504720052083332
 41
0.0
 71
               1
 72
               1
  1
{\fＭＳ ゴシック|b0|i0|c128|p0;\l98dB}
 73
               1
 44
0.7828267384257843
  0
MTEXT
  5
125
100
AcDbEntity
  8
一般
390
0
 62
               1
100
AcDbMText
 10
3090.2058123433076
 20
1900.5195822562464
 30
0.0
 40
28.504720052083332
 41
0.0
 71
               1
 72
               1
  1
{\fＭＳ ゴシック|b0|i0|c128|p0;\l131dB}
 73
               1
 44
0.7828267384257843
  0
MTEXT
  5
126
100
AcDbEntity
  8
一般
390
0
 62
               1
100
AcDbMText
 10
3092.274105265928
 20
1842.9377557758262
 30
0.0
 40
28.504720052083332
 41
0.0
 71
               1
 72
               1
  1
{\fＭＳ ゴシック|b0|i0|c128|p0;\l100°円錐}
 73
               1
 44
0.7828267384257843
  0
MTEXT
  5
127
100
AcDbEntity
  8
一般
390
0
 62
               1
100
AcDbMText
 10
3091.8884518856635
 20
1789.8508258640927
 30
0.0
 40
28.504720052083332
 41
0.0
 71
               1
 72
               1
  1
{\fＭＳ ゴシック|b0|i0|c128|p0;\l低域：1×8インチユニット、2インチボイスコイル}
 73
               1
 44
0.7828267384257843
  0
MTEXT
  5
128
100
AcDbEntity
  8
一般
390
0
 62
               1
100
AcDbMText
 10
3091.7080071115574
 20
1734.0017835034146
 30
0.0
 40
28.504720052083332
 41
0.0
 71
               1
 72
               1
  1
{\fＭＳ ゴシック|b0|i0|c128|p0;\l低高域：8インチ、1.75インチコアキシャルドライバー2\fＭＳ ゴシック|b0|i0|c128|p0;\lインチ、1.75インチ\fＭＳ ゴシック|b0|i0|c128|p0;\lボイスコイル }
 73
               1
 44
0.7828267384257843
  0
MTEXT
  5
129
100
AcDbEntity
  8
一般
390
0
 62
               1
100
AcDbMText
 10
3091.688057586885
 20
1676.0420312633191
 30
0.0
 40
28.504720052083332
 41
0.0
 71
               1
 72
               1
  1
{\fＭＳ ゴシック|b0|i0|c128|p0;\l1.5kHz（パッシブ）}
 73
               1
 44
0.7828267384257843
  0
MTEXT
  5
12A
100
AcDbEntity
  8
一般
390
0
 62
               1
100
AcDbMText
 10
3091.2044969409139
 20
1508.7070058388485
 30
0.0
 40
28.504720052083332
 41
0.0
 71
               1
 72
               1
  1
{\fＭＳ ゴシック|b0|i0|c128|p0;\l合板}
 73
               1
 44
0.7828267384257843
  0
LINE
  5
12B
100
AcDbEntity
  8
一般
370
               0
390
0
  6
Continuous
 62
               1
100
AcDbLine
 10
2591.0515115188778
 20
1465.1053134622634
 30
0.0
 11
4803.5515115188773
 21
1465.1053134622634
 31
0.0
  0
LINE
  5
12C
100
AcDbEntity
  8
一般
370
               0
390
0
  6
Continuous
 62
               1
100
AcDbLine
 10
2591.0515115188778
 20
1408.8553134622634
 30
0.0
 11
4803.5515115188773
 21
1408.8553134622634
 31
0.0
  0
LINE
  5
12D
100
AcDbEntity
  8
一般
370
               0
390
0
  6
Continuous
 62
               1
100
AcDbLine
 10
2591.0515115188778
 20
1352.6053134622634
 30
0.0
 11
4803.5515115188773
 21
1352.6053134622634
 31
0.0
  0
MTEXT
  5
12E
100
AcDbEntity
  8
一般
390
0
 62
               1
100
AcDbMText
 10
3393.1655746790861
 20
2235.7969167318543
 30
0.0
 40
28.504720052083332
 41
0.0
 71
               1
 72
               1
  1
{\fＭＳ ゴシック|b0|i0|c128|p0;\lHOPS8i-L}
 73
               1
 44
0.7828267384257843
  0
LINE
  5
12F
100
AcDbEntity
  8
一般
370
               0
390
0
  6
Continuous
 62
               1
100
AcDbLine
 10
2591.0515115188778
 20
1296.3553134622634
 30
0.0
 11
4803.5515115188773
 21
1296.3553134622634
 31
0.0
  0
MTEXT
  5
130
100
AcDbEntity
  8
一般
390
0
 62
               1
100
AcDbMText
 10
4043.1655746790857
 20
2237.5970408460857
 30
0.0
 40
28.504720052083332
 41
0.0
 71
               1
 72
               1
  1
{\fＭＳ ゴシック|b0|i0|c128|p0;\lHOPS8i-R}
 73
               1
 44
0.7828267384257843
  0
LINE
  5
131
100
AcDbEntity
  8
一般
370
               0
390
0
  6
Continuous
 62
               1
100
AcDbLine
 10
3928.5515115188778
 20
2083.8553134622634
 30
0.0
 11
3928.5515115188778
 21
2140.1053134622634
 31
0.0
  0
LINE
  5
132
100
AcDbEntity
  8
一般
370
               0
390
0
  6
Continuous
 62
               1
100
AcDbLine
 10
3928.5515115188778
 20
2196.3553134622634
 30
0.0
 11
3928.5515115188778
 21
2252.6053134622634
 31
0.0
  0
MTEXT
  5
133
100
AcDbEntity
  8
一般
390
0
 62
               1
100
AcDbMText
 10
3091.9656364419011
 20
2125.9645014806001
 30
0.0
 40
28.504720052083332
 41
0.0
 71
               1
 72
               1
  1
{\fＭＳ ゴシック|b0|i0|c128|p0;\lL仕様}
 73
               1
 44
0.7828267384257843
  0
MTEXT
  5
134
100
AcDbEntity
  8
一般
390
0
 62
               1
100
AcDbMText
 10
3941.8792252427697
 20
2126.3029121527129
 30
0.0
 40
28.504720052083332
 41
0.0
 71
               1
 72
               1
  1
{\fＭＳ ゴシック|b0|i0|c128|p0;\lR仕様}
 73
               1
 44
0.7828267384257843
  0
LINE
  5
135
100
AcDbEntity
  8
一般
370
               0
390
0
  6
Continuous
 62
               1
100
AcDbLine
 10
3078.5515115188778
 20
1690.1053134622634
 30
0.0
 11
2591.0515115188778
 21
1690.1053134622634
 31
0.0
  0
LINE
  5
136
100
AcDbEntity
  8
一般
370
               0
390
0
  6
Continuous
 62
               1
100
AcDbLine
 10
3078.5515115188778
 20
1802.6053134622634
 30
0.0
 11
2591.0515115188778
 21
1802.6053134622634
 31
0.0
  0
MTEXT
  5
137
100
AcDbEntity
  8
一般
390
0
 62
               1
100
AcDbMText
 10
3999.8933958630432
 20
-297.6777417917707
 30
0.0
 40
40.721028645833343
 41
0.0
 71
               1
 72
               1
  1
{\fＭＳ ゴシック|b0|i0|c128|p0;\l寸法図はHOPS8T-R(右側仕様）}
 73
               1
 44
0.7828267384257843
  0
LINE
  5
138
100
AcDbEntity
  8
一般
370
               0
390
0
  6
Continuous
 62
               1
100
AcDbLine
 10
3955.5684970460679
 20
-358.52871628379228
 30
0.0
 11
4660.151830379401
 21
-358.52871628379228
 31
0.0
  0
LINE
  5
139
100
AcDbEntity
  8
一般
370
               0
390
0
  6
Continuous
 62
               1
100
AcDbLine
 10
2591.0515115188778
 20
1240.1053134622634
 30
0.0
 11
4803.5515115188773
 21
1240.1053134622634
 31
0.0
  0
MTEXT
  5
13A
100
AcDbEntity
  8
一般
390
0
 62
               1
100
AcDbMText
 10
2604.3015115188778
 20
1280.0042001810134
 30
0.0
 40
28.504720052083332
 41
0.0
 71
               1
 72
               1
  1
{\fＭＳ ゴシック|b0|i0|c128|p0;\lその他}
 73
               1
 44
0.7828267384257843
  0
MTEXT
  5
13B
100
AcDbEntity
  8
一般
390
0
 62
               1
100
AcDbMText
 10
3091.3015115188778
 20
1278.3542001810133
 30
0.0
 40
28.504720052083332
 41
0.0
 71
               1
 72
               1
  1
{\fＭＳ ゴシック|b0|i0|c128|p0;\lHOP8i-L（L仕様）の形状はRの対称形状となります。　参考図（天面）参照願います。}
 73
               1
 44
0.7828267384257843
  0
POLYLINE
  5
13C
100
AcDbEntity
  8
Layer1
370
               0
390
0
  6
Continuous
 62
               1
100
AcDb2dPolyline
 66
               1
 10
0.0
 20
0.0
 30
0.0
 70
               1
 75
               5
  0
VERTEX
  5
13D
100
AcDbEntity
  8
Layer1
370
               0
390
0
  6
Continuous
 62
               1
100
AcDbVertex
100
AcDb2dVertex
 10
4300.0
 20
-589.30780412189063
 30
0.0
  0
VERTEX
  5
13E
100
AcDbEntity
  8
Layer1
370
               0
390
0
  6
Continuous
 62
               1
100
AcDbVertex
100
AcDb2dVertex
 10
5025.0
 20
-589.30780412189063
 30
0.0
  0
VERTEX
  5
13F
100
AcDbEntity
  8
Layer1
370
               0
390
0
  6
Continuous
 62
               1
100
AcDbVertex
100
AcDb2dVertex
 10
5025.0
 20
-1039.3078041218905
 30
0.0
  0
VERTEX
  5
140
100
AcDbEntity
  8
Layer1
370
               0
390
0
  6
Continuous
 62
               1
100
AcDbVertex
100
AcDb2dVertex
 10
4300.0
 20
-1039.3078041218905
 30
0.0
  0
SEQEND
  5
141
100
AcDbEntity
  8
Layer1
370
               0
390
0
  6
Continuous
 62
               1
  0
MTEXT
  5
143
100
AcDbEntity
  8
Layer1
390
0
 62
               1
100
AcDbMText
 10
4308.6573990281895
 20
-610.52262358481551
 30
0.0
 40
48.865234375000092
 41
0.0
 71
               1
 72
               1
  1
{\fＭＳ ゴシック|b0|i0|c128|p0;\l参考（天面）：HOPS8i-L}
 73
               1
 44
0.7828267384257843
  0
LINE
  5
144
100
AcDbEntity
  8
0
370
               0
390
0
  6
Continuous
 62
              30
100
AcDbLine
 10
2788.5615708922869
 20
94.364034277945393
 30
0.0
 11
2788.5615708922869
 21
80.36403524279558
 31
0.0
  0
LINE
  5
145
100
AcDbEntity
  8
0
370
               0
390
0
  6
Continuous
 62
              30
100
AcDbLine
 10
2788.5615708922869
 20
620.36404924988722
 30
0.0
 11
2788.5615708922869
 21
606.36405068039869
 31
0.0
  0
LINE
  5
146
100
AcDbEntity
  8
0
370
               0
390
0
  6
Continuous
 62
              30
100
AcDbLine
 10
2792.5615789985186
 20
95.364034441858166
 30
0.0
 11
2792.5615789985186
 21
94.364034277945393
 31
0.0
  0
LINE
  5
147
100
AcDbEntity
  8
0
370
               0
390
0
  6
Continuous
 62
              30
100
AcDbLine
 10
2792.5615789985186
 20
606.36405068039869
 30
0.0
 11
2792.5615789985186
 21
605.36406355500196
 31
0.0
  0
LINE
  5
148
100
AcDbEntity
  8
0
370
               0
390
0
  6
Continuous
 62
              30
100
AcDbLine
 10
3066.5603275095946
 20
80.36403524279558
 30
0.0
 11
3066.5603275095946
 21
98.366715339083385
 31
0.0
  0
LINE
  5
149
100
AcDbEntity
  8
0
370
               0
390
0
  6
Continuous
 62
              30
100
AcDbLine
 10
3066.5603275095946
 20
602.36136036515211
 30
0.0
 11
3066.5603275095946
 21
620.36404924988722
 31
0.0
  0
LINE
  5
14A
100
AcDbEntity
  8
0
370
               0
390
0
  6
Continuous
 62
              30
100
AcDbLine
 10
2790.0615813827044
 20
115.36403539180719
 30
0.0
 11
2790.0615813827044
 21
95.364034441858166
 31
0.0
  0
LINE
  5
14B
100
AcDbEntity
  8
0
370
               0
390
0
  6
Continuous
 62
              30
100
AcDbLine
 10
2790.0615813827044
 20
605.36406355500196
 30
0.0
 11
2790.0615813827044
 21
155.36403449773763
 31
0.0
  0
LINE
  5
14C
100
AcDbEntity
  8
0
370
               0
390
0
  6
Continuous
 62
              30
100
AcDbLine
 10
2971.5438442921168
 20
98.364034467935198
 30
0.0
 11
2971.5438442921168
 21
89.364034855365389
 31
0.0
  0
LINE
  5
14D
100
AcDbEntity
  8
0
370
               0
390
0
  6
Continuous
 62
              30
100
AcDbLine
 10
2971.5438442921168
 20
98.364034467935198
 30
0.0
 11
2971.5438442921168
 21
602.364042574167
 31
0.0
  0
LINE
  5
14E
100
AcDbEntity
  8
0
370
               0
390
0
  6
Continuous
 62
              30
100
AcDbLine
 10
2971.5438442921168
 20
602.364042574167
 30
0.0
 11
2971.5438442921168
 21
611.36404591202711
 31
0.0
  0
LINE
  5
14F
100
AcDbEntity
  8
0
370
               0
390
0
  6
Continuous
 62
              30
100
AcDbLine
 10
2997.5909101461893
 20
611.36404591202711
 30
0.0
 11
2971.5438442921168
 21
611.36404591202711
 31
0.0
  0
LINE
  5
150
100
AcDbEntity
  8
0
370
               0
390
0
  6
Continuous
 62
              30
100
AcDbLine
 10
2997.5909101461893
 20
89.364034855365389
 30
0.0
 11
2997.5909101461893
 21
611.36404591202711
 31
0.0
  0
LINE
  5
151
100
AcDbEntity
  8
0
370
               0
390
0
  6
Continuous
 62
              30
100
AcDbLine
 10
2971.5438442921168
 20
89.364034855365389
 30
0.0
 11
2997.5909101461893
 21
89.364034855365389
 31
0.0
  0
LINE
  5
152
100
AcDbEntity
  8
0
370
               0
390
0
  6
Continuous
 62
              30
100
AcDbLine
 10
2816.5624621009356
 20
89.364034855365389
 30
0.0
 11
2971.5438442921168
 21
89.364034855365389
 31
0.0
  0
LINE
  5
153
100
AcDbEntity
  8
0
370
               0
390
0
  6
Continuous
 62
              30
100
AcDbLine
 10
2816.5624621009356
 20
94.364034277945393
 30
0.0
 11
2816.5624621009356
 21
89.364034855365389
 31
0.0
  0
LINE
  5
154
100
AcDbEntity
  8
0
370
               0
390
0
  6
Continuous
 62
              30
100
AcDbLine
 10
2838.5624172782427
 20
94.364034277945393
 30
0.0
 11
2816.5624621009356
 21
94.364034277945393
 31
0.0
  0
LINE
  5
155
100
AcDbEntity
  8
0
370
               0
390
0
  6
Continuous
 62
              30
100
AcDbLine
 10
2838.5624172782427
 20
98.364034467935198
 30
0.0
 11
2838.5624172782427
 21
94.364034277945393
 31
0.0
  0
LINE
  5
156
100
AcDbEntity
  8
0
370
               0
390
0
  6
Continuous
 62
              30
100
AcDbLine
 10
2838.5624172782427
 20
98.364034467935198
 30
0.0
 11
2971.5438442921168
 21
98.364034467935198
 31
0.0
  0
CIRCLE
  5
157
100
AcDbEntity
  8
0
370
               0
390
0
  6
Continuous
 62
              30
100
AcDbCircle
 10
2908.5615671330188
 20
350.36403446793531
 30
0.0
 40
4.0000000000823093
  0
LINE
  5
158
100
AcDbEntity
  8
0
370
               0
390
0
  6
Continuous
 62
              30
100
AcDbLine
 10
2838.5624619817263
 20
602.364042574167
 30
0.0
 11
2838.5624619817263
 21
98.364034467935198
 31
0.0
  0
LINE
  5
159
100
AcDbEntity
  8
0
370
               0
390
0
  6
Continuous
 62
              30
100
AcDbLine
 10
2971.5438442921168
 20
602.364042574167
 30
0.0
 11
2838.5624172782427
 21
602.364042574167
 31
0.0
  0
LINE
  5
15A
100
AcDbEntity
  8
0
370
               0
390
0
  6
Continuous
 62
              30
100
AcDbLine
 10
2971.5438442921168
 20
611.36404591202711
 30
0.0
 11
2816.5624621009356
 21
611.36404591202711
 31
0.0
  0
LINE
  5
15B
100
AcDbEntity
  8
0
370
               0
390
0
  6
Continuous
 62
              30
100
AcDbLine
 10
2838.5624172782427
 20
606.36405068039869
 30
0.0
 11
2838.5624172782427
 21
602.364042574167
 31
0.0
  0
LINE
  5
15C
100
AcDbEntity
  8
0
370
               0
390
0
  6
Continuous
 62
              30
100
AcDbLine
 10
2816.5624621009356
 20
606.36405068039869
 30
0.0
 11
2838.5624172782427
 21
606.36405068039869
 31
0.0
  0
LINE
  5
15D
100
AcDbEntity
  8
0
370
               0
390
0
  6
Continuous
 62
              30
100
AcDbLine
 10
2816.5624621009356
 20
611.36404591202711
 30
0.0
 11
2816.5624621009356
 21
606.36405068039869
 31
0.0
  0
LINE
  5
15E
100
AcDbEntity
  8
0
370
               0
390
0
  6
Continuous
 62
              30
100
AcDbLine
 10
2816.5624621009356
 20
80.36403524279558
 30
0.0
 11
2816.5624621009356
 21
89.364034855365389
 31
0.0
  0
LINE
  5
15F
100
AcDbEntity
  8
0
370
               0
390
0
  6
Continuous
 62
              30
100
AcDbLine
 10
2822.1548380946642
 20
89.364034855365389
 30
0.0
 11
2822.1548380946642
 21
80.36403524279558
 31
0.0
  0
LINE
  5
160
100
AcDbEntity
  8
0
370
               0
390
0
  6
Continuous
 62
              30
100
AcDbLine
 10
2816.5624621009356
 20
80.36403524279558
 30
0.0
 11
2822.1548380946642
 21
80.36403524279558
 31
0.0
  0
LINE
  5
161
100
AcDbEntity
  8
0
370
               0
390
0
  6
Continuous
 62
              30
100
AcDbLine
 10
2796.8442025279528
 20
94.364034277945393
 30
0.0
 11
2796.8442025279528
 21
80.36403524279558
 31
0.0
  0
LINE
  5
162
100
AcDbEntity
  8
0
370
               0
390
0
  6
Continuous
 62
              30
100
AcDbLine
 10
2816.5624621009356
 20
94.364034277945393
 30
0.0
 11
2796.8442025279528
 21
94.364034277945393
 31
0.0
  0
LINE
  5
163
100
AcDbEntity
  8
0
370
               0
390
0
  6
Continuous
 62
              30
100
AcDbLine
 10
2796.8442025279528
 20
80.36403524279558
 30
0.0
 11
2816.5624621009356
 21
80.36403524279558
 31
0.0
  0
LINE
  5
164
100
AcDbEntity
  8
0
370
               0
390
0
  6
Continuous
 62
              30
100
AcDbLine
 10
2816.5624621009356
 20
611.36404591202711
 30
0.0
 11
2816.5624621009356
 21
620.36404924988722
 31
0.0
  0
LINE
  5
165
100
AcDbEntity
  8
0
370
               0
390
0
  6
Continuous
 62
              30
100
AcDbLine
 10
2796.8442025279528
 20
606.36405068039869
 30
0.0
 11
2816.5624621009356
 21
606.36405068039869
 31
0.0
  0
LINE
  5
166
100
AcDbEntity
  8
0
370
               0
390
0
  6
Continuous
 62
              30
100
AcDbLine
 10
2796.8442025279528
 20
620.36404924988722
 30
0.0
 11
2796.8442025279528
 21
606.36405068039869
 31
0.0
  0
LINE
  5
167
100
AcDbEntity
  8
0
370
               0
390
0
  6
Continuous
 62
              30
100
AcDbLine
 10
2816.5624621009356
 20
620.36404924988722
 30
0.0
 11
2796.8442025279528
 21
620.36404924988722
 31
0.0
  0
LINE
  5
168
100
AcDbEntity
  8
0
370
               0
390
0
  6
Continuous
 62
              30
100
AcDbLine
 10
2822.1548380946642
 20
611.36404591202711
 30
0.0
 11
2822.1548380946642
 21
620.36404924988722
 31
0.0
  0
LINE
  5
169
100
AcDbEntity
  8
0
370
               0
390
0
  6
Continuous
 62
              30
100
AcDbLine
 10
2822.1548380946642
 20
620.36404924988722
 30
0.0
 11
2816.5624621009356
 21
620.36404924988722
 31
0.0
  0
LINE
  5
16A
100
AcDbEntity
  8
0
370
               0
390
0
  6
Continuous
 62
              30
100
AcDbLine
 10
3027.0892562961108
 20
80.36403524279558
 30
0.0
 11
3027.0892562961108
 21
89.364034855365389
 31
0.0
  0
LINE
  5
16B
100
AcDbEntity
  8
0
370
               0
390
0
  6
Continuous
 62
              30
100
AcDbLine
 10
2822.1548380946642
 20
80.36403524279558
 30
0.0
 11
3027.0892562961108
 21
80.36403524279558
 31
0.0
  0
LINE
  5
16C
100
AcDbEntity
  8
0
370
               0
390
0
  6
Continuous
 62
              30
100
AcDbLine
 10
3027.0892562961108
 20
611.36404591202711
 30
0.0
 11
3027.0892562961108
 21
620.36404924988722
 31
0.0
  0
LINE
  5
16D
100
AcDbEntity
  8
0
370
               0
390
0
  6
Continuous
 62
              30
100
AcDbLine
 10
3027.0892562961108
 20
620.36404924988722
 30
0.0
 11
2822.1548380946642
 21
620.36404924988722
 31
0.0
  0
LINE
  5
16E
100
AcDbEntity
  8
0
370
               0
390
0
  6
Continuous
 62
              30
100
AcDbLine
 10
3055.7148004567152
 20
611.36404591202711
 30
0.0
 11
3055.7148004567152
 21
602.364042574167
 31
0.0
  0
LINE
  5
16F
100
AcDbEntity
  8
0
370
               0
390
0
  6
Continuous
 62
              30
100
AcDbLine
 10
3049.0923891460425
 20
602.364042574167
 30
0.0
 11
3055.7148004567152
 21
602.364042574167
 31
0.0
  0
LINE
  5
170
100
AcDbEntity
  8
0
370
               0
390
0
  6
Continuous
 62
              30
100
AcDbLine
 10
3049.0923891460425
 20
98.364034467935198
 30
0.0
 11
3049.0923891460425
 21
602.364042574167
 31
0.0
  0
LINE
  5
171
100
AcDbEntity
  8
0
370
               0
390
0
  6
Continuous
 62
              30
100
AcDbLine
 10
3055.7148004567152
 20
98.364034467935198
 30
0.0
 11
3049.0923891460425
 21
98.364034467935198
 31
0.0
  0
LINE
  5
172
100
AcDbEntity
  8
0
370
               0
390
0
  6
Continuous
 62
              30
100
AcDbLine
 10
3055.7148004567152
 20
98.364034467935198
 30
0.0
 11
3055.7148004567152
 21
89.364034855365389
 31
0.0
  0
LINE
  5
173
100
AcDbEntity
  8
0
370
               0
390
0
  6
Continuous
 62
              30
100
AcDbLine
 10
2997.5909101461893
 20
611.36404591202711
 30
0.0
 11
3055.7148004567152
 21
611.36404591202711
 31
0.0
  0
LINE
  5
174
100
AcDbEntity
  8
0
370
               0
390
0
  6
Continuous
 62
              30
100
AcDbLine
 10
2997.5909101461893
 20
89.364034855365389
 30
0.0
 11
3055.7148004567152
 21
89.364034855365389
 31
0.0
  0
LINE
  5
175
100
AcDbEntity
  8
0
370
               0
390
0
  6
Continuous
 62
              30
100
AcDbLine
 10
2796.8442025279528
 20
94.364034277945393
 30
0.0
 11
2788.5615708922869
 21
94.364034277945393
 31
0.0
  0
LINE
  5
176
100
AcDbEntity
  8
0
370
               0
390
0
  6
Continuous
 62
              30
100
AcDbLine
 10
2788.5615708922869
 20
80.36403524279558
 30
0.0
 11
2796.8442025279528
 21
80.36403524279558
 31
0.0
  0
LINE
  5
177
100
AcDbEntity
  8
0
370
               0
390
0
  6
Continuous
 62
              30
100
AcDbLine
 10
2788.5615708922869
 20
606.36405068039869
 30
0.0
 11
2796.8442025279528
 21
606.36405068039869
 31
0.0
  0
LINE
  5
178
100
AcDbEntity
  8
0
370
               0
390
0
  6
Continuous
 62
              30
100
AcDbLine
 10
2796.8442025279528
 20
620.36404924988722
 30
0.0
 11
2788.5615708922869
 21
620.36404924988722
 31
0.0
  0
SPLINE
  5
179
100
AcDbEntity
  8
0
370
               0
390
0
  6
Continuous
 62
              30
100
AcDbSpline
210
0.0
220
0.0
230
1.0
 70
               8
 71
               2
 72
               8
 73
               5
 74
               0
 42
0.000001
 43
0.000001
 40
0.0
 40
0.0
 40
0.0
 40
1.0
 40
1.0
 40
2.0
 40
2.0
 40
2.0
 10
3066.4827930426127
 20
98.364034467935198
 30
0.0
 10
3066.5340167055087
 20
98.364034467935312
 30
0.0
 10
3055.7481913640177
 20
98.364034467935198
 30
0.0
 10
3055.7314959103664
 20
98.364034467935198
 30
0.0
 10
3055.7148004567152
 20
98.364034467935198
 30
0.0
  0
LINE
  5
17A
100
AcDbEntity
  8
0
370
               0
390
0
  6
Continuous
 62
              30
100
AcDbLine
 10
3027.0892562961108
 20
80.36403524279558
 30
0.0
 11
3066.5603275095946
 21
80.36403524279558
 31
0.0
  0
SPLINE
  5
17B
100
AcDbEntity
  8
0
370
               0
390
0
  6
Continuous
 62
              30
100
AcDbSpline
210
0.0
220
0.0
230
1.0
 70
               8
 71
               2
 72
               8
 73
               5
 74
               0
 42
0.000001
 43
0.000001
 40
0.0
 40
0.0
 40
0.0
 40
1.0
 40
1.0
 40
2.0
 40
2.0
 40
2.0
 10
3055.7148004567152
 20
602.364042574167
 30
0.0
 10
3066.5340167055074
 20
602.364042574167
 30
0.0
 10
3066.4834024543416
 20
602.36404257416689
 30
0.0
 10
3066.4830977484771
 20
602.36404257416689
 30
0.0
 10
3066.4827930426127
 20
602.364042574167
 30
0.0
  0
LINE
  5
17C
100
AcDbEntity
  8
0
370
               0
390
0
  6
Continuous
 62
              30
100
AcDbLine
 10
3066.5603275095946
 20
620.36404924988722
 30
0.0
 11
3027.0892562961108
 21
620.36404924988722
 31
0.0
  0
LINE
  5
17D
100
AcDbEntity
  8
0
370
               0
390
0
  6
Continuous
 62
              30
100
AcDbLine
 10
2816.561568031264
 20
95.364034441858166
 30
0.0
 11
2837.5615658854967
 21
95.364034441858166
 31
0.0
  0
LINE
  5
17E
100
AcDbEntity
  8
0
370
               0
390
0
  6
Continuous
 62
              30
100
AcDbLine
 10
2816.561568031264
 20
95.364034441858166
 30
0.0
 11
2816.561568031264
 21
605.36406355500196
 31
0.0
  0
LINE
  5
17F
100
AcDbEntity
  8
0
370
               0
390
0
  6
Continuous
 62
              30
100
AcDbLine
 10
2837.5615658854967
 20
605.36406355500196
 30
0.0
 11
2816.561568031264
 21
605.36406355500196
 31
0.0
  0
CIRCLE
  5
180
100
AcDbEntity
  8
0
370
               0
390
0
  6
Continuous
 62
              30
100
AcDbCircle
 10
2824.5615671330261
 20
135.36403446793508
 30
0.0
 40
3.0
  0
CIRCLE
  5
181
100
AcDbEntity
  8
0
370
               0
390
0
  6
Continuous
 62
              30
100
AcDbCircle
 10
2824.5615671330261
 20
565.36403446793508
 30
0.0
 40
3.0
  0
CIRCLE
  5
182
100
AcDbEntity
  8
0
370
               0
390
0
  6
Continuous
 62
              30
100
AcDbCircle
 10
2824.5615671330261
 20
350.36403446793531
 30
0.0
 40
3.0
  0
LINE
  5
183
100
AcDbEntity
  8
0
370
               0
390
0
  6
Continuous
 62
              30
100
AcDbLine
 10
2837.5615658854967
 20
95.364034441858166
 30
0.0
 11
2837.5615658854967
 21
605.36406355500196
 31
0.0
  0
LINE
  5
184
100
AcDbEntity
  8
0
370
               0
390
0
  6
Continuous
 62
              30
100
AcDbLine
 10
2798.3555677032
 20
95.364034441858166
 30
0.0
 11
2798.3555677032
 21
605.36406355500196
 31
0.0
  0
LINE
  5
185
100
AcDbEntity
  8
0
370
               0
390
0
  6
Continuous
 62
              30
100
AcDbLine
 10
2816.561568031264
 20
605.36406355500196
 30
0.0
 11
2798.3555677032
 21
605.36406355500196
 31
0.0
  0
LINE
  5
186
100
AcDbEntity
  8
0
370
               0
390
0
  6
Continuous
 62
              30
100
AcDbLine
 10
2798.3555677032
 20
95.364034441858166
 30
0.0
 11
2816.561568031264
 21
95.364034441858166
 31
0.0
  0
LINE
  5
187
100
AcDbEntity
  8
0
370
               0
390
0
  6
Continuous
 62
              30
100
AcDbLine
 10
2798.3520808314806
 20
95.364034441858166
 30
0.0
 11
2798.3520808314806
 21
605.36406355500196
 31
0.0
  0
LINE
  5
188
100
AcDbEntity
  8
0
370
               0
390
0
  6
Continuous
 62
              30
100
AcDbLine
 10
2798.3555677032
 20
605.36406355500196
 30
0.0
 11
2798.3520808314806
 21
605.36406355500196
 31
0.0
  0
LINE
  5
189
100
AcDbEntity
  8
0
370
               0
390
0
  6
Continuous
 62
              30
100
AcDbLine
 10
2798.3555677032
 20
95.364034441858166
 30
0.0
 11
2798.3520808314806
 21
95.364034441858166
 31
0.0
  0
LINE
  5
18A
100
AcDbEntity
  8
0
370
               0
390
0
  6
Continuous
 62
              30
100
AcDbLine
 10
2790.4044272994524
 20
115.36403539180719
 30
0.0
 11
2790.0615813827044
 21
115.36403539180719
 31
0.0
  0
LINE
  5
18B
100
AcDbEntity
  8
0
370
               0
390
0
  6
Continuous
 62
              30
100
AcDbLine
 10
2790.4044272994524
 20
155.36403449773763
 30
0.0
 11
2790.4044272994524
 21
115.36403539180719
 31
0.0
  0
LINE
  5
18C
100
AcDbEntity
  8
0
370
               0
390
0
  6
Continuous
 62
              30
100
AcDbLine
 10
2790.0615813827044
 20
155.36403449773763
 30
0.0
 11
2790.4044272994524
 21
155.36403449773763
 31
0.0
  0
LINE
  5
18D
100
AcDbEntity
  8
0
370
               0
390
0
  6
Continuous
 62
              30
100
AcDbLine
 10
2798.3520808314806
 20
605.36406355500196
 30
0.0
 11
2790.0615813827044
 21
605.36406355500196
 31
0.0
  0
LINE
  5
18E
100
AcDbEntity
  8
0
370
               0
390
0
  6
Continuous
 62
              30
100
AcDbLine
 10
2790.0615813827044
 20
95.364034441858166
 30
0.0
 11
2798.3520808314806
 21
95.364034441858166
 31
0.0
  0
LINE
  5
18F
100
AcDbEntity
  8
0
370
               0
390
0
  6
Continuous
 62
              30
100
AcDbLine
 10
2816.5624621009356
 20
606.36405068039869
 30
0.0
 11
2816.5624621009356
 21
605.36406355500196
 31
0.0
  0
LINE
  5
190
100
AcDbEntity
  8
0
370
               0
390
0
  6
Continuous
 62
              30
100
AcDbLine
 10
2816.5624621009356
 20
94.364034277945393
 30
0.0
 11
2816.5624621009356
 21
95.364034441858166
 31
0.0
  0
LINE
  5
191
100
AcDbEntity
  8
0
370
               0
390
0
  6
Continuous
 62
              30
100
AcDbLine
 10
2800.7878544425494
 20
94.364034277945393
 30
0.0
 11
2800.7878544425494
 21
95.364034441858166
 31
0.0
  0
LINE
  5
192
100
AcDbEntity
  8
0
370
               0
390
0
  6
Continuous
 62
              30
100
AcDbLine
 10
2800.7878544425494
 20
606.36405068039869
 30
0.0
 11
2800.7878544425494
 21
605.36406355500196
 31
0.0
  0
LINE
  5
193
100
AcDbEntity
  8
0
370
               0
390
0
  6
Continuous
 62
              30
100
AcDbLine
 10
3433.9440216884436
 20
80.36403524279558
 30
0.0
 11
3433.9440216884436
 21
94.364034277945393
 31
0.0
  0
LINE
  5
194
100
AcDbEntity
  8
0
370
               0
390
0
  6
Continuous
 62
              30
100
AcDbLine
 10
3630.6342532501044
 20
94.364034277945393
 30
0.0
 11
3433.9440216884436
 21
94.364034277945393
 31
0.0
  0
LINE
  5
195
100
AcDbEntity
  8
0
370
               0
390
0
  6
Continuous
 62
              30
100
AcDbLine
 10
3630.6342532501044
 20
94.364034277945393
 30
0.0
 11
3630.6342532501044
 21
80.36403524279558
 31
0.0
  0
LINE
  5
196
100
AcDbEntity
  8
0
370
               0
390
0
  6
Continuous
 62
              30
100
AcDbLine
 10
3433.9440216884436
 20
80.36403524279558
 30
0.0
 11
3630.6342532501044
 21
80.36403524279558
 31
0.0
  0
LINE
  5
197
100
AcDbEntity
  8
0
370
               0
390
0
  6
Continuous
 62
              30
100
AcDbLine
 10
3630.6342532501044
 20
620.36404924988722
 30
0.0
 11
3630.6342532501044
 21
606.36405068039869
 31
0.0
  0
LINE
  5
198
100
AcDbEntity
  8
0
370
               0
390
0
  6
Continuous
 62
              30
100
AcDbLine
 10
3433.9440216884436
 20
606.36405068039869
 30
0.0
 11
3630.6342532501044
 21
606.36405068039869
 31
0.0
  0
LINE
  5
199
100
AcDbEntity
  8
0
370
               0
390
0
  6
Continuous
 62
              30
100
AcDbLine
 10
3433.9440216884436
 20
620.36404924988722
 30
0.0
 11
3433.9440216884436
 21
606.36405068039869
 31
0.0
  0
LINE
  5
19A
100
AcDbEntity
  8
0
370
               0
390
0
  6
Continuous
 62
              30
100
AcDbLine
 10
3630.6342532501044
 20
620.36404924988722
 30
0.0
 11
3433.9440216884436
 21
620.36404924988722
 31
0.0
  0
LINE
  5
19B
100
AcDbEntity
  8
0
370
               0
390
0
  6
Continuous
 62
              30
100
AcDbLine
 10
3417.2891130313697
 20
89.364034855365389
 30
0.0
 11
3417.2891130313697
 21
80.36403524279558
 31
0.0
  0
LINE
  5
19C
100
AcDbEntity
  8
0
370
               0
390
0
  6
Continuous
 62
              30
100
AcDbLine
 10
3417.2891130313697
 20
89.364034855365389
 30
0.0
 11
3417.2891130313697
 21
94.364034277945393
 31
0.0
  0
LINE
  5
19D
100
AcDbEntity
  8
0
370
               0
390
0
  6
Continuous
 62
              30
100
AcDbLine
 10
3417.2891130313697
 20
80.36403524279558
 30
0.0
 11
3433.9440216884436
 21
80.36403524279558
 31
0.0
  0
LINE
  5
19E
100
AcDbEntity
  8
0
370
               0
390
0
  6
Continuous
 62
              30
100
AcDbLine
 10
3433.9440216884436
 20
94.364034277945393
 30
0.0
 11
3417.2891130313697
 21
94.364034277945393
 31
0.0
  0
LINE
  5
19F
100
AcDbEntity
  8
0
370
               0
390
0
  6
Continuous
 62
              30
100
AcDbLine
 10
3417.2891130313697
 20
611.36404591202711
 30
0.0
 11
3417.2891130313697
 21
606.36405068039869
 31
0.0
  0
LINE
  5
1A0
100
AcDbEntity
  8
0
370
               0
390
0
  6
Continuous
 62
              30
100
AcDbLine
 10
3417.2891130313697
 20
620.36404924988722
 30
0.0
 11
3417.2891130313697
 21
611.36404591202711
 31
0.0
  0
LINE
  5
1A1
100
AcDbEntity
  8
0
370
               0
390
0
  6
Continuous
 62
              30
100
AcDbLine
 10
3417.2891130313697
 20
606.36405068039869
 30
0.0
 11
3433.9440216884436
 21
606.36405068039869
 31
0.0
  0
LINE
  5
1A2
100
AcDbEntity
  8
0
370
               0
390
0
  6
Continuous
 62
              30
100
AcDbLine
 10
3433.9440216884436
 20
620.36404924988722
 30
0.0
 11
3417.2891130313697
 21
620.36404924988722
 31
0.0
  0
LINE
  5
1A3
100
AcDbEntity
  8
0
370
               0
390
0
  6
Continuous
 62
              30
100
AcDbLine
 10
3647.2891805336299
 20
611.36404591202711
 30
0.0
 11
3647.2891805336299
 21
620.36404924988722
 31
0.0
  0
LINE
  5
1A4
100
AcDbEntity
  8
0
370
               0
390
0
  6
Continuous
 62
              30
100
AcDbLine
 10
3647.2891805336299
 20
611.36404591202711
 30
0.0
 11
3647.2891805336299
 21
606.36405068039869
 31
0.0
  0
LINE
  5
1A5
100
AcDbEntity
  8
0
370
               0
390
0
  6
Continuous
 62
              30
100
AcDbLine
 10
3630.6342532501044
 20
606.36405068039869
 30
0.0
 11
3647.2891805336299
 21
606.36405068039869
 31
0.0
  0
LINE
  5
1A6
100
AcDbEntity
  8
0
370
               0
390
0
  6
Continuous
 62
              30
100
AcDbLine
 10
3647.2891805336299
 20
620.36404924988722
 30
0.0
 11
3630.6342532501044
 21
620.36404924988722
 31
0.0
  0
LINE
  5
1A7
100
AcDbEntity
  8
0
370
               0
390
0
  6
Continuous
 62
              30
100
AcDbLine
 10
3647.2891805336299
 20
94.364034277945393
 30
0.0
 11
3647.2891805336299
 21
89.364034855365389
 31
0.0
  0
LINE
  5
1A8
100
AcDbEntity
  8
0
370
               0
390
0
  6
Continuous
 62
              30
100
AcDbLine
 10
3647.2891805336299
 20
80.36403524279558
 30
0.0
 11
3647.2891805336299
 21
89.364034855365389
 31
0.0
  0
LINE
  5
1A9
100
AcDbEntity
  8
0
370
               0
390
0
  6
Continuous
 62
              30
100
AcDbLine
 10
3630.6342532501044
 20
80.36403524279558
 30
0.0
 11
3647.2891805336299
 21
80.36403524279558
 31
0.0
  0
LINE
  5
1AA
100
AcDbEntity
  8
0
370
               0
390
0
  6
Continuous
 62
              30
100
AcDbLine
 10
3647.2891805336299
 20
94.364034277945393
 30
0.0
 11
3630.6342532501044
 21
94.364034277945393
 31
0.0
  0
LINE
  5
1AB
100
AcDbEntity
  8
0
370
               0
390
0
  6
Continuous
 62
              30
100
AcDbLine
 10
3421.2890615329566
 20
94.364034277945393
 30
0.0
 11
3421.2890615329566
 21
95.364034441858166
 31
0.0
  0
LINE
  5
1AC
100
AcDbEntity
  8
0
370
               0
390
0
  6
Continuous
 62
              30
100
AcDbLine
 10
3421.2890615329566
 20
605.36406355500196
 30
0.0
 11
3421.2890615329566
 21
606.36405068039869
 31
0.0
  0
LINE
  5
1AD
100
AcDbEntity
  8
0
370
               0
390
0
  6
Continuous
 62
              30
100
AcDbLine
 10
3643.2892283067526
 20
606.36405068039869
 30
0.0
 11
3643.2892283067526
 21
605.36406355500196
 31
0.0
  0
LINE
  5
1AE
100
AcDbEntity
  8
0
370
               0
390
0
  6
Continuous
 62
              30
100
AcDbLine
 10
3643.2892283067526
 20
94.364034277945393
 30
0.0
 11
3643.2892283067526
 21
95.364034441858166
 31
0.0
  0
LINE
  5
1AF
100
AcDbEntity
  8
0
370
               0
390
0
  6
Continuous
 62
              30
100
AcDbLine
 10
3647.2891805336299
 20
89.364034855365389
 30
0.0
 11
3647.2895232603373
 21
89.364034855365389
 31
0.0
  0
LINE
  5
1B0
100
AcDbEntity
  8
0
370
               0
390
0
  6
Continuous
 62
              30
100
AcDbLine
 10
3647.2892289624037
 20
98.364034467935198
 30
0.0
 11
3647.2892289624037
 21
94.364034277945393
 31
0.0
  0
LINE
  5
1B1
100
AcDbEntity
  8
0
370
               0
390
0
  6
Continuous
 62
              30
100
AcDbLine
 10
3647.288670168859
 20
98.364034467935198
 30
0.0
 11
3647.2895232603373
 21
98.364034467935198
 31
0.0
  0
LINE
  5
1B2
100
AcDbEntity
  8
0
370
               0
390
0
  6
Continuous
 62
              30
100
AcDbLine
 10
3647.2895232603373
 20
98.364034467935198
 30
0.0
 11
3647.2895232603373
 21
89.364034855365389
 31
0.0
  0
LINE
  5
1B3
100
AcDbEntity
  8
0
370
               0
390
0
  6
Continuous
 62
              30
100
AcDbLine
 10
3647.2892289624037
 20
94.364034277945393
 30
0.0
 11
3647.2891805336299
 21
94.364034277945393
 31
0.0
  0
LINE
  5
1B4
100
AcDbEntity
  8
0
370
               0
390
0
  6
Continuous
 62
              30
100
AcDbLine
 10
3647.2895232603373
 20
602.364042574167
 30
0.0
 11
3647.2895232603373
 21
611.36404591202711
 31
0.0
  0
LINE
  5
1B5
100
AcDbEntity
  8
0
370
               0
390
0
  6
Continuous
 62
              30
100
AcDbLine
 10
3647.2895232603373
 20
602.364042574167
 30
0.0
 11
3647.288670168859
 21
602.364042574167
 31
0.0
  0
LINE
  5
1B6
100
AcDbEntity
  8
0
370
               0
390
0
  6
Continuous
 62
              30
100
AcDbLine
 10
3647.2892289624037
 20
606.36405068039869
 30
0.0
 11
3647.2892289624037
 21
602.364042574167
 31
0.0
  0
LINE
  5
1B7
100
AcDbEntity
  8
0
370
               0
390
0
  6
Continuous
 62
              30
100
AcDbLine
 10
3647.2895232603373
 20
611.36404591202711
 30
0.0
 11
3647.2891805336299
 21
611.36404591202711
 31
0.0
  0
LINE
  5
1B8
100
AcDbEntity
  8
0
370
               0
390
0
  6
Continuous
 62
              30
100
AcDbLine
 10
3647.2891805336299
 20
606.36405068039869
 30
0.0
 11
3647.2892289624037
 21
606.36405068039869
 31
0.0
  0
LINE
  5
1B9
100
AcDbEntity
  8
0
370
               0
390
0
  6
Continuous
 62
              30
100
AcDbLine
 10
3417.2886659965338
 20
98.364034467935198
 30
0.0
 11
3417.2886659965338
 21
602.364042574167
 31
0.0
  0
LINE
  5
1BA
100
AcDbEntity
  8
0
370
               0
390
0
  6
Continuous
 62
              30
100
AcDbLine
 10
3417.2897388801398
 20
98.364034467935198
 30
0.0
 11
3417.2897388801398
 21
602.364042574167
 31
0.0
  0
LINE
  5
1BB
100
AcDbEntity
  8
0
370
               0
390
0
  6
Continuous
 62
              30
100
AcDbLine
 10
3417.289142833692
 20
602.364042574167
 30
0.0
 11
3417.289142833692
 21
606.36405068039869
 31
0.0
  0
LINE
  5
1BC
100
AcDbEntity
  8
0
370
               0
390
0
  6
Continuous
 62
              30
100
AcDbLine
 10
3417.289142833692
 20
94.364034277945393
 30
0.0
 11
3417.289142833692
 21
98.364034467935198
 31
0.0
  0
ELLIPSE
  5
1BD
100
AcDbEntity
  8
0
370
               0
390
0
  6
Continuous
 62
              30
100
AcDbEllipse
 10
3647.2891185693052
 20
350.36403446793531
 30
0.0
 11
0.0
 21
4.0
 31
0.0
210
0.0
220
0.0
230
1.0
 40
0.0000064136276592
 41
0.0
 42
6.2831853071795862
  0
LINE
  5
1BE
100
AcDbEntity
  8
0
370
               0
390
0
  6
Continuous
 62
              30
100
AcDbLine
 10
3647.288670168859
 20
602.364042574167
 30
0.0
 11
3647.288670168859
 21
98.364034467935198
 31
0.0
  0
LINE
  5
1BF
100
AcDbEntity
  8
0
370
               0
390
0
  6
Continuous
 62
              30
100
AcDbLine
 10
3647.2895232603373
 20
98.364034467935198
 30
0.0
 11
3647.2895232603373
 21
602.364042574167
 31
0.0
  0
LINE
  5
1C0
100
AcDbEntity
  8
0
370
               0
390
0
  6
Continuous
 62
              30
100
AcDbLine
 10
3630.5542153880419
 20
95.364034441858166
 30
0.0
 11
3630.5542153880419
 21
605.36406355500196
 31
0.0
  0
LINE
  5
1C1
100
AcDbEntity
  8
0
370
               0
390
0
  6
Continuous
 62
              30
100
AcDbLine
 10
3434.024070726377
 20
95.364034441858166
 30
0.0
 11
3630.5542153880419
 21
95.364034441858166
 31
0.0
  0
LINE
  5
1C2
100
AcDbEntity
  8
0
370
               0
390
0
  6
Continuous
 62
              30
100
AcDbLine
 10
3434.024070726377
 20
605.36406355500196
 30
0.0
 11
3434.024070726377
 21
95.364034441858166
 31
0.0
  0
LINE
  5
1C3
100
AcDbEntity
  8
0
370
               0
390
0
  6
Continuous
 62
              30
100
AcDbLine
 10
3630.5542153880419
 20
605.36406355500196
 30
0.0
 11
3434.024070726377
 21
605.36406355500196
 31
0.0
  0
LINE
  5
1C4
100
AcDbEntity
  8
0
370
               0
390
0
  6
Continuous
 62
              30
100
AcDbLine
 10
3512.2378518447699
 20
115.36403539180719
 30
0.0
 11
3512.2378518447699
 21
155.36403449773763
 31
0.0
  0
LINE
  5
1C5
100
AcDbEntity
  8
0
370
               0
390
0
  6
Continuous
 62
              30
100
AcDbLine
 10
3552.3404230937781
 20
155.36403449773763
 30
0.0
 11
3552.3404230937781
 21
115.36403539180719
 31
0.0
  0
LINE
  5
1C6
100
AcDbEntity
  8
0
370
               0
390
0
  6
Continuous
 62
              30
100
AcDbLine
 10
3512.2378518447699
 20
155.36403449773763
 30
0.0
 11
3552.3404230937781
 21
155.36403449773763
 31
0.0
  0
LINE
  5
1C7
100
AcDbEntity
  8
0
370
               0
390
0
  6
Continuous
 62
              30
100
AcDbLine
 10
3552.3404230937781
 20
115.36403539180719
 30
0.0
 11
3512.2378518447699
 21
115.36403539180719
 31
0.0
  0
LINE
  5
1C8
100
AcDbEntity
  8
0
370
               0
390
0
  6
Continuous
 62
              30
100
AcDbLine
 10
3512.2891416415991
 20
155.36403449773763
 30
0.0
 11
3512.2891416415991
 21
115.36403539180719
 31
0.0
  0
LINE
  5
1C9
100
AcDbEntity
  8
0
370
               0
390
0
  6
Continuous
 62
              30
100
AcDbLine
 10
3552.2891332969489
 20
155.36403449773763
 30
0.0
 11
3552.2891332969489
 21
115.36403539180719
 31
0.0
  0
LINE
  5
1CA
100
AcDbEntity
  8
0
370
               0
390
0
  6
Continuous
 62
              30
100
AcDbLine
 10
3630.5742760762992
 20
95.364034441858166
 30
0.0
 11
3630.5742760762992
 21
605.36406355500196
 31
0.0
  0
LINE
  5
1CB
100
AcDbEntity
  8
0
370
               0
390
0
  6
Continuous
 62
              30
100
AcDbLine
 10
3630.5742760762992
 20
605.36406355500196
 30
0.0
 11
3630.5542153880419
 21
605.36406355500196
 31
0.0
  0
LINE
  5
1CC
100
AcDbEntity
  8
0
370
               0
390
0
  6
Continuous
 62
              30
100
AcDbLine
 10
3630.5742760762992
 20
95.364034441858166
 30
0.0
 11
3630.5542153880419
 21
95.364034441858166
 31
0.0
  0
LINE
  5
1CD
100
AcDbEntity
  8
0
370
               0
390
0
  6
Continuous
 62
              30
100
AcDbLine
 10
3434.0039988622489
 20
605.36406355500196
 30
0.0
 11
3434.0039988622489
 21
95.364034441858166
 31
0.0
  0
LINE
  5
1CE
100
AcDbEntity
  8
0
370
               0
390
0
  6
Continuous
 62
              30
100
AcDbLine
 10
3434.0039988622489
 20
605.36406355500196
 30
0.0
 11
3434.024070726377
 21
605.36406355500196
 31
0.0
  0
LINE
  5
1CF
100
AcDbEntity
  8
0
370
               0
390
0
  6
Continuous
 62
              30
100
AcDbLine
 10
3434.024070726377
 20
95.364034441858166
 30
0.0
 11
3434.0039988622489
 21
95.364034441858166
 31
0.0
  0
LINE
  5
1D0
100
AcDbEntity
  8
0
370
               0
390
0
  6
Continuous
 62
              30
100
AcDbLine
 10
3645.78914024089
 20
95.364034441858166
 30
0.0
 11
3645.78914024089
 21
605.36406355500196
 31
0.0
  0
LINE
  5
1D1
100
AcDbEntity
  8
0
370
               0
390
0
  6
Continuous
 62
              30
100
AcDbLine
 10
3645.78914024089
 20
605.36406355500196
 30
0.0
 11
3630.5742760762992
 21
605.36406355500196
 31
0.0
  0
LINE
  5
1D2
100
AcDbEntity
  8
0
370
               0
390
0
  6
Continuous
 62
              30
100
AcDbLine
 10
3630.5742760762992
 20
95.364034441858166
 30
0.0
 11
3645.78914024089
 21
95.364034441858166
 31
0.0
  0
LINE
  5
1D3
100
AcDbEntity
  8
0
370
               0
390
0
  6
Continuous
 62
              30
100
AcDbLine
 10
3418.7891533241095
 20
605.36406355500196
 30
0.0
 11
3418.7891533241095
 21
95.364034441858166
 31
0.0
  0
LINE
  5
1D4
100
AcDbEntity
  8
0
370
               0
390
0
  6
Continuous
 62
              30
100
AcDbLine
 10
3434.0039988622489
 20
605.36406355500196
 30
0.0
 11
3418.7891533241095
 21
605.36406355500196
 31
0.0
  0
LINE
  5
1D5
100
AcDbEntity
  8
0
370
               0
390
0
  6
Continuous
 62
              30
100
AcDbLine
 10
3418.7891533241095
 20
95.364034441858166
 30
0.0
 11
3434.0039988622489
 21
95.364034441858166
 31
0.0
  0
LINE
  5
1D6
100
AcDbEntity
  8
0
370
               0
390
0
  6
Continuous
 62
              30
100
AcDbLine
 10
3629.9652358159842
 20
94.364034277945393
 30
0.0
 11
3629.9652358159842
 21
95.364034441858166
 31
0.0
  0
LINE
  5
1D7
100
AcDbEntity
  8
0
370
               0
390
0
  6
Continuous
 62
              30
100
AcDbLine
 10
3434.6130391225638
 20
94.364034277945393
 30
0.0
 11
3434.6130391225638
 21
95.364034441858166
 31
0.0
  0
LINE
  5
1D8
100
AcDbEntity
  8
0
370
               0
390
0
  6
Continuous
 62
              30
100
AcDbLine
 10
3434.6130391225638
 20
606.36405068039869
 30
0.0
 11
3434.6130391225638
 21
605.36406355500196
 31
0.0
  0
LINE
  5
1D9
100
AcDbEntity
  8
0
370
               0
390
0
  6
Continuous
 62
              30
100
AcDbLine
 10
3629.9652358159842
 20
606.36405068039869
 30
0.0
 11
3629.9652358159842
 21
605.36406355500196
 31
0.0
  0
LINE
  5
1DA
100
AcDbEntity
  8
0
370
               0
390
0
  6
Continuous
 62
              30
100
AcDbLine
 10
3645.78914024089
 20
602.364042574167
 30
0.0
 11
3647.2885509595694
 21
602.364042574167
 31
0.0
  0
LINE
  5
1DB
100
AcDbEntity
  8
0
370
               0
390
0
  6
Continuous
 62
              30
100
AcDbLine
 10
3645.78914024089
 20
98.364034467935198
 30
0.0
 11
3647.2885286078276
 21
98.364034467935198
 31
0.0
  0
LINE
  5
1DC
100
AcDbEntity
  8
0
370
               0
390
0
  6
Continuous
 62
              30
100
AcDbLine
 10
4220.9065879945174
 20
606.36405068039869
 30
0.0
 11
4220.9065879945174
 21
620.36404924988722
 31
0.0
  0
LINE
  5
1DD
100
AcDbEntity
  8
0
370
               0
390
0
  6
Continuous
 62
              30
100
AcDbLine
 10
4220.9065879945174
 20
80.36403524279558
 30
0.0
 11
4220.9065879945174
 21
94.364034277945393
 31
0.0
  0
LINE
  5
1DE
100
AcDbEntity
  8
0
370
               0
390
0
  6
Continuous
 62
              30
100
AcDbLine
 10
4216.9065798882857
 20
605.36406355500196
 30
0.0
 11
4216.9065798882857
 21
606.36405068039869
 31
0.0
  0
LINE
  5
1DF
100
AcDbEntity
  8
0
370
               0
390
0
  6
Continuous
 62
              30
100
AcDbLine
 10
4216.9065798882857
 20
94.364034277945393
 30
0.0
 11
4216.9065798882857
 21
95.364034441858166
 31
0.0
  0
LINE
  5
1E0
100
AcDbEntity
  8
0
370
               0
390
0
  6
Continuous
 62
              30
100
AcDbLine
 10
3942.9078313772093
 20
620.36404924988722
 30
0.0
 11
3942.9078313772093
 21
602.36136036515211
 31
0.0
  0
LINE
  5
1E1
100
AcDbEntity
  8
0
370
               0
390
0
  6
Continuous
 62
              30
100
AcDbLine
 10
3942.9078313772093
 20
98.366715339083385
 30
0.0
 11
3942.9078313772093
 21
80.36403524279558
 31
0.0
  0
LINE
  5
1E2
100
AcDbEntity
  8
0
370
               0
390
0
  6
Continuous
 62
              30
100
AcDbLine
 10
4219.4065775040999
 20
155.36403449773763
 30
0.0
 11
4219.4065775040999
 21
605.36406355500196
 31
0.0
  0
LINE
  5
1E3
100
AcDbEntity
  8
0
370
               0
390
0
  6
Continuous
 62
              30
100
AcDbLine
 10
4219.4065775040999
 20
95.364034441858166
 30
0.0
 11
4219.4065775040999
 21
115.36403539180719
 31
0.0
  0
LINE
  5
1E4
100
AcDbEntity
  8
0
370
               0
390
0
  6
Continuous
 62
              30
100
AcDbLine
 10
4186.4931012753859
 20
611.36404591202711
 30
0.0
 11
4049.7133161191355
 21
611.36404591202711
 31
0.0
  0
LINE
  5
1E5
100
AcDbEntity
  8
0
370
               0
390
0
  6
Continuous
 62
              30
100
AcDbLine
 10
4186.4946509961501
 20
611.36404591202711
 30
0.0
 11
4186.4931012753859
 21
611.36404591202711
 31
0.0
  0
LINE
  5
1E6
100
AcDbEntity
  8
0
370
               0
390
0
  6
Continuous
 62
              30
100
AcDbLine
 10
4192.9056967858687
 20
611.36404591202711
 30
0.0
 11
4186.4946509961501
 21
611.36404591202711
 31
0.0
  0
LINE
  5
1E7
100
AcDbEntity
  8
0
370
               0
390
0
  6
Continuous
 62
              30
100
AcDbLine
 10
4192.9056967858687
 20
611.36404591202711
 30
0.0
 11
4192.9056967858687
 21
606.36405068039869
 31
0.0
  0
LINE
  5
1E8
100
AcDbEntity
  8
0
370
               0
390
0
  6
Continuous
 62
              30
100
AcDbLine
 10
4170.905696905078
 20
606.36405068039869
 30
0.0
 11
4192.9056967858687
 21
606.36405068039869
 31
0.0
  0
LINE
  5
1E9
100
AcDbEntity
  8
0
370
               0
390
0
  6
Continuous
 62
              30
100
AcDbLine
 10
4170.905696905078
 20
602.364042574167
 30
0.0
 11
4170.905696905078
 21
606.36405068039869
 31
0.0
  0
LINE
  5
1EA
100
AcDbEntity
  8
0
370
               0
390
0
  6
Continuous
 62
              30
100
AcDbLine
 10
4170.905696905078
 20
602.364042574167
 30
0.0
 11
4049.7133161191355
 21
602.364042574167
 31
0.0
  0
LINE
  5
1EB
100
AcDbEntity
  8
0
370
               0
390
0
  6
Continuous
 62
              30
100
AcDbLine
 10
4049.7133161191355
 20
611.36404591202711
 30
0.0
 11
4049.7133161191355
 21
602.364042574167
 31
0.0
  0
CIRCLE
  5
1EC
100
AcDbEntity
  8
0
370
               0
390
0
  6
Continuous
 62
              30
100
AcDbCircle
 10
4100.9065917537846
 20
350.36403446793531
 30
0.0
 40
4.0000000000823093
  0
LINE
  5
1ED
100
AcDbEntity
  8
0
370
               0
390
0
  6
Continuous
 62
              30
100
AcDbLine
 10
4170.9080363873854
 20
98.364034467935198
 30
0.0
 11
4170.9080363873854
 21
602.364042574167
 31
0.0
  0
LINE
  5
1EE
100
AcDbEntity
  8
0
370
               0
390
0
  6
Continuous
 62
              30
100
AcDbLine
 10
4049.7133161191355
 20
98.364034467935198
 30
0.0
 11
4170.905696905078
 21
98.364034467935198
 31
0.0
  0
LINE
  5
1EF
100
AcDbEntity
  8
0
370
               0
390
0
  6
Continuous
 62
              30
100
AcDbLine
 10
4049.7133161191355
 20
602.364042574167
 30
0.0
 11
4049.7133161191355
 21
98.364034467935198
 31
0.0
  0
LINE
  5
1F0
100
AcDbEntity
  8
0
370
               0
390
0
  6
Continuous
 62
              30
100
AcDbLine
 10
4186.4946509961501
 20
89.364034855365389
 30
0.0
 11
4192.9056967858687
 21
89.364034855365389
 31
0.0
  0
LINE
  5
1F1
100
AcDbEntity
  8
0
370
               0
390
0
  6
Continuous
 62
              30
100
AcDbLine
 10
4186.4931012753859
 20
89.364034855365389
 30
0.0
 11
4186.4946509961501
 21
89.364034855365389
 31
0.0
  0
LINE
  5
1F2
100
AcDbEntity
  8
0
370
               0
390
0
  6
Continuous
 62
              30
100
AcDbLine
 10
4049.7133161191355
 20
89.364034855365389
 30
0.0
 11
4186.4931012753859
 21
89.364034855365389
 31
0.0
  0
LINE
  5
1F3
100
AcDbEntity
  8
0
370
               0
390
0
  6
Continuous
 62
              30
100
AcDbLine
 10
4049.7133161191355
 20
98.364034467935198
 30
0.0
 11
4049.7133161191355
 21
89.364034855365389
 31
0.0
  0
LINE
  5
1F4
100
AcDbEntity
  8
0
370
               0
390
0
  6
Continuous
 62
              30
100
AcDbLine
 10
4192.9056967858687
 20
94.364034277945393
 30
0.0
 11
4170.905696905078
 21
94.364034277945393
 31
0.0
  0
LINE
  5
1F5
100
AcDbEntity
  8
0
370
               0
390
0
  6
Continuous
 62
              30
100
AcDbLine
 10
4192.9056967858687
 20
89.364034855365389
 30
0.0
 11
4192.9056967858687
 21
94.364034277945393
 31
0.0
  0
LINE
  5
1F6
100
AcDbEntity
  8
0
370
               0
390
0
  6
Continuous
 62
              30
100
AcDbLine
 10
4170.905696905078
 20
94.364034277945393
 30
0.0
 11
4170.905696905078
 21
98.364034467935198
 31
0.0
  0
LINE
  5
1F7
100
AcDbEntity
  8
0
370
               0
390
0
  6
Continuous
 62
              30
100
AcDbLine
 10
4031.4739478521556
 20
89.364034467935312
 30
0.0
 11
4049.7133168159048
 21
89.364034467935312
 31
0.0
  0
LINE
  5
1F8
100
AcDbEntity
  8
0
370
               0
390
0
  6
Continuous
 62
              30
100
AcDbLine
 10
4031.4739446405779
 20
611.36404591202711
 30
0.0
 11
4031.4739446405779
 21
89.364034855365389
 31
0.0
  0
LINE
  5
1F9
100
AcDbEntity
  8
0
370
               0
390
0
  6
Continuous
 62
              30
100
AcDbLine
 10
4049.7133168159048
 20
611.36403446793508
 30
0.0
 11
4031.4739478521556
 21
611.36403446793508
 31
0.0
  0
LINE
  5
1FA
100
AcDbEntity
  8
0
370
               0
390
0
  6
Continuous
 62
              30
100
AcDbLine
 10
4186.4946509961501
 20
611.36404591202711
 30
0.0
 11
4186.4946509961501
 21
620.36404924988722
 31
0.0
  0
LINE
  5
1FB
100
AcDbEntity
  8
0
370
               0
390
0
  6
Continuous
 62
              30
100
AcDbLine
 10
3990.8731381658922
 20
611.36404591202711
 30
0.0
 11
3990.8731381658922
 21
620.36404924988722
 31
0.0
  0
LINE
  5
1FC
100
AcDbEntity
  8
0
370
               0
390
0
  6
Continuous
 62
              30
100
AcDbLine
 10
4186.4946509961501
 20
620.36404924988722
 30
0.0
 11
3990.8731381658922
 21
620.36404924988722
 31
0.0
  0
LINE
  5
1FD
100
AcDbEntity
  8
0
370
               0
390
0
  6
Continuous
 62
              30
100
AcDbLine
 10
4192.9056967858687
 20
620.36404924988722
 30
0.0
 11
4186.4946509961501
 21
620.36404924988722
 31
0.0
  0
LINE
  5
1FE
100
AcDbEntity
  8
0
370
               0
390
0
  6
Continuous
 62
              30
100
AcDbLine
 10
4192.9056967858687
 20
620.36404924988722
 30
0.0
 11
4192.9056967858687
 21
611.36404591202711
 31
0.0
  0
LINE
  5
1FF
100
AcDbEntity
  8
0
370
               0
390
0
  6
Continuous
 62
              30
100
AcDbLine
 10
4186.4946509961501
 20
89.364034855365389
 30
0.0
 11
4186.4946509961501
 21
80.36403524279558
 31
0.0
  0
LINE
  5
200
100
AcDbEntity
  8
0
370
               0
390
0
  6
Continuous
 62
              30
100
AcDbLine
 10
3990.8731381658922
 20
80.36403524279558
 30
0.0
 11
4186.4946509961501
 21
80.36403524279558
 31
0.0
  0
LINE
  5
201
100
AcDbEntity
  8
0
370
               0
390
0
  6
Continuous
 62
              30
100
AcDbLine
 10
3990.8731381658922
 20
89.364034855365389
 30
0.0
 11
3990.8731381658922
 21
80.36403524279558
 31
0.0
  0
LINE
  5
202
100
AcDbEntity
  8
0
370
               0
390
0
  6
Continuous
 62
              30
100
AcDbLine
 10
4192.9056967858687
 20
89.364034855365389
 30
0.0
 11
4192.9056967858687
 21
80.36403524279558
 31
0.0
  0
LINE
  5
203
100
AcDbEntity
  8
0
370
               0
390
0
  6
Continuous
 62
              30
100
AcDbLine
 10
4186.4946509961501
 20
80.36403524279558
 30
0.0
 11
4192.9056967858687
 21
80.36403524279558
 31
0.0
  0
LINE
  5
204
100
AcDbEntity
  8
0
370
               0
390
0
  6
Continuous
 62
              30
100
AcDbLine
 10
4212.6239563588515
 20
620.36404924988722
 30
0.0
 11
4192.9056967858687
 21
620.36404924988722
 31
0.0
  0
LINE
  5
205
100
AcDbEntity
  8
0
370
               0
390
0
  6
Continuous
 62
              30
100
AcDbLine
 10
4212.6239563588515
 20
620.36404924988722
 30
0.0
 11
4212.6239563588515
 21
606.36405068039869
 31
0.0
  0
LINE
  5
206
100
AcDbEntity
  8
0
370
               0
390
0
  6
Continuous
 62
              30
100
AcDbLine
 10
4192.9056967858687
 20
606.36405068039869
 30
0.0
 11
4212.6239563588515
 21
606.36405068039869
 31
0.0
  0
LINE
  5
207
100
AcDbEntity
  8
0
370
               0
390
0
  6
Continuous
 62
              30
100
AcDbLine
 10
4212.6239563588515
 20
94.364034277945393
 30
0.0
 11
4192.9056967858687
 21
94.364034277945393
 31
0.0
  0
LINE
  5
208
100
AcDbEntity
  8
0
370
               0
390
0
  6
Continuous
 62
              30
100
AcDbLine
 10
4212.6239563588515
 20
80.36403524279558
 30
0.0
 11
4212.6239563588515
 21
94.364034277945393
 31
0.0
  0
LINE
  5
209
100
AcDbEntity
  8
0
370
               0
390
0
  6
Continuous
 62
              30
100
AcDbLine
 10
4192.9056967858687
 20
80.36403524279558
 30
0.0
 11
4212.6239563588515
 21
80.36403524279558
 31
0.0
  0
LINE
  5
20A
100
AcDbEntity
  8
0
370
               0
390
0
  6
Continuous
 62
              30
100
AcDbLine
 10
3970.3757676545988
 20
602.364042574167
 30
0.0
 11
3970.3757676545988
 21
98.364034467935198
 31
0.0
  0
LINE
  5
20B
100
AcDbEntity
  8
0
370
               0
390
0
  6
Continuous
 62
              30
100
AcDbLine
 10
3968.4935423795591
 20
602.364042574167
 30
0.0
 11
3970.3757676545988
 21
602.364042574167
 31
0.0
  0
LINE
  5
20C
100
AcDbEntity
  8
0
370
               0
390
0
  6
Continuous
 62
              30
100
AcDbLine
 10
3968.4935423795591
 20
602.364042574167
 30
0.0
 11
3968.4935423795591
 21
611.36404591202711
 31
0.0
  0
LINE
  5
20D
100
AcDbEntity
  8
0
370
               0
390
0
  6
Continuous
 62
              30
100
AcDbLine
 10
3968.4935423795591
 20
89.364034855365389
 30
0.0
 11
3968.4935423795591
 21
98.364034467935198
 31
0.0
  0
LINE
  5
20E
100
AcDbEntity
  8
0
370
               0
390
0
  6
Continuous
 62
              30
100
AcDbLine
 10
3970.3757676545988
 20
98.364034467935198
 30
0.0
 11
3968.4935423795591
 21
98.364034467935198
 31
0.0
  0
LINE
  5
20F
100
AcDbEntity
  8
0
370
               0
390
0
  6
Continuous
 62
              30
100
AcDbLine
 10
3968.4935423795591
 20
89.364034855365389
 30
0.0
 11
4031.4739446405779
 21
89.364034855365389
 31
0.0
  0
LINE
  5
210
100
AcDbEntity
  8
0
370
               0
390
0
  6
Continuous
 62
              30
100
AcDbLine
 10
3968.4935423795591
 20
611.36404591202711
 30
0.0
 11
4031.4739446405779
 21
611.36404591202711
 31
0.0
  0
LINE
  5
211
100
AcDbEntity
  8
0
370
               0
390
0
  6
Continuous
 62
              30
100
AcDbLine
 10
4212.6239563588515
 20
606.36405068039869
 30
0.0
 11
4220.9065879945174
 21
606.36405068039869
 31
0.0
  0
LINE
  5
212
100
AcDbEntity
  8
0
370
               0
390
0
  6
Continuous
 62
              30
100
AcDbLine
 10
4220.9065879945174
 20
620.36404924988722
 30
0.0
 11
4212.6239563588515
 21
620.36404924988722
 31
0.0
  0
LINE
  5
213
100
AcDbEntity
  8
0
370
               0
390
0
  6
Continuous
 62
              30
100
AcDbLine
 10
4220.9065879945174
 20
94.364034277945393
 30
0.0
 11
4212.6239563588515
 21
94.364034277945393
 31
0.0
  0
LINE
  5
214
100
AcDbEntity
  8
0
370
               0
390
0
  6
Continuous
 62
              30
100
AcDbLine
 10
4212.6239563588515
 20
80.36403524279558
 30
0.0
 11
4220.9065879945174
 21
80.36403524279558
 31
0.0
  0
LINE
  5
215
100
AcDbEntity
  8
0
370
               0
390
0
  6
Continuous
 62
              30
100
AcDbLine
 10
3963.4895179756732
 20
602.36403446793531
 30
0.0
 11
3968.4935435722132
 21
602.36403446793531
 31
0.0
  0
LINE
  5
216
100
AcDbEntity
  8
0
370
               0
390
0
  6
Continuous
 62
              30
100
AcDbLine
 10
3961.135962530414
 20
602.36403446793531
 30
0.0
 11
3963.4895179756732
 21
602.36403446793531
 31
0.0
  0
LINE
  5
217
100
AcDbEntity
  8
0
370
               0
390
0
  6
Continuous
 62
              30
100
AcDbLine
 10
3961.1341047350775
 20
602.364042574167
 30
0.0
 11
3961.1359636549364
 21
602.364042574167
 31
0.0
  0
LINE
  5
218
100
AcDbEntity
  8
0
370
               0
390
0
  6
Continuous
 62
              30
100
AcDbLine
 10
3960.3752680986377
 20
602.36403446793531
 30
0.0
 11
3961.1341040133821
 21
602.36403446793531
 31
0.0
  0
LINE
  5
219
100
AcDbEntity
  8
0
370
               0
390
0
  6
Continuous
 62
              30
100
AcDbLine
 10
3942.9853658441912
 20
602.364042574167
 30
0.0
 11
3960.3752668265711
 21
602.364042574167
 31
0.0
  0
LINE
  5
21A
100
AcDbEntity
  8
0
370
               0
390
0
  6
Continuous
 62
              30
100
AcDbLine
 10
3990.8731381658922
 20
620.36404924988722
 30
0.0
 11
3942.9078313772093
 21
620.36404924988722
 31
0.0
  0
LINE
  5
21B
100
AcDbEntity
  8
0
370
               0
390
0
  6
Continuous
 62
              30
100
AcDbLine
 10
3960.3752668265711
 20
98.364034467935198
 30
0.0
 11
3942.9853658441912
 21
98.364034467935198
 31
0.0
  0
LINE
  5
21C
100
AcDbEntity
  8
0
370
               0
390
0
  6
Continuous
 62
              30
100
AcDbLine
 10
3961.1341040133821
 20
98.364034467935198
 30
0.0
 11
3960.3752680986377
 21
98.364034467935198
 31
0.0
  0
LINE
  5
21D
100
AcDbEntity
  8
0
370
               0
390
0
  6
Continuous
 62
              30
100
AcDbLine
 10
3961.1359636549364
 20
98.364034467935198
 30
0.0
 11
3961.1341047350775
 21
98.364034467935198
 31
0.0
  0
LINE
  5
21E
100
AcDbEntity
  8
0
370
               0
390
0
  6
Continuous
 62
              30
100
AcDbLine
 10
3963.4895179756732
 20
98.364034467935198
 30
0.0
 11
3961.135962530414
 21
98.364034467935198
 31
0.0
  0
LINE
  5
21F
100
AcDbEntity
  8
0
370
               0
390
0
  6
Continuous
 62
              30
100
AcDbLine
 10
3968.4935435722132
 20
98.364034467935198
 30
0.0
 11
3963.4895179756732
 21
98.364034467935198
 31
0.0
  0
LINE
  5
220
100
AcDbEntity
  8
0
370
               0
390
0
  6
Continuous
 62
              30
100
AcDbLine
 10
3942.9078313772093
 20
80.36403524279558
 30
0.0
 11
3990.8731381658922
 21
80.36403524279558
 31
0.0
  0
LINE
  5
221
100
AcDbEntity
  8
0
370
               0
390
0
  6
Continuous
 62
              30
100
AcDbLine
 10
3961.1388135020147
 20
602.364042574167
 30
0.0
 11
3961.1388135020147
 21
98.364034467935198
 31
0.0
  0
LINE
  5
222
100
AcDbEntity
  8
0
370
               0
390
0
  6
Continuous
 62
              30
100
AcDbLine
 10
3960.3757697407614
 20
98.364034467935198
 30
0.0
 11
3960.3757697407614
 21
602.364042574167
 31
0.0
  0
LINE
  5
223
100
AcDbEntity
  8
0
370
               0
390
0
  6
Continuous
 62
              30
100
AcDbLine
 10
3961.1352074210058
 20
602.364042574167
 30
0.0
 11
3961.1352074210058
 21
98.364034467936108
 31
0.0
  0
LINE
  5
224
100
AcDbEntity
  8
0
370
               0
390
0
  6
Continuous
 62
              30
100
AcDbLine
 10
4192.9066206578627
 20
605.36406355500196
 30
0.0
 11
4192.9066206578627
 21
95.364034441858166
 31
0.0
  0
LINE
  5
225
100
AcDbEntity
  8
0
370
               0
390
0
  6
Continuous
 62
              30
100
AcDbLine
 10
4171.9065930013076
 20
95.364034441858166
 30
0.0
 11
4192.9066206578627
 21
95.364034441858166
 31
0.0
  0
LINE
  5
226
100
AcDbEntity
  8
0
370
               0
390
0
  6
Continuous
 62
              30
100
AcDbLine
 10
4192.9066206578627
 20
605.36406355500196
 30
0.0
 11
4171.9065930013076
 21
605.36406355500196
 31
0.0
  0
CIRCLE
  5
227
100
AcDbEntity
  8
0
370
               0
390
0
  6
Continuous
 62
              30
100
AcDbCircle
 10
4184.9065917537773
 20
135.36403446793508
 30
0.0
 40
3.0
  0
CIRCLE
  5
228
100
AcDbEntity
  8
0
370
               0
390
0
  6
Continuous
 62
              30
100
AcDbCircle
 10
4184.9065917537773
 20
565.36403446793508
 30
0.0
 40
3.0
  0
CIRCLE
  5
229
100
AcDbEntity
  8
0
370
               0
390
0
  6
Continuous
 62
              30
100
AcDbCircle
 10
4184.9065917537773
 20
350.36403446793531
 30
0.0
 40
3.0
  0
LINE
  5
22A
100
AcDbEntity
  8
0
370
               0
390
0
  6
Continuous
 62
              30
100
AcDbLine
 10
4171.9065930013076
 20
605.36406355500196
 30
0.0
 11
4171.9065930013076
 21
95.364034441858166
 31
0.0
  0
LINE
  5
22B
100
AcDbEntity
  8
0
370
               0
390
0
  6
Continuous
 62
              30
100
AcDbLine
 10
4211.1125911836043
 20
605.36406355500196
 30
0.0
 11
4211.1125911836043
 21
95.364034441858166
 31
0.0
  0
LINE
  5
22C
100
AcDbEntity
  8
0
370
               0
390
0
  6
Continuous
 62
              30
100
AcDbLine
 10
4192.9066206578627
 20
95.364034441858166
 30
0.0
 11
4211.1125911836043
 21
95.364034441858166
 31
0.0
  0
LINE
  5
22D
100
AcDbEntity
  8
0
370
               0
390
0
  6
Continuous
 62
              30
100
AcDbLine
 10
4211.1125911836043
 20
605.36406355500196
 30
0.0
 11
4192.9066206578627
 21
605.36406355500196
 31
0.0
  0
LINE
  5
22E
100
AcDbEntity
  8
0
370
               0
390
0
  6
Continuous
 62
              30
100
AcDbLine
 10
4211.1160780553237
 20
605.36406355500196
 30
0.0
 11
4211.1160780553237
 21
95.364034441858166
 31
0.0
  0
LINE
  5
22F
100
AcDbEntity
  8
0
370
               0
390
0
  6
Continuous
 62
              30
100
AcDbLine
 10
4211.1160780553237
 20
95.364034441858166
 30
0.0
 11
4211.1125911836043
 21
95.364034441858166
 31
0.0
  0
LINE
  5
230
100
AcDbEntity
  8
0
370
               0
390
0
  6
Continuous
 62
              30
100
AcDbLine
 10
4211.1125911836043
 20
605.36406355500196
 30
0.0
 11
4211.1160780553237
 21
605.36406355500196
 31
0.0
  0
LINE
  5
231
100
AcDbEntity
  8
0
370
               0
390
0
  6
Continuous
 62
              30
100
AcDbLine
 10
4219.0637315873519
 20
115.36403539180719
 30
0.0
 11
4219.0637315873519
 21
155.36403449773763
 31
0.0
  0
LINE
  5
232
100
AcDbEntity
  8
0
370
               0
390
0
  6
Continuous
 62
              30
100
AcDbLine
 10
4219.4065775040999
 20
115.36403539180719
 30
0.0
 11
4219.0637315873519
 21
115.36403539180719
 31
0.0
  0
LINE
  5
233
100
AcDbEntity
  8
0
370
               0
390
0
  6
Continuous
 62
              30
100
AcDbLine
 10
4219.0637315873519
 20
155.36403449773763
 30
0.0
 11
4219.4065775040999
 21
155.36403449773763
 31
0.0
  0
LINE
  5
234
100
AcDbEntity
  8
0
370
               0
390
0
  6
Continuous
 62
              30
100
AcDbLine
 10
4211.1160780553237
 20
95.364034441858166
 30
0.0
 11
4219.4065775040999
 21
95.364034441858166
 31
0.0
  0
LINE
  5
235
100
AcDbEntity
  8
0
370
               0
390
0
  6
Continuous
 62
              30
100
AcDbLine
 10
4219.4065775040999
 20
605.36406355500196
 30
0.0
 11
4211.1160780553237
 21
605.36406355500196
 31
0.0
  0
LINE
  5
236
100
AcDbEntity
  8
0
370
               0
390
0
  6
Continuous
 62
              30
100
AcDbLine
 10
4192.9056967858687
 20
605.36406355500196
 30
0.0
 11
4192.9056967858687
 21
606.36405068039869
 31
0.0
  0
LINE
  5
237
100
AcDbEntity
  8
0
370
               0
390
0
  6
Continuous
 62
              30
100
AcDbLine
 10
4192.9056967858687
 20
94.364034277945393
 30
0.0
 11
4192.9056967858687
 21
95.364034441858166
 31
0.0
  0
LINE
  5
238
100
AcDbEntity
  8
0
370
               0
390
0
  6
Continuous
 62
              30
100
AcDbLine
 10
4208.6803044442549
 20
606.36405068039869
 30
0.0
 11
4208.6803044442549
 21
605.36406355500196
 31
0.0
  0
LINE
  5
239
100
AcDbEntity
  8
0
370
               0
390
0
  6
Continuous
 62
              30
100
AcDbLine
 10
4208.6803044442549
 20
94.364034277945393
 30
0.0
 11
4208.6803044442549
 21
95.364034441858166
 31
0.0
  0
LINE
  5
23A
100
AcDbEntity
  8
0
370
               0
390
0
  6
Continuous
 62
              30
100
AcDbLine
 10
4710.9580835228235
 20
602.364042574167
 30
0.0
 11
4710.9580835228235
 21
611.36404591202711
 31
0.0
  0
LINE
  5
23B
100
AcDbEntity
  8
0
370
               0
390
0
  6
Continuous
 62
              30
100
AcDbLine
 10
4704.879749279894
 20
602.36403446793531
 30
0.0
 11
4707.0436544565182
 21
602.36403446793531
 31
0.0
  0
LINE
  5
23C
100
AcDbEntity
  8
0
370
               0
390
0
  6
Continuous
 62
              30
100
AcDbLine
 10
4704.8779478197366
 20
602.364042574167
 30
0.0
 11
4704.8797508602411
 21
602.364042574167
 31
0.0
  0
LINE
  5
23D
100
AcDbEntity
  8
0
370
               0
390
0
  6
Continuous
 62
              30
100
AcDbLine
 10
4704.128734223008
 20
602.36403446793531
 30
0.0
 11
4704.8779467425638
 21
602.36403446793531
 31
0.0
  0
LINE
  5
23E
100
AcDbEntity
  8
0
370
               0
390
0
  6
Continuous
 62
              30
100
AcDbLine
 10
4627.4018059513428
 20
602.36403446793531
 30
0.0
 11
4704.128734223008
 21
602.36403446793531
 31
0.0
  0
LINE
  5
23F
100
AcDbEntity
  8
0
370
               0
390
0
  6
Continuous
 62
              30
100
AcDbLine
 10
4627.4018039827615
 20
611.36404591202711
 30
0.0
 11
4627.4018039827615
 21
602.364042574167
 31
0.0
  0
LINE
  5
240
100
AcDbEntity
  8
0
370
               0
390
0
  6
Continuous
 62
              30
100
AcDbLine
 10
4605.4300045495302
 20
611.36404591202711
 30
0.0
 11
4605.4300045495302
 21
620.36404924988722
 31
0.0
  0
LINE
  5
241
100
AcDbEntity
  8
0
370
               0
390
0
  6
Continuous
 62
              30
100
AcDbLine
 10
4720.5894192581445
 20
620.36404924988722
 30
0.0
 11
4605.4300045495302
 21
620.36404924988722
 31
0.0
  0
LINE
  5
242
100
AcDbEntity
  8
0
370
               0
390
0
  6
Continuous
 62
              30
100
AcDbLine
 10
4720.5894192581445
 20
611.36404591202711
 30
0.0
 11
4720.5894192581445
 21
620.36404924988722
 31
0.0
  0
LINE
  5
243
100
AcDbEntity
  8
0
370
               0
390
0
  6
Continuous
 62
              30
100
AcDbLine
 10
4627.4018039827615
 20
98.364034467935198
 30
0.0
 11
4627.4018039827615
 21
89.364034855365389
 31
0.0
  0
LINE
  5
244
100
AcDbEntity
  8
0
370
               0
390
0
  6
Continuous
 62
              30
100
AcDbLine
 10
4704.128734223008
 20
98.364034467935198
 30
0.0
 11
4627.4018059513428
 21
98.364034467935198
 31
0.0
  0
LINE
  5
245
100
AcDbEntity
  8
0
370
               0
390
0
  6
Continuous
 62
              30
100
AcDbLine
 10
4704.8779467425638
 20
98.364034467935198
 30
0.0
 11
4704.128734223008
 21
98.364034467935198
 31
0.0
  0
LINE
  5
246
100
AcDbEntity
  8
0
370
               0
390
0
  6
Continuous
 62
              30
100
AcDbLine
 10
4704.8797508602411
 20
98.364034467935198
 30
0.0
 11
4704.8779478197366
 21
98.364034467935198
 31
0.0
  0
LINE
  5
247
100
AcDbEntity
  8
0
370
               0
390
0
  6
Continuous
 62
              30
100
AcDbLine
 10
4707.0436544565182
 20
98.364034467935198
 30
0.0
 11
4704.879749279894
 21
98.364034467935198
 31
0.0
  0
LINE
  5
248
100
AcDbEntity
  8
0
370
               0
390
0
  6
Continuous
 62
              30
100
AcDbLine
 10
4710.9580835228235
 20
89.364034855365389
 30
0.0
 11
4710.9580835228235
 21
98.364034467935198
 31
0.0
  0
LINE
  5
249
100
AcDbEntity
  8
0
370
               0
390
0
  6
Continuous
 62
              30
100
AcDbLine
 10
4720.5894192581445
 20
89.364034855365389
 30
0.0
 11
4720.5894192581445
 21
80.36403524279558
 31
0.0
  0
LINE
  5
24A
100
AcDbEntity
  8
0
370
               0
390
0
  6
Continuous
 62
              30
100
AcDbLine
 10
4605.4300045495302
 20
80.36403524279558
 30
0.0
 11
4720.5894192581445
 21
80.36403524279558
 31
0.0
  0
LINE
  5
24B
100
AcDbEntity
  8
0
370
               0
390
0
  6
Continuous
 62
              30
100
AcDbLine
 10
4605.4300045495302
 20
80.36403524279558
 30
0.0
 11
4605.4300045495302
 21
89.364034855365389
 31
0.0
  0
LINE
  5
24C
100
AcDbEntity
  8
0
370
               0
390
0
  6
Continuous
 62
              30
100
AcDbLine
 10
4544.3648187344343
 20
611.36404591202711
 30
0.0
 11
4627.4018039827615
 21
611.36404591202711
 31
0.0
  0
LINE
  5
24D
100
AcDbEntity
  8
0
370
               0
390
0
  6
Continuous
 62
              30
100
AcDbLine
 10
4617.9408928280145
 20
98.364034467935198
 30
0.0
 11
4617.9408928280145
 21
602.364042574167
 31
0.0
  0
LINE
  5
24E
100
AcDbEntity
  8
0
370
               0
390
0
  6
Continuous
 62
              30
100
AcDbLine
 10
4544.3648187344343
 20
89.364034855365389
 30
0.0
 11
4627.4018039827615
 21
89.364034855365389
 31
0.0
  0
LINE
  5
24F
100
AcDbEntity
  8
0
370
               0
390
0
  6
Continuous
 62
              30
100
AcDbLine
 10
4544.3648187344343
 20
89.364034855365389
 30
0.0
 11
4544.3648187344343
 21
611.36404591202711
 31
0.0
  0
LINE
  5
250
100
AcDbEntity
  8
0
370
               0
390
0
  6
Continuous
 62
              30
100
AcDbLine
 10
4627.4018039827615
 20
98.364034467935198
 30
0.0
 11
4617.9408928280145
 21
98.364034467935198
 31
0.0
  0
LINE
  5
251
100
AcDbEntity
  8
0
370
               0
390
0
  6
Continuous
 62
              30
100
AcDbLine
 10
4617.9408928280145
 20
602.364042574167
 30
0.0
 11
4627.4018039827615
 21
602.364042574167
 31
0.0
  0
CIRCLE
  5
252
100
AcDbEntity
  8
0
370
               0
390
0
  6
Continuous
 62
              30
100
AcDbCircle
 10
4661.408852282937
 20
386.86403446793508
 30
0.0
 40
4.0
  0
LWPOLYLINE
  5
253
100
AcDbEntity
  8
0
370
               0
390
0
  6
Continuous
 62
              30
100
AcDbPolyline
 90
       68
 70
             128
 10
4648.908852282937
 20
159.36403446793486
 10
4648.8937733690009
 20
159.36417821258888
 42
-0.001612613327813
 10
4648.8104097231135
 20
159.36524180372393
 42
-0.0019618715821558
 10
4648.7270560191073
 20
159.36690132199615
 10
4648.7208957319936
 20
159.36704815227137
 42
-0.0067069147772485
 10
4648.6252757599441
 20
159.37061107858494
 10
4648.6111629455045
 20
159.37132661372658
 42
-0.0048575223407266
 10
4648.487437796909
 20
159.37880532173833
 10
4648.4663138545611
 20
159.38028827832966
 42
-0.0089122835530097
 10
4648.300673726606
 20
159.3948876213388
 10
4648.2690123819448
 20
159.39824789238372
 42
-0.0101120746945486
 10
4648.0408940780289
 20
159.4271344460422
 10
4648.0020247730408
 20
159.432857291289
 42
-0.01560921757881
 10
4647.6984516211051
 20
159.48728289428516
 10
4647.6652888025255
 20
159.49430328044903
 42
-0.0125222224004774
 10
4647.3731730722984
 20
159.56382825969138
 42
-0.0125865426809938
 10
4647.0848547578644
 20
159.64794906585266
 10
4647.0681190031273
 20
159.65329256021442
 42
-0.0125053783966896
 10
4646.817503944123
 20
159.74027423360846
 42
-0.0095354873695118
 10
4646.5709329415131
 20
159.83822773663917
 10
4646.5681004789767
 20
159.83941599484513
 42
-0.0130073075668455
 10
4646.3206331727997
 20
159.95088764737105
 10
4646.3020059317814
 20
159.95986820546662
 42
-0.0131007112263685
 10
4646.023880124977
 20
160.10305955925807
 10
4646.0038444852098
 20
160.1140480938447
 42
-0.013079241445989
 10
4645.7730063953222
 20
160.2486215147843
 42
-0.0092347821986035
 10
4645.5483630679337
 20
160.39338376135873
 10
4645.5470313058959
 20
160.39427719486272
 42
-0.0132717200747004
 10
4645.3265545328286
 20
160.55082896972621
 10
4645.3069418874993
 20
160.56555337297408
 42
-0.0132623206756433
 10
4645.0566153811742
 20
160.76408802600909
 42
-0.0133039850361353
 10
4644.8171172693437
 20
160.97569818663646
 42
-0.0133925870625427
 10
4644.5892295690956
 20
161.19981078077438
 42
-0.0133309605455093
 10
4644.3736496398187
 20
161.43576343221741
 42
-0.0132745739251963
 10
4644.1709669661986
 20
161.68278996976377
 10
4644.1697068895446
 20
161.6844116756547
 42
-0.0132645156570261
 10
4643.9828770091262
 20
161.93849367276923
 10
4643.9819173359356
 20
161.93987406933715
 42
-0.0129713856070716
 10
4643.8105136287049
 20
162.20059999675908
 42
-0.0130699106154583
 10
4643.6529155034696
 20
162.46989365031305
 10
4643.6527375781498
 20
162.47021676420613
 42
-0.0130991140201868
 10
4643.5090735508493
 20
162.74810748522245
 10
4643.5082847061203
 20
162.74973659522192
 42
-0.0130233883269339
 10
4643.380788648562
 20
163.03152106993468
 10
4643.3795440983631
 20
163.03447415477737
 42
-0.0126741695673174
 10
4643.2690273840562
 20
163.31647574971333
 10
4643.2685820718189
 20
163.3177026993751
 42
-0.0125028414597389
 10
4643.1732264929205
 20
163.60243706438388
 42
-0.0125585116229768
 10
4643.0922397545801
 20
163.89166120325257
 10
4643.0845270826221
 20
163.92213254413855
 42
-0.0125856869428144
 10
4643.0320467619131
 20
164.15384018198299
 10
4643.0265649703188
 20
164.18122491548326
 42
-0.0073247658665002
 10
4642.9935002097136
 20
164.35996870662993
 42
-0.0075895369964461
 10
4642.9657811645975
 20
164.53961768069982
 10
4642.9624566050124
 20
164.56357146646221
 42
-0.0090584104244052
 10
4642.9406111524504
 20
164.74505796346966
 10
4642.9382166470286
 20
164.76852689089372
 42
-0.0066541221381517
 10
4642.9262465068432
 20
164.90363064428436
 10
4642.9244800634733
 20
164.9271199255929
 42
-0.0066418858312735
 10
4642.9190146507663
 20
165.01547702946721
 10
4642.9185879681736
 20
165.02426885971335
 42
-0.0021371587890664
 10
4642.9154525652002
 20
165.095128309362
 42
-0.0031993859599182
 10
4642.9130736406605
 20
165.16601638313125
 10
4642.912712668719
 20
165.17930978725258
 42
-0.0018830852232095
 10
4642.9105701513035
 20
165.27092658872343
 10
4642.910541216972
 20
165.2724014961793
 42
-0.000576651981371
 10
4642.908903885439
 20
165.36107844019438
 10
4642.908852282937
 20
165.36403446793508
  0
LINE
  5
254
100
AcDbEntity
  8
0
370
               0
390
0
  6
Continuous
 62
              30
100
AcDbLine
 10
4673.9088496094018
 20
159.36403515338873
 30
0.0
 11
4648.9088585500986
 21
159.36403515338873
 31
0.0
  0
LWPOLYLINE
  5
255
100
AcDbEntity
  8
0
370
               0
390
0
  6
Continuous
 62
              30
100
AcDbPolyline
 90
       68
 70
             128
 10
4679.908852282937
 20
165.36403446793486
 10
4679.9087085382826
 20
165.34895555399547
 42
-0.0016126133372106
 10
4679.9076449471459
 20
165.26559190810099
 42
-0.0019618715438084
 10
4679.9059854288762
 20
165.18223820408633
 10
4679.9058385986018
 20
165.17607791697139
 42
-0.0067069148211157
 10
4679.9022756722898
 20
165.08045794491179
 10
4679.9015601371475
 20
165.06634513047405
 42
-0.0048575223220888
 10
4679.8940814291318
 20
164.94261998187213
 10
4679.8925984725402
 20
164.92149603951833
 42
-0.0089122835633977
 10
4679.8779991295278
 20
164.75585591154615
 10
4679.8746388584877
 20
164.72419456694408
 42
-0.0101120746748137
 10
4679.8457523048437
 20
164.49607626312707
 10
4679.840029459584
 20
164.45720695804101
 42
-0.0156092176025484
 10
4679.7856038565706
 20
164.15363380601002
 10
4679.7785834704191
 20
164.12047098749727
 42
-0.0125222223886061
 10
4679.7090584911657
 20
163.82835525725994
 42
-0.0125865426781771
 10
4679.6249376850083
 20
163.54003694282886
 10
4679.6195941906471
 20
163.52330118809428
 42
-0.0125053784008138
 10
4679.5326125172587
 20
163.27268612910274
 42
-0.0095354873714482
 10
4679.4346590142313
 20
163.02611512650739
 10
4679.4334707560192
 20
163.02328266395585
 42
-0.0130073075608683
 10
4679.3219991034866
 20
162.77581535776372
 10
4679.3130185453902
 20
162.75718811674329
 42
-0.0131007112363605
 10
4679.1698271915966
 20
162.47906230993777
 10
4679.1588386570074
 20
162.45902667016688
 42
-0.0130792414420423
 10
4679.0242652360766
 20
162.22818858030291
 42
-0.0092347821986854
 10
4678.8795029895136
 20
162.00354525293542
 10
4678.8786095560044
 20
162.00221349089031
 42
-0.0132717200698414
 10
4678.7220577811449
 20
161.7817367178271
 10
4678.7073333778972
 20
161.76212407249733
 42
-0.013262320680124
 10
4678.5087987248626
 20
161.51179756617211
 42
-0.0133039850322396
 10
4678.2971885642355
 20
161.27229945434107
 42
-0.0133925870668337
 10
4678.0730759700982
 20
161.04441175409352
 42
-0.0133309605428799
 10
4677.8371233186535
 20
160.82883182481726
 42
-0.0132745739270867
 10
4677.5900967811076
 20
160.62614915119786
 10
4677.588475075212
 20
160.62488907454113
 42
-0.013264515653035
 10
4677.3343930781084
 20
160.43805919412989
 10
4677.3330126815272
 20
160.43709952092942
 42
-0.0129713856089451
 10
4677.0722867541463
 20
160.26569581372274
 42
-0.0130699106087229
 10
4676.8029931006349
 20
160.10809768850592
 10
4676.8026699867378
 20
160.1079197631837
 42
-0.0130991140264768
 10
4676.5247792657246
 20
159.96425573588064
 10
4676.52315015573
 20
159.9634668911537
 42
-0.0130233883277715
 10
4676.2413656809749
 20
159.83597083357623
 10
4676.2384125961089
 20
159.83472628336733
 42
-0.0126741695631215
 10
4675.9564110011761
 20
159.72420956906012
 10
4675.9551840515169
 20
159.72376425682302
 42
-0.0125028414576131
 10
4675.6704496865095
 20
159.62840867791948
 42
-0.0125585116316663
 10
4675.3812255476369
 20
159.54742193957691
 10
4675.3507542067509
 20
159.53970926761917
 42
-0.012585686942795
 10
4675.119046568896
 20
159.48722894691036
 10
4675.0916618353949
 20
159.48174715531678
 42
-0.0073247658668252
 10
4674.9129180442415
 20
159.44868239471265
 42
-0.0075895369938992
 10
4674.7332690701642
 20
159.420963349597
 10
4674.7093152843981
 20
159.4176387900124
 42
-0.0090584104219669
 10
4674.5278287873925
 20
159.39579333745004
 10
4674.5043598599723
 20
159.39339883202899
 42
-0.0066541221361721
 10
4674.3692561065764
 20
159.38142869184171
 10
4674.3457668252622
 20
159.3796622484715
 42
-0.006641885839337
 10
4674.2574097213928
 20
159.37419683576522
 10
4674.2486178911477
 20
159.37377015317261
 42
-0.0021371587795564
 10
4674.1777584415013
 20
159.37063475019917
 42
-0.0031993859624558
 10
4674.1068703677347
 20
159.36825582565851
 10
4674.0935769636135
 20
159.36789485371725
 42
-0.0018830852195577
 10
4674.0019601621461
 20
159.36575233630094
 10
4674.0004852546908
 20
159.36572340196903
 42
-0.0005766519961356
 10
4673.9118083106778
 20
159.36408607043683
 10
4673.908852282937
 20
159.36403446793486
  0
LINE
  5
256
100
AcDbEntity
  8
0
370
               0
390
0
  6
Continuous
 62
              30
100
AcDbLine
 10
4679.9088468675882
 20
283.3640368521211
 30
0.0
 11
4679.9088468675882
 21
165.36403613686537
 31
0.0
  0
LWPOLYLINE
  5
257
100
AcDbEntity
  8
0
370
               0
390
0
  6
Continuous
 62
              30
100
AcDbPolyline
 90
       68
 70
             128
 10
4673.908852282937
 20
289.36403446793531
 10
4673.9239311968668
 20
289.36389072328114
 42
-0.0016126133240737
 10
4674.0072948427351
 20
289.36282713214592
 42
-0.0019618715839526
 10
4674.090648546724
 20
289.36116761387399
 10
4674.0968088338359
 20
289.3610207835988
 42
-0.0067069147775931
 10
4674.1924288058635
 20
289.35745785728545
 10
4674.206541620305
 20
289.35674232214365
 42
-0.0048575223400494
 10
4674.3302667688822
 20
289.34926361413227
 10
4674.3513907112419
 20
289.34778065754006
 42
-0.0089122835569311
 10
4674.5170308392007
 20
289.33318131452853
 10
4674.5486921838192
 20
289.32982104348753
 42
-0.0101120746717087
 10
4674.7768104876559
 20
289.30093448984519
 10
4674.8156797927541
 20
289.29521164458498
 42
-0.0156092175910392
 10
4675.1192529448308
 20
289.24078604157813
 10
4675.1524157633276
 20
289.23376565543259
 42
-0.0125222224024324
 10
4675.4445314935456
 20
289.16424067619812
 42
-0.0125865426868164
 10
4675.7328498079805
 20
289.08011987003664
 10
4675.7495855627176
 20
289.07477637567479
 42
-0.0125053784006206
 10
4676.0002006217346
 20
288.98779470227106
 42
-0.009535487369356
 10
4676.2467716243536
 20
288.88984119922799
 10
4676.2496040868773
 20
288.88865294102794
 42
-0.0130073075593773
 10
4676.497071393037
 20
288.77718128850546
 10
4676.5156986340571
 20
288.76820073040926
 42
-0.0131007112218866
 10
4676.7938244408615
 20
288.6250093766206
 10
4676.813860080626
 20
288.61402084203621
 42
-0.0130792414438617
 10
4677.0446981705336
 20
288.47944742109172
 42
-0.0092347821990515
 10
4677.2693414979422
 20
288.33468517451223
 10
4677.2706732599763
 20
288.33379174101088
 42
-0.0132717200817662
 10
4677.4911500330527
 20
288.1772399661437
 10
4677.5107626783774
 20
288.16251556289956
 42
-0.0132623206748783
 10
4677.7610891847025
 20
287.96398090986435
 42
-0.0133039850382282
 10
4678.000587296533
 20
287.75237074923518
 42
-0.0133925870650812
 10
4678.2284749967785
 20
287.52825815509442
 42
-0.0133309605424647
 10
4678.4440549260516
 20
287.29230550365003
 42
-0.0132745739248981
 10
4678.6467375996699
 20
287.04527896610364
 10
4678.6479976763221
 20
287.04365726021382
 42
-0.0132645156495371
 10
4678.834827556745
 20
286.78957526309955
 10
4678.8357872299366
 20
286.78819486653066
 42
-0.0129713856099081
 10
4679.0071909371727
 20
286.52746893911257
 42
-0.0130699106134555
 10
4679.1647890624135
 20
286.25817528556183
 10
4679.1649669877334
 20
286.25785217166867
 42
-0.0130991140295502
 10
4679.3086310150356
 20
285.97996145065241
 10
4679.3094198597637
 20
285.97833234065581
 42
-0.0130233883339189
 10
4679.4369159173184
 20
285.69654786593219
 10
4679.4381604675136
 20
285.69359478109783
 42
-0.0126741695645333
 10
4679.5486771818196
 20
285.41159318613336
 10
4679.5491224940597
 20
285.41036623646551
 42
-0.0125028414513806
 10
4679.6444780729589
 20
285.12563187144264
 42
-0.0125585116234506
 10
4679.7254648112994
 20
284.83640773257895
 10
4679.7331774832583
 20
284.80593639169319
 42
-0.0125856869399213
 10
4679.7856578039664
 20
284.57422875387118
 10
4679.7911395955589
 20
284.54684402037907
 42
-0.0073247658801086
 10
4679.8242043561613
 20
284.36810022923805
 42
-0.007589536987143
 10
4679.8519234012738
 20
284.18845125517356
 10
4679.8552479608588
 20
284.1644974694085
 42
-0.0090584104256458
 10
4679.8770934134209
 20
283.98301097240056
 10
4679.8794879188426
 20
283.95954204497639
 42
-0.0066541221204241
 10
4679.8914580590326
 20
283.82443829158575
 10
4679.8932245024034
 20
283.80094901027701
 42
-0.0066418858762931
 10
4679.8986899151087
 20
283.71259190640302
 10
4679.8991165977004
 20
283.70380007615699
 42
-0.0021371587513965
 10
4679.9022520006711
 20
283.63294062650823
 42
-0.0031993859639459
 10
4679.9046309252135
 20
283.56205255273903
 10
4679.904991897155
 20
283.54875914861782
 42
-0.0018830852306566
 10
4679.9071344145714
 20
283.45714234714694
 10
4679.9071633489029
 20
283.45566743969107
 42
-0.0005766519851735
 10
4679.908800680435
 20
283.36699049567596
 10
4679.908852282937
 20
283.36403446793531
  0
LINE
  5
258
100
AcDbEntity
  8
0
370
               0
390
0
  6
Continuous
 62
              30
100
AcDbLine
 10
4648.9088585500986
 20
289.36403411030744
 30
0.0
 11
4673.9088496094018
 21
289.36403411030744
 31
0.0
  0
LWPOLYLINE
  5
259
100
AcDbEntity
  8
0
370
               0
390
0
  6
Continuous
 62
              30
100
AcDbPolyline
 90
       68
 70
             128
 10
4642.908852282937
 20
283.36403446793531
 10
4642.9089960275915
 20
283.37911338187644
 42
-0.0016126133179421
 10
4642.9100596187282
 20
283.46247702778044
 42
-0.001961871564694
 10
4642.9117191369978
 20
283.54583073180459
 10
4642.9118659672722
 20
283.55199101891901
 42
-0.0067069148050622
 10
4642.9154288935842
 20
283.64761099098712
 10
4642.9161444287265
 20
283.66172380542497
 42
-0.0048575223336506
 10
4642.9236231367422
 20
283.78544895403553
 10
4642.9251060933339
 20
283.8065728963868
 42
-0.0089122835532706
 10
4642.9397054363471
 20
283.97221302436265
 10
4642.9430657073854
 20
284.00387436896023
 42
-0.010112074691988
 10
4642.9719522610312
 20
284.23199267277113
 10
4642.9776751062918
 20
284.27086197785115
 42
-0.0156092175935439
 10
4643.0321007093107
 20
284.57443512986379
 10
4643.0391210954613
 20
284.60759794837315
 42
-0.012522222384508
 10
4643.1086460747147
 20
284.8997136786096
 42
-0.0125865426820243
 10
4643.192766880873
 20
285.18803199304068
 10
4643.198110375236
 20
285.20476774778211
 42
-0.0125053783924861
 10
4643.285092048618
 20
285.45538280676192
 42
-0.0095354873748332
 10
4643.3830455516363
 20
285.70195380934661
 10
4643.384233809842
 20
285.70478627188481
 42
-0.0130073075671071
 10
4643.4957054623583
 20
285.95225357803815
 10
4643.5046860204575
 20
285.97088081906401
 42
-0.0131007112238106
 10
4643.6478773742474
 20
286.24900662586776
 10
4643.6588659088311
 20
286.26904226562954
 42
-0.0130792414456365
 10
4643.7934393297792
 20
286.49988035553565
 42
-0.0092347821995438
 10
4643.9382015763631
 20
286.72452368294324
 10
4643.9390950098632
 20
286.72585544497463
 42
-0.0132717200784586
 10
4644.0956467847309
 20
286.94633221804696
 10
4644.1103711879769
 20
286.96594486337347
 42
-0.0132623206710264
 10
4644.3089058410114
 20
287.2162713696988
 42
-0.0133039850388546
 10
4644.5205160016376
 20
287.45576948152973
 42
-0.0133925870654514
 10
4644.7446285957767
 20
287.68365718177637
 42
-0.0133309605407505
 10
4644.9805812472205
 20
287.89923711105268
 42
-0.013274573928451
 10
4645.2276077847664
 20
288.10191978467259
 10
4645.2292294906601
 20
288.10317986132782
 42
-0.0132645156533795
 10
4645.4833114877674
 20
288.29000974174181
 10
4645.4846918843441
 20
288.29096941493862
 42
-0.0129713856071449
 10
4645.7454178117396
 20
288.46237312215578
 42
-0.0130699106143469
 10
4646.0147114652664
 20
288.61997124738014
 10
4646.0150345791626
 20
288.6201491727021
 42
-0.0130991140216891
 10
4646.2929253001785
 20
288.76381320000451
 10
4646.2945544101794
 20
288.76460204473443
 42
-0.0130233883298274
 10
4646.5763388849091
 20
288.89209810230057
 10
4646.5792919697697
 20
288.89334265250722
 42
-0.0126741695703863
 10
4646.8612935646888
 20
289.00385936680334
 10
4646.8625205143471
 20
289.00430467903993
 42
-0.0125028414500967
 10
4647.1472548793445
 20
289.09966025793443
 42
-0.0125585116265749
 10
4647.4364790182171
 20
289.18064699627905
 10
4647.4669503591058
 20
289.18835966823821
 42
-0.0125856869399892
 10
4647.6986579969653
 20
289.24083998895384
 10
4647.7260427304809
 20
289.24632178055094
 42
-0.0073247658658332
 10
4647.9047865216126
 20
289.27938654115673
 42
-0.0075895369960976
 10
4648.0844354956689
 20
289.30710558627419
 10
4648.1083892814249
 20
289.31043014585822
 42
-0.0090584104276182
 10
4648.2898757784242
 20
289.33227559842186
 10
4648.3133447058417
 20
289.33467010384254
 42
-0.0066541221374257
 10
4648.4484484592376
 20
289.34664024402946
 10
4648.4719377405472
 20
289.34840668739923
 42
-0.0066418858406128
 10
4648.5602948444257
 20
289.35387210010555
 10
4648.5690866746681
 20
289.35429878269798
 42
-0.0021371587815662
 10
4648.6399461243273
 20
289.35743418567148
 42
-0.0031993859626597
 10
4648.7108341981075
 20
289.35981311021214
 10
4648.724127602226
 20
289.36017408215332
 42
-0.0018830852210169
 10
4648.8157444037133
 20
289.36231659956951
 10
4648.8172193111732
 20
289.36234553390148
 42
-0.0005766519947879
 10
4648.9058962551962
 20
289.36398286543329
 10
4648.908852282937
 20
289.36403446793531
  0
LINE
  5
25A
100
AcDbEntity
  8
0
370
               0
390
0
  6
Continuous
 62
              30
100
AcDbLine
 10
4642.908846390751
 20
165.36403613686537
 30
0.0
 11
4642.908846390751
 21
283.3640368521211
 31
0.0
  0
LWPOLYLINE
  5
25B
100
AcDbEntity
  8
0
370
               0
390
0
  6
Continuous
 62
              30
100
AcDbPolyline
 90
       70
 70
             128
 10
4646.1037384311912
 20
562.36403446793531
 42
-0.0004586987648192
 10
4645.924870271886
 20
562.36531698653107
 10
4645.9164877634184
 20
562.36538478124521
 42
-0.0023612113542482
 10
4645.7208675982511
 20
562.36789078877212
 10
4645.6706896047417
 20
562.3687706141526
 42
-0.0053305399095281
 10
4645.3748142446129
 20
562.37711451916448
 10
4645.3052827266602
 20
562.37981747443189
 42
-0.0060635934759236
 10
4644.8707022146782
 20
562.40199216333508
 10
4644.7846610568386
 20
562.40742929680164
 42
-0.0089878909485691
 10
4644.1791517213669
 20
562.45663406862741
 10
4644.1265401344763
 20
562.46186282961276
 42
-0.0089483533729207
 10
4643.4181817810495
 20
562.54508880341746
 10
4643.3027603008122
 20
562.5607485884608
 42
-0.0146790966279568
 10
4642.3695890943945
 20
562.71537455437988
 10
4642.2554338750178
 20
562.73775100274599
 42
-0.00942799461956
 10
4641.5155891613085
 20
562.8973152564306
 42
-0.0094899006725274
 10
4640.7822596945107
 20
563.08476526172501
 42
-0.0095233163258797
 10
4640.0565064487428
 20
563.29998306660025
 42
-0.0094659614115569
 10
4639.3394170257652
 20
563.54261176171781
 10
4639.2570469774237
 20
563.57223115033548
 42
-0.0137592865842434
 10
4638.3891510074436
 20
563.91156350200822
 10
4638.3086060181267
 20
563.94563880154487
 42
-0.0098367623202532
 10
4637.5886800162234
 20
564.26705036809653
 42
-0.0099153867941574
 10
4636.8819695721859
 20
564.61666468609985
 42
-0.0099057369759892
 10
4636.18958458206
 20
564.99406036652499
 42
-0.0098375454254384
 10
4635.5125919621041
 20
565.39852069096673
 10
4635.5109382193059
 20
565.39955337853849
 42
-0.0098918156999249
 10
4634.8471634333637
 20
565.83253341936563
 10
4634.8437336557317
 20
565.83486866101373
 42
-0.0100386674490732
 10
4634.1909806948142
 20
566.29875920653217
 10
4634.1892139860938
 20
566.30006891319636
 42
-0.0101192783397507
 10
4633.5521777340391
 20
566.79260697368011
 42
-0.0101270538081965
 10
4632.9355282637007
 20
567.31059324970909
 42
-0.010055461878748
 10
4632.3402463235516
 20
567.85307430266539
 42
-0.0100027044005763
 10
4631.7672381302018
 20
568.41895079806739
 42
-0.0100317456277597
 10
4631.217418435539
 20
569.00725802953957
 42
-0.0101082252740079
 10
4630.6917389332702
 20
569.61722515382075
 42
-0.0101344549029935
 10
4630.19112261593
 20
570.2480407693846
 10
4630.1905692711407
 20
570.24876781477928
 42
-0.0100645636793143
 10
4629.7168805593628
 20
570.89785694037869
 10
4629.7144441580012
 20
570.90134065512598
 42
-0.0099600482556952
 10
4629.2718531999344
 20
571.56181558688365
 10
4629.270057182146
 20
571.56461476861193
 42
-0.0098165820332245
 10
4628.8574070475806
 20
572.23641107479921
 42
-0.0098850277042402
 10
4628.4715276192346
 20
572.9239662532965
 42
-0.0099259037512204
 10
4628.1131492145923
 20
573.62634192584221
 10
4628.1128322257809
 20
573.62699488378018
 42
-0.009862995544463
 10
4627.7831091720855
 20
574.34173341756571
 10
4627.7799211639604
 20
574.34901847352035
 42
-0.0097665737082624
 10
4627.4845919946183
 20
575.06146090069637
 10
4627.4819639394291
 20
575.06816815780962
 42
-0.009420630808769
 10
4627.2191821997503
 20
575.77791690821618
 42
-0.0094789778515603
 10
4626.9833989289673
 20
576.49712410429834
 42
-0.0095275875936761
 10
4626.7750926033268
 20
577.22486935937468
 42
-0.0094717142223579
 10
4626.594566874629
 20
577.96006598909935
 42
-0.0094174822597711
 10
4626.4419367292712
 20
578.70155783956068
 10
4626.4264903954836
 20
578.78447646171674
 42
-0.0124058335041371
 10
4626.2950409783316
 20
579.60233155507706
 10
4626.2861175481121
 20
579.66825077094074
 42
-0.0084050979594086
 10
4626.2044212800711
 20
580.35890284107313
 10
4626.1949884582118
 20
580.45204275997958
 42
-0.0087964191714954
 10
4626.1526799377516
 20
580.95853280415645
 10
4626.1480036919811
 20
581.02955523943569
 42
-0.0038346851746216
 10
4626.1267610147306
 20
581.39490771796807
 42
-0.0066840519878085
 10
4626.1132078081228
 20
581.76074826606089
 10
4626.1121538152329
 20
581.80528379808163
 42
-0.0025916165807527
 10
4626.107032393712
 20
582.082404977039
 10
4626.1069730348954
 20
582.08686930136253
 42
-0.00079058039568
 10
4626.1038308299467
 20
582.35509334570747
 10
4626.1037384311912
 20
582.36403446793508
  0
LINE
  5
25C
100
AcDbEntity
  8
0
370
               0
390
0
  6
Continuous
 62
              30
100
AcDbLine
 10
4676.1037310486108
 20
562.36402111649488
 30
0.0
 11
4646.1037447576791
 21
562.36402111649488
 31
0.0
  0
LWPOLYLINE
  5
25D
100
AcDbEntity
  8
0
370
               0
390
0
  6
Continuous
 62
              30
100
AcDbPolyline
 90
       70
 70
             128
 10
4696.1037384311912
 20
582.36403446793508
 42
-0.0004586987642141
 10
4696.1024559125954
 20
582.18516630863962
 10
4696.1023881178808
 20
582.17678380017549
 42
-0.0023612113521293
 10
4696.0998821103549
 20
581.98116363502413
 10
4696.0990022849746
 20
581.93098564151478
 42
-0.0053305399121254
 10
4696.0906583799633
 20
581.63511028140249
 10
4696.0879554246949
 20
581.56557876345016
 42
-0.006063593474319
 10
4696.0657807357929
 20
581.1309982514839
 10
4696.0603436023266
 20
581.04495709365028
 42
-0.0089878909519879
 10
4696.0111388305004
 20
580.43944775820637
 10
4696.0059100695098
 20
580.38683617126981
 42
-0.0089483533628089
 10
4695.9226840957035
 20
579.678477817778
 10
4695.9070243106762
 20
579.56305633763054
 42
-0.014679096637984
 10
4695.7523983447845
 20
578.62988513132893
 10
4695.7300218963919
 20
578.51572991181911
 42
-0.0094279946196322
 10
4695.5704576427397
 20
577.77588519830101
 42
-0.0094899006679214
 10
4695.3830076374707
 20
577.04255573162345
 42
-0.0095233163187075
 10
4695.1677898325934
 20
576.31680248581245
 42
-0.0094659614084448
 10
4694.9251611374557
 20
575.59971306269756
 10
4694.8955417488414
 20
575.51734301435249
 42
-0.013759286584576
 10
4694.5562093971512
 20
574.64944704422885
 10
4694.5221340976304
 20
574.56890205494199
 42
-0.0098367623208029
 10
4694.200722531159
 20
573.84897605314586
 42
-0.0099153867972979
 10
4693.8511082132009
 20
573.14226560915517
 42
-0.0099057369839976
 10
4693.473712532741
 20
572.44988061896493
 42
-0.0098375454300539
 10
4693.0692522082109
 20
571.77288799889914
 10
4693.0682195206628
 20
571.77123425613877
 42
-0.0098918157011957
 10
4692.6352394797814
 20
571.10745947016846
 10
4692.632904238184
 20
571.10402969261088
 42
-0.0100386674466032
 10
4692.1690136927173
 20
570.45127673181389
 10
4692.1677039860806
 20
570.44951002313121
 42
-0.0101192783250074
 10
4691.6751659256688
 20
569.81247377117654
 42
-0.0101270538000422
 10
4691.1571796496046
 20
569.19582430075252
 42
-0.0100554618774087
 10
4690.614698596567
 20
568.60054236044846
 42
-0.0100027044004312
 10
4690.0488221011819
 20
568.02753416704252
 42
-0.0100317456311559
 10
4689.4605148698593
 20
567.47771447245202
 42
-0.0101082252795513
 10
4688.8505477457056
 20
566.95203497025147
 42
-0.0101344549153626
 10
4688.2197321300891
 20
566.45141865287349
 10
4688.2190050847157
 20
566.45086530810022
 42
-0.0100645636803593
 10
4687.5699159589112
 20
565.9771765962023
 10
4687.5664322441526
 20
565.9747401948332
 42
-0.00996004824637
 10
4686.9059573122158
 20
565.53214923666053
 10
4686.9031581304844
 20
565.53035321887
 42
-0.0098165820299314
 10
4686.2313618241315
 20
565.11770308419273
 42
-0.0098850277065513
 10
4685.5438066455354
 20
564.73182365577497
 42
-0.0099259037721545
 10
4684.8414309729733
 20
564.37344525115009
 10
4684.84077801479
 20
564.37312826221955
 42
-0.0098629955056821
 10
4684.1260394815263
 20
564.04340520875883
 10
4684.1187544266222
 20
564.04021720109279
 42
-0.0097665738424603
 10
4683.4063119978073
 20
563.74488803122506
 10
4683.3996047368637
 20
563.74225997453755
 42
-0.0094206303488464
 10
4682.6898559926676
 20
563.47947823678112
 42
-0.0094789790935077
 10
4681.9706487857839
 20
563.24369496402494
 42
-0.0095275842671518
 10
4681.2429035739351
 20
563.03538864616394
 42
-0.0094717197977452
 10
4680.507706757413
 20
562.85486288249479
 42
-0.0094181091098252
 10
4679.766214243451
 20
562.70223358889359
 10
4679.6920718558877
 20
562.68842231311442
 42
-0.0121810133331252
 10
4678.8742663651446
 20
562.55660580539666
 10
4678.8127746074642
 20
562.54822556512829
 42
-0.0086286043213868
 10
4678.1133073836545
 20
562.46516764433125
 10
4678.0157296739299
 20
562.45528512013948
 42
-0.0087970893416722
 10
4677.5092399624136
 20
562.41297595849346
 10
4677.4382176597837
 20
562.40829972349559
 42
-0.0038346780339013
 10
4677.072865180955
 20
562.38705705147072
 42
-0.006684051981345
 10
4676.707024632924
 20
562.37350384486854
 10
4676.6624891009078
 20
562.37244985197822
 42
-0.002591616579331
 10
4676.3853679220183
 20
562.36732843045604
 10
4676.3809035976956
 20
562.36726907163938
 42
-0.0007905804001036
 10
4676.1126795534165
 20
562.36412686669098
 10
4676.1037384311912
 20
562.36403446793531
  0
LINE
  5
25E
100
AcDbEntity
  8
0
370
               0
390
0
  6
Continuous
 62
              30
100
AcDbLine
 10
4696.1037417774469
 20
602.364042574167
 30
0.0
 11
4696.1037417774469
 21
582.36403184533094
 31
0.0
  0
LINE
  5
25F
100
AcDbEntity
  8
0
370
               0
390
0
  6
Continuous
 62
              30
100
AcDbLine
 10
4704.1282405977518
 20
98.364034467935198
 30
0.0
 11
4704.1282405977518
 21
602.364042574167
 31
0.0
  0
LINE
  5
260
100
AcDbEntity
  8
0
370
               0
390
0
  6
Continuous
 62
              30
100
AcDbLine
 10
4696.1037417774469
 20
118.36403402090048
 30
0.0
 11
4696.1037417774469
 21
98.364034467935426
 31
0.0
  0
LWPOLYLINE
  5
261
100
AcDbEntity
  8
0
370
               0
390
0
  6
Continuous
 62
              30
100
AcDbPolyline
 90
       70
 70
             128
 10
4676.1037384311912
 20
138.36403446793531
 42
-0.0004586987639721
 10
4676.2826065904619
 20
138.36275194933916
 10
4676.2909890989213
 20
138.36268415462496
 42
-0.00236121135488
 10
4676.4866092640368
 20
138.36017814709817
 10
4676.5367872575443
 20
138.35929832171746
 42
-0.0053305399097586
 10
4676.8326626176176
 20
138.3509544167058
 10
4676.9021941355704
 20
138.34825146143805
 42
-0.0060635934757633
 10
4677.3367746474987
 20
138.32607677253571
 10
4677.4228158053393
 20
138.32063963906876
 42
-0.008987890949149
 10
4678.0283251407591
 20
138.27143486724412
 10
4678.0809367277034
 20
138.26620610625309
 42
-0.0089483533631362
 10
4678.7892950811865
 20
138.18298013245146
 10
4678.9047165614056
 20
138.16732034741449
 42
-0.014679096630127
 10
4679.8378877678442
 20
138.01269438151957
 10
4679.9520429873028
 20
137.99031793314037
 42
-0.0094279946249464
 10
4680.691887700812
 20
137.83075367950937
 42
-0.0094899006708333
 10
4681.4252171674834
 20
137.64330367424958
 42
-0.0095233163236253
 10
4682.1509704132968
 20
137.42808586936553
 42
-0.0094659614089185
 10
4682.8680598364181
 20
137.18545717421148
 10
4682.950429884786
 20
137.15583778558641
 42
-0.0137592865798456
 10
4683.8183258549643
 20
136.81650543386559
 10
4683.8988708442757
 20
136.78243013433485
 42
-0.0098367623199631
 10
4684.6187968462164
 20
136.4610185677999
 42
-0.009915386802949
 10
4685.3255072902739
 20
136.1114042498063
 42
-0.0099057369850593
 10
4686.0178922803852
 20
135.73400856937781
 42
-0.0098375454320063
 10
4686.6948849003029
 20
135.32954824491799
 10
4686.6965386430911
 20
135.32851555735198
 42
-0.0098918157026245
 10
4687.3603134289697
 20
134.89553551650755
 10
4687.3637432065843
 20
134.89320027487059
 42
-0.0100386674447389
 10
4688.0164961674054
 20
134.42930972936233
 10
4688.0182628761149
 20
134.42800002270616
 42
-0.0101192783245711
 10
4688.6552991281096
 20
133.93546196224543
 42
-0.0101270537928119
 10
4689.2719485984981
 20
133.41747568621099
 42
-0.0100554618781067
 10
4689.8672305387317
 20
132.87499463325253
 42
-0.0100027044045236
 10
4690.4402387320715
 20
132.30911813793705
 42
-0.0100317456333834
 10
4690.9900584266024
 20
131.72081090666717
 42
-0.0101082252740175
 10
4691.5157379287721
 20
131.1108437825448
 42
-0.0101344549107795
 10
4692.0163542461723
 20
130.48002816691832
 10
4692.0169075909562
 20
130.47930112153205
 42
-0.0100645636822987
 10
4692.4905963028814
 20
129.83021199571789
 10
4692.4930327043076
 20
129.82672828087721
 42
-0.0099600482546595
 10
4692.9356236623826
 20
129.1662533490865
 10
4692.9374196802173
 20
129.16345416728569
 42
-0.0098165820294321
 10
4693.3500698147054
 20
128.4916578612158
 42
-0.0098850276965311
 10
4693.7359492430123
 20
127.80410268281719
 42
-0.009925903764396
 10
4694.0943276476801
 20
127.1017270102185
 10
4694.0946446365915
 20
127.10107405207503
 42
-0.0098629955041183
 10
4694.4243676902133
 20
126.38633551854758
 10
4694.4275556979419
 20
126.37905046350301
 42
-0.0097665738411966
 10
4694.722884867846
 20
125.66660803470364
 10
4694.7255129245841
 20
125.6599007736333
 42
-0.0094206303478274
 10
4694.9882946622856
 20
124.95015202970751
 42
-0.0094789790970059
 10
4695.224077935015
 20
124.23094482302292
 42
-0.0095275842776846
 10
4695.4323842528884
 20
123.50319961116747
 42
-0.0094717198021254
 10
4695.6129100165917
 20
122.76800279443876
 42
-0.0094181091032303
 10
4695.7655393102359
 20
122.02651028020563
 10
4695.7793505860154
 20
121.95236789264243
 42
-0.0121810133331275
 10
4695.9111670937291
 20
121.13456240190357
 10
4695.9195473339978
 20
121.0730706442248
 42
-0.0086286043207682
 10
4696.0026052547928
 20
120.37360342041768
 10
4696.0124877789849
 20
120.27602571069417
 42
-0.0087970893401083
 10
4696.0547969406325
 20
119.76953599917874
 10
4696.059473175631
 20
119.69851369655106
 42
-0.0038346780344532
 10
4696.0807158476582
 20
119.33316121771753
 42
-0.0066840519852906
 10
4696.0942690542588
 20
118.96732066967985
 10
4696.0953230471487
 20
118.92278513766166
 42
-0.0025916165704711
 10
4696.1004444686723
 20
118.6456639587675
 10
4696.1005038274889
 20
118.64119963444534
 42
-0.0007905804147173
 10
4696.1036460324358
 20
118.37297559016093
 10
4696.1037384311912
 20
118.36403446793531
  0
LINE
  5
262
100
AcDbEntity
  8
0
370
               0
390
0
  6
Continuous
 62
              30
100
AcDbLine
 10
4646.1037447576791
 20
138.36403357386564
 30
0.0
 11
4676.1037310486108
 21
138.36403357386564
 31
0.0
  0
LWPOLYLINE
  5
263
100
AcDbEntity
  8
0
370
               0
390
0
  6
Continuous
 62
              30
100
AcDbPolyline
 90
       70
 70
             128
 10
4626.1037384311912
 20
118.36403446793531
 42
-0.0004586987674816
 10
4626.1050209497871
 20
118.54290262720247
 10
4626.1050887445008
 20
118.55128513566558
 42
-0.0023610240394418
 10
4626.1075946787478
 20
118.74690530207124
 10
4626.1084744655245
 20
118.79708323873854
 42
-0.0053314458186326
 10
4626.1168186815048
 20
119.09295846927085
 10
4626.1195218521225
 20
119.16249037808871
 42
-0.006059254343049
 10
4626.1416940559884
 20
119.5970717463465
 10
4626.1458999710012
 20
119.66364452435835
 42
-0.0080138925001215
 10
4626.1908348140523
 20
120.23038249246952
 10
4626.1958572030471
 20
120.28300771987796
 42
-0.0089504252583926
 10
4626.2719138201574
 20
120.95291430333555
 10
4626.2922202664267
 20
121.10709776635701
 42
-0.0156554432994938
 10
4626.4513220562212
 20
122.07902684929041
 10
4626.4774541574952
 20
122.21234000558758
 42
-0.0094273575931715
 10
4626.6370192689064
 20
122.95218400228691
 42
-0.009489888897093
 10
4626.8244692248645
 20
123.6855132041336
 42
-0.0095233163200311
 10
4627.0396870297445
 20
124.41126644995791
 42
-0.0094659614114418
 10
4627.2823157249004
 20
125.12835587311412
 10
4627.3119351135192
 20
125.21072592146601
 42
-0.013759286581236
 10
4627.6512674652349
 20
126.07862189164427
 10
4627.6853427647538
 20
126.15916688092767
 42
-0.00983676232086
 10
4628.0067543312252
 20
126.87909288272431
 42
-0.0099153867967673
 10
4628.3563686491807
 20
127.58580332671528
 42
-0.0099057369853893
 10
4628.7337643296396
 20
128.2781883169049
 42
-0.0098375454297039
 10
4629.1382246541707
 20
128.95518093696967
 10
4629.1392573417261
 20
128.95683467974129
 42
-0.009891815699282
 10
4629.5722373826184
 20
129.62060946573479
 10
4629.5745726242312
 20
129.62403924331539
 42
-0.010038667444732
 10
4630.0384631697389
 20
130.27679220418401
 10
4630.0397728763828
 20
130.27855891287675
 42
-0.0101192783308424
 10
4630.5323109368273
 20
130.91559516488007
 42
-0.0101270538037478
 10
4631.0502972128716
 20
131.53224463526584
 42
-0.0100554618792941
 10
4631.5927782658628
 20
132.12752657549072
 42
-0.0100027044018907
 10
4632.1586547612278
 20
132.70053476883999
 42
-0.0100317456309338
 10
4632.7469619925687
 20
133.25035446340905
 42
-0.010108225272346
 10
4633.3569291167432
 20
133.77603396560619
 42
-0.0101344549059669
 10
4633.987744732347
 20
134.2766502829885
 10
4633.9884717777322
 20
134.27720362777012
 42
-0.0100645636810655
 10
4634.6375609034822
 20
134.75089233966025
 10
4634.6410446182908
 20
134.75332874106425
 42
-0.0099600482528879
 10
4635.3015195500793
 20
135.19591969915405
 10
4635.3043187318517
 20
135.19771571697061
 42
-0.009816582031446
 10
4635.9761150379791
 20
135.61036585150998
 42
-0.0098850277016146
 10
4636.6636702164196
 20
135.99624527984327
 42
-0.0099259037658982
 10
4637.3660458890108
 20
136.35462368450032
 10
4637.3666988471641
 20
136.35494067341659
 42
-0.0098629955065485
 10
4638.0814373806334
 20
136.68466372699862
 10
4638.0887224356593
 20
136.68785173471827
 42
-0.0097665738440318
 10
4638.8011648644406
 20
136.98318090459344
 10
4638.807872125516
 20
136.98580896133274
 42
-0.0094206303456773
 10
4639.517620869412
 20
137.24859069900174
 42
-0.0094789790970945
 10
4640.2368280761521
 20
137.48437397172677
 42
-0.009527584265227
 10
4640.9645732877962
 20
137.69268028955128
 42
-0.0094717197789753
 10
4641.6997701055971
 20
137.87320605351999
 42
-0.0094181091446724
 10
4642.4412626225603
 20
138.02583534770037
 10
4642.5154050053197
 20
138.03964662257545
 42
-0.0121810132770009
 10
4643.3332104967103
 20
138.17146313039132
 10
4643.3947022547263
 20
138.17984337071204
 42
-0.008628604347856
 10
4644.0941694785051
 20
138.26290129154233
 10
4644.1917471882061
 20
138.27278381573171
 42
-0.0087970893426742
 10
4644.6982368997415
 20
138.31509297737819
 10
4644.769259202355
 20
138.31976921237452
 42
-0.0038346780350377
 10
4645.1346116812383
 20
138.34101188440025
 42
-0.006684051980125
 10
4645.5004522293293
 20
138.3545650910022
 10
4645.5449877613482
 20
138.35561908389241
 42
-0.0025916165781395
 10
4645.8221089403005
 20
138.36074050541492
 10
4645.8265732646232
 20
138.36079986423164
 42
-0.000790580401859
 10
4646.0947973089633
 20
138.36394206917964
 10
4646.1037384311912
 20
138.36403446793531
  0
LINE
  5
264
100
AcDbEntity
  8
0
370
               0
390
0
  6
Continuous
 62
              30
100
AcDbLine
 10
4626.1037340288431
 20
98.364034467935426
 30
0.0
 11
4626.1037340288431
 21
118.36403402090048
 31
0.0
  0
LINE
  5
265
100
AcDbEntity
  8
0
370
               0
390
0
  6
Continuous
 62
              30
100
AcDbLine
 10
4626.1037340288431
 20
582.36403184533094
 30
0.0
 11
4626.1037340288431
 21
602.364042574167
 31
0.0
  0
CIRCLE
  5
266
100
AcDbEntity
  8
0
370
               0
390
0
  6
Continuous
 62
              30
100
AcDbCircle
 10
4661.408852282937
 20
313.86403446793531
 30
0.0
 40
4.0
  0
LINE
  5
267
100
AcDbEntity
  8
0
370
               0
390
0
  6
Continuous
 62
              30
100
AcDbLine
 10
4704.8768153314859
 20
602.364042574167
 30
0.0
 11
4704.8768153314859
 21
98.364034467936108
 31
0.0
  0
LINE
  5
268
100
AcDbEntity
  8
0
370
               0
390
0
  6
Continuous
 62
              30
100
AcDbLine
 10
4712.2760167246133
 20
602.364042574167
 30
0.0
 11
4712.2760167246133
 21
98.364034467935198
 31
0.0
  0
LINE
  5
269
100
AcDbEntity
  8
0
370
               0
390
0
  6
Continuous
 62
              30
100
AcDbLine
 10
4755.0568630819589
 20
611.36404591202711
 30
0.0
 11
4755.0568630819589
 21
89.364034855365389
 31
0.0
  0
LINE
  5
26A
100
AcDbEntity
  8
0
370
               0
390
0
  6
Continuous
 62
              30
100
AcDbLine
 10
4710.9580835228235
 20
89.364034855365389
 30
0.0
 11
4755.0568630819589
 21
89.364034855365389
 31
0.0
  0
LINE
  5
26B
100
AcDbEntity
  8
0
370
               0
390
0
  6
Continuous
 62
              30
100
AcDbLine
 10
4710.9580835228235
 20
611.36404591202711
 30
0.0
 11
4755.0568630819589
 21
611.36404591202711
 31
0.0
  0
LWPOLYLINE
  5
26C
100
AcDbEntity
  8
0
370
               0
390
0
  6
Continuous
 62
              30
100
AcDbPolyline
 90
       89
 70
             128
 10
4661.4088522829379
 20
190.61402613016037
 42
-0.0012012312578176
 10
4661.4637839561829
 20
190.61389415868408
 10
4661.6423796313502
 20
190.61303601366291
 42
-0.016457053307785
 10
4662.0539909865856
 20
190.59750429042501
 10
4662.2321090306596
 20
190.58490335378954
 42
-0.0093400415171396
 10
4662.6697638370069
 20
190.54571358849608
 42
-0.0093128983159925
 10
4663.1056560735969
 20
190.49022768095526
 42
-0.0092948411052267
 10
4663.5391874396064
 20
190.41856150919327
 42
-0.0092899494741602
 10
4663.9697579998992
 20
190.33083448703638
 42
-0.0092982319487417
 10
4664.3967678572135
 20
190.22716592030537
 42
-0.0093195987160544
 10
4664.8196170817682
 20
190.10767501783977
 42
-0.0093539075932276
 10
4665.2377056870819
 20
189.97248084072885
 42
-0.0094019780993042
 10
4665.6504320202148
 20
189.8217018251234
 42
-0.0094583635825415
 10
4666.0571819436864
 20
189.65546458980054
 42
-0.0094163863341771
 10
4666.4573660124033
 20
189.4739965244234
 42
-0.0093641624560258
 10
4666.8504506534946
 20
189.27763049522252
 42
-0.0093268427351856
 10
4667.2359249464662
 20
189.06670949796313
 42
-0.0093022255551244
 10
4667.6132803631172
 20
188.84157338965019
 42
-0.0092907471514781
 10
4667.9820084053008
 20
188.60256211077643
 42
-0.0092924470761221
 10
4668.3416005189429
 20
188.35001549855917
 42
-0.0093072870692636
 10
4668.6915480951211
 20
188.08427331222066
 42
-0.0093351051024481
 10
4669.0313424711676
 20
187.80567524551464
 42
-0.0093754004482683
 10
4669.3604750832174
 20
187.51456109217838
 42
-0.0094360547322964
 10
4669.678427721261
 20
187.21127066763148
 42
-0.0094472592201265
 10
4669.9847031459312
 20
186.89619111298239
 42
-0.0093875624461818
 10
4670.2788929470426
 20
186.56980387784063
 42
-0.0093440212527225
 10
4670.5606517914366
 20
186.23262747045109
 42
-0.0093128908165927
 10
4670.8296397076483
 20
185.88517061604992
 42
-0.0092948416497447
 10
4671.0855170381892
 20
185.52794201500208
 42
-0.0092899494419962
 10
4671.3279440291153
 20
185.16145027939476
 42
-0.0092982319481519
 10
4671.5565808483016
 20
184.78620396716255
 42
-0.0093195987191305
 10
4671.7710875749817
 20
184.40271158563263
 42
-0.0093539075891009
 10
4671.9711241435252
 20
184.0114815782668
 42
-0.0094019781030628
 10
4672.1563488680622
 20
183.61302312494001
 42
-0.0094583635820462
 10
4672.3264170208131
 20
183.2078600194221
 42
-0.0094163863338638
 10
4672.481072589926
 20
182.79656985111291
 42
-0.0093641624531585
 10
4672.6201736543808
 20
182.37976528497543
 42
-0.0093268427383702
 10
4672.7436014734576
 20
181.95805013098516
 42
-0.0093022255536417
 10
4672.8512367786116
 20
181.53202428807538
 42
-0.0092907471523657
 10
4672.9429603815806
 20
181.1022876929627
 42
-0.0092924470746371
 10
4673.0186529815328
 20
180.6694402488807
 42
-0.0093072870696686
 10
4673.0781951837016
 20
180.23408184269854
 42
-0.0093351051019164
 10
4673.1214675090205
 20
179.79681235299284
 42
-0.0093754004511468
 10
4673.1483506189852
 20
179.35823165917904
 42
-0.0094360547284395
 10
4673.1587183695756
 20
178.91894647685731
 42
-0.0094472592215181
 10
4673.1524929095667
 20
178.47958215745587
 42
-0.0093875624453507
 10
4673.1297258856284
 20
178.04076792687226
 42
-0.0093440212538011
 10
4673.0905397510387
 20
177.60311461322078
 42
-0.0093128908161209
 10
4673.035053832733
 20
177.16722233569311
 42
-0.0092948416522741
 10
4672.9633876620728
 20
176.73369097388189
 42
-0.0092899494371141
 10
4672.8756606398028
 20
176.30312041315818
 42
-0.0092982319527796
 10
4672.7719920730851
 20
175.87611055588775
 42
-0.0093195987159785
 10
4672.6525011706162
 20
175.45326133132852
 42
-0.0093539075917628
 10
4672.5173069935063
 20
175.03517272601488
 42
-0.0094019781004219
 10
4672.3665279779016
 20
174.62244639288269
 42
-0.0094583635826333
 10
4672.2002907425785
 20
174.21569646940986
 42
-0.0094163863364107
 10
4672.0188226771988
 20
173.81551240069422
 42
-0.0093641624514825
 10
4671.8224566479985
 20
173.42242775960392
 42
-0.0093268427368817
 10
4671.6115356507407
 20
173.03695346663164
 42
-0.0093022255560094
 10
4671.3863995424272
 20
172.65959804998027
 42
-0.0092907471509805
 10
4671.1473882635528
 20
172.29087000779759
 42
-0.0092924470760526
 10
4670.8948416513358
 20
171.93127789415561
 42
-0.009307287068101
 10
4670.629099464998
 20
171.58133031797806
 42
-0.0093351051034467
 10
4670.3505013982922
 20
171.24153594193058
 42
-0.0093754004484237
 10
4670.0593872449545
 20
170.91240332988036
 42
-0.009436054731955
 10
4669.7560968204089
 20
170.59445069183818
 42
-0.0094472592189178
 10
4669.4410172657608
 20
170.28817526716682
 42
-0.0093875624498538
 10
4669.1146300306173
 20
169.99398546605494
 42
-0.0093440212483455
 10
4668.7774536232282
 20
169.71222662166093
 42
-0.0093128908197857
 10
4668.4299967688266
 20
169.44323870544861
 42
-0.0092948416483415
 10
4668.0727681677781
 20
169.1873613749093
 42
-0.0092899494404936
 10
4667.7062764321727
 20
168.94493438398257
 42
-0.0092982319508767
 10
4667.3310301199417
 20
168.71629756479598
 42
-0.0093195987171478
 10
4666.9475377384097
 20
168.50179083811531
 42
-0.0093539075917249
 10
4666.5563077310435
 20
168.30175426957339
 42
-0.0094019780997899
 10
4666.1578492777171
 20
168.11652954503631
 42
-0.0094583635833892
 10
4665.7526861721954
 20
167.94646139228325
 42
-0.0094163863466711
 10
4665.341396003796
 20
167.79180582315064
 42
-0.0093641625887886
 10
4664.9245914361272
 20
167.6527047583923
 42
-0.0093268440231955
 10
4664.5028762560942
 20
167.5292769341138
 42
-0.0093022246587765
 10
4664.076850353611
 20
167.42164161706722
 42
-0.0092907385571925
 10
4663.6471134390767
 20
167.3299179501908
 42
-0.0092924572195363
 10
4663.2142657415798
 20
167.25422529940784
 42
-0.0093072858430729
 10
4662.7789073597532
 20
167.19468310343916
 42
-0.0093271900579898
 10
4662.3416360085312
 20
167.15140369679304
 10
4662.2320237999738
 20
167.14261586189292
 42
-0.0188028850553651
 10
4661.5736698847322
 20
167.11468518334425
 10
4661.4637928927204
 20
167.11415796139767
 42
-0.0011997595949433
 10
4661.408852282937
 20
167.11402613016037
 42
-0.0011997595949433
  0
LWPOLYLINE
  5
26D
100
AcDbEntity
  8
0
370
               0
390
0
  6
Continuous
 62
              30
100
AcDbPolyline
 90
       89
 70
             128
 10
4661.408852282937
 20
167.11402613016037
 42
-0.0012012312578176
 10
4661.3539206096921
 20
167.11415810163666
 10
4661.1753249345247
 20
167.11501624665789
 42
-0.0164570533076115
 10
4660.7637135792884
 20
167.13054796989573
 10
4660.5855955352145
 20
167.14314890653108
 42
-0.0093400415173246
 10
4660.1479407288698
 20
167.18233867182443
 42
-0.0093128983152457
 10
4659.712048492278
 20
167.23782457936522
 42
-0.0092948411065702
 10
4659.2785171262694
 20
167.30949075112741
 42
-0.0092899494727488
 10
4658.8479465659757
 20
167.39721777328432
 42
-0.0092982319495181
 10
4658.4209367086605
 20
167.50088634001477
 42
-0.0093195987165311
 10
4657.9980874841058
 20
167.62037724248083
 42
-0.0093539075923483
 10
4657.5799988787921
 20
167.75557141959163
 42
-0.0094019781010295
 10
4657.167272545661
 20
167.90635043519686
 42
-0.0094583635792288
 10
4656.7605226221867
 20
168.07258767051968
 42
-0.0094163863384622
 10
4656.3603385534707
 20
168.25405573589649
 42
-0.0093641624541474
 10
4655.9672539123821
 20
168.45042176509827
 42
-0.0093268427325838
 10
4655.5817796194096
 20
168.66134276235721
 42
-0.0093022255585718
 10
4655.2044242027569
 20
168.88647887066963
 42
-0.0092907471489648
 10
4654.8356961605741
 20
169.12549014954357
 42
-0.0092924470782823
 10
4654.4761040469321
 20
169.37803676176071
 42
-0.0093072870680868
 10
4654.1261564707547
 20
169.64377894809996
 42
-0.0093351051015
 10
4653.7863620947073
 20
169.9223770148061
 42
-0.0093754004497757
 10
4653.4572294826576
 20
170.21349116814162
 42
-0.0094360547332291
 10
4653.1392768446158
 20
170.51678159268926
 42
-0.0094472592182088
 10
4652.8330014199455
 20
170.83186114733917
 42
-0.0093875624468044
 10
4652.5388116188333
 20
171.15824838248028
 42
-0.009344021251993
 10
4652.2570527744392
 20
171.49542478986982
 42
-0.009312890816223
 10
4651.9880648582257
 20
171.8428816442707
 42
-0.0092948416508328
 10
4651.7321875276848
 20
172.20011024531823
 42
-0.0092899494424938
 10
4651.4897605367596
 20
172.56660198092629
 42
-0.0092982319472516
 10
4651.2611237175734
 20
172.94184829315861
 42
-0.0093195987188005
 10
4651.0466169908923
 20
173.32534067468805
 42
-0.0093539075899565
 10
4650.8465804223488
 20
173.71657068205405
 42
-0.0094019781039052
 10
4650.6613556978118
 20
174.11502913538129
 42
-0.0094583635783019
 10
4650.4912875450609
 20
174.5201922408985
 42
-0.0094163863368905
 10
4650.3366319759452
 20
174.93148240920698
 42
-0.0093641624560361
 10
4650.1975309114932
 20
175.3482869753451
 42
-0.0093268427323218
 10
4650.0741030924164
 20
175.77000212933547
 42
-0.0093022255581271
 10
4649.9664677872624
 20
176.19602797224513
 42
-0.0092907471487093
 10
4649.8747441842934
 20
176.62576456735786
 42
-0.009292447078062
 10
4649.7990515843394
 20
177.05861201143972
 42
-0.009307287070712
 10
4649.7395093821742
 20
177.49397041762217
 42
-0.0093351050975316
 10
4649.6962370568554
 20
177.93123990732789
 42
-0.0093754004511498
 10
4649.669353946887
 20
178.36982060114156
 42
-0.009436054733875
 10
4649.6589861962975
 20
178.80910578346322
 42
-0.0094472592163454
 10
4649.6652116563073
 20
179.24847010286462
 42
-0.0093875624505
 10
4649.6879786802474
 20
179.68728433344833
 42
-0.0093440212494346
 10
4649.7271648148399
 20
180.12493764709996
 42
-0.0093128908152995
 10
4649.7826507331429
 20
180.5608299246278
 42
-0.0092948416536265
 10
4649.8543169038003
 20
180.99436128643896
 42
-0.0092899494382364
 10
4649.9420439260712
 20
181.42493184716261
 42
-0.0092982319529043
 10
4650.0457124927907
 20
181.85194170443305
 42
-0.0093195987149097
 10
4650.1652033952587
 20
182.27479092899227
 42
-0.0093539075927764
 10
4650.3003975723695
 20
182.69287953430606
 42
-0.0094019780992695
 10
4650.4511765879743
 20
183.10560586743802
 42
-0.0094583635818429
 10
4650.6174138232982
 20
183.51235579091565
 42
-0.0094163863491819
 10
4650.7988818887261
 20
183.9125398597086
 42
-0.0093641625890591
 10
4650.995247918795
 20
184.30562450209658
 42
-0.0093268440229663
 10
4651.206168930793
 20
184.69109881716145
 42
-0.0093022246557223
 10
4651.4313050728197
 20
185.06845428434701
 42
-0.0092907385608295
 10
4651.6703165323688
 20
185.4371825975841
 42
-0.0092924572168988
 10
4651.9228632878348
 20
185.79677492635918
 42
-0.0093072858445175
 10
4652.1886054613351
 20
186.14672248093257
 42
-0.0093351235806744
 10
4652.4672035477743
 20
186.48651685286654
 42
-0.0093754477225817
 10
4652.7583177632641
 20
186.81564942084208
 42
-0.009436040935615
 10
4653.0616082642773
 20
187.13360198727923
 42
-0.0094472130172863
 10
4653.376687848242
 20
187.4398773678883
 42
-0.0093875559476118
 10
4653.7030750803006
 20
187.73406715846897
 42
-0.0093440211890183
 10
4654.0402514823654
 20
188.01582599835655
 42
-0.0093128903941574
 10
4654.3877083332336
 20
188.28481391225341
 42
-0.0092948415219608
 10
4654.7449369326268
 20
188.5406912425488
 42
-0.0092899495174721
 10
4655.1114286688553
 20
188.78311823479652
 42
-0.0092982320268394
 10
4655.4866749842058
 20
189.01175505655391
 42
-0.0093195950842126
 10
4655.8701673702026
 20
189.22626178989691
 42
-0.00935383929305
 10
4656.2613973604875
 20
189.42629842456904
 42
-0.009402261643258
 10
4656.659855868671
 20
189.61152303995809
 42
-0.0094581643499336
 10
4657.0650190470378
 20
189.78159101070841
 42
-0.0094163740649423
 10
4657.4763092092126
 20
189.9362465666382
 42
-0.0093641630827032
 10
4657.8931137673535
 20
190.07534762841343
 42
-0.0093268421216713
 10
4658.3148289160254
 20
190.19877544585998
 42
-0.0093022253193022
 10
4658.7408547560153
 20
190.30641075092058
 42
-0.009290747132121
 10
4659.170591350844
 20
190.39813435464538
 42
-0.0092924473418758
 10
4659.6034387973896
 20
190.47382695556831
 42
-0.0093072885210763
 10
4660.0387972088392
 20
190.53336915742159
 42
-0.009327189717202
 10
4660.4760685533411
 20
190.57664856316373
 10
4660.5856807656719
 20
190.58543639838189
 42
-0.01880288510704
 10
4661.2440346816984
 20
190.61336707698828
 10
4661.3539116731636
 20
190.61389429892495
 42
-0.0011997595785873
 10
4661.4088522829379
 20
190.61402613016037
 42
-0.0011997595785873
  0
LINE
  5
26E
100
AcDbEntity
  8
0
370
               0
390
0
  6
Continuous
 62
              30
100
AcDbLine
 10
4658.9088490133554
 20
187.50983642935728
 30
0.0
 11
4658.9088490133554
 21
188.86402415633177
 31
0.0
  0
LWPOLYLINE
  5
26F
100
AcDbEntity
  8
0
370
               0
390
0
  6
Continuous
 62
              30
100
AcDbPolyline
 90
       54
 70
             128
 10
4658.9088522829379
 20
187.5098343630558
 42
0.0009145881098499
 10
4658.8779106876027
 20
187.5008260073742
 10
4658.7619084709859
 20
187.46682275144912
 42
0.0143864173585438
 10
4658.5014126913975
 20
187.38225453263345
 10
4658.3875617312415
 20
187.34163760661551
 42
0.0142986647479143
 10
4657.9071488556083
 20
187.15459784760827
 42
0.0142573962291734
 10
4657.4381936951322
 20
186.94044177088773
 42
0.0142643096134087
 10
4656.9822106321553
 20
186.69989993832235
 42
0.0143129369201042
 10
4656.5407139162508
 20
186.4337065367634
 42
0.0144309173287209
 10
4656.115242229198
 20
186.14258961527355
 42
0.0143782934824907
 10
4655.7072396429139
 20
185.82745586497123
 42
0.0142911335106642
 10
4655.3179635721854
 20
185.48945797105304
 42
0.0142556979400563
 10
4654.9486048960625
 20
185.12979675494796
 42
0.0142677126852132
 10
4654.6003529508271
 20
184.74966376072396
 42
0.0143257148698104
 10
4654.2743972508761
 20
184.35025082140905
 42
0.0144368876722387
 10
4653.9719441839425
 20
183.93276157704551
 42
0.0143642764533313
 10
4653.6940257881688
 20
183.49855300110065
 42
0.0142841303603141
 10
4653.4414254131188
 20
183.04914012470599
 42
0.0142548019303187
 10
4653.2148707093811
 20
182.58604711642613
 42
0.0142715889426165
 10
4653.0150899581386
 20
182.11079167063752
 42
0.0143403104521322
 10
4652.8428164219058
 20
181.62489137881573
 42
0.014438480762558
 10
4652.6987785342553
 20
181.12988819732027
 42
0.0143509434341235
 10
4652.5834631084863
 20
180.62741581121088
 42
0.014277822301358
 10
4652.497088812469
 20
180.11916500990833
 42
0.0142546925796176
 10
4652.4398403207379
 20
179.60681277575807
 42
0.0142759968377327
 10
4652.4119028069344
 20
179.09203206955289
 42
0.0143563271120793
 10
4652.4134717929719
 20
178.57649911431994
 42
0.0144358334991086
 10
4652.4447061726614
 20
178.06191242747062
 42
0.0143384984543262
 10
4652.5054844513616
 20
177.54997240326105
 42
0.0142722276908847
 10
4652.5954398738531
 20
177.04234256065038
 42
0.0142553512270646
 10
4652.7141945416934
 20
176.5406657787841
 42
0.0142809766783119
 10
4652.8613696447665
 20
176.0465819597153
 42
0.0143733706653591
 10
4653.0366000669601
 20
175.56174130819988
 42
0.0144291667637208
 10
4653.2394513002255
 20
175.08779360042399
 42
0.0143270754552575
 10
4653.4692091012848
 20
174.62628690950231
 42
0.0142673500602909
 10
4653.7249698561463
 20
174.17866328443864
 42
0.0142567323046206
 10
4654.0058358005372
 20
173.7463482825226
 42
0.0142868066139469
 10
4654.3109071603176
 20
173.33076377394406
 42
0.0143904529024385
 10
4654.6392959156856
 20
172.93335145966643
 42
0.0144192158337974
 10
4654.9900237061865
 20
172.55550875411518
 42
0.0143166817941042
 10
4655.361876063329
 20
172.19843269385319
 42
0.0142632401683329
 10
4655.7535216851138
 20
171.86317953426419
 42
0.0142587502553814
 10
4656.1636433346921
 20
171.5507985198264
 42
0.0142937782572761
 10
4656.5909219235136
 20
171.26233395930802
 42
0.0144066254045381
 10
4657.0340419905169
 20
170.99885709380465
 42
0.014406713758253
 10
4657.4916001365655
 20
170.76133729799642
 42
0.0143072450528654
 10
4657.9620384117188
 20
170.55046831304239
 42
0.0142601849519645
 10
4658.4437526115998
 20
170.36680421869741
 42
0.0142600718935371
 10
4658.9351548405803
 20
170.21089872880896
 10
4658.9506594670538
 20
170.20646206595822
 42
0.0143084287480654
 10
4659.4189238416675
 20
170.08685046053239
 10
4659.4346680053877
 20
170.08330539314224
 42
0.0125977982366583
 10
4659.8770844640358
 20
169.99533563730341
 42
0.0009091551332548
 10
4659.9088522829379
 20
169.989906455511
 42
0.0009091551332548
  0
LINE
  5
270
100
AcDbEntity
  8
0
370
               0
390
0
  6
Continuous
 62
              30
100
AcDbLine
 10
4659.9088510399133
 20
168.8640283286569
 30
0.0
 11
4659.9088510399133
 21
169.98990791439985
 31
0.0
  0
LINE
  5
271
100
AcDbEntity
  8
0
370
               0
390
0
  6
Continuous
 62
              30
100
AcDbLine
 10
4659.9088510399133
 20
168.8640283286569
 30
0.0
 11
4662.9088571195871
 21
168.8640283286569
 31
0.0
  0
LINE
  5
272
100
AcDbEntity
  8
0
370
               0
390
0
  6
Continuous
 62
              30
100
AcDbLine
 10
4662.9088571195871
 20
169.98990791439985
 30
0.0
 11
4662.9088571195871
 21
168.8640283286569
 31
0.0
  0
LWPOLYLINE
  5
273
100
AcDbEntity
  8
0
370
               0
390
0
  6
Continuous
 62
              30
100
AcDbPolyline
 90
       63
 70
             128
 10
4662.9088522829379
 20
169.989906455511
 42
0.0009124754163798
 10
4662.9406179639545
 20
169.99533548116753
 10
4663.0438478716796
 20
170.01317230529651
 42
0.0125957559401704
 10
4663.2808759283744
 20
170.06030499265435
 10
4663.398808549131
 20
170.08686014040478
 42
0.0143071008372286
 10
4663.8670908611675
 20
170.20647743372211
 10
4663.8825850790372
 20
170.21091111079804
 42
0.0142601815528443
 10
4664.3739863355204
 20
170.36681620154351
 42
0.0142601518391089
 10
4664.8557010527693
 20
170.55048046679696
 42
0.014306737179191
 10
4665.3261401097325
 20
170.76134928610986
 10
4665.3842126180552
 20
170.7894014702272
 42
0.014409697436172
 10
4665.727337160859
 20
170.96752017165107
 42
0.0072190922089858
 10
4666.0625558747524
 20
171.16037709024653
 42
0.014338371125567
 10
4666.3890637978675
 20
171.36744663954269
 10
4666.4425016453179
 20
171.40352566118111
 42
0.0142722272881408
 10
4666.8613668544294
 20
171.70407825915782
 42
0.0142553636238895
 10
4667.2624146918406
 20
172.02802695859282
 42
0.0142809652991833
 10
4667.6443302946536
 20
172.37432137995719
 42
0.014373621439832
 10
4668.0057831232625
 20
172.74191900425433
 42
0.0144289493714881
 10
4668.3454734686202
 20
173.1297146954943
 42
0.0143270399360739
 10
4668.6623143727047
 20
173.53639503093444
 42
0.014267366336117
 10
4668.9553959142877
 20
173.96052198745198
 42
0.0142566952910644
 10
4669.2238206972706
 20
174.40066978863459
 42
0.0142870083186406
 10
4669.4666953385022
 20
174.85541251359518
 42
0.0143903660953787
 10
4669.6831036924268
 20
175.32332612454184
 42
0.0144191585158283
 10
4669.8722088143568
 20
175.80292420543776
 42
0.0143166498782156
 10
4670.0334562412718
 20
176.29259423581655
 42
0.0142632524680378
 10
4670.1664689272366
 20
176.79067916217323
 42
0.014258710908342
 10
4670.2708701432648
 20
177.29553762289206
 42
0.014294017711535
 10
4670.3462881677951
 20
177.80552873338189
 42
0.0144064697457604
 10
4670.3923257739898
 20
178.31900315801374
 42
0.0144066742382907
 10
4670.4087157809272
 20
178.83427635956389
 42
0.014307279362476
 10
4670.3955058892398
 20
179.34964350864183
 42
0.0142599196694157
 10
4670.3528901117934
 20
179.8634190451578
 42
0.0142612846818912
 10
4670.281054618059
 20
180.37392958502136
 42
0.0143025202704918
 10
4670.1801903281121
 20
180.87950346598399
 42
0.0144205573863029
 10
4670.0504678292727
 20
181.3784499774884
 42
0.0143923932375405
 10
4669.8922267133121
 20
181.86909641887922
 42
0.0142993275982425
 10
4669.7061054740116
 20
182.34986775502193
 42
0.014257281418385
 10
4669.4928430768587
 20
182.8192394198191
 42
0.0142634137997106
 10
4669.2531730118262
 20
183.27568499543094
 10
4669.2215740079391
 20
183.331907692248
 42
0.0143203285920578
 10
4669.0225855846638
 20
183.66336440033825
 10
4668.9878336414395
 20
183.71766446131738
 42
0.0071967322107795
 10
4668.8457576639103
 20
183.93277564781005
 42
0.007229562498438
 10
4668.6975354117012
 20
184.14369848676088
 10
4668.6596994107622
 20
184.19591816251315
 42
0.0143754610216948
 10
4668.423943004088
 20
184.50235746177145
 10
4668.3831750801091
 20
184.55230868697711
 42
0.0142911139672589
 10
4668.0459224985852
 20
184.9422306219694
 42
0.014255732294312
 10
4667.6869685162692
 20
185.31227663797608
 42
0.0142675615552546
 10
4667.3075024577029
 20
185.66125524981123
 42
0.0143262115559642
 10
4666.9087136760008
 20
185.98797421122342
 42
0.0144366216265222
 10
4666.491803318142
 20
186.29122511225512
 42
0.014364009459999
 10
4666.0581280758615
 20
186.56997316443204
 42
0.0142846435474011
 10
4665.6091956379887
 20
186.82343453281106
 42
0.0142543355539956
 10
4665.1465292485527
 20
187.05087853507609
 10
4665.0878593688885
 20
187.07767176535216
 42
0.0142749946497275
 10
4664.7317512096524
 20
187.2281669142921
 42
0.0071561022649016
 10
4664.3693951061014
 20
187.3633129938498
 42
0.0143879779997978
 10
4664.0016525369738
 20
187.48269462525198
 10
4663.9397969003576
 20
187.50082532030592
 42
0.0009115415363691
 10
4663.9088522829379
 20
187.50983436305557
 42
0.0009115415363691
  0
LINE
  5
274
100
AcDbEntity
  8
0
370
               0
390
0
  6
Continuous
 62
              30
100
AcDbLine
 10
4663.908859146145
 20
188.86402415633177
 30
0.0
 11
4663.908859146145
 21
187.50983642935728
 31
0.0
  0
LINE
  5
275
100
AcDbEntity
  8
0
370
               0
390
0
  6
Continuous
 62
              30
100
AcDbLine
 10
4663.908859146145
 20
188.86402415633177
 30
0.0
 11
4658.9088490133554
 21
188.86402415633177
 31
0.0
  0
LWPOLYLINE
  5
276
100
AcDbEntity
  8
0
370
               0
390
0
  6
Continuous
 62
              30
100
AcDbPolyline
 90
       89
 70
             128
 10
4661.4088522829388
 20
244.11402613016105
 42
-0.0012012312578176
 10
4661.4637839561838
 20
244.11389415868476
 10
4661.642379631352
 20
244.11303601366347
 42
-0.0164570533078129
 10
4662.0539909865902
 20
244.09750429042541
 10
4662.2321090306596
 20
244.08490335379028
 42
-0.0093400415171574
 10
4662.669763837006
 20
244.04571358849677
 42
-0.0093128983150362
 10
4663.1056560735988
 20
243.99022768095608
 42
-0.0092948411069085
 10
4663.5391874396082
 20
243.91856150919403
 42
-0.0092899494732434
 10
4663.969757999901
 20
243.83083448703684
 42
-0.0092982319494121
 10
4664.3967678572144
 20
243.72716592030594
 42
-0.0093195987157722
 10
4664.8196170817682
 20
243.60767501784005
 42
-0.009353907592185
 10
4665.2377056870846
 20
243.47248084072953
 42
-0.0094019781017117
 10
4665.6504320202157
 20
243.32170182512419
 42
-0.009458363579308
 10
4666.0571819436891
 20
243.15546458980094
 42
-0.0094163863379911
 10
4666.4573660124042
 20
242.97399652442402
 42
-0.0093641624534239
 10
4666.8504506534937
 20
242.77763049522281
 42
-0.0093268427348805
 10
4667.2359249464662
 20
242.56670949796359
 42
-0.0093022255561139
 10
4667.6132803631181
 20
242.34157338965099
 42
-0.0092907471500683
 10
4667.9820084053017
 20
242.1025621107774
 42
-0.0092924470785976
 10
4668.3416005189429
 20
241.85001549856031
 42
-0.0093072870679921
 10
4668.6915480951184
 20
241.58427331222106
 42
-0.0093351050994024
 10
4669.0313424711676
 20
241.30567524551481
 42
-0.0093754004517658
 10
4669.3604750832183
 20
241.01456109217924
 42
-0.009436054731051
 10
4669.6784277212601
 20
240.71127066763245
 42
-0.0094472592201926
 10
4669.9847031459321
 20
240.39619111298282
 42
-0.0093875624472451
 10
4670.2788929470426
 20
240.06980387784091
 42
-0.0093440212511966
 10
4670.5606517914366
 20
239.73262747045112
 42
-0.0093128908162178
 10
4670.8296397076492
 20
239.38517061605
 42
-0.0092948416507618
 10
4671.0855170381892
 20
239.02794201500257
 42
-0.0092899494415464
 10
4671.3279440291162
 20
238.6614502793949
 42
-0.0092982319491717
 10
4671.5565808483025
 20
238.28620396716275
 42
-0.0093195987170287
 10
4671.7710875749835
 20
237.90271158563303
 42
-0.009353907592579
 10
4671.9711241435252
 20
237.51148157826674
 42
-0.0094019781004957
 10
4672.1563488680622
 20
237.11302312493967
 42
-0.0094583635804103
 10
4672.3264170208149
 20
236.70786001942241
 42
-0.009416386337091
 10
4672.4810725899297
 20
236.29656985111353
 42
-0.0093641624525559
 10
4672.6201736543826
 20
235.87976528497597
 42
-0.009326842737978
 10
4672.7436014734594
 20
235.45805013098578
 42
-0.0093022255531574
 10
4672.8512367786125
 20
235.03202428807566
 42
-0.0092907471533272
 10
4672.9429603815815
 20
234.6022876929627
 42
-0.0092924470756485
 10
4673.0186529815328
 20
234.16944024888085
 42
-0.0093072870671613
 10
4673.0781951837007
 20
233.73408184269869
 42
-0.0093351051019068
 10
4673.1214675090214
 20
233.29681235299302
 42
-0.009375400451152
 10
4673.1483506189888
 20
232.85823165917935
 42
-0.0094360547315446
 10
4673.1587183695774
 20
232.41894647685757
 42
-0.0094472592194556
 10
4673.1524929095667
 20
231.97958215745615
 42
-0.0093875624468813
 10
4673.1297258856275
 20
231.54076792687255
 42
-0.0093440212496842
 10
4673.0905397510378
 20
231.10311461322084
 42
-0.0093128908207666
 10
4673.035053832733
 20
230.66722233569317
 42
-0.0092948416492175
 10
4672.9633876620719
 20
230.23369097388201
 42
-0.0092899494381251
 10
4672.8756606398028
 20
229.80312041315813
 42
-0.0092982319518845
 10
4672.7719920730851
 20
229.37611055588786
 42
-0.009319598716905
 10
4672.6525011706181
 20
228.95326133132875
 42
-0.009353907593707
 10
4672.5173069935063
 20
228.53517272601505
 42
-0.0094019780984847
 10
4672.3665279778998
 20
228.12244639288303
 42
-0.0094583635805916
 10
4672.2002907425785
 20
227.71569646941009
 42
-0.0094163863385204
 10
4672.0188226772007
 20
227.31551240069444
 42
-0.0093641624518257
 10
4671.8224566480003
 20
226.92242775960449
 42
-0.0093268427367448
 10
4671.6115356507416
 20
226.53695346663221
 42
-0.0093022255550602
 10
4671.3863995424281
 20
226.15959804998067
 42
-0.0092907471508431
 10
4671.1473882635546
 20
225.79087000779771
 42
-0.0092924470770132
 10
4670.8948416513376
 20
225.43127789415593
 42
-0.0093072870695523
 10
4670.629099464998
 20
225.081330317979
 42
-0.0093351051000902
 10
4670.3505013982913
 20
224.74153594193109
 42
-0.0093754004498149
 10
4670.0593872449554
 20
224.41240332988031
 42
-0.0094360547332453
 10
4669.7560968204089
 20
224.09445069183869
 42
-0.0094472592179465
 10
4669.4410172657599
 20
223.78817526716722
 42
-0.00938756244785
 10
4669.1146300306191
 20
223.49398546605494
 42
-0.0093440212520205
 10
4668.77745362323
 20
223.21222662166178
 42
-0.0093128908164592
 10
4668.4299967688276
 20
222.94323870544923
 42
-0.0092948416502861
 10
4668.0727681677799
 20
222.68736137490924
 42
-0.0092899494407499
 10
4667.7062764321727
 20
222.44493438398285
 42
-0.0092982319504811
 10
4667.3310301199399
 20
222.21629756479643
 42
-0.0093195987164164
 10
4666.9475377384097
 20
222.00179083811588
 42
-0.0093539075921813
 10
4666.5563077310435
 20
221.80175426957368
 42
-0.0094019781008376
 10
4666.1578492777171
 20
221.61652954503677
 42
-0.0094583635821063
 10
4665.7526861721944
 20
221.44646139228365
 42
-0.0094163863467043
 10
4665.3413960037969
 20
221.2918058231507
 42
-0.0093641625896944
 10
4664.924591436129
 20
221.15270475839247
 42
-0.0093268440232394
 10
4664.5028762560942
 20
221.02927693411408
 42
-0.009302224657696
 10
4664.0768503536119
 20
220.92164161706768
 42
-0.0092907385577842
 10
4663.6471134390777
 20
220.82991795019126
 42
-0.0092924572188028
 10
4663.2142657415807
 20
220.75422529940829
 42
-0.0093072858435114
 10
4662.7789073597542
 20
220.69468310343967
 42
-0.0093271900575567
 10
4662.3416360085303
 20
220.65140369679369
 10
4662.232023799972
 20
220.64261586189349
 42
-0.0188028850551744
 10
4661.5736698847268
 20
220.61468518334465
 10
4661.4637928927214
 20
220.61415796139806
 42
-0.0011997595949433
 10
4661.4088522829379
 20
220.61402613016082
 42
-0.0011997595949433
  0
LWPOLYLINE
  5
277
100
AcDbEntity
  8
0
370
               0
390
0
  6
Continuous
 62
              30
100
AcDbPolyline
 90
       89
 70
             128
 10
4661.4088522829379
 20
220.61402613016082
 42
-0.0012012312733392
 10
4661.353920609693
 20
220.61415810163888
 10
4661.1753249344565
 20
220.61501624667187
 42
-0.0164570532455199
 10
4660.7637135790783
 20
220.63054796989027
 10
4660.5855955299266
 20
220.64314890685182
 42
-0.0093400409580584
 10
4660.1479407355819
 20
220.68233867049571
 42
-0.009312895059877
 10
4659.7120486064487
 20
220.73782455674865
 42
-0.0092948421886759
 10
4659.2785169133167
 20
220.80949079335772
 42
-0.0092899520204763
 10
4658.8479459295413
 20
220.89721789912892
 42
-0.0092982316087738
 10
4658.4209360736295
 20
221.00088646517082
 42
-0.009319595195889
 10
4657.9980868402508
 20
221.12037736627343
 42
-0.0093538392771769
 10
4657.5799982003473
 20
221.25557148452691
 42
-0.0094022616448984
 10
4657.1672719055969
 20
221.40635061610237
 42
-0.0094581643490133
 10
4656.7605220593068
 20
221.57258803163194
 42
-0.0094163740665331
 10
4656.3603380042514
 20
221.75405610199505
 42
-0.0093641630818582
 10
4655.9672533707089
 20
221.95042212743556
 42
-0.0093268421207314
 10
4655.5817790826495
 20
222.1613431220872
 42
-0.0093022253214758
 10
4655.2044236681304
 20
222.3864792284009
 42
-0.0092907471288972
 10
4654.8356956256148
 20
222.62549050653899
 42
-0.0092924473450856
 10
4654.4761035095435
 20
222.87803711981303
 42
-0.0093072885192991
 10
4654.1261559298628
 20
223.14377931010006
 42
-0.0093351231507663
 10
4653.7863615604692
 20
223.42237739484176
 42
-0.0093754477807055
 10
4653.4572289922307
 20
223.71349161050523
 42
-0.0094360409325828
 10
4653.1392764258217
 20
224.01678211149931
 42
-0.0094472130127757
 10
4652.8330010452119
 20
224.33186169546531
 42
-0.0093875559503912
 10
4652.5388112546298
 20
224.65824892752289
 42
-0.0093440211874769
 10
4652.2570524147413
 20
224.99542532958782
 42
-0.0093128903964359
 10
4651.9880645008452
 20
225.34288218045549
 42
-0.0092948415188422
 10
4651.7321871705481
 20
225.70011077984918
 42
-0.0092899495222429
 10
4651.4897601783005
 20
226.06660251607821
 42
-0.009298232022635
 10
4651.261123356544
 20
226.44184883142941
 42
-0.009319595086949
 10
4651.0466166232009
 20
226.82534121742464
 42
-0.0093538392922152
 10
4650.8465799885298
 20
227.2165712077101
 42
-0.0094022616426681
 10
4650.6613553731404
 20
227.61502971589374
 42
-0.0094581643500459
 10
4650.4912874023903
 20
228.02019289426022
 42
-0.0094163740627286
 10
4650.3366318464596
 20
228.43148305643444
 42
-0.0093641630877794
 10
4650.1975307846842
 20
228.84828761457635
 42
-0.0093268421171085
 10
4650.074102967239
 20
229.27000276324907
 42
-0.0093022253228257
 10
4649.9664676621778
 20
229.69602860323818
 42
-0.0092907471281688
 10
4649.874744058453
 20
230.12576519806618
 42
-0.0092924473447047
 10
4649.7990514575285
 20
230.55861264461333
 42
-0.0093072885217781
 10
4649.7395092556762
 20
230.99397105606499
 42
-0.0093351231486464
 10
4649.6962369478169
 20
231.43124055381833
 42
-0.0093754477825579
 10
4649.6693539129028
 20
231.86982126072309
 42
-0.0094360409282323
 10
4649.6589862670198
 20
232.30910644644962
 42
-0.0094472130188506
 10
4649.6652117789163
 20
232.74847075542635
 42
-0.009387555945415
 10
4649.6879788081205
 20
233.18728497638284
 42
-0.0093440211907611
 10
4649.7271649421327
 20
233.62493828308271
 42
-0.0093128903951278
 10
4649.7826508595781
 20
234.06083055647468
 42
-0.0092948415204836
 10
4649.8543170292396
 20
234.49436191694366
 42
-0.0092899495175491
 10
4649.9420440510139
 20
234.92493247904088
 42
-0.0092982320274702
 10
4650.04571261812
 20
235.35194234033469
 42
-0.0093195950839623
 10
4650.1652035190345
 20
235.7747915727623
 42
-0.0093538392935049
 10
4650.3003976373066
 20
236.19288021275889
 42
-0.0094022616404407
 10
4650.4511767688782
 20
236.60560650750142
 42
-0.0094581643533367
 10
4650.6174141844076
 20
237.0123563537918
 42
-0.0094163740636095
 10
4650.7988822547713
 20
237.41254040884689
 42
-0.0093641630845423
 10
4650.9952482802128
 20
237.80562504238952
 42
-0.0093268421189423
 10
4651.2061692748648
 20
238.19109933044854
 42
-0.0093022253204319
 10
4651.4313053811775
 20
238.56845474496913
 42
-0.0092907471319178
 10
4651.6703166593161
 20
238.93718278748463
 42
-0.0092924473408861
 10
4651.922863272589
 20
239.29677490355624
 42
-0.0093072885247881
 10
4652.1886054628758
 20
239.64672248323689
 42
-0.0093351231466514
 10
4652.4672035476196
 20
239.98651685263025
 42
-0.0093754477836788
 10
4652.7583177632823
 20
240.31564942086709
 42
-0.0094360409286501
 10
4653.0616082642764
 20
240.63360198727696
 42
-0.0094472130155986
 10
4653.376687848242
 20
240.93987736788876
 42
-0.0093875559504726
 10
4653.7030750802987
 20
241.23406715846977
 42
-0.0093440211878647
 10
4654.0402514823654
 20
241.51582599835723
 42
-0.0093128903953842
 10
4654.3877083332336
 20
241.78481391225392
 42
-0.0092948415210542
 10
4654.7449369326278
 20
242.04069124254897
 42
-0.0092899495181551
 10
4655.1114286688553
 20
242.28311823479663
 42
-0.0092982320250104
 10
4655.4866749842058
 20
242.51175505655493
 42
-0.0093195950860232
 10
4655.8701673702008
 20
242.72626178989788
 42
-0.0093538392936978
 10
4656.2613973604875
 20
242.92629842456915
 42
-0.0094022616407545
 10
4656.659855868671
 20
243.1115230399584
 42
-0.009458164351877
 10
4657.0650190470369
 20
243.28159101070929
 42
-0.0094163740645568
 10
4657.4763092092126
 20
243.43624656663883
 42
-0.0093641630827047
 10
4657.8931137673535
 20
243.57534762841379
 42
-0.0093268421210023
 10
4658.3148289160254
 20
243.69877544586046
 42
-0.0093022253197909
 10
4658.7408547560153
 20
243.80641075092115
 42
-0.0092907471318356
 10
4659.1705913508431
 20
243.89813435464595
 42
-0.0092924473424637
 10
4659.6034387973896
 20
243.97382695556894
 42
-0.0093072885206684
 10
4660.0387972088392
 20
244.03336915742227
 42
-0.0093271897176865
 10
4660.4760685533365
 20
244.0766485631641
 10
4660.585680765671
 20
244.08543639838257
 42
-0.0188028851069096
 10
4661.2440346817029
 20
244.11336707698899
 10
4661.3539116731636
 20
244.11389429892563
 42
-0.0011997595785873
 10
4661.4088522829379
 20
244.11402613016105
 42
-0.0011997595785873
  0
LINE
  5
278
100
AcDbEntity
  8
0
370
               0
390
0
  6
Continuous
 62
              30
100
AcDbLine
 10
4658.9088490133554
 20
241.00984054207777
 30
0.0
 11
4658.9088490133554
 21
242.36402826905226
 31
0.0
  0
LWPOLYLINE
  5
279
100
AcDbEntity
  8
0
370
               0
390
0
  6
Continuous
 62
              30
100
AcDbPolyline
 90
       58
 70
             128
 10
4658.9088522829379
 20
241.00983436305626
 42
0.0009124754144102
 10
4658.8779106493002
 20
241.00082613804543
 10
4658.7773807425529
 20
240.97135913966287
 42
0.0125957559403148
 10
4658.5472550835111
 20
240.8975623177144
 10
4658.4331099667106
 20
240.85776066924944
 42
0.0143071008373684
 10
4657.9814796200571
 20
240.68563672958439
 10
4657.9665905170668
 20
240.67946883756008
 42
0.0142601815521557
 10
4657.496120382244
 20
240.46866218578231
 42
0.0142601518395535
 10
4657.038432454704
 20
240.23137882747415
 42
0.0143067371805036
 10
4656.5950424272851
 20
239.96835059921756
 10
4656.5405389954121
 20
239.93387282129814
 42
0.0144096974337088
 10
4656.2199101516817
 20
239.71786849671139
 10
4656.1675012278556
 20
239.68032129893842
 42
0.0072134448084708
 10
4655.9601261466942
 20
239.52717718850272
 42
0.0071846282221589
 10
4655.7572461424243
 20
239.36812575968244
 10
4655.7070738899856
 20
239.32761496553479
 42
0.0143000908663424
 10
4655.4133262586347
 20
239.07622360913948
 10
4655.3655569846169
 20
239.03291559380466
 42
0.0142574153476693
 10
4654.9936435385353
 20
238.67589717240304
 42
0.0142642274687832
 10
4654.6426885030078
 20
238.29825777500747
 42
0.0143132826060251
 10
4654.3138789645755
 20
237.90119029989745
 42
0.0144306962534034
 10
4654.0084267308011
 20
237.48589023335023
 42
0.0143782481649309
 10
4653.7273950672534
 20
237.05369055111674
 42
0.0142911137075185
 10
4653.4715902838561
 20
236.60609437864935
 42
0.0142557323525369
 10
4653.2417399222195
 20
236.14462842075568
 42
0.0142675622136546
 10
4653.0385729283016
 20
235.6708101883396
 42
0.0143262056148296
 10
4652.8628189112051
 20
235.18615737295653
 42
0.0144365516356259
 10
4652.7152188782256
 20
234.69220459502941
 42
0.0143642440693757
 10
4652.5962982748042
 20
234.1905736729513
 42
0.014284120602356
 10
4652.5062964473291
 20
233.68295320388739
 42
0.0142548516737389
 10
4652.4453969245096
 20
233.17102214081149
 42
0.014271369804426
 10
4652.4137856679426
 20
232.65645352534858
 42
0.0143409270281081
 10
4652.4116541771073
 20
232.14092202211702
 42
0.0144380624782834
 10
4652.4391805557443
 20
231.62612366725057
 42
0.0143509163610117
 10
4652.4962840881053
 20
231.1137611944327
 42
0.0142778204867576
 10
4652.5826131977783
 20
230.60550272767131
 42
0.0142547414108235
 10
4652.697788427261
 20
230.1029921633808
 42
0.0142757843867352
 10
4652.8414318438736
 20
229.60786965624965
 42
0.0143569345373594
 10
4653.0131749259235
 20
229.12178220278162
 42
0.0144354167862977
 10
4653.2126064844997
 20
228.64638545066299
 42
0.0143384742351846
 10
4653.4390496884425
 20
228.18324393590552
 42
0.0142722272887277
 10
4653.6916092948923
 20
227.7338069851063
 42
0.0142553636202061
 10
4653.9693860997768
 20
227.29950044080005
 42
0.0142809653033361
 10
4654.2714810299785
 20
226.88174691647129
 42
0.0143736214298974
 10
4654.5970045527083
 20
226.48198374053243
 42
0.0144289494129517
 10
4654.9450015019283
 20
226.10162449948359
 42
0.0143270397806287
 10
4655.3142862464192
 20
225.74189427969452
 42
0.0142673669112345
 10
4655.7035298043356
 20
225.40385594059268
 42
0.01425669320904
 10
4656.1114139789906
 20
225.08855854509312
 42
0.0142870156438051
 10
4656.5366200150265
 20
224.79704717524879
 42
0.0143903412238336
 10
4656.9778334251914
 20
224.53038936352692
 42
0.0144192386261679
 10
4657.433669457856
 20
224.28958065744962
 42
0.0143164131282281
 10
4657.902584985357
 20
224.07535032342884
 42
0.0142638360972666
 10
4658.3829807910915
 20
223.88825384883739
 42
0.0142573180137648
 10
4658.8732663052633
 20
223.72884564708363
 42
0.0142992301590591
 10
4659.3718400136968
 20
223.59768508841699
 42
0.0143891795765248
 10
4659.8770839262897
 20
223.49533582173194
 42
0.0009105381741592
 10
4659.9088522829379
 20
223.48990645551123
 42
0.0009105381741592
  0
LINE
  5
27A
100
AcDbEntity
  8
0
370
               0
390
0
  6
Continuous
 62
              30
100
AcDbLine
 10
4659.9088510399133
 20
222.36402499079679
 30
0.0
 11
4659.9088510399133
 21
223.48990457653974
 31
0.0
  0
LINE
  5
27B
100
AcDbEntity
  8
0
370
               0
390
0
  6
Continuous
 62
              30
100
AcDbLine
 10
4659.9088510399133
 20
222.36402499079679
 30
0.0
 11
4662.9088571195871
 21
222.36402499079679
 31
0.0
  0
LINE
  5
27C
100
AcDbEntity
  8
0
370
               0
390
0
  6
Continuous
 62
              30
100
AcDbLine
 10
4662.9088571195871
 20
223.48990457653974
 30
0.0
 11
4662.9088571195871
 21
222.36402499079679
 31
0.0
  0
LWPOLYLINE
  5
27D
100
AcDbEntity
  8
0
370
               0
390
0
  6
Continuous
 62
              30
100
AcDbPolyline
 90
       54
 70
             128
 10
4662.9088522829379
 20
223.48990645551146
 42
0.0009145881105327
 10
4662.9406179407697
 20
223.4953356153483
 10
4663.0597358299819
 20
223.51591871868624
 42
0.0143864173589314
 10
4663.328162388907
 20
223.57029718208136
 10
4663.4458955298214
 20
223.59769578309874
 42
0.0142986647478244
 10
4663.944470636502
 20
223.72885700268102
 42
0.0142573962291228
 10
4664.434747872192
 20
223.88826214656518
 42
0.0142643096121609
 10
4664.9151395628687
 20
224.07535771162321
 42
0.0143129369209048
 10
4665.384057753944
 20
224.28958657817986
 42
0.0144309173287243
 10
4665.8398909156922
 20
224.53040050450642
 42
0.0143782934819034
 10
4666.2811011870026
 20
224.7970630018404
 42
0.0142911335116297
 10
4666.7063081611914
 20
225.08857194619117
 42
0.014255697939708
 10
4667.114192058003
 20
225.40386981919181
 42
0.0142677126838474
 10
4667.5034356855595
 20
225.74190814403738
 42
0.0143257148715721
 10
4667.8727216421412
 20
226.10163817710958
 42
0.0144368876715354
 10
4668.2207144188178
 20
226.48200136438896
 42
0.0143642764520008
 10
4668.5462342768733
 20
226.88176697589807
 42
0.0142841303629997
 10
4668.8483305664377
 20
227.29951895348449
 42
0.0142548019277903
 10
4669.1261069351685
 20
227.7338258231955
 42
0.0142715889446525
 10
4669.3786671408952
 20
228.18326261497134
 42
0.0143403104529158
 10
4669.6051100041714
 20
228.64640502778758
 42
0.0144384807586726
 10
4669.8045363707788
 20
229.12180400451155
 42
0.014350943439253
 10
4669.9762767001848
 20
229.60789186229425
 42
0.014277822290927
 10
4670.1199213581658
 20
230.10301367382129
 42
0.0142546926200288
 10
4670.2350960540944
 20
230.60552436141563
 42
0.0142759966841864
 10
4670.3214264591334
 20
231.11378289894259
 42
0.0143563276278287
 10
4670.3785275918999
 20
231.62614619951751
 42
0.0144358319263696
 10
4670.4060483256208
 20
232.14094484735028
 42
0.0143385027460084
 10
4670.4039158825781
 20
232.65647570649674
 42
0.0142722200161085
 10
4670.3723053674239
 20
233.17104417953334
 42
0.014255349625386
 10
4670.3114052882574
 20
233.68297513534253
 42
0.014281011743849
 10
4670.2214053472508
 20
234.19059637694966
 42
0.014373273954869
 10
4670.1024806213081
 20
234.69222678406896
 42
0.0144292418564842
 10
4669.9548750368958
 20
235.18617783980989
 42
0.014327067780993
 10
4669.7791219634137
 20
235.67083022515732
 42
0.0142673520873884
 10
4669.5759551366118
 20
236.14464845504074
 42
0.0142567248134902
 10
4669.3461042820145
 20
236.60611408115739
 42
0.0142868391128232
 10
4669.0903015172826
 20
237.05371206837009
 42
0.0143903593527693
 10
4668.8092651235638
 20
237.4859090871451
 42
0.014419292892412
 10
4668.5038080502291
 20
237.90120547019507
 42
0.0143166641775623
 10
4668.1750006725824
 20
238.2982736434476
 42
0.0142632546254954
 10
4667.8240453390063
 20
238.67591295617876
 42
0.0142587437028908
 10
4667.4521314217327
 20
239.03293100738392
 42
0.0142937778219523
 10
4667.0604508006691
 20
239.36813999297266
 42
0.0144066253970442
 10
4666.6501883449437
 20
239.68032610694132
 42
0.014406713758615
 10
4666.2226280539653
 20
239.96836656937012
 42
0.0143072450521863
 10
4665.779238822126
 20
240.23139487323311
 42
0.0142601849521199
 10
4665.3215513891491
 20
240.46867800287424
 42
0.0142600718943489
 10
4664.8510803335594
 20
240.67948516185925
 10
4664.8361812293006
 20
240.68565720461064
 42
0.0143084287471161
 10
4664.3845680563772
 20
240.85777345231423
 10
4664.3693295203684
 20
240.86308694591449
 42
0.0125977982375275
 10
4663.9397960228098
 20
241.00082573966392
 42
0.0009091551370633
 10
4663.9088522829379
 20
241.00983436305603
 42
0.0009091551370633
  0
LINE
  5
27E
100
AcDbEntity
  8
0
370
               0
390
0
  6
Continuous
 62
              30
100
AcDbLine
 10
4663.908859146145
 20
242.36402826905226
 30
0.0
 11
4663.908859146145
 21
241.00984054207777
 31
0.0
  0
LINE
  5
27F
100
AcDbEntity
  8
0
370
               0
390
0
  6
Continuous
 62
              30
100
AcDbLine
 10
4663.908859146145
 20
242.36402826905226
 30
0.0
 11
4658.9088490133554
 21
242.36402826905226
 31
0.0
  0
LWPOLYLINE
  5
280
100
AcDbEntity
  8
0
370
               0
390
0
  6
Continuous
 62
              30
100
AcDbPolyline
 90
       74
 70
             128
 10
4661.4088522829379
 20
229.61402613016082
 10
4661.4166788763396
 20
229.61404767069024
 42
0.0115145641394656
 10
4661.5418297145225
 20
229.61727481514112
 42
0.0113982761769217
 10
4661.666701481875
 20
229.62623144597035
 42
0.011345610906046
 10
4661.7910375349884
 20
229.64085685542994
 42
0.0113159540760259
 10
4661.9145850538625
 20
229.66110061981476
 42
0.0113098926459239
 10
4662.037090855425
 20
229.68691231731918
 42
0.0113278149159658
 10
4662.1583017335124
 20
229.71824163416994
 42
0.0113685769735097
 10
4662.2779645034852
 20
229.75503818085701
 42
0.0114360055539171
 10
4662.3958252320281
 20
229.79725208279734
 42
0.01151373700333
 10
4662.5116255298763
 20
229.84482930403499
 42
0.0114450045275232
 10
4662.6251194825982
 20
229.89767128883693
 42
0.0113759834136941
 10
4662.7360842436701
 20
229.9556362928127
 42
0.0113317279195594
 10
4662.8443045655267
 20
230.01857991867666
 42
0.0113109465939597
 10
4662.9495658420537
 20
230.08635866582785
 42
0.0113136184792501
 10
4663.0516534706458
 20
230.15882906078252
 42
0.0113412074001296
 10
4663.1503526488004
 20
230.2358478444757
 42
0.0113875140080202
 10
4663.2454491823046
 20
230.31727117153775
 42
0.0114760936108259
 10
4663.3367247873621
 20
230.40295644291859
 42
0.0114992090980471
 10
4663.4239685546654
 20
230.4927439664873
 42
0.0114153518999268
 10
4663.5070070311895
 20
230.58643349917463
 42
0.0113566813596026
 10
4663.5856943624931
 20
230.68380674340563
 42
0.0113211497713091
 10
4663.6598871782062
 20
230.78464886213271
 42
0.0113092365462504
 10
4663.7294421037523
 20
230.88874516897039
 42
0.0113208663432011
 10
4663.7942157496846
 20
230.99588100719637
 42
0.0113571797116175
 10
4663.8540644827062
 20
231.1058418149085
 42
0.0114127756412473
 10
4663.9088452981823
 20
231.2184127206479
 42
0.0115077158406438
 10
4663.9584104839487
 20
231.33337607036782
 42
0.0114672089523136
 10
4664.0026427862958
 20
231.45049435346544
 42
0.0113905933395737
 10
4664.0414766760368
 20
231.56951121972105
 42
0.0113406188665052
 10
4664.0748621015737
 20
231.69017119672498
 42
0.0113139139847752
 10
4664.1027487975352
 20
231.81222106256587
 42
0.0113107646468052
 10
4664.1250864612939
 20
231.93540761364341
 42
0.0113319023713888
 10
4664.1418246224894
 20
232.05947766421707
 42
0.0113745726255049
 10
4664.1529131317984
 20
232.18417802310597
 42
0.0114490560619894
 10
4664.1583000725768
 20
232.30925461665316
 42
0.0115118006225422
 10
4664.1579399190578
 20
232.43444714934611
 42
0.0114345467585681
 10
4664.1518370145914
 20
232.55949072136258
 42
0.0113691923527659
 10
4664.1400397099442
 20
232.68412609840948
 42
0.0113278321413201
 10
4664.1225988188135
 20
232.80809953298427
 42
0.0113100152882415
 10
4664.099564781478
 20
232.93115783816478
 42
0.011315620302059
 10
4664.0709880234626
 20
233.05304784443666
 42
0.011346340145071
 10
4664.0369186594435
 20
233.17351625894355
 42
0.0113948168344858
 10
4663.997407734425
 20
233.2923102090777
 42
0.0114887988534686
 10
4663.9525032963047
 20
233.40917259784663
 42
0.0114895227079497
 10
4663.9022777838245
 20
233.52384886415155
 42
0.0114066332041103
 10
4663.846855922201
 20
233.63610535431019
 42
0.0113509655184559
 10
4663.7863836640718
 20
233.74572471815878
 42
0.0113183659696882
 10
4663.7210045451739
 20
233.85249234637502
 42
0.0113093842368208
 10
4663.6508620395234
 20
233.95619362158521
 42
0.011324132060439
 10
4663.5760995637638
 20
234.0566138990622
 42
0.0113627933816718
 10
4663.4968604557271
 20
234.15353844268481
 42
0.0114238161529787
 10
4663.4132882684826
 20
234.24675242384137
 42
0.011512408329102
 10
4663.3255293653647
 20
234.33603662848788
 42
0.0114559425135861
 10
4663.2337636060893
 20
234.42119655783364
 42
0.0113831183888021
 10
4663.1382053210946
 20
234.50207740039195
 42
0.0113359906999293
 10
4663.0390708007744
 20
234.57853539176529
 42
0.0113122453611266
 10
4662.9365747535066
 20
234.6504271842536
 42
0.0113120037656328
 10
4662.8309318578649
 20
234.71760941204712
 42
0.0113363785470023
 10
4662.7223566898783
 20
234.77993849996983
 42
0.0113808352893625
 10
4662.611064049308
 20
234.83727142012185
 42
0.0114626099637128
 10
4662.4972689345668
 20
234.88946200110524
 42
0.0115068176503348
 10
4662.3811968594437
 20
234.93637217728207
 42
0.011424653703503
 10
4662.2630968417179
 20
234.97791149500728
 42
0.0113627545556348
 10
4662.1432267664877
 20
235.0140274343172
 42
0.0113243169508544
 10
4662.0218401958546
 20
235.04466978141863
 42
0.0113093956960851
 10
4661.8991903281876
 20
235.06978825346295
 42
0.0113182551337364
 10
4661.7755304206084
 20
235.08933247963461
 42
0.0113507073417541
 10
4661.6511134002958
 20
235.10325208763368
 10
4661.6472144795443
 20
235.10359888940027
 42
0.0114076906212506
 10
4661.5301035105786
 20
235.11132772680088
 10
4661.5261908847733
 20
235.11149641015768
 42
0.0100471977711489
 10
4661.4166781977001
 20
235.11401478826735
 10
4661.4088522829379
 20
235.11402613016082
  0
LWPOLYLINE
  5
281
100
AcDbEntity
  8
0
370
               0
390
0
  6
Continuous
 62
              30
100
AcDbPolyline
 90
       74
 70
             128
 10
4661.4088522829379
 20
235.11402613016082
 10
4661.4010256895372
 20
235.11400458963138
 42
0.0115145641389278
 10
4661.2758748513543
 20
235.11077744518042
 42
0.0113982761777476
 10
4661.151003084
 20
235.1018208143513
 42
0.0113456109065991
 10
4661.0266670308874
 20
235.08719540489182
 42
0.0113159540747203
 10
4660.9031195120133
 20
235.066951640507
 42
0.0113098926462873
 10
4660.7806137104499
 20
235.04113994300263
 42
0.0113278149169047
 10
4660.6594028323625
 20
235.00981062615182
 42
0.011368576972852
 10
4660.5397400623897
 20
234.9730140794648
 42
0.0114360055531054
 10
4660.4218793338478
 20
234.93080017752465
 42
0.0115137370040627
 10
4660.3060790359996
 20
234.8832229562874
 42
0.0114450045319471
 10
4660.1925850832786
 20
234.830380971485
 42
0.0113759834046138
 10
4660.0816203222039
 20
234.77241596750872
 42
0.011331727924405
 10
4659.9734000003464
 20
234.70947234164504
 42
0.0113109465978584
 10
4659.8681387238212
 20
234.64169359449403
 42
0.0113136184754075
 10
4659.766051095231
 20
234.56922319953969
 42
0.0113412073949226
 10
4659.6673519170745
 20
234.49220441584612
 42
0.011387514016912
 10
4659.5722553835712
 20
234.41078108878384
 42
0.0114760936033934
 10
4659.4809797785128
 20
234.32509581740311
 42
0.011499209105708
 10
4659.3937360112104
 20
234.23530829383469
 42
0.0114153518937028
 10
4659.3106975346873
 20
234.14161876114787
 42
0.0113566813610233
 10
4659.2320102033827
 20
234.04424551691625
 42
0.0113211497734487
 10
4659.1578173876696
 20
233.94340339818905
 42
0.0113092365391497
 10
4659.0882624621227
 20
233.839307091352
 42
0.011320866355913
 10
4659.0234888161904
 20
233.7321712531255
 42
0.011357179695397
 10
4658.9636400831678
 20
233.62221044541354
 42
0.0114127756582514
 10
4658.9088592676917
 20
233.5096395396742
 42
0.0115077158358953
 10
4658.8592940819281
 20
233.39467618995383
 42
0.0114672089435585
 10
4658.81506177958
 20
233.27755790685649
 42
0.0113905933471424
 10
4658.7762278898381
 20
233.15854104060077
 42
0.0113406188639923
 10
4658.7428424643022
 20
233.03788106359684
 42
0.0113139139854409
 10
4658.7149557683406
 20
232.91583119775595
 42
0.0113107646463412
 10
4658.6926181045819
 20
232.7926446466783
 42
0.0113319023698124
 10
4658.6758799433865
 20
232.66857459610475
 42
0.0113745726345423
 10
4658.6647914340783
 20
232.54387423721579
 42
0.0114490560438639
 10
4658.659404493299
 20
232.4187976436686
 42
0.0115118006406962
 10
4658.6597646468181
 20
232.29360511097553
 42
0.0114345467531407
 10
4658.6658675512854
 20
232.16856153895895
 42
0.0113691923491436
 10
4658.6776648559335
 20
232.04392616191211
 42
0.011327832141287
 10
4658.6951057470633
 20
231.91995272733749
 42
0.0113100152879616
 10
4658.718139784397
 20
231.79689442215698
 42
0.0113156203017645
 10
4658.7467165424123
 20
231.67500441588481
 42
0.011346340152433
 10
4658.7807859064324
 20
231.5545360013781
 42
0.0113948168231272
 10
4658.8202968314508
 20
231.43574205124378
 42
0.0114887988620296
 10
4658.8652012695693
 20
231.3188796624749
 42
0.0114895227078125
 10
4658.9154267820504
 20
231.20420339617073
 42
0.0114066332024852
 10
4658.9708486436757
 20
231.09194690601146
 42
0.0113509655188926
 10
4659.0313209018059
 20
230.98232754216235
 42
0.0113183659706714
 10
4659.0967000207038
 20
230.87555991394703
 42
0.0113093842248234
 10
4659.1668425263506
 20
230.77185863873626
 42
0.0113241320810277
 10
4659.2416050021111
 20
230.67143836125922
 42
0.0113627933640388
 10
4659.3208441101488
 20
230.5745138176369
 42
0.0114238161697877
 10
4659.4044162973923
 20
230.48129983648016
 42
0.011512408314405
 10
4659.4921752005121
 20
230.3920156318336
 42
0.0114559425249902
 10
4659.5839409597875
 20
230.30685570248733
 42
0.0113831183771946
 10
4659.6794992447813
 20
230.22597485992952
 42
0.0113359907118354
 10
4659.7786337651005
 20
230.14951686855665
 42
0.0113122453501737
 10
4659.8811298123692
 20
230.07762507606782
 42
0.0113120037714804
 10
4659.9867727080109
 20
230.01044284827407
 42
0.0113363785490875
 10
4660.0953478759993
 20
229.94811376035182
 42
0.0113808352811334
 10
4660.2066405165688
 20
229.89078084020014
 42
0.011462609969704
 10
4660.3204356313072
 20
229.83859025921669
 42
0.011506817648955
 10
4660.436507706434
 20
229.79168008303935
 42
0.011424653704962
 10
4660.5546077241597
 20
229.75014076531443
 42
0.0113627545515736
 10
4660.6744777993899
 20
229.71402482600439
 42
0.0113243169530296
 10
4660.7958643700222
 20
229.68338247890273
 42
0.0113093956952091
 10
4660.9185142376891
 20
229.6582640068587
 42
0.0113182551334531
 10
4661.0421741452683
 20
229.63871978068704
 42
0.0113507073422416
 10
4661.1665911655809
 20
229.62480017268803
 10
4661.1704900863315
 20
229.62445337092149
 42
0.0114076906200644
 10
4661.2876010552991
 20
229.61672453352065
 10
4661.2915136811062
 20
229.61655585016373
 42
0.0100471977730385
 10
4661.4010263681766
 20
229.61403747205418
 10
4661.4088522829379
 20
229.61402613016082
  0
SPLINE
  5
282
100
AcDbEntity
  8
0
370
               0
390
0
  6
Continuous
 62
              30
100
AcDbSpline
210
0.0
220
0.0
230
1.0
 70
              12
 71
               2
 72
             120
 73
             117
 74
               0
 42
0.000001
 43
0.000001
 40
0.0
 40
0.0
 40
0.0
 40
1.0
 40
1.0
 40
2.0
 40
2.0
 40
3.0
 40
3.0
 40
4.0
 40
4.0
 40
5.0
 40
5.0
 40
6.0
 40
6.0
 40
7.0
 40
7.0
 40
8.0
 40
8.0
 40
9.0
 40
9.0
 40
10.0
 40
10.0
 40
11.0
 40
11.0
 40
12.0
 40
12.0
 40
13.0
 40
13.0
 40
14.0
 40
14.0
 40
15.0
 40
15.0
 40
16.0
 40
16.0
 40
17.0
 40
17.0
 40
18.0
 40
18.0
 40
19.0
 40
19.0
 40
20.0
 40
20.0
 40
21.0
 40
21.0
 40
22.0
 40
22.0
 40
23.0
 40
23.0
 40
24.0
 40
24.0
 40
25.0
 40
25.0
 40
26.0
 40
26.0
 40
27.0
 40
27.0
 40
28.0
 40
28.0
 40
29.0
 40
29.0
 40
30.0
 40
30.0
 40
31.0
 40
31.0
 40
32.0
 40
32.0
 40
33.0
 40
33.0
 40
34.0
 40
34.0
 40
35.0
 40
35.0
 40
36.0
 40
36.0
 40
37.0
 40
37.0
 40
38.0
 40
38.0
 40
39.0
 40
39.0
 40
40.0
 40
40.0
 40
41.0
 40
41.0
 40
42.0
 40
42.0
 40
43.0
 40
43.0
 40
44.0
 40
44.0
 40
45.0
 40
45.0
 40
46.0
 40
46.0
 40
47.0
 40
47.0
 40
48.0
 40
48.0
 40
49.0
 40
49.0
 40
50.0
 40
50.0
 40
51.0
 40
51.0
 40
52.0
 40
52.0
 40
53.0
 40
53.0
 40
54.0
 40
54.0
 40
55.0
 40
55.0
 40
56.0
 40
56.0
 40
57.0
 40
57.0
 40
58.0
 40
58.0
 40
58.0
 10
4661.4088522829379
 20
238.36402613016082
 30
0.0
 41
1.0
 10
4661.4199666028126
 20
238.36402613016082
 30
0.0
 41
1.0
 10
4661.5144609916551
 20
238.3636664311565
 30
0.0
 41
1.0
 10
4661.6089553804977
 20
238.36330673215218
 30
0.0
 41
0.999554959382338
 10
4661.7032601406609
 20
238.35731247517302
 30
0.0
 41
1.0
 10
4661.7448648983636
 20
238.35466796805798
 30
0.0
 41
1.0
 10
4661.7864696560673
 20
238.35202346094297
 30
0.0
 41
1.0
 10
4661.9639835418202
 20
238.34074023779917
 30
0.0
 41
0.9995618597865473
 10
4662.1405187449545
 20
238.31897299601127
 30
0.0
 41
1.0
 10
4662.3170547696536
 20
238.29720557981452
 30
0.0
 41
0.9995657106020305
 10
4662.4920018426928
 20
238.26507599751153
 30
0.0
 41
1.0
 10
4662.6669496873801
 20
238.23294630058899
 30
0.0
 41
0.9995664586890175
 10
4662.8397030354663
 20
238.19057477112239
 30
0.0
 41
1.0
 10
4663.0124546754787
 20
238.14820374125765
 30
0.0
 41
0.9995642012988145
 10
4663.1824047788132
 20
238.09571187831438
 30
0.0
 41
1.0
 10
4663.3523545318421
 20
238.04322006261395
 30
0.0
 41
0.9995585373161684
 10
4663.5188864765732
 20
237.98072669773637
 30
0.0
 41
1.0
 10
4663.685419172486
 20
237.91823306265229
 30
0.0
 41
0.9995510387100581
 10
4663.8479096822057
 20
237.84587680871056
 30
0.0
 41
1.0
 10
4664.0103992116765
 20
237.7735210509
 30
0.0
 41
0.9995576914726667
 10
4664.1682996181153
 20
237.69163292891386
 30
0.0
 41
1.0
 10
4664.3262002726751
 20
237.60974459604685
 30
0.0
 41
0.9995636531334876
 10
4664.4789898378685
 20
237.51867503725293
 30
0.0
 41
1.0
 10
4664.6317810728633
 20
237.42760443279678
 30
0.0
 41
0.9995663749431588
 10
4664.7789463594636
 20
237.32769750156933
 30
0.0
 41
1.0
 10
4664.9261113681969
 20
237.2277908385459
 30
0.0
 41
0.9995658861481055
 10
4665.0671364412701
 20
237.11938968598628
 30
0.0
 41
1.0
 10
4665.2081601931186
 20
237.01098959194331
 30
0.0
 41
0.9995628038233164
 10
4665.3425300730214
 20
236.89444340217727
 30
0.0
 41
1.0
 10
4665.4769001078657
 20
236.77789701286036
 30
0.0
 41
0.9995547102741116
 10
4665.6040786437661
 20
236.65354273213995
 30
0.0
 41
1.0
 10
4665.7312574354646
 20
236.52918824290558
 30
0.0
 41
0.9995524774458142
 10
4665.8507720763791
 20
236.39745087289583
 30
0.0
 41
1.0
 10
4665.9702862008671
 20
236.26571409776949
 30
0.0
 41
0.9995603951722082
 10
4666.081782130228
 20
236.12712527567834
 30
0.0
 41
1.0
 10
4666.1932786816797
 20
235.98853554985695
 30
0.0
 41
0.9995650289022511
 10
4666.296410381281
 20
235.84361334442798
 30
0.0
 41
1.0
 10
4666.3995429101888
 20
235.6986899688651
 30
0.0
 41
0.9995665859680658
 10
4666.4939676526046
 20
235.54794823170181
 30
0.0
 41
1.0
 10
4666.5883917277988
 20
235.39720771989823
 30
0.0
 41
0.9995649539550127
 10
4666.6737634758392
 20
235.24116198137472
 30
0.0
 41
1.0
 10
4666.7591347892267
 20
235.08511696287897
 30
0.0
 41
0.9995606681899316
 10
4666.8351101359567
 20
234.92428768806769
 30
0.0
 41
1.0
 10
4666.9110857774658
 20
234.76345777524085
 30
0.0
 41
0.9995516228644999
 10
4666.9772982061022
 20
234.59836848650048
 30
0.0
 41
1.0
 10
4667.0435103723912
 20
234.43328000350317
 30
0.0
 41
0.9995555866173413
 10
4667.0997666992098
 20
234.26453912559907
 30
0.0
 41
1.0
 10
4667.1560229332181
 20
234.09579837721208
 30
0.0
 41
0.9995625016742872
 10
4667.2022033814437
 20
233.92402652202969
 30
0.0
 41
1.0
 10
4667.2483842580241
 20
233.75225282506204
 30
0.0
 41
0.999565980261501
 10
4667.2843687008253
 20
233.57805754324335
 30
0.0
 41
1.0
 10
4667.3203532651132
 20
233.40386187524774
 30
0.0
 41
0.9995663168105051
 10
4667.3460204784915
 20
233.22784990470944
 30
0.0
 41
1.0
 10
4667.3716874927341
 20
233.05183977285159
 30
0.0
 41
0.9995637784096362
 10
4667.3869177248635
 20
232.87462125754928
 30
0.0
 41
1.0
 10
4667.402147884738
 20
232.69740287405315
 30
0.0
 41
0.9995573068738798
 10
4667.4068104948092
 20
232.51959237580837
 30
0.0
 41
1.0
 10
4667.4114731410791
 20
232.3417811374724
 30
0.0
 41
0.9995512338528402
 10
4667.4054793574041
 20
232.16400979190155
 30
0.0
 41
1.0
 10
4667.3994856558602
 20
231.98623950474405
 30
0.0
 41
0.9995586619375917
 10
4667.3829452971349
 20
231.80913892318819
 30
0.0
 41
1.0
 10
4667.3664048069832
 20
231.63203778897724
 30
0.0
 41
0.9995641589225834
 10
4667.3394412822845
 20
231.45622149880757
 30
0.0
 41
1.0
 10
4667.3124774442404
 20
231.28040336790716
 30
0.0
 41
0.9995664979446195
 10
4667.275212055345
 20
231.10647707746773
 30
0.0
 41
1.0
 10
4667.2379468986928
 20
230.93255151095204
 30
0.0
 41
0.9995656058369229
 10
4667.1904990588246
 20
230.76112369208965
 30
0.0
 41
1.0
 10
4667.1430516163773
 20
230.58969727073219
 30
0.0
 41
0.9995622162351144
 10
4667.0855477815376
 20
230.42137737674182
 30
0.0
 41
1.0
 10
4667.028043775982
 20
230.25305709348157
 30
0.0
 41
0.9995534739263083
 10
4666.9605879110431
 20
230.088472359386
 30
0.0
 41
1.0
 10
4666.8931321045266
 20
229.92388766432509
 30
0.0
 41
0.9995534261182169
 10
4666.8159648406636
 20
229.76362656153043
 30
0.0
 41
1.0
 10
4666.7387978302677
 20
229.60336599400918
 30
0.0
 41
0.9995611561618142
 10
4666.6522757625735
 20
229.44795644218715
 30
0.0
 41
1.0
 10
4666.5657529484706
 20
229.29254571092167
 30
0.0
 41
0.9995653933832089
 10
4666.4702217234808
 20
229.14250412400366
 30
0.0
 41
1.0
 10
4666.3746899027565
 20
228.99246157915019
 30
0.0
 41
0.999566548820558
 10
4666.2704929994652
 20
228.84830160071846
 30
0.0
 41
1.0
 10
4666.166297114507
 20
228.70414288803613
 30
0.0
 41
0.9995645917445131
 10
4666.0537791593333
 20
228.56638140340237
 30
0.0
 41
1.0
 10
4665.9412615321353
 20
228.42862039941178
 30
0.0
 41
0.9995596673227623
 10
4665.8207701492593
 20
228.29777645685505
 30
0.0
 41
1.0
 10
4665.7002782407026
 20
228.16693193785167
 30
0.0
 41
0.9995511650339924
 10
4665.5721665040446
 20
228.04353837598018
 30
0.0
 41
1.0
 10
4665.4440555528527
 20
227.92014549022616
 30
0.0
 41
0.9995566612416268
 10
4665.308827237378
 20
227.80459670068558
 30
0.0
 41
1.0
 10
4665.1735988208084
 20
227.68904790673628
 30
0.0
 41
0.9995631007062343
 10
4665.0317791436519
 20
227.58169136244533
 30
0.0
 41
1.0
 10
4664.8899578537685
 20
227.47433366587654
 30
0.0
 41
0.9995662019948649
 10
4664.7420615886258
 20
227.37551237245856
 30
0.0
 41
1.0
 10
4664.5941653443706
 20
227.27669102793149
 30
0.0
 41
0.999566124762717
 10
4664.4407067956308
 20
227.18674976366583
 30
0.0
 41
1.0
 10
4664.2872498459574
 20
227.09680937464304
 30
0.0
 41
0.9995633175827084
 10
4664.128747816023
 20
227.01609125098679
 30
0.0
 41
1.0
 10
4663.970245706776
 20
226.935373151535
 30
0.0
 41
0.9995560118333358
 10
4663.80721707063
 20
226.86423951665682
 30
0.0
 41
1.0
 10
4663.6441879008589
 20
226.79310562445585
 30
0.0
 41
0.9995517281272396
 10
4663.4771935474764
 20
226.7318567325936
 30
0.0
 41
1.0
 10
4663.3102001066618
 20
226.67060813845069
 30
0.0
 41
0.9995595630169371
 10
4663.139867144977
 20
226.61937453888402
 30
0.0
 41
1.0
 10
4662.9695333378977
 20
226.56814077403988
 30
0.0
 41
0.9995646224843543
 10
4662.7964740805983
 20
226.52704335371527
 30
0.0
 41
1.0
 10
4662.6234133291618
 20
226.4859455839898
 30
0.0
 41
0.9995665462487715
 10
4662.4482337718273
 20
226.45510449035555
 30
0.0
 41
1.0
 10
4662.2730547235242
 20
226.42426345035818
 30
0.0
 41
0.9995653935020725
 10
4662.0963625958211
 20
226.40379980647009
 30
0.0
 41
1.0
 10
4662.0908375370282
 20
226.40315992037526
 30
0.0
 41
1.0
 10
4662.0853124782361
 20
226.40252003428043
 30
0.0
 41
1.0
 10
4661.9196710654041
 20
226.38333623175686
 30
0.0
 41
0.9995610604253494
 10
4661.7531842439657
 20
226.37399630608775
 30
0.0
 41
1.0
 10
4661.7476267997408
 20
226.37368453296648
 30
0.0
 41
1.0
 10
4661.7420693555159
 20
226.37337275984524
 30
0.0
 41
1.0
 10
4661.5866974225255
 20
226.36465638041864
 30
0.0
 41
0.999658613739603
 10
4661.4310822985381
 20
226.36406814800796
 30
0.0
 41
1.0
 10
4661.4199666028126
 20
226.36402613016082
 30
0.0
 41
1.0
 10
4661.4088522829379
 20
226.36402613016082
 30
0.0
 41
1.0
  0
SPLINE
  5
283
100
AcDbEntity
  8
0
370
               0
390
0
  6
Continuous
 62
              30
100
AcDbSpline
210
0.0
220
0.0
230
1.0
 70
              12
 71
               2
 72
             120
 73
             117
 74
               0
 42
0.000001
 43
0.000001
 40
0.0
 40
0.0
 40
0.0
 40
1.0
 40
1.0
 40
2.0
 40
2.0
 40
3.0
 40
3.0
 40
4.0
 40
4.0
 40
5.0
 40
5.0
 40
6.0
 40
6.0
 40
7.0
 40
7.0
 40
8.0
 40
8.0
 40
9.0
 40
9.0
 40
10.0
 40
10.0
 40
11.0
 40
11.0
 40
12.0
 40
12.0
 40
13.0
 40
13.0
 40
14.0
 40
14.0
 40
15.0
 40
15.0
 40
16.0
 40
16.0
 40
17.0
 40
17.0
 40
18.0
 40
18.0
 40
19.0
 40
19.0
 40
20.0
 40
20.0
 40
21.0
 40
21.0
 40
22.0
 40
22.0
 40
23.0
 40
23.0
 40
24.0
 40
24.0
 40
25.0
 40
25.0
 40
26.0
 40
26.0
 40
27.0
 40
27.0
 40
28.0
 40
28.0
 40
29.0
 40
29.0
 40
30.0
 40
30.0
 40
31.0
 40
31.0
 40
32.0
 40
32.0
 40
33.0
 40
33.0
 40
34.0
 40
34.0
 40
35.0
 40
35.0
 40
36.0
 40
36.0
 40
37.0
 40
37.0
 40
38.0
 40
38.0
 40
39.0
 40
39.0
 40
40.0
 40
40.0
 40
41.0
 40
41.0
 40
42.0
 40
42.0
 40
43.0
 40
43.0
 40
44.0
 40
44.0
 40
45.0
 40
45.0
 40
46.0
 40
46.0
 40
47.0
 40
47.0
 40
48.0
 40
48.0
 40
49.0
 40
49.0
 40
50.0
 40
50.0
 40
51.0
 40
51.0
 40
52.0
 40
52.0
 40
53.0
 40
53.0
 40
54.0
 40
54.0
 40
55.0
 40
55.0
 40
56.0
 40
56.0
 40
57.0
 40
57.0
 40
58.0
 40
58.0
 40
58.0
 10
4661.4088522829379
 20
226.36402613016082
 30
0.0
 41
1.0
 10
4661.3977379630633
 20
226.36402613016082
 30
0.0
 41
1.0
 10
4661.3032435742207
 20
226.3643858291652
 30
0.0
 41
1.0
 10
4661.2087491853799
 20
226.36474552816952
 30
0.0
 41
0.9995549593823168
 10
4661.1144444252168
 20
226.37073978514863
 30
0.0
 41
1.0
 10
4661.0728396675131
 20
226.37338429226361
 30
0.0
 41
1.0
 10
4661.0312349098094
 20
226.37602879937862
 30
0.0
 41
1.0
 10
4660.8537210240556
 20
226.38731202252234
 30
0.0
 41
0.9995618597865837
 10
4660.6771858209222
 20
226.40907926431009
 30
0.0
 41
1.0
 10
4660.500649796224
 20
226.43084668050648
 30
0.0
 41
0.9995657106019489
 10
4660.325702723183
 20
226.46297626281
 30
0.0
 41
1.0
 10
4660.1507548784975
 20
226.49510595973277
 30
0.0
 41
0.9995664586890934
 10
4659.9780015304113
 20
226.53747748919943
 30
0.0
 41
1.0
 10
4659.805249890398
 20
226.5798485190644
 30
0.0
 41
0.9995642012988845
 10
4659.6352997870617
 20
226.63234038200744
 30
0.0
 41
1.0
 10
4659.4653500340328
 20
226.68483219770749
 30
0.0
 41
0.9995585373161429
 10
4659.2988180893026
 20
226.74732556258544
 30
0.0
 41
1.0
 10
4659.1322853933898
 20
226.8098191976695
 30
0.0
 41
0.9995510387101564
 10
4658.9697948836692
 20
226.88217545161109
 30
0.0
 41
1.0
 10
4658.8073053541984
 20
226.95453120942079
 30
0.0
 41
0.9995576914724943
 10
4658.6494049477606
 20
227.0364193314079
 30
0.0
 41
1.0
 10
4658.4915042932007
 20
227.11830766427619
 30
0.0
 41
0.9995636531335762
 10
4658.3387147280082
 20
227.20937722306911
 30
0.0
 41
1.0
 10
4658.1859234930125
 20
227.30044782752506
 30
0.0
 41
0.9995663749431808
 10
4658.0387582064122
 20
227.40035475875248
 30
0.0
 41
1.0
 10
4657.8915931976771
 20
227.50026142177586
 30
0.0
 41
0.9995658861480983
 10
4657.7505681246039
 20
227.60866257433554
 30
0.0
 41
1.0
 10
4657.6095443727545
 20
227.71706266837867
 30
0.0
 41
0.9995628038232371
 10
4657.4751744928526
 20
227.83360885814471
 30
0.0
 41
1.0
 10
4657.3408044580092
 20
227.95015524746219
 30
0.0
 41
0.999554710274152
 10
4657.2136259221088
 20
228.07450952818152
 30
0.0
 41
1.0
 10
4657.0864471304103
 20
228.19886401741581
 30
0.0
 41
0.9995524774457884
 10
4656.9669324894958
 20
228.33060138742542
 30
0.0
 41
1.0
 10
4656.8474183650078
 20
228.46233816255204
 30
0.0
 41
0.9995603951721911
 10
4656.7359224356469
 20
228.60092698464337
 30
0.0
 41
1.0
 10
4656.6244258841944
 20
228.73951671046476
 30
0.0
 41
0.9995650289022009
 10
4656.521294184593
 20
228.88443891589384
 30
0.0
 41
1.0
 10
4656.4181616556862
 20
229.02936229145604
 30
0.0
 41
0.9995665859679719
 10
4656.3237369132712
 20
229.18010402862041
 30
0.0
 41
1.0
 10
4656.2293128380788
 20
229.33084454042412
 30
0.0
 41
0.9995649539554607
 10
4656.1439410900366
 20
229.48689027894716
 30
0.0
 41
1.0
 10
4656.0585697766455
 20
229.64293529744128
 30
0.0
 41
0.9995606681895196
 10
4655.9825944299173
 20
229.8037645722539
 30
0.0
 41
1.0
 10
4655.90661878841
 20
229.96459448508139
 30
0.0
 41
0.9995516228647573
 10
4655.8404063597727
 20
230.12968377382134
 30
0.0
 41
1.0
 10
4655.7741941934837
 20
230.29477225681805
 30
0.0
 41
0.9995555866170423
 10
4655.717937866666
 20
230.46351313472314
 30
0.0
 41
1.0
 10
4655.6616816326596
 20
230.63225388311088
 30
0.0
 41
0.9995625016745644
 10
4655.615501184433
 20
230.80402573829247
 30
0.0
 41
1.0
 10
4655.5693203078508
 20
230.97579943525992
 30
0.0
 41
0.9995659802613653
 10
4655.5333358650496
 20
231.14999471707841
 30
0.0
 41
1.0
 10
4655.4973513007626
 20
231.32419038507425
 30
0.0
 41
0.9995663168106953
 10
4655.4716840873825
 20
231.50020235561243
 30
0.0
 41
1.0
 10
4655.446017073139
 20
231.67621248746997
 30
0.0
 41
0.9995637784092861
 10
4655.4307868410124
 20
231.85343100277254
 30
0.0
 41
1.0
 10
4655.4155566811396
 20
232.03064938626886
 30
0.0
 41
0.9995573068741624
 10
4655.4108940710676
 20
232.20845988451367
 30
0.0
 41
1.0
 10
4655.4062314247958
 20
232.38627112284956
 30
0.0
 41
0.9995512338527658
 10
4655.4122252084708
 20
232.56404246842033
 30
0.0
 41
1.0
 10
4655.4182189100147
 20
232.74181275557777
 30
0.0
 41
0.9995586619373911
 10
4655.4347592687436
 20
232.91891333713357
 30
0.0
 41
1.0
 10
4655.4512997588981
 20
233.09601447134418
 30
0.0
 41
0.9995641589231922
 10
4655.4782632835922
 20
233.27183076151442
 30
0.0
 41
1.0
 10
4655.5052271216327
 20
233.44764889241529
 30
0.0
 41
0.999566497944235
 10
4655.5424925105272
 20
233.6215751828542
 30
0.0
 41
1.0
 10
4655.5797576671803
 20
233.79550074937035
 30
0.0
 41
0.9995656058368747
 10
4655.6272055070494
 20
233.96692856823256
 30
0.0
 41
1.0
 10
4655.6746529494976
 20
234.13835498959003
 30
0.0
 41
0.9995622162351415
 10
4655.7321567843373
 20
234.3066748835804
 30
0.0
 41
1.0
 10
4655.7896607898938
 20
234.4749951668411
 30
0.0
 41
0.9995534739264255
 10
4655.8571166548327
 20
234.6395799009361
 30
0.0
 41
1.0
 10
4655.9245724613493
 20
234.80416459599701
 30
0.0
 41
0.9995534261183754
 10
4656.0017397252104
 20
234.96442569879235
 30
0.0
 41
1.0
 10
4656.0789067356045
 20
235.12468626631431
 30
0.0
 41
0.9995611561614858
 10
4656.1654288033005
 20
235.28009581813507
 30
0.0
 41
1.0
 10
4656.251951617407
 20
235.43550654939997
 30
0.0
 41
0.9995653933834771
 10
4656.347482842395
 20
235.58554813631849
 30
0.0
 41
1.0
 10
4656.4430146631175
 20
235.73559068117237
 30
0.0
 41
0.9995665488203901
 10
4656.5472115664106
 20
235.87975065960399
 30
0.0
 41
1.0
 10
4656.6514074513707
 20
236.02390937228603
 30
0.0
 41
0.9995645917447208
 10
4656.7639254065434
 20
236.16167085691978
 30
0.0
 41
1.0
 10
4656.8764430337415
 20
236.29943186091123
 30
0.0
 41
0.9995596673227518
 10
4656.9969344166166
 20
236.430275803467
 30
0.0
 41
1.0
 10
4657.1174263251733
 20
236.56112032247103
 30
0.0
 41
0.9995511650339595
 10
4657.2455380618312
 20
236.68451388434204
 30
0.0
 41
1.0
 10
4657.3736490130241
 20
236.80790677009716
 30
0.0
 41
0.9995566612416504
 10
4657.5088773284988
 20
236.92345555963675
 30
0.0
 41
1.0
 10
4657.6441057450684
 20
237.03900435358582
 30
0.0
 41
0.999563100706421
 10
4657.785925422224
 20
237.14636089787706
 30
0.0
 41
1.0
 10
4657.9277467121055
 20
237.25371859444621
 30
0.0
 41
0.9995662019947256
 10
4658.07564297725
 20
237.35253988786366
 30
0.0
 41
1.0
 10
4658.2235392215061
 20
237.45136123239095
 30
0.0
 41
0.9995661247628491
 10
4658.3769977702459
 20
237.54130249665604
 30
0.0
 41
1.0
 10
4658.5304547199175
 20
237.63124288567818
 30
0.0
 41
0.9995633175826547
 10
4658.6889567498529
 20
237.7119610093352
 30
0.0
 41
1.0
 10
4658.8474588590998
 20
237.7926791087871
 30
0.0
 41
0.9995560118334209
 10
4659.0104874952449
 20
237.86381274366499
 30
0.0
 41
1.0
 10
4659.173516665016
 20
237.93494663586637
 30
0.0
 41
0.9995517281272546
 10
4659.3405110183976
 20
237.99619552772845
 30
0.0
 41
1.0
 10
4659.5075044592159
 20
238.05744412187201
 30
0.0
 41
0.9995595630169212
 10
4659.6778374208989
 20
238.10867772143791
 30
0.0
 41
1.0
 10
4659.848171227979
 20
238.1599114862816
 30
0.0
 41
0.999564622484431
 10
4660.0212304852766
 20
238.2010089066066
 30
0.0
 41
1.0
 10
4660.1942912367131
 20
238.24210667633278
 30
0.0
 41
0.9995665462486624
 10
4660.3694707940476
 20
238.27294776996644
 30
0.0
 41
1.0
 10
4660.5446498423544
 20
238.30378880996369
 30
0.0
 41
0.9995653935022164
 10
4660.7213419700565
 20
238.32425245385178
 30
0.0
 41
1.0
 10
4660.7268670288495
 20
238.32489233994667
 30
0.0
 41
1.0
 10
4660.7323920876424
 20
238.32553222604156
 30
0.0
 41
1.0
 10
4660.8980335004717
 20
238.34471602856502
 30
0.0
 41
0.9995610604252397
 10
4661.0645203219101
 20
238.35405595423396
 30
0.0
 41
1.0
 10
4661.0700777661314
 20
238.35436772735505
 30
0.0
 41
1.0
 10
4661.0756352103535
 20
238.35467950047615
 30
0.0
 41
1.0
 10
4661.2310071433476
 20
238.3633958799029
 30
0.0
 41
0.9996586137395789
 10
4661.3866222673387
 20
238.36398411231357
 30
0.0
 41
1.0
 10
4661.3977379630642
 20
238.36402613016082
 30
0.0
 41
1.0
 10
4661.4088522829388
 20
238.36402613016082
 30
0.0
 41
1.0
  0
LWPOLYLINE
  5
284
100
AcDbEntity
  8
0
370
               0
390
0
  6
Continuous
 62
              30
100
AcDbPolyline
 90
       74
 70
             128
 10
4661.408852282937
 20
176.11402613016037
 10
4661.4166788763387
 20
176.11404767068979
 42
0.0115145641394656
 10
4661.5418297145206
 20
176.11727481514069
 42
0.0113982761771166
 10
4661.666701481875
 20
176.12623144596989
 42
0.0113456109069424
 10
4661.7910375349875
 20
176.14085685542946
 42
0.0113159540750946
 10
4661.9145850538607
 20
176.16110061981428
 42
0.0113098926456097
 10
4662.037090855425
 20
176.1869123173189
 42
0.0113278149166351
 10
4662.1583017335124
 20
176.21824163416943
 42
0.0113685769737851
 10
4662.2779645034843
 20
176.25503818085639
 42
0.0114360055533398
 10
4662.3958252320272
 20
176.29725208279672
 42
0.0115137370056805
 10
4662.5116255298753
 20
176.34482930403442
 42
0.0114450045262633
 10
4662.6251194825973
 20
176.3976712888367
 42
0.0113759834112438
 10
4662.7360842436701
 20
176.45563629281207
 42
0.0113317279209594
 10
4662.8443045655276
 20
176.51857991867604
 42
0.0113109465950387
 10
4662.9495658420547
 20
176.58635866582731
 42
0.0113136184790986
 10
4663.0516534706458
 20
176.65882906078187
 42
0.0113412073946258
 10
4663.1503526488013
 20
176.73584784447513
 42
0.0113875140181929
 10
4663.2454491823046
 20
176.81727117153741
 42
0.011476093599763
 10
4663.3367247873621
 20
176.90295644291848
 42
0.011499209107931
 10
4663.4239685546654
 20
176.99274396648687
 42
0.0114153518942915
 10
4663.5070070311886
 20
177.08643349917406
 42
0.0113566813584252
 10
4663.5856943624931
 20
177.1838067434052
 42
0.0113211497767779
 10
4663.6598871782062
 20
177.28464886213237
 42
0.011309236540305
 10
4663.7294421037523
 20
177.38874516897002
 42
0.0113208663462213
 10
4663.7942157496855
 20
177.49588100719595
 42
0.0113571797134452
 10
4663.8540644827071
 20
177.60584181490799
 42
0.0114127756400677
 10
4663.9088452981823
 20
177.71841272064739
 42
0.0115077158421128
 10
4663.9584104839487
 20
177.83337607036736
 42
0.0114672089506451
 10
4664.0026427862958
 20
177.95049435346505
 42
0.0113905933394354
 10
4664.0414766760368
 20
178.06951121972057
 42
0.0113406188667666
 10
4664.0748621015737
 20
178.19017119672449
 42
0.0113139139828809
 10
4664.1027487975352
 20
178.31222106256547
 42
0.0113107646505457
 10
4664.1250864612939
 20
178.43540761364301
 42
0.011331902369663
 10
4664.1418246224875
 20
178.55947766421679
 42
0.0113745726272737
 10
4664.1529131317966
 20
178.68417802310563
 42
0.0114490560566514
 10
4664.1583000725759
 20
178.80925461665271
 42
0.0115118006243533
 10
4664.1579399190578
 20
178.93444714934589
 42
0.0114345467731313
 10
4664.1518370145895
 20
179.05949072136229
 42
0.0113691923290206
 10
4664.1400397099414
 20
179.18412609840908
 42
0.0113278321540114
 10
4664.1225988188125
 20
179.30809953298393
 42
0.0113100152862318
 10
4664.099564781478
 20
179.43115783816438
 42
0.0113156202986251
 10
4664.0709880234626
 20
179.55304784443621
 42
0.0113463401515219
 10
4664.0369186594435
 20
179.67351625894312
 42
0.0113948168260858
 10
4663.997407734425
 20
179.79231020907733
 42
0.011488798862191
 10
4663.9525032963065
 20
179.90917259784618
 42
0.0114895227047429
 10
4663.9022777838245
 20
180.02384886415106
 42
0.0114066332073671
 10
4663.8468559222001
 20
180.13610535430971
 42
0.0113509655104235
 10
4663.7863836640709
 20
180.24572471815839
 42
0.0113183659808737
 10
4663.721004545172
 20
180.35249234637467
 42
0.011309384222848
 10
4663.6508620395234
 20
180.45619362158493
 42
0.0113241320714013
 10
4663.5760995637647
 20
180.55661389906192
 42
0.0113627933767931
 10
4663.4968604557271
 20
180.65353844268458
 42
0.0114238161569185
 10
4663.4132882684835
 20
180.74675242384126
 42
0.0115124083270902
 10
4663.3255293653656
 20
180.83603662848748
 42
0.0114559425178695
 10
4663.2337636060884
 20
180.9211965578333
 42
0.0113831183800184
 10
4663.1382053210946
 20
181.00207740039195
 42
0.0113359907090924
 10
4663.0390708007762
 20
181.07853539176494
 42
0.011312245360287
 10
4662.9365747535066
 20
181.15042718425281
 42
0.0113120037581135
 10
4662.8309318578649
 20
181.21760941204676
 42
0.0113363785593086
 10
4662.7223566898774
 20
181.27993849996946
 42
0.0113808352783066
 10
4662.6110640493071
 20
181.33727142012106
 42
0.0114626099689657
 10
4662.4972689345686
 20
181.38946200110473
 42
0.0115068176515886
 10
4662.3811968594428
 20
181.4363721772815
 42
0.0114246537017268
 10
4662.2630968417161
 20
181.47791149500665
 42
0.0113627545543169
 10
4662.1432267664877
 20
181.5140274343168
 42
0.0113243169542011
 10
4662.0218401958537
 20
181.54466978141812
 42
0.0113093956935842
 10
4661.8991903281867
 20
181.56978825346241
 42
0.0113182551371021
 10
4661.7755304206075
 20
181.58933247963407
 42
0.0113507073387926
 10
4661.6511134002958
 20
181.60325208763314
 10
4661.6472144795489
 20
181.60359888939934
 42
0.0114076906228231
 10
4661.5301035105795
 20
181.61132772680057
 10
4661.5261908847733
 20
181.61149641015743
 42
0.0100471977716678
 10
4661.4166781976992
 20
181.61401478826701
 10
4661.4088522829379
 20
181.61402613016037
  0
LWPOLYLINE
  5
285
100
AcDbEntity
  8
0
370
               0
390
0
  6
Continuous
 62
              30
100
AcDbPolyline
 90
       74
 70
             128
 10
4661.4088522829379
 20
181.61402613016037
 10
4661.4010256895372
 20
181.61400458963095
 42
0.011514564139837
 10
4661.2758748513543
 20
181.61077744517996
 42
0.0113982761761944
 10
4661.1510030840018
 20
181.60182081435084
 42
0.0113456109061561
 10
4661.0266670308883
 20
181.58719540489142
 42
0.0113159540771351
 10
4660.9031195120133
 20
181.56695164050649
 42
0.0113098926434606
 10
4660.7806137104499
 20
181.54113994300192
 42
0.0113278149180287
 10
4660.6594028323634
 20
181.50981062615128
 42
0.0113685769711629
 10
4660.5397400623915
 20
181.47301407946435
 42
0.0114360055540239
 10
4660.4218793338478
 20
181.43080017752408
 42
0.0115137370009597
 10
4660.3060790359996
 20
181.383222956287
 42
0.0114450045359634
 10
4660.1925850832777
 20
181.33038097148449
 42
0.0113759834014611
 10
4660.0816203222039
 20
181.27241596750838
 42
0.0113317279272998
 10
4659.9734000003464
 20
181.20947234164461
 42
0.0113109465945649
 10
4659.8681387238212
 20
181.14169359449309
 42
0.0113136184724271
 10
4659.7660510952282
 20
181.06922319953901
 42
0.011341207408822
 10
4659.6673519170745
 20
180.99220441584586
 42
0.0113875140039507
 10
4659.5722553835712
 20
180.91078108878347
 42
0.0114760936102439
 10
4659.4809797785128
 20
180.82509581740237
 42
0.0114992090986648
 10
4659.3937360112104
 20
180.7353082938339
 42
0.0114153518976279
 10
4659.3106975346855
 20
180.64161876114736
 42
0.0113566813652774
 10
4659.2320102033827
 20
180.54424551691585
 42
0.0113211497645366
 10
4659.1578173876687
 20
180.44340339818848
 42
0.0113092365462928
 10
4659.0882624621217
 20
180.33930709135129
 42
0.0113208663533619
 10
4659.0234888161904
 20
180.23217125312456
 42
0.011357179693131
 10
4658.9636400831678
 20
180.12221044541263
 42
0.0114127756619146
 10
4658.9088592676908
 20
180.00963953967351
 42
0.0115077158309253
 10
4658.8592940819271
 20
179.89467618995315
 42
0.0114672089536909
 10
4658.81506177958
 20
179.7775579068558
 42
0.0113905933350232
 10
4658.776227889839
 20
179.6585410406002
 42
0.0113406188713078
 10
4658.7428424643012
 20
179.53788106359616
 42
0.0113139139796048
 10
4658.7149557683388
 20
179.41583119775544
 42
0.0113107646558942
 10
4658.692618104581
 20
179.29264464667787
 42
0.0113319023604849
 10
4658.6758799433865
 20
179.16857459610421
 42
0.0113745726417787
 10
4658.6647914340783
 20
179.04387423721545
 42
0.0114490560402444
 10
4658.6594044932999
 20
178.91879764366826
 42
0.0115118006352462
 10
4658.6597646468172
 20
178.79360511097514
 42
0.0114345467567764
 10
4658.6658675512826
 20
178.66856153895856
 42
0.0113691923490416
 10
4658.6776648559298
 20
178.5439261619116
 42
0.0113278321576309
 10
4658.6951057470633
 20
178.41995272733689
 42
0.0113100152665149
 10
4658.7181397843988
 20
178.2968944221565
 42
0.0113156203125436
 10
4658.7467165424132
 20
178.17500441588436
 42
0.011346340141781
 10
4658.7807859064324
 20
178.05453600137747
 42
0.0113948168342433
 10
4658.8202968314499
 20
177.93574205124327
 42
0.0114887988559668
 10
4658.8652012695693
 20
177.81887966247444
 42
0.0114895227135263
 10
4658.9154267820504
 20
177.70420339617027
 42
0.0114066331939077
 10
4658.9708486436748
 20
177.59194690601112
 42
0.011350965518988
 10
4659.0313209018022
 20
177.48232754216173
 42
0.0113183659887483
 10
4659.096700020702
 20
177.3755599139464
 42
0.0113093842034204
 10
4659.1668425263506
 20
177.27185863873586
 42
0.0113241320919016
 10
4659.2416050021093
 20
177.17143836125854
 42
0.0113627933639172
 10
4659.3208441101478
 20
177.07451381763613
 42
0.0114238161661498
 10
4659.4044162973914
 20
176.98129983647956
 42
0.0115124083150816
 10
4659.4921752005102
 20
176.89201563183298
 42
0.0114559425250484
 10
4659.5839409597847
 20
176.8068557024867
 42
0.0113831183841499
 10
4659.6794992447803
 20
176.72597485992901
 42
0.0113359907049659
 10
4659.7786337651014
 20
176.64951686855596
 42
0.0113122453535362
 10
4659.8811298123692
 20
176.57762507606719
 42
0.0113120037720014
 10
4659.9867727080109
 20
176.51044284827364
 42
0.0113363785448681
 10
4660.0953478759975
 20
176.44811376035102
 42
0.0113808352921783
 10
4660.2066405165679
 20
176.39078084019954
 42
0.0114626099592272
 10
4660.320435631309
 20
176.33859025921629
 42
0.0115068176526565
 10
4660.4365077064331
 20
176.29168008303876
 42
0.0114246537055576
 10
4660.5546077241597
 20
176.25014076531386
 42
0.0113627545485248
 10
4660.6744777993881
 20
176.21402482600388
 42
0.0113243169587567
 10
4660.7958643700204
 20
176.18338247890236
 42
0.0113093956908457
 10
4660.91851423769
 20
176.15826400685819
 42
0.0113182551351969
 10
4661.0421741452665
 20
176.13871978068642
 42
0.0113507073434985
 10
4661.1665911655791
 20
176.12480017268757
 10
4661.1704900863315
 20
176.12445337092089
 42
0.0114076906192788
 10
4661.2876010552973
 20
176.11672453352031
 10
4661.2915136811025
 20
176.11655585016348
 42
0.0100471977723538
 10
4661.4010263681748
 20
176.11403747205372
 10
4661.408852282937
 20
176.11402613016037
  0
SPLINE
  5
286
100
AcDbEntity
  8
0
370
               0
390
0
  6
Continuous
 62
              30
100
AcDbSpline
210
0.0
220
0.0
230
1.0
 70
              12
 71
               2
 72
             120
 73
             117
 74
               0
 42
0.000001
 43
0.000001
 40
0.0
 40
0.0
 40
0.0
 40
1.0
 40
1.0
 40
2.0
 40
2.0
 40
3.0
 40
3.0
 40
4.0
 40
4.0
 40
5.0
 40
5.0
 40
6.0
 40
6.0
 40
7.0
 40
7.0
 40
8.0
 40
8.0
 40
9.0
 40
9.0
 40
10.0
 40
10.0
 40
11.0
 40
11.0
 40
12.0
 40
12.0
 40
13.0
 40
13.0
 40
14.0
 40
14.0
 40
15.0
 40
15.0
 40
16.0
 40
16.0
 40
17.0
 40
17.0
 40
18.0
 40
18.0
 40
19.0
 40
19.0
 40
20.0
 40
20.0
 40
21.0
 40
21.0
 40
22.0
 40
22.0
 40
23.0
 40
23.0
 40
24.0
 40
24.0
 40
25.0
 40
25.0
 40
26.0
 40
26.0
 40
27.0
 40
27.0
 40
28.0
 40
28.0
 40
29.0
 40
29.0
 40
30.0
 40
30.0
 40
31.0
 40
31.0
 40
32.0
 40
32.0
 40
33.0
 40
33.0
 40
34.0
 40
34.0
 40
35.0
 40
35.0
 40
36.0
 40
36.0
 40
37.0
 40
37.0
 40
38.0
 40
38.0
 40
39.0
 40
39.0
 40
40.0
 40
40.0
 40
41.0
 40
41.0
 40
42.0
 40
42.0
 40
43.0
 40
43.0
 40
44.0
 40
44.0
 40
45.0
 40
45.0
 40
46.0
 40
46.0
 40
47.0
 40
47.0
 40
48.0
 40
48.0
 40
49.0
 40
49.0
 40
50.0
 40
50.0
 40
51.0
 40
51.0
 40
52.0
 40
52.0
 40
53.0
 40
53.0
 40
54.0
 40
54.0
 40
55.0
 40
55.0
 40
56.0
 40
56.0
 40
57.0
 40
57.0
 40
58.0
 40
58.0
 40
58.0
 10
4661.4088522829379
 20
184.86402613016037
 30
0.0
 41
1.0
 10
4661.4199666028126
 20
184.86402613016037
 30
0.0
 41
1.0
 10
4661.5144609916551
 20
184.86366643115605
 30
0.0
 41
1.0
 10
4661.6089553804977
 20
184.86330673215184
 30
0.0
 41
0.9995549593822724
 10
4661.7032601406618
 20
184.85731247517248
 30
0.0
 41
1.0
 10
4661.7448648983645
 20
184.85466796805747
 30
0.0
 41
1.0
 10
4661.7864696560673
 20
184.85202346094249
 30
0.0
 41
1.0
 10
4661.9639835418211
 20
184.84074023779843
 30
0.0
 41
0.9995618597865446
 10
4662.1405187449536
 20
184.81897299601096
 30
0.0
 41
1.0
 10
4662.3170547696527
 20
184.79720557981457
 30
0.0
 41
0.9995657106019739
 10
4662.4920018426928
 20
184.76507599751108
 30
0.0
 41
1.0
 10
4662.6669496873783
 20
184.73294630058837
 30
0.0
 41
0.9995664586890701
 10
4662.8397030354645
 20
184.69057477112176
 30
0.0
 41
1.0
 10
4663.0124546754778
 20
184.64820374125685
 30
0.0
 41
0.9995642012988175
 10
4663.1824047788123
 20
184.59571187831375
 30
0.0
 41
1.0
 10
4663.3523545318394
 20
184.54322006261444
 30
0.0
 41
0.9995585373160416
 10
4663.5188864765714
 20
184.48072669773563
 30
0.0
 41
1.0
 10
4663.6854191724842
 20
184.41823306265081
 30
0.0
 41
0.9995510387101727
 10
4663.8479096822039
 20
184.34587680870982
 30
0.0
 41
1.0
 10
4664.0103992116747
 20
184.27352105090009
 30
0.0
 41
0.999557691472598
 10
4664.1682996181153
 20
184.19163292891307
 30
0.0
 41
1.0
 10
4664.3262002726751
 20
184.10974459604549
 30
0.0
 41
0.9995636531334706
 10
4664.4789898378676
 20
184.01867503725219
 30
0.0
 41
1.0
 10
4664.6317810728624
 20
183.92760443279681
 30
0.0
 41
0.9995663749431214
 10
4664.7789463594636
 20
183.82769750156888
 30
0.0
 41
1.0
 10
4664.926111368196
 20
183.72779083854576
 30
0.0
 41
0.9995658861481053
 10
4665.0671364412701
 20
183.61938968598577
 30
0.0
 41
1.0
 10
4665.2081601931186
 20
183.51098959194303
 30
0.0
 41
0.9995628038232308
 10
4665.3425300730214
 20
183.39444340217653
 30
0.0
 41
1.0
 10
4665.4769001078657
 20
183.27789701285883
 30
0.0
 41
0.99955471027409
 10
4665.6040786437652
 20
183.1535427321393
 30
0.0
 41
1.0
 10
4665.7312574354628
 20
183.02918824290498
 30
0.0
 41
0.9995524774459664
 10
4665.8507720763791
 20
182.89745087289523
 30
0.0
 41
1.0
 10
4665.970286200868
 20
182.76571409776881
 30
0.0
 41
0.9995603951721859
 10
4666.0817821302298
 20
182.62712527567777
 30
0.0
 41
1.0
 10
4666.1932786816824
 20
182.48853554985652
 30
0.0
 41
0.9995650289021475
 10
4666.2964103812828
 20
182.34361334442733
 30
0.0
 41
1.0
 10
4666.3995429101897
 20
182.1986899688643
 30
0.0
 41
0.9995665859681334
 10
4666.4939676526046
 20
182.04794823170127
 30
0.0
 41
1.0
 10
4666.5883917277988
 20
181.89720771989786
 30
0.0
 41
0.9995649539550789
 10
4666.6737634758392
 20
181.74116198137426
 30
0.0
 41
1.0
 10
4666.7591347892267
 20
181.58511696287815
 30
0.0
 41
0.9995606681899544
 10
4666.8351101359558
 20
181.42428768806718
 30
0.0
 41
1.0
 10
4666.9110857774649
 20
181.2634577752404
 30
0.0
 41
0.9995516228645243
 10
4666.9772982061004
 20
181.09836848650008
 30
0.0
 41
1.0
 10
4667.0435103723894
 20
180.93328000350215
 30
0.0
 41
0.9995555866173992
 10
4667.0997666992098
 20
180.76453912559862
 30
0.0
 41
1.0
 10
4667.156022933219
 20
180.59579837721159
 30
0.0
 41
0.9995625016739368
 10
4667.2022033814419
 20
180.42402652202912
 30
0.0
 41
1.0
 10
4667.2483842580195
 20
180.25225282506102
 30
0.0
 41
0.9995659802620691
 10
4667.2843687008244
 20
180.07805754324283
 30
0.0
 41
1.0
 10
4667.320353265116
 20
179.90386187524777
 30
0.0
 41
0.9995663168100588
 10
4667.3460204784933
 20
179.72784990470905
 30
0.0
 41
1.0
 10
4667.3716874927341
 20
179.55183977285111
 30
0.0
 41
0.9995637784097073
 10
4667.3869177248635
 20
179.37462125754888
 30
0.0
 41
1.0
 10
4667.4021478847371
 20
179.19740287405273
 30
0.0
 41
0.9995573068738078
 10
4667.4068104948074
 20
179.01959237580783
 30
0.0
 41
1.0
 10
4667.4114731410773
 20
178.84178113747186
 30
0.0
 41
0.9995512338529919
 10
4667.4054793574032
 20
178.66400979190095
 30
0.0
 41
1.0
 10
4667.3994856558611
 20
178.48623950474334
 30
0.0
 41
0.9995586619372515
 10
4667.3829452971331
 20
178.3091389231875
 30
0.0
 41
1.0
 10
4667.3664048069786
 20
178.13203778897685
 30
0.0
 41
0.9995641589229357
 10
4667.3394412822818
 20
177.95622149880685
 30
0.0
 41
1.0
 10
4667.3124774442404
 20
177.78040336790599
 30
0.0
 41
0.9995664979444353
 10
4667.275212055345
 20
177.60647707746713
 30
0.0
 41
1.0
 10
4667.2379468986928
 20
177.43255151095161
 30
0.0
 41
0.9995656058368989
 10
4667.1904990588246
 20
177.26112369208909
 30
0.0
 41
1.0
 10
4667.1430516163782
 20
177.08969727073128
 30
0.0
 41
0.9995622162349834
 10
4667.0855477815367
 20
176.92137737674113
 30
0.0
 41
1.0
 10
4667.0280437759802
 20
176.75305709348063
 30
0.0
 41
0.9995534739264536
 10
4666.9605879110422
 20
176.58847235938524
 30
0.0
 41
1.0
 10
4666.8931321045256
 20
176.4238876643245
 30
0.0
 41
0.9995534261182568
 10
4666.8159648406636
 20
176.26362656152969
 30
0.0
 41
1.0
 10
4666.7387978302677
 20
176.10336599400836
 30
0.0
 41
0.9995611561618224
 10
4666.6522757625726
 20
175.94795644218644
 30
0.0
 41
1.0
 10
4666.5657529484688
 20
175.79254571092133
 30
0.0
 41
0.9995653933832753
 10
4666.4702217234808
 20
175.64250412400304
 30
0.0
 41
1.0
 10
4666.3746899027574
 20
175.49246157914965
 30
0.0
 41
0.9995665488205069
 10
4666.2704929994652
 20
175.348301600718
 30
0.0
 41
1.0
 10
4666.1662971145051
 20
175.20414288803474
 30
0.0
 41
0.9995645917445688
 10
4666.0537791593315
 20
175.06638140340181
 30
0.0
 41
1.0
 10
4665.9412615321326
 20
174.92862039941116
 30
0.0
 41
0.9995596673228455
 10
4665.8207701492574
 20
174.79777645685419
 30
0.0
 41
1.0
 10
4665.7002782407017
 20
174.66693193784994
 30
0.0
 41
0.9995511650338407
 10
4665.5721665040437
 20
174.54353837597961
 30
0.0
 41
1.0
 10
4665.4440555528508
 20
174.42014549022559
 30
0.0
 41
0.9995566612417447
 10
4665.3088272373752
 20
174.30459670068498
 30
0.0
 41
1.0
 10
4665.1735988208056
 20
174.18904790673562
 30
0.0
 41
0.9995631007063814
 10
4665.031779143651
 20
174.08169136244445
 30
0.0
 41
1.0
 10
4664.8899578537703
 20
173.97433366587546
 30
0.0
 41
0.9995662019947217
 10
4664.7420615886258
 20
173.87551237245765
 30
0.0
 41
1.0
 10
4664.5941653443706
 20
173.77669102793072
 30
0.0
 41
0.999566124762751
 10
4664.440706795629
 20
173.68674976366515
 30
0.0
 41
1.0
 10
4664.2872498459556
 20
173.59680937464282
 30
0.0
 41
0.9995633175827652
 10
4664.1287478160211
 20
173.51609125098634
 30
0.0
 41
1.0
 10
4663.970245706776
 20
173.43537315153495
 30
0.0
 41
0.9995560118333497
 10
4663.8072170706309
 20
173.36423951665628
 30
0.0
 41
1.0
 10
4663.6441879008598
 20
173.29310562445454
 30
0.0
 41
0.9995517281272176
 10
4663.4771935474773
 20
173.23185673259295
 30
0.0
 41
1.0
 10
4663.31020010666
 20
173.17060813845012
 30
0.0
 41
0.9995595630169947
 10
4663.1398671449761
 20
173.11937453888333
 30
0.0
 41
1.0
 10
4662.9695333378977
 20
173.06814077403948
 30
0.0
 41
0.9995646224843559
 10
4662.7964740805992
 20
173.0270433537147
 30
0.0
 41
1.0
 10
4662.6234133291628
 20
172.98594558398895
 30
0.0
 41
0.9995665462486851
 10
4662.4482337718273
 20
172.95510449035504
 30
0.0
 41
1.0
 10
4662.2730547235224
 20
172.92426345035807
 30
0.0
 41
0.9995653935021455
 10
4662.0963625958193
 20
172.90379980646958
 30
0.0
 41
1.0
 10
4662.0908375370282
 20
172.90315992037486
 30
0.0
 41
1.0
 10
4662.085312478237
 20
172.90252003428014
 30
0.0
 41
1.0
 10
4661.9196710654041
 20
172.88333623175635
 30
0.0
 41
0.9995610604252827
 10
4661.7531842439648
 20
172.87399630608724
 30
0.0
 41
1.0
 10
4661.7476267997399
 20
172.87368453296597
 30
0.0
 41
1.0
 10
4661.742069355515
 20
172.8733727598447
 30
0.0
 41
1.0
 10
4661.5866974225246
 20
172.86465638041818
 30
0.0
 41
0.9996586137395532
 10
4661.4310822985371
 20
172.8640681480075
 30
0.0
 41
1.0
 10
4661.4199666028117
 20
172.86402613016037
 30
0.0
 41
1.0
 10
4661.408852282937
 20
172.86402613016037
 30
0.0
 41
1.0
  0
SPLINE
  5
287
100
AcDbEntity
  8
0
370
               0
390
0
  6
Continuous
 62
              30
100
AcDbSpline
210
0.0
220
0.0
230
1.0
 70
              12
 71
               2
 72
             120
 73
             117
 74
               0
 42
0.000001
 43
0.000001
 40
0.0
 40
0.0
 40
0.0
 40
1.0
 40
1.0
 40
2.0
 40
2.0
 40
3.0
 40
3.0
 40
4.0
 40
4.0
 40
5.0
 40
5.0
 40
6.0
 40
6.0
 40
7.0
 40
7.0
 40
8.0
 40
8.0
 40
9.0
 40
9.0
 40
10.0
 40
10.0
 40
11.0
 40
11.0
 40
12.0
 40
12.0
 40
13.0
 40
13.0
 40
14.0
 40
14.0
 40
15.0
 40
15.0
 40
16.0
 40
16.0
 40
17.0
 40
17.0
 40
18.0
 40
18.0
 40
19.0
 40
19.0
 40
20.0
 40
20.0
 40
21.0
 40
21.0
 40
22.0
 40
22.0
 40
23.0
 40
23.0
 40
24.0
 40
24.0
 40
25.0
 40
25.0
 40
26.0
 40
26.0
 40
27.0
 40
27.0
 40
28.0
 40
28.0
 40
29.0
 40
29.0
 40
30.0
 40
30.0
 40
31.0
 40
31.0
 40
32.0
 40
32.0
 40
33.0
 40
33.0
 40
34.0
 40
34.0
 40
35.0
 40
35.0
 40
36.0
 40
36.0
 40
37.0
 40
37.0
 40
38.0
 40
38.0
 40
39.0
 40
39.0
 40
40.0
 40
40.0
 40
41.0
 40
41.0
 40
42.0
 40
42.0
 40
43.0
 40
43.0
 40
44.0
 40
44.0
 40
45.0
 40
45.0
 40
46.0
 40
46.0
 40
47.0
 40
47.0
 40
48.0
 40
48.0
 40
49.0
 40
49.0
 40
50.0
 40
50.0
 40
51.0
 40
51.0
 40
52.0
 40
52.0
 40
53.0
 40
53.0
 40
54.0
 40
54.0
 40
55.0
 40
55.0
 40
56.0
 40
56.0
 40
57.0
 40
57.0
 40
58.0
 40
58.0
 40
58.0
 10
4661.408852282937
 20
172.86402613016037
 30
0.0
 41
1.0
 10
4661.3977379630624
 20
172.86402613016037
 30
0.0
 41
1.0
 10
4661.3032435742198
 20
172.86438582916469
 30
0.0
 41
1.0
 10
4661.2087491853781
 20
172.86474552816901
 30
0.0
 41
0.999554959382345
 10
4661.1144444252141
 20
172.87073978514812
 30
0.0
 41
1.0
 10
4661.0728396675113
 20
172.8733842922631
 30
0.0
 41
1.0
 10
4661.0312349098076
 20
172.8760287993781
 30
0.0
 41
1.0
 10
4660.8537210240538
 20
172.88731202252194
 30
0.0
 41
0.9995618597865001
 10
4660.6771858209213
 20
172.90907926430975
 30
0.0
 41
1.0
 10
4660.5006497962222
 20
172.93084668050645
 30
0.0
 41
0.9995657106020619
 10
4660.3257027231821
 20
172.96297626280955
 30
0.0
 41
1.0
 10
4660.1507548784957
 20
172.99510595973183
 30
0.0
 41
0.9995664586889894
 10
4659.9780015304095
 20
173.03747748919886
 30
0.0
 41
1.0
 10
4659.8052498903962
 20
173.07984851906429
 30
0.0
 41
0.9995642012989335
 10
4659.6352997870617
 20
173.13234038200693
 30
0.0
 41
1.0
 10
4659.4653500340346
 20
173.18483219770644
 30
0.0
 41
0.9995585373161537
 10
4659.2988180893026
 20
173.24732556258482
 30
0.0
 41
1.0
 10
4659.1322853933898
 20
173.30981919766904
 30
0.0
 41
0.9995510387100591
 10
4658.9697948836692
 20
173.38217545161041
 30
0.0
 41
1.0
 10
4658.8073053541984
 20
173.45453120942091
 30
0.0
 41
0.9995576914726611
 10
4658.6494049477587
 20
173.53641933140707
 30
0.0
 41
1.0
 10
4658.4915042931989
 20
173.61830766427408
 30
0.0
 41
0.9995636531334279
 10
4658.3387147280064
 20
173.70937722306846
 30
0.0
 41
1.0
 10
4658.1859234930116
 20
173.80044782752438
 30
0.0
 41
0.9995663749432217
 10
4658.0387582064122
 20
173.90035475875175
 30
0.0
 41
1.0
 10
4657.8915931976799
 20
174.00026142177447
 30
0.0
 41
0.9995658861481075
 10
4657.7505681246048
 20
174.10866257433446
 30
0.0
 41
1.0
 10
4657.6095443727554
 20
174.21706266837668
 30
0.0
 41
0.9995628038231922
 10
4657.4751744928526
 20
174.33360885814372
 30
0.0
 41
1.0
 10
4657.3408044580083
 20
174.45015524746137
 30
0.0
 41
0.9995547102741555
 10
4657.2136259221079
 20
174.57450952818087
 30
0.0
 41
1.0
 10
4657.0864471304103
 20
174.69886401741491
 30
0.0
 41
0.9995524774457899
 10
4656.9669324894949
 20
174.83060138742491
 30
0.0
 41
1.0
 10
4656.8474183650069
 20
174.96233816255122
 30
0.0
 41
0.9995603951721371
 10
4656.735922435646
 20
175.10092698464263
 30
0.0
 41
1.0
 10
4656.6244258841944
 20
175.23951671046365
 30
0.0
 41
0.9995650289022973
 10
4656.521294184593
 20
175.38443891589304
 30
0.0
 41
1.0
 10
4656.4181616556862
 20
175.52936229145558
 30
0.0
 41
0.9995665859679719
 10
4656.3237369132721
 20
175.68010402861967
 30
0.0
 41
1.0
 10
4656.2293128380797
 20
175.83084454042418
 30
0.0
 41
0.9995649539556178
 10
4656.1439410900357
 20
175.98689027894636
 30
0.0
 41
1.0
 10
4656.0585697766437
 20
176.14293529744072
 30
0.0
 41
0.9995606681894175
 10
4655.9825944299173
 20
176.30376457225299
 30
0.0
 41
1.0
 10
4655.9066187884091
 20
176.46459448508105
 30
0.0
 41
0.9995516228647972
 10
4655.8404063597727
 20
176.62968377382049
 30
0.0
 41
1.0
 10
4655.7741941934828
 20
176.79477225681771
 30
0.0
 41
0.9995555866170972
 10
4655.7179378666651
 20
176.96351313472235
 30
0.0
 41
1.0
 10
4655.6616816326587
 20
177.1322538831098
 30
0.0
 41
0.9995625016743208
 10
4655.615501184433
 20
177.30402573829178
 30
0.0
 41
1.0
 10
4655.5693203078526
 20
177.47579943525943
 30
0.0
 41
0.9995659802616413
 10
4655.5333358650496
 20
177.64999471707779
 30
0.0
 41
1.0
 10
4655.4973513007608
 20
177.82419038507345
 30
0.0
 41
0.9995663168105392
 10
4655.4716840873807
 20
178.0002023556118
 30
0.0
 41
1.0
 10
4655.4460170731363
 20
178.17621248746926
 30
0.0
 41
0.9995637784091246
 10
4655.4307868410106
 20
178.35343100277191
 30
0.0
 41
1.0
 10
4655.4155566811396
 20
178.53064938626832
 30
0.0
 41
0.9995573068743183
 10
4655.4108940710676
 20
178.70845988451305
 30
0.0
 41
1.0
 10
4655.4062314247958
 20
178.88627112284894
 30
0.0
 41
0.9995512338527495
 10
4655.4122252084708
 20
179.06404246841981
 30
0.0
 41
1.0
 10
4655.4182189100147
 20
179.2418127555772
 30
0.0
 41
0.999558661937437
 10
4655.4347592687418
 20
179.41891333713306
 30
0.0
 41
1.0
 10
4655.4512997588945
 20
179.59601447134401
 30
0.0
 41
0.9995641589229644
 10
4655.4782632835904
 20
179.77183076151397
 30
0.0
 41
1.0
 10
4655.5052271216318
 20
179.94764889241503
 30
0.0
 41
0.9995664979442328
 10
4655.542492510529
 20
180.12157518285369
 30
0.0
 41
1.0
 10
4655.579757667183
 20
180.29550074936932
 30
0.0
 41
0.9995656058371443
 10
4655.6272055070513
 20
180.46692856823182
 30
0.0
 41
1.0
 10
4655.6746529494967
 20
180.63835498958983
 30
0.0
 41
0.9995622162350005
 10
4655.7321567843373
 20
180.80667488357972
 30
0.0
 41
1.0
 10
4655.7896607898929
 20
180.97499516683996
 30
0.0
 41
0.9995534739264596
 10
4655.8571166548309
 20
181.13957990093547
 30
0.0
 41
1.0
 10
4655.9245724613465
 20
181.30416459599692
 30
0.0
 41
0.9995534261182005
 10
4656.0017397252095
 20
181.46442569879184
 30
0.0
 41
1.0
 10
4656.0789067356054
 20
181.62468626631394
 30
0.0
 41
0.9995611561616649
 10
4656.1654288033023
 20
181.78009581813461
 30
0.0
 41
1.0
 10
4656.2519516174079
 20
181.93550654939793
 30
0.0
 41
0.9995653933837082
 10
4656.3474828423932
 20
182.08554813631793
 30
0.0
 41
1.0
 10
4656.4430146631157
 20
182.23559068117362
 30
0.0
 41
0.9995665488200981
 10
4656.5472115664088
 20
182.3797506596033
 30
0.0
 41
1.0
 10
4656.6514074513698
 20
182.52390937228469
 30
0.0
 41
0.9995645917447619
 10
4656.7639254065434
 20
182.66167085691916
 30
0.0
 41
1.0
 10
4656.8764430337415
 20
182.79943186091057
 30
0.0
 41
0.9995596673227747
 10
4656.9969344166166
 20
182.93027580346637
 30
0.0
 41
1.0
 10
4657.1174263251733
 20
183.06112032246961
 30
0.0
 41
0.9995511650340708
 10
4657.2455380618303
 20
183.18451388434124
 30
0.0
 41
1.0
 10
4657.3736490130223
 20
183.30790677009588
 30
0.0
 41
0.9995566612415199
 10
4657.5088773284979
 20
183.42345555963607
 30
0.0
 41
1.0
 10
4657.6441057450684
 20
183.53900435358474
 30
0.0
 41
0.9995631007064162
 10
4657.785925422224
 20
183.64636089787643
 30
0.0
 41
1.0
 10
4657.9277467121055
 20
183.75371859444508
 30
0.0
 41
0.999566201994848
 10
4658.0756429772482
 20
183.85253988786314
 30
0.0
 41
1.0
 10
4658.2235392215034
 20
183.9513612323905
 30
0.0
 41
0.9995661247626443
 10
4658.376997770245
 20
184.04130249665542
 30
0.0
 41
1.0
 10
4658.5304547199175
 20
184.13124288567681
 30
0.0
 41
0.999563317582776
 10
4658.6889567498538
 20
184.21196100933457
 30
0.0
 41
1.0
 10
4658.8474588590998
 20
184.29267910878676
 30
0.0
 41
0.9995560118333408
 10
4659.0104874952449
 20
184.3638127436646
 30
0.0
 41
1.0
 10
4659.1735166650151
 20
184.43494663586583
 30
0.0
 41
0.9995517281272587
 10
4659.3405110183976
 20
184.49619552772793
 30
0.0
 41
1.0
 10
4659.5075044592131
 20
184.5574441218711
 30
0.0
 41
0.9995595630169308
 10
4659.677837420897
 20
184.60867772143729
 30
0.0
 41
1.0
 10
4659.8481712279772
 20
184.65991148628083
 30
0.0
 41
0.9995646224844345
 10
4660.0212304852757
 20
184.70100890660592
 30
0.0
 41
1.0
 10
4660.1942912367122
 20
184.74210667633182
 30
0.0
 41
0.9995665462487335
 10
4660.3694707940476
 20
184.77294776996581
 30
0.0
 41
1.0
 10
4660.5446498423516
 20
184.80378880996284
 30
0.0
 41
0.9995653935021739
 10
4660.7213419700547
 20
184.82425245385127
 30
0.0
 41
1.0
 10
4660.7268670288458
 20
184.82489233994593
 30
0.0
 41
1.0
 10
4660.7323920876361
 20
184.82553222604059
 30
0.0
 41
1.0
 10
4660.8980335004699
 20
184.84471602856462
 30
0.0
 41
0.9995610604251755
 10
4661.0645203219101
 20
184.8540559542335
 30
0.0
 41
1.0
 10
4661.0700777661359
 20
184.85436772735483
 30
0.0
 41
1.0
 10
4661.0756352103617
 20
184.85467950047612
 30
0.0
 41
1.0
 10
4661.2310071433512
 20
184.86339587990238
 30
0.0
 41
0.9996586137396187
 10
4661.3866222673378
 20
184.86398411231318
 30
0.0
 41
1.0
 10
4661.3977379630633
 20
184.86402613016037
 30
0.0
 41
1.0
 10
4661.4088522829379
 20
184.86402613016037
 30
0.0
 41
1.0
  0
LWPOLYLINE
  5
288
100
AcDbEntity
  8
0
370
               0
390
0
  6
Continuous
 62
              30
100
AcDbPolyline
 90
      111
 70
             128
 10
4653.658852282937
 20
190.86402613015832
 10
4653.6587246905065
 20
190.85780036262668
 42
-0.0017291528913097
 10
4653.657830298449
 20
190.82046287256838
 10
4653.6577732858714
 20
190.81838324867692
 42
-0.0022281136283524
 10
4653.6567159783835
 20
190.78521281111787
 42
-0.0052542628527637
 10
4653.6551624942076
 20
190.75206341046376
 10
4653.6546922870912
 20
190.74387167725448
 42
-0.0102721526719453
 10
4653.6508342661209
 20
190.69443440418593
 10
4653.65051911105
 20
190.69124275065394
 42
-0.0082109924664368
 10
4653.6441013046251
 20
190.63560683947298
 10
4653.6423828689658
 20
190.62259103802862
 42
-0.0154778574059174
 10
4653.629133826722
 20
190.5416358899862
 10
4653.6266936524416
 20
190.529161417773
 42
-0.0076433514882758
 10
4653.6149711446997
 20
190.47374465497057
 42
-0.0089410502661598
 10
4653.6014179400036
 20
190.41874948027697
 10
4653.5980162788974
 20
190.40593706108092
 42
-0.0150457372058232
 10
4653.5742785191578
 20
190.32627389306694
 10
4653.5681901941944
 20
190.30788260018736
 42
-0.0146034480023057
 10
4653.538187970782
 20
190.22540793191081
 10
4653.5351642399974
 20
190.21779549454871
 42
-0.009982547296726
 10
4653.5074858882317
 20
190.15197481571369
 42
-0.0100715779150214
 10
4653.4771836288219
 20
190.0873033708308
 42
-0.0101780044425403
 10
4653.4442809017546
 20
190.02389834151018
 10
4653.4416049869951
 20
190.01898881607571
 42
-0.0135797247244673
 10
4653.400117194371
 20
189.94755823856428
 10
4653.3971934496185
 20
189.94282514122474
 42
-0.0105428716396538
 10
4653.3583449793587
 20
189.8828036634074
 42
-0.0104434770629375
 10
4653.3170032460948
 20
189.82445336352467
 42
-0.010293971577055
 10
4653.2732678045231
 20
189.76785451978327
 42
-0.0101613874245994
 10
4653.2272507232365
 20
189.71308782414431
 42
-0.0100463070189172
 10
4653.1790598320777
 20
189.66022622649115
 42
-0.0099428881769139
 10
4653.1288168475076
 20
189.60935382865065
 42
-0.0099939847116984
 10
4653.0766188780508
 20
189.56055439983507
 42
-0.0101020506800434
 10
4653.0225203824302
 20
189.51390704839741
 42
-0.0102282390337499
 10
4652.9665782037537
 20
189.46950311186342
 42
-0.0103698801581262
 10
4652.9088544438182
 20
189.4274407623831
 42
-0.0105339700407587
 10
4652.8493959583629
 20
189.38781088915962
 42
-0.0104377877872316
 10
4652.7882866605778
 20
189.3506847944283
 42
-0.0102909147362564
 10
4652.7256681807457
 20
189.31611072357504
 42
-0.0101637674775832
 10
4652.6616799396706
 20
189.28412254037374
 10
4652.6612457123192
 20
189.28391638976709
 42
-0.0100552767215642
 10
4652.5968891711027
 20
189.2549340626172
 42
-0.0096796710119794
 10
4652.5314381841645
 20
189.22851331877587
 10
4652.5164601321094
 20
189.22280172725459
 42
-0.0185761839804591
 10
4652.422855973382
 20
189.1910365846033
 10
4652.4070458481228
 20
189.18631841510208
 42
-0.0094454563561037
 10
4652.343547921364
 20
189.1686680688718
 42
-0.0095487231149442
 10
4652.2794198434258
 20
189.15344088315976
 42
-0.0096807101812443
 10
4652.2147217909296
 20
189.14068532341329
 42
-0.0096051262903355
 10
4652.1495329216295
 20
189.13042746245864
 42
-0.0095105064631295
 10
4652.0839788795874
 20
189.12266621110237
 10
4652.0675280042042
 20
189.12103512872028
 42
-0.0186662483693998
 10
4651.9687085334408
 20
189.11494946478521
 42
-0.0091923743513306
 10
4651.8697086228858
 20
189.11437419763692
 42
-0.0185869927934201
 10
4651.7709271863196
 20
189.11929196092456
 10
4651.7421889816706
 20
189.12179599049315
 42
-0.0166029152880593
 10
4651.652242276381
 20
189.13265226315048
 10
4651.6400464140561
 20
189.13453690459585
 42
-0.0096726622351945
 10
4651.5750712593508
 20
189.14586855602917
 42
-0.0096374725485725
 10
4651.5105571481099
 20
189.15970676822269
 42
-0.0095376704693636
 10
4651.4465959520685
 20
189.17601465073162
 10
4651.4306581256669
 20
189.18040363779375
 42
-0.018693804631716
 10
4651.3362483091241
 20
189.21024067831164
 10
4651.3218493953946
 20
189.21539067694525
 42
-0.0092722098288003
 10
4651.2573265749234
 20
189.23982701559629
 42
-0.0099760256451885
 10
4651.1937937290322
 20
189.26672773215395
 10
4651.184519630925
 20
189.2708746100144
 42
-0.015176761221396
 10
4651.1041564538136
 20
189.3097766865439
 10
4651.095249765378
 20
189.31442697822692
 42
-0.010913683512314
 10
4651.0307245587246
 20
189.34992961434273
 10
4651.0297708487733
 20
189.35048181033955
 42
-0.0104335147093296
 10
4650.9687019440671
 20
189.38756310297089
 42
-0.0105282602605166
 10
4650.9092191443506
 20
189.4271869657029
 42
-0.0103843917502805
 10
4650.851412824717
 20
189.46928741305308
 42
-0.0102425413812596
 10
4650.7953776810054
 20
189.5137475934292
 42
-0.0101206828970345
 10
4650.7411920477834
 20
189.56045864418283
 42
-0.0100079112995157
 10
4650.6889380549801
 20
189.60930434298433
 42
-0.0099490242722712
 10
4650.6387050534895
 20
189.660163831625
 42
-0.0100319147868964
 10
4650.5905719856246
 20
189.71295802922683
 42
-0.0101306841075842
 10
4650.5446149637692
 20
189.76763942447897
 10
4650.5390077895236
 20
189.77459230773283
 42
-0.0154541312145872
 10
4650.485145462354
 20
189.84577543013665
 10
4650.4799969463456
 20
189.85303537362697
 42
-0.0105086969598858
 10
4650.4398764240159
 20
189.91220664392998
 42
-0.0104558236717141
 10
4650.4022575879808
 20
189.97303202218248
 42
-0.0103220037228581
 10
4650.3671837001684
 20
190.03539325873049
 42
-0.0102146781081151
 10
4650.3347017019387
 20
190.09913813800057
 10
4650.334228501597
 20
190.10011564076291
 42
-0.0101283873765936
 10
4650.3052747855236
 20
190.16315065400943
 42
-0.009472564552733
 10
4650.2788130130803
 20
190.2272736030161
 10
4650.2773099908827
 20
190.23112088680983
 42
-0.0123055891005235
 10
4650.2508532530555
 20
190.30409100019006
 10
4650.2472198913492
 20
190.31493798399427
 42
-0.0121195668806731
 10
4650.2249564267877
 20
190.3871704625692
 10
4650.2219531010969
 20
190.39782543790079
 42
-0.0086452003636955
 10
4650.2083413372984
 20
190.44952306262735
 42
-0.0062927058323256
 10
4650.1962790476937
 20
190.50160787268794
 10
4650.1951239926229
 20
190.50689738572009
 42
-0.0134536803160225
 10
4650.1831063409736
 20
190.57003645856358
 10
4650.1797125254252
 20
190.59090977245333
 42
-0.0135584223201876
 10
4650.1723824062119
 20
190.64525746408805
 10
4650.1715149651154
 20
190.65333720836679
 42
-0.0053232610678358
 10
4650.167802857487
 20
190.69176373985061
 42
-0.0055847381144722
 10
4650.1649298878883
 20
190.73026188405694
 10
4650.1647548232377
 20
190.73302300333003
 42
-0.0039597054897461
 10
4650.1623102539033
 20
190.77710787936593
 10
4650.1622779732525
 20
190.77778731427304
 42
-0.0023410288179749
 10
4650.1604467158422
 20
190.8205542973113
 10
4650.1604205500298
 20
190.82124052923336
 42
-0.0007165893616651
 10
4650.1589012040049
 20
190.86264580002273
 10
4650.158852282937
 20
190.86402613015832
  0
LWPOLYLINE
  5
289
100
AcDbEntity
  8
0
370
               0
390
0
  6
Continuous
 62
              30
100
AcDbPolyline
 90
      109
 70
             128
 10
4650.158852282937
 20
190.86402613015832
 10
4650.1589798753675
 20
190.87025189769014
 42
-0.0017291528971525
 10
4650.159874267425
 20
190.90758938775195
 10
4650.1599312800026
 20
190.90966901164322
 42
-0.0022281135886605
 10
4650.1609885874896
 20
190.9428394492063
 42
-0.0052542629344175
 10
4650.1625420716664
 20
190.97598884986431
 10
4650.1630122787847
 20
190.98418058307016
 42
-0.010272153004341
 10
4650.1668702997958
 20
191.03361785613205
 10
4650.1671854548686
 20
191.03680950962899
 42
-0.0082138440121914
 10
4650.1736035780432
 20
191.09244537891723
 10
4650.1753154597263
 20
191.10541039944854
 42
-0.0154595559647008
 10
4650.188577979161
 20
191.18646070440928
 10
4650.1917077258604
 20
191.20246560422316
 42
-0.016356124700981
 10
4650.2160070494201
 20
191.3082342654742
 10
4650.21637842768
 20
191.30963861151258
 42
-0.0150570438905507
 10
4650.246445871685
 20
191.41089782347314
 10
4650.2491171561578
 20
191.4189924313693
 42
-0.0148372807643112
 10
4650.2793634952031
 20
191.50225902408044
 10
4650.2825402985136
 20
191.51025680411735
 42
-0.0099822493443619
 10
4650.3102186818378
 20
191.5760774521562
 42
-0.0100715820275819
 10
4650.3405209370858
 20
191.64074888953922
 42
-0.0101780044294015
 10
4650.3734236641139
 20
191.7041539187895
 10
4650.3760995788944
 20
191.70906344426191
 42
-0.0135797247399413
 10
4650.4175873715194
 20
191.78049402177911
 10
4650.4205111162746
 20
191.78522711912203
 42
-0.0105428716415501
 10
4650.4593595865335
 20
191.8452485969369
 42
-0.0104434770519079
 10
4650.5007013197928
 20
191.90359889681508
 42
-0.0102939715957496
 10
4650.54443676136
 20
191.96019774054997
 42
-0.0101613874196226
 10
4650.5904538426457
 20
192.01496443618254
 42
-0.0100463070170419
 10
4650.6386447338009
 20
192.0678260338299
 42
-0.0099428881704197
 10
4650.6888877183692
 20
192.11869843166741
 42
-0.0099939847147504
 10
4650.7410856878278
 20
192.16749786048328
 42
-0.0101020506891496
 10
4650.7951841834529
 20
192.21414521192213
 42
-0.0102282390216217
 10
4650.851126362134
 20
192.25854914845726
 42
-0.0103698801651746
 10
4650.9088501220704
 20
192.30061149793778
 42
-0.0105339700314574
 10
4650.9683086075274
 20
192.34024137116108
 42
-0.0104377877842653
 10
4651.0294179053099
 20
192.37736746589161
 42
-0.0102909147427564
 10
4651.0920363851383
 20
192.41194153674331
 42
-0.0101637674630697
 10
4651.1560246262088
 20
192.44392971994384
 10
4651.1564588535566
 20
192.44413587054876
 42
-0.0100552767356095
 10
4651.2208153947731
 20
192.47311819770002
 42
-0.0096796710098567
 10
4651.2862663817114
 20
192.49953894154152
 10
4651.3012444337646
 20
192.50525053306222
 42
-0.018576183981971
 10
4651.3948485924911
 20
192.53701567571352
 10
4651.4106587177494
 20
192.54173384521474
 42
-0.009445456354631
 10
4651.4741566445073
 20
192.55938419144479
 42
-0.0095487231163029
 10
4651.5382847224455
 20
192.57461137715677
 42
-0.0096807101790766
 10
4651.6029827749426
 20
192.58736693690346
 42
-0.0096051262919059
 10
4651.6681716442436
 20
192.59762479785837
 42
-0.0095105064629959
 10
4651.7337256862866
 20
192.60538604921481
 10
4651.7501765616689
 20
192.60701713159688
 42
-0.0186662483718224
 10
4651.8489960324323
 20
192.61310279553172
 42
-0.0091923743526867
 10
4651.9479959429855
 20
192.6136780626793
 42
-0.0185869927916346
 10
4652.0467773795499
 20
192.60876029939126
 10
4652.0755155841971
 20
192.60625626982269
 42
-0.0166029152894245
 10
4652.165462289483
 20
192.59539999716549
 10
4652.177658151807
 20
192.59351535572009
 42
-0.0096726622339738
 10
4652.2426333065096
 20
192.58218370428716
 42
-0.0096374725421831
 10
4652.3071474177523
 20
192.56834549209401
 42
-0.0095376704719844
 10
4652.3711086138001
 20
192.55203760958477
 10
4652.3870464402007
 20
192.54764862252316
 42
-0.0186938046311525
 10
4652.481456256749
 20
192.51781158200552
 10
4652.4958551704813
 20
192.51266158337114
 42
-0.0092722098379678
 10
4652.5603779909479
 20
192.48822524472186
 42
-0.0099760256388306
 10
4652.6239108368354
 20
192.46132452816582
 10
4652.6331849349335
 20
192.4571776503098
 42
-0.0151767612223831
 10
4652.7135481120222
 20
192.41827557379216
 10
4652.7224548005797
 20
192.4136252820453
 42
-0.0109136835098504
 10
4652.7869800070866
 20
192.37812264601084
 10
4652.7879337166896
 20
192.3775704502155
 42
-0.0104335146352166
 10
4652.8490026219461
 20
192.34048915726348
 42
-0.0105282612728159
 10
4652.9084854208013
 20
192.30086529504069
 42
-0.0103843856169687
 10
4652.9662917439982
 20
192.25876484558842
 42
-0.0102425745420551
 10
4653.0223268730424
 20
192.21430467386824
 42
-0.0101205142490094
 10
4653.0765125668077
 20
192.16759358738517
 42
-0.0100087361510167
 10
4653.1287663100429
 20
192.11874803586696
 42
-0.0099485797641197
 10
4653.1789988058053
 20
192.06788888415409
 42
-0.0100315307650371
 10
4653.2271317175091
 20
192.01509483717197
 42
-0.0101418108315266
 10
4653.273085334431
 20
191.96041531415187
 42
-0.0102634434389106
 10
4653.3167666216777
 20
191.90391083545796
 42
-0.010417768261604
 10
4653.3580840816121
 20
191.84563300901559
 42
-0.0105127612834371
 10
4653.3969539121936
 20
191.78563251279809
 42
-0.0103841807609296
 10
4653.4333056798096
 20
191.72402087833535
 42
-0.0102653880498468
 10
4653.4670880651729
 20
191.66095123814179
 42
-0.0101697003989984
 10
4653.4982608458449
 20
191.59656424360199
 42
-0.0101023829726666
 10
4653.5267946449603
 20
191.53097507057342
 10
4653.5292634502639
 20
191.52497140787841
 42
-0.0136719605314664
 10
4653.5592491244088
 20
191.44597825268463
 10
4653.5613984432002
 20
191.43981321007459
 42
-0.0121583887527527
 10
4653.588327439119
 20
191.35607433923059
 10
4653.5914593873222
 20
191.34545597313894
 42
-0.0120475262730943
 10
4653.6085560039646
 20
191.28188690758535
 10
4653.6111644647954
 20
191.27116442825971
 42
-0.0063974537975841
 10
4653.6209663647751
 20
191.22850289814406
 42
-0.0067344281820193
 10
4653.6296445002172
 20
191.18559905862978
 10
4653.6306549393721
 20
191.18023257439489
 42
-0.0110088619398033
 10
4653.6395880520868
 20
191.12628216590034
 10
4653.641716539968
 20
191.1114016047336
 42
-0.0106581572220123
 10
4653.6466774258643
 20
191.07052058510823
 10
4653.6470793736089
 20
191.06649194325763
 42
-0.0034444787982376
 10
4653.6501378346002
 20
191.0335413776578
 42
-0.0055888423059436
 10
4653.6526004320976
 20
191.00054221520193
 10
4653.6529499247781
 20
190.99502929012846
 42
-0.0039576252965811
 10
4653.6553943119725
 20
190.95094438095148
 10
4653.6554265926243
 20
190.95026494604463
 42
-0.0023410287608715
 10
4653.6572578500327
 20
190.90749796300565
 10
4653.6572840158451
 20
190.90681173108322
 42
-0.0007165894166466
 10
4653.6588033618691
 20
190.86540646029391
 10
4653.658852282937
 20
190.86402613015832
  0
LWPOLYLINE
  5
28A
100
AcDbEntity
  8
0
370
               0
390
0
  6
Continuous
 62
              30
100
AcDbPolyline
 90
      111
 70
             128
 10
4653.6588522829379
 20
244.36402613015946
 10
4653.6587246905065
 20
244.35780036262838
 42
-0.0017291528791344
 10
4653.6578302984472
 20
244.32046287257009
 10
4653.6577732858696
 20
244.31838324867826
 42
-0.0022281136095669
 10
4653.6567159783826
 20
244.28521281111989
 42
-0.0052542628527782
 10
4653.6551624942085
 20
244.25206341046638
 10
4653.6546922870921
 20
244.24387167725706
 42
-0.0102721527066512
 10
4653.6508342661218
 20
244.19443440418928
 10
4653.65051911105
 20
244.19124275065695
 42
-0.0082109924265065
 10
4653.6441013046251
 20
244.13560683947586
 10
4653.6423828689676
 20
244.12259103803288
 42
-0.0154778574358358
 10
4653.6291338267247
 20
244.04163588998949
 10
4653.6266936524435
 20
244.02916141777573
 42
-0.0076433514739586
 10
4653.6149711447006
 20
243.97374465497387
 42
-0.0089410502849754
 10
4653.6014179400036
 20
243.91874948028104
 10
4653.5980162788965
 20
243.90593706108405
 42
-0.0150457371745237
 10
4653.574278519156
 20
243.82627389306805
 10
4653.5681901941944
 20
243.80788260018969
 42
-0.0146034480150421
 10
4653.5381879707857
 20
243.72540793191257
 10
4653.5351642400001
 20
243.71779549455002
 42
-0.009982547308012
 10
4653.5074858882344
 20
243.65197481571664
 42
-0.0100715779123362
 10
4653.4771836288228
 20
243.58730337083591
 42
-0.010178004434941
 10
4653.4442809017564
 20
243.52389834151685
 10
4653.4416049869969
 20
243.51898881608298
 42
-0.0135797247249786
 10
4653.4001171943746
 20
243.44755823857321
 10
4653.3971934496221
 20
243.44282514123432
 42
-0.0105428716446943
 10
4653.3583449793614
 20
243.38280366341701
 42
-0.0104434770450521
 10
4653.3170032460994
 20
243.32445336353277
 42
-0.0102939715971496
 10
4653.2732678045268
 20
243.26785451978918
 42
-0.0101613874226429
 10
4653.2272507232374
 20
243.21308782414894
 42
-0.0100463070117339
 10
4653.1790598320777
 20
243.16022622649444
 42
-0.0099428881727543
 10
4653.1288168475094
 20
243.10935382865375
 42
-0.0099939847282316
 10
4653.0766188780526
 20
243.06055439983965
 42
-0.0101020506582687
 10
4653.0225203824357
 20
243.01390704840429
 42
-0.0102282390435848
 10
4652.9665782037646
 20
242.96950311187237
 42
-0.0103698801603875
 10
4652.9088544438328
 20
242.92744076239399
 42
-0.0105339700367802
 10
4652.8493959583757
 20
242.88781088917017
 42
-0.0104377877829279
 10
4652.7882866605896
 20
242.85068479443697
 42
-0.0102909147463552
 10
4652.7256681807548
 20
242.81611072358191
 42
-0.0101637674667852
 10
4652.6616799396761
 20
242.78412254037823
 10
4652.6612457123256
 20
242.78391638977186
 42
-0.0100552767266473
 10
4652.5968891711073
 20
242.75493406261978
 42
-0.0096796710164499
 10
4652.5314381841672
 20
242.72851331877717
 10
4652.5164601321085
 20
242.72280172725485
 42
-0.0185761839757494
 10
4652.4228559733856
 20
242.69103658460375
 10
4652.4070458481283
 20
242.68631841510253
 42
-0.0094454563582489
 10
4652.3435479213713
 20
242.66866806887157
 42
-0.0095487231161756
 10
4652.2794198434331
 20
242.65344088315902
 42
-0.009680710182137
 10
4652.2147217909351
 20
242.6406853234123
 42
-0.0096051262898029
 10
4652.149532921635
 20
242.63042746245782
 42
-0.0095105064657935
 10
4652.0839788795929
 20
242.62266621110214
 10
4652.0675280042078
 20
242.62103512872011
 42
-0.0186662483682056
 10
4651.9687085334417
 20
242.61494946478604
 42
-0.0091923743505875
 10
4651.8697086228858
 20
242.61437419763871
 42
-0.0185869927890679
 10
4651.7709271863168
 20
242.61929196092663
 10
4651.7421889816633
 20
242.62179599049546
 42
-0.0166029152928131
 10
4651.6522422763719
 20
242.63265226315326
 10
4651.6400464140461
 20
242.63453690459892
 42
-0.0096726622334908
 10
4651.5750712593408
 20
242.64586855603272
 42
-0.0096374725477824
 10
4651.5105571481017
 20
242.65970676822599
 42
-0.0095376704716714
 10
4651.446595952063
 20
242.67601465073466
 10
4651.4306581256642
 20
242.68040363779642
 42
-0.0186938046244971
 10
4651.3362483091278
 20
242.71024067831209
 10
4651.3218493953955
 20
242.71539067694653
 42
-0.0092722098313059
 10
4651.2573265749234
 20
242.7398270155972
 42
-0.0099760256498234
 10
4651.1937937290313
 20
242.76672773215563
 10
4651.1845196309241
 20
242.77087461001605
 42
-0.0151767612222728
 10
4651.1041564538136
 20
242.80977668654711
 10
4651.0952497653852
 20
242.81442697822717
 42
-0.0109136835031389
 10
4651.0307245587283
 20
242.84992961434506
 10
4651.0297708487733
 20
242.85048181034389
 42
-0.0104335147203684
 10
4650.9687019440717
 20
242.8875631029735
 42
-0.0105282602405754
 10
4650.9092191443542
 20
242.92718696570489
 42
-0.0103843917623234
 10
4650.851412824718
 20
242.96928741305504
 42
-0.0102425413937239
 10
4650.7953776810082
 20
243.01374759343145
 42
-0.0101206828664099
 10
4650.7411920477844
 20
243.06045864418428
 42
-0.0100079113339539
 10
4650.6889380549801
 20
243.10930434298518
 42
-0.0099490242508087
 10
4650.6387050534904
 20
243.16016383162514
 42
-0.0100319147928624
 10
4650.5905719856255
 20
243.21295802922469
 42
-0.0101306841102813
 10
4650.5446149637719
 20
243.26763942447414
 10
4650.5390077895263
 20
243.27459230772826
 42
-0.0154541312132061
 10
4650.4851454623567
 20
243.34577543013029
 10
4650.4799969463493
 20
243.35303537362051
 42
-0.0105086969689016
 10
4650.4398764240213
 20
243.41220664392273
 42
-0.0104558236583724
 10
4650.4022575879853
 20
243.47303202217614
 42
-0.0103220037383135
 10
4650.3671837001721
 20
243.53539325872629
 42
-0.0102146780924995
 10
4650.3347017019423
 20
243.59913813799824
 10
4650.3342285015997
 20
243.60011564076095
 42
-0.0101283873873314
 10
4650.3052747855254
 20
243.66315065400886
 42
-0.0094725645384949
 10
4650.2788130130812
 20
243.72727360301687
 10
4650.2773099908827
 20
243.73112088681034
 42
-0.0123055891095867
 10
4650.2508532530546
 20
243.80409100019122
 10
4650.2472198913492
 20
243.81493798399418
 42
-0.0121195668864814
 10
4650.2249564267886
 20
243.88717046256858
 10
4650.2219531010978
 20
243.89782543789988
 42
-0.0086452003580449
 10
4650.2083413372993
 20
243.9495230626265
 42
-0.0062927058202338
 10
4650.1962790476937
 20
244.00160787268672
 10
4650.195123992622
 20
244.00689738571913
 42
-0.0134536803481958
 10
4650.1831063409745
 20
244.07003645856324
 10
4650.179712525427
 20
244.09090977245242
 42
-0.0135584222812106
 10
4650.1723824062146
 20
244.14525746408748
 10
4650.1715149651172
 20
244.15333720836611
 42
-0.0053232610900474
 10
4650.1678028574879
 20
244.1917637398501
 42
-0.0055847381113954
 10
4650.1649298878892
 20
244.23026188405674
 10
4650.1647548232395
 20
244.23302300332995
 42
-0.0039597054871261
 10
4650.1623102539043
 20
244.27710787936627
 10
4650.1622779732525
 20
244.27778731427333
 42
-0.0023410288260106
 10
4650.1604467158431
 20
244.32055429731207
 10
4650.1604205500307
 20
244.32124052923425
 42
-0.0007165893506843
 10
4650.1589012040058
 20
244.36264580002387
 10
4650.1588522829379
 20
244.36402613015946
  0
LWPOLYLINE
  5
28B
100
AcDbEntity
  8
0
370
               0
390
0
  6
Continuous
 62
              30
100
AcDbPolyline
 90
      111
 70
             128
 10
4650.1588522829379
 20
244.36402613015946
 10
4650.1589798753694
 20
244.37025189769145
 42
-0.001729152830277
 10
4650.1598742674259
 20
244.4075893877519
 10
4650.1599312800035
 20
244.40966901164344
 42
-0.0022281136830583
 10
4650.1609885874905
 20
244.44283944920448
 42
-0.0052542628232815
 10
4650.1625420716673
 20
244.47598884986056
 10
4650.1630122787838
 20
244.48418058306976
 42
-0.0102721526956399
 10
4650.166870299754
 20
244.53361785614001
 10
4650.1671854548258
 20
244.5368095096722
 42
-0.0082109924550363
 10
4650.1736032612516
 20
244.59244542085517
 10
4650.1753216969119
 20
244.60546122229982
 42
-0.0154778573953379
 10
4650.1885707391539
 20
244.68641637034239
 10
4650.1910109134342
 20
244.69889084255584
 42
-0.0076433514951933
 10
4650.2027334211753
 20
244.75430760535806
 42
-0.0089410502737941
 10
4650.2162866258714
 20
244.80930278005113
 10
4650.2196882869775
 20
244.82211519924635
 42
-0.0150457372040091
 10
4650.243426046718
 20
244.901778367258
 10
4650.2495143716806
 20
244.92016966013313
 42
-0.0146034479918177
 10
4650.2795165950929
 20
245.00264432840987
 10
4650.2825403258776
 20
245.01025676577083
 42
-0.0099825473188432
 10
4650.310218677645
 20
245.07607744460762
 42
-0.010071577893163
 10
4650.3405209370585
 20
245.14074888949324
 42
-0.0101780044507547
 10
4650.3734236641276
 20
245.20415391881826
 10
4650.3760995788871
 20
245.20906344425248
 42
-0.0135797247198963
 10
4650.417587371513
 20
245.28049402176686
 10
4650.4205111162673
 20
245.28522711910787
 42
-0.0105428716489814
 10
4650.4593595865281
 20
245.34524859692414
 42
-0.0104434770377615
 10
4650.5007013197874
 20
245.40359889680445
 42
-0.0102939716062386
 10
4650.5444367613563
 20
245.46019774054236
 42
-0.010161387420398
 10
4650.5904538426439
 20
245.51496443617788
 42
-0.0100463070073393
 10
4650.6386447338009
 20
245.56782603382868
 42
-0.0099428881730343
 10
4650.6888877183683
 20
245.61869843166909
 42
-0.0099939847278878
 10
4650.7410856878287
 20
245.66749786048615
 42
-0.0101020506663277
 10
4650.795184183452
 20
245.71414521192554
 42
-0.0102282390378472
 10
4650.8511263621303
 20
245.75854914846161
 42
-0.0103698801642702
 10
4650.9088501220676
 20
245.80061149794267
 42
-0.0105339700337527
 10
4650.9683086075247
 20
245.84024137116626
 42
-0.0104377877868279
 10
4651.029417905308
 20
245.87736746589667
 42
-0.0102909147370625
 10
4651.0920363851355
 20
245.91194153674769
 42
-0.0101637674833777
 10
4651.1560246262088
 20
245.94392971994711
 10
4651.156458853563
 20
245.94413587055504
 42
-0.0100552767102542
 10
4651.2208153947731
 20
245.97311819770215
 42
-0.0096796710248667
 10
4651.286266381705
 20
245.99953894154078
 10
4651.3012444337692
 20
246.00525053306484
 42
-0.018576183974374
 10
4651.3948485924939
 20
246.03701567571346
 10
4651.4106587177494
 20
246.04173384521357
 42
-0.00944545635834
 10
4651.4741566445118
 20
246.05938419144417
 42
-0.0095487231136262
 10
4651.5382847224519
 20
246.07461137715592
 42
-0.0096807101801228
 10
4651.602982774948
 20
246.0873669369023
 42
-0.0096051262896186
 10
4651.668171644249
 20
246.09762479785735
 42
-0.0095105064625259
 10
4651.7337256862893
 20
246.10538604921416
 10
4651.7501765616726
 20
246.10701713159642
 42
-0.0186662483703978
 10
4651.8489960324332
 20
246.11310279553231
 42
-0.0091923743527245
 10
4651.9479959429855
 20
246.11367806268106
 42
-0.0185869927945061
 10
4652.0467773795499
 20
246.10876029939359
 10
4652.0755155841925
 20
246.10625626982545
 42
-0.0166029152866275
 10
4652.1654622894803
 20
246.09539999716867
 10
4652.1776581518052
 20
246.09351535572338
 42
-0.0096726622390489
 10
4652.2426333065087
 20
246.08218370429051
 42
-0.0096374725404127
 10
4652.3071474177505
 20
246.06834549209725
 42
-0.0095376704766364
 10
4652.3711086137964
 20
246.05203760958773
 10
4652.3870464401962
 20
246.04764862252597
 42
-0.0186938046210283
 10
4652.4814562567417
 20
246.01781158200913
 10
4652.495855170484
 20
246.0126615833716
 42
-0.009272209842276
 10
4652.5603779909488
 20
245.98822524472354
 42
-0.0099760256452483
 10
4652.6239108368354
 20
245.96132452816741
 10
4652.6331849349426
 20
245.95717765030668
 42
-0.0151767612131294
 10
4652.7135481120504
 20
245.91827557377948
 10
4652.7224548004806
 20
245.91362528209919
 42
-0.0109136835165002
 10
4652.7869800071303
 20
245.87812264598642
 10
4652.7879337170807
 20
245.87757044998969
 42
-0.0104335147076071
 10
4652.8490026217833
 20
245.84048915736076
 42
-0.010528260245305
 10
4652.9084854215016
 20
245.8008652946296
 42
-0.0103843917648563
 10
4652.9662917411424
 20
245.75876484727712
 42
-0.0102425413859326
 10
4653.0223268848586
 20
245.71430466689731
 42
-0.0101206828843879
 10
4653.0765125180851
 20
245.66759361614021
 42
-0.0100079113126445
 10
4653.1287665108921
 20
245.61874791733612
 42
-0.0099490242704648
 10
4653.1789995123818
 20
245.56788842869526
 42
-0.0100319147682826
 10
4653.2271325802467
 20
245.51509423109695
 42
-0.0101306841239843
 10
4653.2730896021012
 20
245.46041283584893
 10
4653.2786967763459
 20
245.45345995259629
 42
-0.0154541312125095
 10
4653.3325591035118
 20
245.38227683019716
 10
4653.3377076195193
 20
245.37501688670889
 42
-0.0105086969625354
 10
4653.377828141849
 20
245.31584561640591
 42
-0.0104558236664445
 10
4653.4154469778859
 20
245.25502023815147
 42
-0.0103220037345548
 10
4653.4505208657001
 20
245.19265900159951
 42
-0.0102146780985642
 10
4653.4830028639317
 20
245.12891412232528
 10
4653.4834760642734
 20
245.1279366195626
 42
-0.0101283873796593
 10
4653.5124297803486
 20
245.06490160631245
 42
-0.0094725645443982
 10
4653.5388915527947
 20
245.00077865730228
 10
4653.5403945749913
 20
244.99693137350954
 42
-0.0123055890976438
 10
4653.5668513128212
 20
244.92396126012824
 10
4653.5704846745275
 20
244.91311427632596
 42
-0.0121195668984997
 10
4653.5927481390881
 20
244.84088179775381
 10
4653.595751464778
 20
244.83022682242358
 42
-0.0086452003602994
 10
4653.6093632285756
 20
244.77852919769646
 42
-0.0062927058116591
 10
4653.6214255181812
 20
244.72644438763589
 10
4653.6225805732529
 20
244.72115487460377
 42
-0.0134536803572716
 10
4653.6345982249004
 20
244.65801580175989
 10
4653.637992040447
 20
244.63714248787142
 42
-0.0135584222644683
 10
4653.6453221596603
 20
244.58279479623542
 10
4653.6461896007586
 20
244.57471505195679
 42
-0.0053232610975199
 10
4653.6499017083897
 20
244.53628852047206
 42
-0.0055847381318429
 10
4653.6527746779875
 20
244.4977903762645
 10
4653.6529497426372
 20
244.49502925699136
 42
-0.0039597054689265
 10
4653.6553943119707
 20
244.45094438095418
 10
4653.6554265926225
 20
244.45026494604701
 42
-0.002341028807399
 10
4653.6572578500345
 20
244.40749796300776
 10
4653.657284015846
 20
244.40681173108592
 42
-0.0007165894220498
 10
4653.6588033618691
 20
244.36540646029493
 10
4653.6588522829379
 20
244.36402613015946
  0
LWPOLYLINE
  5
28C
100
AcDbEntity
  8
0
370
               0
390
0
  6
Continuous
 62
              30
100
AcDbPolyline
 90
      110
 70
             128
 10
4672.6588522829379
 20
166.86402613016037
 10
4672.6587246905065
 20
166.85780036262912
 42
-0.0017291528578819
 10
4672.6578302984472
 20
166.8204628725727
 10
4672.6577732858705
 20
166.81838324868181
 42
-0.0022281136010711
 10
4672.6567159783845
 20
166.78521281112336
 42
-0.0052542629401892
 10
4672.6551624942076
 20
166.75206341047004
 10
4672.6546922870893
 20
166.74387167726474
 42
-0.0102721529918335
 10
4672.6508342660782
 20
166.69443440420852
 10
4672.6505191110055
 20
166.69124275071113
 42
-0.0082138440199419
 10
4672.6441009878317
 20
166.63560688142763
 10
4672.6423891061495
 20
166.6226418608957
 42
-0.0154595559641307
 10
4672.6291265867148
 20
166.54159155593851
 10
4672.6259968400136
 20
166.52558665612048
 42
-0.0163561246876061
 10
4672.6016975164575
 20
166.41981799486925
 10
4672.6013261382041
 20
166.41841364885343
 42
-0.0150570439250077
 10
4672.5712586941845
 20
166.31715443684928
 10
4672.568587409698
 20
166.30905982891548
 42
-0.0148372807116412
 10
4672.5383410706654
 20
166.22579323623495
 10
4672.5351642673613
 20
166.21779545620942
 42
-0.0099822493509508
 10
4672.5074858840471
 20
166.151974808175
 42
-0.0100715820606288
 10
4672.4771836288064
 20
166.08730337080004
 42
-0.0101780044236649
 10
4672.4442809017828
 20
166.02389834156088
 10
4672.4416049870033
 20
166.01898881608929
 42
-0.0135797247396437
 10
4672.4001171943837
 20
165.94755823858225
 10
4672.3971934496321
 20
165.94282514124578
 42
-0.0105428716470792
 10
4672.3583449793687
 20
165.88280366342656
 42
-0.0104434770338915
 10
4672.3170032461057
 20
165.82445336354095
 42
-0.0102939716017501
 10
4672.2732678045322
 20
165.76785451979526
 42
-0.0101613874257963
 10
4672.2272507232401
 20
165.71308782415269
 42
-0.0100463070022372
 10
4672.1790598320786
 20
165.66022622649638
 42
-0.0099428881801966
 10
4672.1288168475103
 20
165.60935382865352
 42
-0.0099939847245691
 10
4672.0766188780526
 20
165.56055439983845
 42
-0.0101020506653787
 10
4672.0225203824348
 20
165.51390704840242
 42
-0.0102282390349926
 10
4671.9665782037628
 20
165.46950311186941
 42
-0.0103698801649651
 10
4671.9088544438309
 20
165.42744076238995
 42
-0.0105339700370082
 10
4671.8493959583748
 20
165.38781088916602
 42
-0.010437787789963
 10
4671.7882866605878
 20
165.35068479443373
 42
-0.0102909147373842
 10
4671.725668180753
 20
165.31611072357936
 42
-0.010163767473264
 10
4671.6616799396761
 20
165.28412254037693
 10
4671.6612457123256
 20
165.28391638977058
 42
-0.0100552767256332
 10
4671.5968891711073
 20
165.25493406261978
 42
-0.0096796710150027
 10
4671.5314381841672
 20
165.22851331877828
 10
4671.5164601321048
 20
165.22280172725468
 42
-0.0185761839719516
 10
4671.4228559733801
 20
165.19103658460421
 10
4671.4070458481256
 20
165.1863184151037
 42
-0.0094454563612781
 10
4671.3435479213622
 20
165.16866806887219
 42
-0.0095487231115704
 10
4671.2794198434221
 20
165.15344088315976
 42
-0.0096807101833387
 10
4671.2147217909251
 20
165.14068532341309
 42
-0.0096051262889537
 10
4671.1495329216268
 20
165.13042746245867
 42
-0.0095105064673036
 10
4671.0839788795893
 20
165.12266621110314
 10
4671.0675280042014
 20
165.12103512872079
 42
-0.0186662483707719
 10
4670.968708533439
 20
165.11494946478655
 42
-0.0091923743504946
 10
4670.8697086228858
 20
165.11437419763922
 42
-0.018586992794358
 10
4670.770927186315
 20
165.11929196092802
 10
4670.742188981676
 20
165.12179599049603
 42
-0.0166029152852661
 10
4670.652242276381
 20
165.13265226315431
 10
4670.6400464140515
 20
165.13453690460042
 42
-0.0096726622402919
 10
4670.5750712593508
 20
165.14586855603321
 42
-0.0096374725390968
 10
4670.5105571481108
 20
165.15970676822647
 42
-0.0095376704778169
 10
4670.4465959520658
 20
165.17601465073611
 10
4670.4306581256687
 20
165.18040363779713
 42
-0.0186938046200816
 10
4670.3362483091305
 20
165.21024067831218
 10
4670.3218493953918
 20
165.21539067694869
 42
-0.0092722098451035
 10
4670.2573265749252
 20
165.23982701559768
 42
-0.0099760256407365
 10
4670.1937937290395
 20
165.26672773215464
 10
4670.1845196309314
 20
165.2708746100156
 42
-0.0151767612099599
 10
4670.1041564538218
 20
165.30977668654299
 10
4670.0952497653861
 20
165.31442697822575
 42
-0.0109136835255424
 10
4670.0307245587373
 20
165.34992961433875
 10
4670.0297708487888
 20
165.35048181033432
 42
-0.0104335146994047
 10
4669.9687019440826
 20
165.38756310296583
 42
-0.0105282602619013
 10
4669.9092191443651
 20
165.42718696569725
 42
-0.0103843917486093
 10
4669.851412824728
 20
165.46928741304896
 42
-0.010242541391711
 10
4669.7953776810136
 20
165.51374759342701
 42
-0.0101206828767649
 10
4669.741192047788
 20
165.56045864418198
 42
-0.0100079113143869
 10
4669.6889380549819
 20
165.60930434298461
 42
-0.0099490242652975
 10
4669.6387050534886
 20
165.66016383162525
 42
-0.0100319147887688
 10
4669.5905719856237
 20
165.71295802922512
 42
-0.0101306841211708
 10
4669.544614963771
 20
165.76763942447477
 10
4669.5390077895263
 20
165.774592307728
 42
-0.015454131197837
 10
4669.4851454623586
 20
165.84577543012904
 10
4669.4799969463511
 20
165.85303537361827
 42
-0.0105086969659844
 10
4669.4398764240204
 20
165.912206643921
 42
-0.0104558236818005
 10
4669.4022575879853
 20
165.97303202217526
 42
-0.0103220037079051
 10
4669.3671837001712
 20
166.03539325872561
 42
-0.0102146781162009
 10
4669.3347017019405
 20
166.09913813799795
 10
4669.334228501597
 20
166.1001156407614
 42
-0.0101283873815489
 10
4669.3052747855254
 20
166.16315065400914
 42
-0.0094725645456249
 10
4669.2788130130821
 20
166.2272736030169
 10
4669.2773099908845
 20
166.23112088681108
 42
-0.0123055890918842
 10
4669.2508532530555
 20
166.3040910001925
 10
4669.2472198913492
 20
166.3149379839966
 42
-0.0121195668998391
 10
4669.2249564267877
 20
166.38717046257065
 10
4669.2219531010978
 20
166.39782543790179
 42
-0.008645200353589
 10
4669.2083413372993
 20
166.44952306262891
 42
-0.0062927058377252
 10
4669.1962790476955
 20
166.5016078726899
 10
4669.1951239926248
 20
166.50689738572197
 42
-0.0134536803104989
 10
4669.1831063409763
 20
166.57003645856562
 10
4669.179712525427
 20
166.59090977245492
 42
-0.0135584223053464
 10
4669.1723824062137
 20
166.6452574640897
 10
4669.1715149651154
 20
166.65333720836853
 42
-0.0053232610974221
 10
4669.1678028574879
 20
166.69176373985226
 42
-0.0055847380730553
 10
4669.1649298878883
 20
166.73026188405848
 10
4669.1647548232377
 20
166.73302300333182
 42
-0.003959705541022
 10
4669.1623102539033
 20
166.77710787936786
 10
4669.1622779732515
 20
166.77778731427486
 42
-0.0023410287808051
 10
4669.1604467158431
 20
166.82055429731332
 10
4669.1604205500307
 20
166.82124052923552
 42
-0.0007165893946269
 10
4669.1589012040067
 20
166.86264580002478
 10
4669.1588522829379
 20
166.86402613016037
  0
LWPOLYLINE
  5
28D
100
AcDbEntity
  8
0
370
               0
390
0
  6
Continuous
 62
              30
100
AcDbPolyline
 90
      111
 70
             128
 10
4669.1588522829379
 20
166.86402613016037
 10
4669.1589798753685
 20
166.87025189769255
 42
-0.0017291529002826
 10
4669.1598742674287
 20
166.90758938775406
 10
4669.1599312800063
 20
166.90966901164575
 42
-0.0022281135904388
 10
4669.1609885874932
 20
166.94283944920761
 42
-0.0052542628591588
 10
4669.1625420716673
 20
166.97598884986462
 10
4669.1630122787838
 20
166.98418058307436
 42
-0.0102721526987857
 10
4669.1668702997531
 20
167.03361785614655
 10
4669.1671854548249
 20
167.03680950967805
 42
-0.008210992446645
 10
4669.1736032612498
 20
167.09244542086174
 10
4669.1753216969082
 20
167.10546122230519
 42
-0.0154778574252972
 10
4669.188570739153
 20
167.18641637034938
 10
4669.1910109134342
 20
167.19889084256425
 42
-0.0076433514636968
 10
4669.2027334211762
 20
167.25430760536517
 42
-0.0089410502934528
 10
4669.2162866258705
 20
167.30930278005715
 10
4669.2196882869775
 20
167.32211519925465
 42
-0.0150457371674417
 10
4669.2434260467162
 20
167.40177836727108
 10
4669.2495143716587
 20
167.42016966009442
 42
-0.0146034480687866
 10
4669.2795165950847
 20
167.50264432840061
 10
4669.2825403258776
 20
167.51025676577885
 42
-0.0099825472529115
 10
4669.3102186776468
 20
167.57607744460913
 42
-0.0100715779341464
 10
4669.3405209370594
 20
167.64074888949261
 42
-0.0101780044220635
 10
4669.3734236641312
 20
167.70415391881809
 10
4669.3760995788907
 20
167.70906344425137
 42
-0.0135797247295133
 10
4669.4175873715149
 20
167.78049402176492
 10
4669.4205111162682
 20
167.7852271191048
 42
-0.0105428716420664
 10
4669.459359586529
 20
167.84524859692186
 42
-0.010443477048603
 10
4669.5007013197892
 20
167.90359889680292
 42
-0.0102939716003784
 10
4669.5444367613591
 20
167.96019774054128
 42
-0.010161387409816
 10
4669.5904538426457
 20
168.01496443617771
 42
-0.0100463070160131
 10
4669.6386447338009
 20
168.06782603382908
 42
-0.0099428881800514
 10
4669.6888877183683
 20
168.11869843166812
 42
-0.0099939847125361
 10
4669.741085687825
 20
168.16749786048319
 42
-0.0101020506831356
 10
4669.7951841834456
 20
168.21414521192042
 42
-0.0102282390287398
 10
4669.8511263621212
 20
168.25854914845399
 42
-0.0103698801608829
 10
4669.9088501220549
 20
168.30061149793397
 42
-0.010533970041819
 10
4669.9683086075111
 20
168.34024137115728
 42
-0.0104377877784492
 10
4670.0294179052953
 20
168.37736746588897
 42
-0.0102909147480713
 10
4670.0920363851274
 20
168.41194153674249
 42
-0.0101637674711583
 10
4670.1560246262043
 20
168.44392971994409
 10
4670.1564588535557
 20
168.44413587055075
 42
-0.0100552767215387
 10
4670.2208153947722
 20
168.47311819770107
 42
-0.0096796710162799
 10
4670.2862663817104
 20
168.49953894154245
 10
4670.3012444337719
 20
168.50525053306592
 42
-0.0185761839724409
 10
4670.3948485924939
 20
168.5370156757163
 10
4670.4106587177466
 20
168.54173384521621
 42
-0.0094454563663495
 10
4670.4741566445118
 20
168.55938419144837
 42
-0.009548723105491
 10
4670.5382847224519
 20
168.57461137716081
 42
-0.009680710188642
 10
4670.6029827749499
 20
168.58736693690742
 42
-0.0096051262856417
 10
4670.668171644249
 20
168.59762479786178
 42
-0.0095105064663562
 10
4670.7337256862866
 20
168.60538604921763
 10
4670.7501765616707
 20
168.60701713159978
 42
-0.0186662483713367
 10
4670.8489960324368
 20
168.61310279553402
 42
-0.0091923743523817
 10
4670.94799594299
 20
168.61367806268106
 42
-0.0185869927937113
 10
4671.0467773795499
 20
168.60876029939229
 10
4671.0755155841953
 20
168.60625626982346
 42
-0.016602915281998
 10
4671.1654622894876
 20
168.5953999971656
 10
4671.1776581518152
 20
168.59351535571994
 42
-0.0096726622417229
 10
4671.2426333065177
 20
168.5821837042871
 42
-0.009637472536362
 10
4671.3071474177586
 20
168.56834549209412
 42
-0.0095376704759639
 10
4671.3711086138037
 20
168.55203760958543
 10
4671.3870464402025
 20
168.54764862252404
 42
-0.0186938046268953
 10
4671.4814562567453
 20
168.51781158200794
 10
4671.4958551704767
 20
168.51266158337381
 42
-0.0092722098310461
 10
4671.5603779909488
 20
168.48822524472405
 42
-0.0099760256558396
 10
4671.6239108368409
 20
168.46132452816596
 10
4671.6331849349408
 20
168.45717765030849
 42
-0.0151767612106436
 10
4671.7135481120386
 20
168.41827557378522
 10
4671.7224548004751
 20
168.41362528210158
 42
-0.0109136835194676
 10
4671.7869800071212
 20
168.37812264599023
 10
4671.7879337170689
 20
168.37757044999501
 42
-0.0104335146951218
 10
4671.8490026217742
 20
168.34048915736594
 42
-0.0105282602664456
 10
4671.9084854214934
 20
168.30086529463472
 42
-0.0103843917514096
 10
4671.9662917411333
 20
168.2587648472813
 42
-0.0102425413872224
 10
4672.0223268848513
 20
168.21430466690038
 42
-0.010120682874343
 10
4672.0765125180824
 20
168.16759361614231
 42
-0.0100079113274297
 10
4672.1287665108903
 20
168.11874791733757
 42
-0.0099490242529018
 10
4672.1789995123827
 20
168.06788842869724
 42
-0.0100319147898746
 10
4672.2271325802476
 20
168.01509423110036
 42
-0.0101306841196989
 10
4672.2730896021003
 20
167.9604128358533
 10
4672.278696776345
 20
167.95345995260078
 42
-0.0154541311994751
 10
4672.3325591035118
 20
167.88227683020352
 10
4672.3377076195193
 20
167.87501688671554
 42
-0.0105086969710472
 10
4672.3778281418508
 20
167.8158456164133
 42
-0.0104558236782186
 10
4672.4154469778878
 20
167.75502023815801
 42
-0.0103220037312526
 10
4672.450520865701
 20
167.69265900160434
 42
-0.0102146780865286
 10
4672.4830028639326
 20
167.62891412232858
 10
4672.4834760642752
 20
167.62793661956491
 42
-0.0101283873976093
 10
4672.5124297803495
 20
167.56490160631435
 42
-0.0094725645352538
 10
4672.5388915527938
 20
167.5007786573033
 10
4672.5403945749913
 20
167.49693137350997
 42
-0.0123055890992817
 10
4672.5668513128212
 20
167.42396126012707
 10
4672.5704846745275
 20
167.41311427632337
 42
-0.0121195669028272
 10
4672.5927481390872
 20
167.3408817977496
 10
4672.5957514647771
 20
167.33022682241906
 42
-0.0086452003356722
 10
4672.6093632285756
 20
167.2785291976914
 42
-0.0062927058324414
 10
4672.6214255181831
 20
167.22644438763044
 10
4672.6225805732538
 20
167.22115487459862
 42
-0.0134536803402272
 10
4672.6345982249031
 20
167.15801580175486
 10
4672.6379920404515
 20
167.13714248786516
 42
-0.0135584223147792
 10
4672.6453221596621
 20
167.08279479623053
 10
4672.6461896007586
 20
167.07471505195204
 42
-0.0053232610412817
 10
4672.6499017083879
 20
167.03628852046813
 42
-0.0055847381498138
 10
4672.6527746779875
 20
166.99779037626172
 10
4672.6529497426372
 20
166.99502925698863
 42
-0.0039597054588164
 10
4672.6553943119725
 20
166.95094438095265
 10
4672.6554265926234
 20
166.95026494604556
 42
-0.002341028832665
 10
4672.6572578500345
 20
166.9074979630073
 10
4672.6572840158469
 20
166.9068117310851
 42
-0.0007165893946075
 10
4672.6588033618691
 20
166.86540646029584
 10
4672.6588522829379
 20
166.86402613016037
  0
LWPOLYLINE
  5
28E
100
AcDbEntity
  8
0
370
               0
390
0
  6
Continuous
 62
              30
100
AcDbPolyline
 90
      110
 70
             128
 10
4672.6588522829379
 20
220.36402613016037
 10
4672.6587246905065
 20
220.35780036262861
 42
-0.0017291528576452
 10
4672.6578302984472
 20
220.32046287256776
 10
4672.6577732858705
 20
220.31838324867596
 42
-0.0022281136281624
 10
4672.6567159783826
 20
220.28521281111495
 42
-0.0052542628402916
 10
4672.6551624942085
 20
220.25206341045879
 10
4672.654692287093
 20
220.24387167724922
 42
-0.0102721526990384
 10
4672.6508342661236
 20
220.19443440417817
 10
4672.6505191110518
 20
220.19124275064621
 42
-0.0082109924558816
 10
4672.6441013046269
 20
220.13560683946287
 10
4672.6423828689676
 20
220.12259103801776
 42
-0.0154778574184736
 10
4672.6291338267238
 20
220.04163588997579
 10
4672.6266936524426
 20
220.02916141776248
 42
-0.0076433514552683
 10
4672.6149711447015
 20
219.97374465496029
 42
-0.0089410503056962
 10
4672.6014179400072
 20
219.91874948026714
 10
4672.598016278901
 20
219.90593706107319
 42
-0.0150457372115947
 10
4672.5742785191569
 20
219.82627389306529
 10
4672.5681901941862
 20
219.8078826001684
 42
-0.0146034479552091
 10
4672.5381879707802
 20
219.72540793190677
 10
4672.5351642400001
 20
219.71779549455528
 42
-0.0099825473464512
 10
4672.5074858882326
 20
219.6519748157138
 42
-0.0100715778949102
 10
4672.4771836288164
 20
219.58730337082739
 42
-0.0101780044295011
 10
4672.4442809017482
 20
219.52389834150253
 10
4672.4416049869897
 20
219.518988816069
 42
-0.0135797247425247
 10
4672.4001171943646
 20
219.44755823855496
 10
4672.3971934496094
 20
219.44282514121352
 42
-0.0105428716452546
 10
4672.3583449793477
 20
219.38280366339831
 42
-0.0104434770293296
 10
4672.3170032460876
 20
219.32445336351782
 42
-0.0102939716123024
 10
4672.2732678045195
 20
219.26785451977895
 42
-0.0101613874113374
 10
4672.2272507232319
 20
219.2130878241428
 42
-0.0100463070148778
 10
4672.1790598320749
 20
219.16022622649194
 42
-0.0099428881757647
 10
4672.1288168475076
 20
219.10935382865193
 42
-0.0099939847107156
 10
4672.0766188780499
 20
219.0605543998355
 42
-0.0101020506873733
 10
4672.0225203824284
 20
219.01390704839702
 42
-0.0102282390289679
 10
4671.96657820375
 20
218.96950311186197
 42
-0.0103698801674339
 10
4671.9088544438137
 20
218.92744076238171
 42
-0.0105339700283693
 10
4671.8493959583566
 20
218.88781088915789
 42
-0.0104377877880656
 10
4671.7882866605732
 20
218.85068479442668
 42
-0.0102909147441926
 10
4671.7256681807439
 20
218.81611072357521
 42
-0.010163767472607
 10
4671.6616799396688
 20
218.78412254037471
 10
4671.6612457123156
 20
218.78391638976709
 42
-0.0100552767193592
 10
4671.5968891711036
 20
218.7549340626187
 42
-0.0096796710212732
 10
4671.531438184169
 20
218.72851331877942
 10
4671.5164601321021
 20
218.72280172725428
 42
-0.0185761839721431
 10
4671.4228559733801
 20
218.69103658460523
 10
4671.4070458481256
 20
218.68631841510498
 42
-0.009445456360591
 10
4671.3435479213631
 20
218.66866806887407
 42
-0.0095487231102001
 10
4671.279419843424
 20
218.65344088316203
 42
-0.0096807101859689
 10
4671.214721790926
 20
218.64068532341548
 42
-0.009605126286407
 10
4671.1495329216259
 20
218.63042746246106
 42
-0.0095105064639163
 10
4671.0839788795893
 20
218.62266621110513
 10
4671.0675280042051
 20
218.62103512872284
 42
-0.0186662483691586
 10
4670.9687085334408
 20
218.61494946478757
 42
-0.0091923743532266
 10
4670.8697086228867
 20
218.61437419763922
 42
-0.0185869927916455
 10
4670.7709271863223
 20
218.6192919609266
 10
4670.7421889816715
 20
218.62179599049526
 42
-0.0166029152912926
 10
4670.6522422763819
 20
218.63265226315264
 10
4670.6400464140579
 20
218.63453690459806
 42
-0.0096726622316206
 10
4670.5750712593517
 20
218.64586855603119
 42
-0.0096374725501391
 10
4670.510557148109
 20
218.65970676822445
 42
-0.0095376704739974
 10
4670.4465959520639
 20
218.67601465073434
 10
4670.430658125666
 20
218.68040363779551
 42
-0.0186938046306373
 10
4670.3362483091269
 20
218.71024067831263
 10
4670.3218493953937
 20
218.71539067694755
 42
-0.0092722098263374
 10
4670.2573265749261
 20
218.73982701559714
 42
-0.0099760256519151
 10
4670.1937937290377
 20
218.76672773215375
 10
4670.1845196309387
 20
218.77087461001082
 42
-0.0151767612243417
 10
4670.1041564538464
 20
218.80977668653321
 10
4670.0952497652934
 20
218.81442697827796
 42
-0.0109136835029754
 10
4670.0307245587828
 20
218.84992961431578
 10
4670.029770849178
 20
218.85048181011223
 42
-0.0104335146334441
 10
4669.9687019439216
 20
218.88756310306434
 42
-0.0105282612740667
 10
4669.9092191450673
 20
218.92718696528686
 42
-0.0103843856095351
 10
4669.8514128218703
 20
218.96928741473772
 42
-0.0102425745556526
 10
4669.795377692828
 20
219.01374758645619
 42
-0.010120514241771
 10
4669.7411919990664
 20
219.06045867293744
 42
-0.0100087361402214
 10
4669.688938255832
 20
219.10930422445313
 42
-0.0099485797792909
 10
4669.6387057600696
 20
219.16016337616526
 42
-0.0100315307473306
 10
4669.5905728483631
 20
219.2129574231476
 42
-0.0101418108601969
 10
4669.5446192314412
 20
219.26763694616858
 42
-0.0102634434036274
 10
4669.5009379441926
 20
219.32414142486391
 42
-0.0104177683067581
 10
4669.4596204842592
 20
219.38241925130706
 42
-0.0105127612431896
 10
4669.4207506536786
 20
219.44241974752475
 42
-0.0103841807767277
 10
4669.3843988860608
 20
219.50403138198669
 42
-0.01026538805577
 10
4669.3506165007002
 20
219.56710102217914
 42
-0.0101697003941124
 10
4669.3194437200291
 20
219.63148801671792
 42
-0.0101023829818282
 10
4669.2909099209164
 20
219.69707718974612
 10
4669.2884411156128
 20
219.70308085244136
 42
-0.0136719605088315
 10
4669.258455441468
 20
219.78207400763432
 10
4669.2563061226756
 20
219.78823905024797
 42
-0.0121583887889651
 10
4669.2293771267578
 20
219.87197792109254
 10
4669.2262451785564
 20
219.88259628718379
 42
-0.0120475262181446
 10
4669.209148561913
 20
219.94616535273883
 10
4669.2065401010796
 20
219.95688783206512
 42
-0.0063974538972273
 10
4669.1967382011044
 20
219.99954936218097
 42
-0.0067344280799641
 10
4669.188060065665
 20
220.04245320169554
 10
4669.1870496265092
 20
220.04781968593051
 42
-0.011008861976584
 10
4669.1781165137909
 20
220.10177009442444
 10
4669.1759880259096
 20
220.11665065559103
 42
-0.0106581571902076
 10
4669.1710271400125
 20
220.15753167521586
 10
4669.1706251922669
 20
220.1615603170666
 42
-0.0034444788193062
 10
4669.1675667312738
 20
220.1945108826655
 42
-0.0055888423541719
 10
4669.1651041337782
 20
220.22751004512077
 10
4669.1647546410986
 20
220.23302297019393
 42
-0.0039576252245739
 10
4669.1623102539052
 20
220.27710787936974
 10
4669.1622779732534
 20
220.27778731427668
 42
-0.002341028807396
 10
4669.1604467158431
 20
220.32055429731435
 10
4669.1604205500316
 20
220.3212405292368
 42
-0.0007165893671652
 10
4669.1589012040058
 20
220.36264580002478
 10
4669.1588522829379
 20
220.36402613016037
  0
LWPOLYLINE
  5
28F
100
AcDbEntity
  8
0
370
               0
390
0
  6
Continuous
 62
              30
100
AcDbPolyline
 90
      108
 70
             128
 10
4669.1588522829379
 20
220.36402613016037
 10
4669.1589798753694
 20
220.3702518976927
 42
-0.001729152891101
 10
4669.1598742674287
 20
220.40758938775554
 10
4669.1599312800063
 20
220.40966901164668
 42
-0.002228113574942
 10
4669.1609885874932
 20
220.44283944921102
 42
-0.0052542629066681
 10
4669.1625420716682
 20
220.47598884987036
 10
4669.1630122787865
 20
220.48418058307618
 42
-0.0102721530397335
 10
4669.1668702997958
 20
220.53361785613922
 10
4669.1671854548686
 20
220.53680950963616
 42
-0.008213844001835
 10
4669.1736035780432
 20
220.59244537892542
 10
4669.1753154597263
 20
220.60541039945656
 42
-0.0154595559667535
 10
4669.1885779791601
 20
220.68646070441807
 10
4669.1917077258613
 20
220.70246560423641
 42
-0.0163561246978467
 10
4669.2160070494174
 20
220.80823426548011
 10
4669.2163784276718
 20
220.80963861149905
 42
-0.0150570439335991
 10
4669.2464458716931
 20
220.91089782348837
 10
4669.2491171561787
 20
220.91899243141847
 42
-0.0148372806987302
 10
4669.2793634952122
 20
221.00225902409176
 10
4669.2825402985145
 20
221.01025680410996
 42
-0.0099822493734929
 10
4669.310218681836
 20
221.07607745215114
 42
-0.010071582033377
 10
4669.340520937084
 20
221.14074888953235
 42
-0.0101780044335278
 10
4669.373423664113
 20
221.20415391877788
 10
4669.3760995788925
 20
221.20906344424958
 42
-0.0135797247197726
 10
4669.4175873715158
 20
221.28049402176248
 10
4669.4205111162692
 20
221.28522711910256
 42
-0.010542871664729
 10
4669.4593595865308
 20
221.34524859691919
 42
-0.0104434770227682
 10
4669.5007013197919
 20
221.40359889680059
 42
-0.0102939716063735
 10
4669.54443676136
 20
221.46019774054037
 42
-0.0101613874164959
 10
4669.5904538426457
 20
221.51496443617685
 42
-0.0100463070080496
 10
4669.6386447338009
 20
221.56782603382896
 42
-0.0099428881842249
 10
4669.6888877183665
 20
221.61869843166812
 42
-0.0099939847182171
 10
4669.7410856878232
 20
221.66749786048166
 42
-0.010102050668194
 10
4669.7951841834401
 20
221.71414521191736
 42
-0.0102282390414273
 10
4669.8511263621131
 20
221.75854914844984
 42
-0.010369880160757
 10
4669.9088501220467
 20
221.80061149792897
 42
-0.0105339700369997
 10
4669.9683086075038
 20
221.84024137115233
 42
-0.0104377877777183
 10
4670.0294179052898
 20
221.87736746588519
 42
-0.0102909147498663
 10
4670.0920363851237
 20
221.91194153673996
 42
-0.0101637674675228
 10
4670.1560246262015
 20
221.94392971994279
 10
4670.1564588535539
 20
221.94413587054973
 42
-0.0100552767234185
 10
4670.2208153947686
 20
221.97311819770073
 42
-0.0096796710171304
 10
4670.2862663817068
 20
221.99953894154251
 10
4670.3012444337946
 20
222.00525053307609
 42
-0.0185761839901351
 10
4670.3948485924848
 20
222.03701567571318
 10
4670.4106587176666
 20
222.04173384519089
 42
-0.0094454562766511
 10
4670.4741566445409
 20
222.05938419146128
 42
-0.0095487235763417
 10
4670.5382847223009
 20
222.07461137709913
 42
-0.009680707901125
 10
4670.6029827755301
 20
222.08736693715315
 42
-0.0096051372123899
 10
4670.6681716417988
 20
222.09762479684014
 42
-0.0095106889660804
 10
4670.7337256781539
 20
222.10538602102392
 10
4670.7501764367407
 20
222.10701707914023
 42
-0.0186652814724111
 10
4670.8489961320047
 20
222.11310283778721
 42
-0.0091928576262527
 10
4670.947996892115
 20
222.11367828051146
 42
-0.0185891345780996
 10
4671.0467793059534
 20
222.10876011950012
 10
4671.0744892050852
 20
222.10634547071243
 42
-0.0160030471189867
 10
4671.1624036154853
 20
222.09584075999277
 10
4671.1735851205449
 20
222.09414023207853
 42
-0.0096636025973182
 10
4671.2385842271215
 20
222.08296569109569
 42
-0.0096455465472964
 10
4671.3031296987065
 20
222.0692833990513
 42
-0.0095195434431475
 10
4671.3671340805313
 20
222.05312990304657
 42
-0.0094330604424584
 10
4671.4304846660816
 20
222.03456129958164
 10
4671.4463013228633
 20
222.02959943476128
 42
-0.0185368830757654
 10
4671.5397053942852
 20
221.99644778449286
 10
4671.5447130242828
 20
221.99445854017861
 42
-0.0099581155640401
 10
4671.631159019209
 20
221.95810904275817
 42
-0.016445518742281
 10
4671.7155287354326
 20
221.91726642580727
 10
4671.7254192861692
 20
221.91207034542924
 42
-0.0102773517501362
 10
4671.7879462811552
 20
221.87756325925704
 42
-0.0104308922931029
 10
4671.8490026217623
 20
221.8404891573648
 42
-0.0105282603085217
 10
4671.9084854215007
 20
221.8008652946296
 42
-0.0103843917532727
 10
4671.9662917411406
 20
221.75876484727706
 42
-0.0102425413912651
 10
4672.0223268848567
 20
221.71430466689736
 42
-0.0101206828740041
 10
4672.0765125180851
 20
221.66759361614118
 42
-0.010007911320248
 10
4672.1287665108939
 20
221.61874791733749
 42
-0.0099490242758457
 10
4672.1789995123836
 20
221.56788842869724
 42
-0.0100319147710089
 10
4672.2271325802458
 20
221.51509423109997
 42
-0.0101306841266025
 10
4672.2730896020976
 20
221.46041283585282
 10
4672.2786967763423
 20
221.45345995260067
 42
-0.0154541311947988
 10
4672.3325591035073
 20
221.38227683020358
 10
4672.3377076195138
 20
221.37501688671611
 42
-0.0105086969709633
 10
4672.3778281418454
 20
221.31584561641318
 42
-0.0104558236607519
 10
4672.4154469778841
 20
221.25502023815807
 42
-0.0103220037537682
 10
4672.4505208656992
 20
221.19265900160445
 42
-0.0102146780723164
 10
4672.4830028639308
 20
221.12891412232869
 10
4672.4834760642734
 20
221.12793661956553
 42
-0.0101283873996195
 10
4672.5124297803495
 20
221.06490160631472
 42
-0.0094725645382963
 10
4672.5388915527956
 20
221.0007786573031
 10
4672.5403945749931
 20
220.99693137351142
 42
-0.0123055891035828
 10
4672.5668513128212
 20
220.92396126013085
 10
4672.5704846745275
 20
220.91311427632874
 42
-0.0121195668836618
 10
4672.5927481390881
 20
220.84088179775779
 10
4672.5957514647789
 20
220.83022682242824
 42
-0.0086452003667416
 10
4672.6093632285783
 20
220.7785291977014
 42
-0.0062927058255992
 10
4672.6214255181831
 20
220.72644438764061
 10
4672.6225805732538
 20
220.72115487460883
 42
-0.0134536803332625
 10
4672.6345982249022
 20
220.65801580176563
 10
4672.6379920404506
 20
220.63714248787593
 42
-0.0135584223073448
 10
4672.6453221596621
 20
220.58279479624008
 10
4672.6461896007595
 20
220.57471505196173
 42
-0.0053232610675802
 10
4672.6499017083879
 20
220.53628852047621
 42
-0.0055847381170742
 10
4672.6527746779866
 20
220.49779037626814
 10
4672.6529497426363
 20
220.49502925699483
 42
-0.0039597054945759
 10
4672.6553943119707
 20
220.45094438095686
 10
4672.6554265926225
 20
220.45026494605005
 42
-0.0023410287860426
 10
4672.6572578500345
 20
220.40749796300935
 10
4672.657284015846
 20
220.40681173108666
 42
-0.000716589442617
 10
4672.6588033618691
 20
220.36540646029596
 10
4672.6588522829379
 20
220.36402613016037
  0
LINE
  5
290
100
AcDbEntity
  8
0
370
               0
390
0
  6
Continuous
 62
              30
100
AcDbLine
 10
4530.8081855898172
 20
611.36404591202711
 30
0.0
 11
4530.8081855898172
 21
620.36404924988722
 31
0.0
  0
LINE
  5
291
100
AcDbEntity
  8
0
370
               0
390
0
  6
Continuous
 62
              30
100
AcDbLine
 10
4605.4300045495302
 20
620.36404924988722
 30
0.0
 11
4530.8081855898172
 21
620.36404924988722
 31
0.0
  0
LINE
  5
292
100
AcDbEntity
  8
0
370
               0
390
0
  6
Continuous
 62
              30
100
AcDbLine
 10
4530.8081855898172
 20
89.364034855365389
 30
0.0
 11
4530.8081855898172
 21
80.36403524279558
 31
0.0
  0
LINE
  5
293
100
AcDbEntity
  8
0
370
               0
390
0
  6
Continuous
 62
              30
100
AcDbLine
 10
4530.8081855898172
 20
80.36403524279558
 30
0.0
 11
4605.4300045495302
 21
80.36403524279558
 31
0.0
  0
LINE
  5
294
100
AcDbEntity
  8
0
370
               0
390
0
  6
Continuous
 62
              30
100
AcDbLine
 10
4760.8083834772378
 20
89.364034855365389
 30
0.0
 11
4760.8083834772378
 21
80.36403524279558
 31
0.0
  0
LINE
  5
295
100
AcDbEntity
  8
0
370
               0
390
0
  6
Continuous
 62
              30
100
AcDbLine
 10
4720.5894192581445
 20
80.36403524279558
 30
0.0
 11
4760.8083834772378
 21
80.36403524279558
 31
0.0
  0
LINE
  5
296
100
AcDbEntity
  8
0
370
               0
390
0
  6
Continuous
 62
              30
100
AcDbLine
 10
4760.8083834772378
 20
611.36404591202711
 30
0.0
 11
4760.8083834772378
 21
620.36404924988722
 31
0.0
  0
LINE
  5
297
100
AcDbEntity
  8
0
370
               0
390
0
  6
Continuous
 62
              30
100
AcDbLine
 10
4760.8083834772378
 20
620.36404924988722
 30
0.0
 11
4720.5894192581445
 21
620.36404924988722
 31
0.0
  0
LINE
  5
298
100
AcDbEntity
  8
0
370
               0
390
0
  6
Continuous
 62
              30
100
AcDbLine
 10
4530.8076454227239
 20
98.364034467935198
 30
0.0
 11
4530.8076454227239
 21
89.364034855365389
 31
0.0
  0
LINE
  5
299
100
AcDbEntity
  8
0
370
               0
390
0
  6
Continuous
 62
              30
100
AcDbLine
 10
4530.8076454227239
 20
98.364034467935198
 30
0.0
 11
4530.8076454227239
 21
602.364042574167
 31
0.0
  0
LINE
  5
29A
100
AcDbEntity
  8
0
370
               0
390
0
  6
Continuous
 62
              30
100
AcDbLine
 10
4530.8076454227239
 20
602.364042574167
 30
0.0
 11
4530.8076454227239
 21
611.36404591202711
 31
0.0
  0
LINE
  5
29B
100
AcDbEntity
  8
0
370
               0
390
0
  6
Continuous
 62
              30
100
AcDbLine
 10
4530.8076454227239
 20
89.364034855365389
 30
0.0
 11
4544.3648187344343
 21
89.364034855365389
 31
0.0
  0
LINE
  5
29C
100
AcDbEntity
  8
0
370
               0
390
0
  6
Continuous
 62
              30
100
AcDbLine
 10
4544.3648187344343
 20
611.36404591202711
 30
0.0
 11
4530.8076454227239
 21
611.36404591202711
 31
0.0
  0
LINE
  5
29D
100
AcDbEntity
  8
0
370
               0
390
0
  6
Continuous
 62
              30
100
AcDbLine
 10
4760.8077278261453
 20
98.364034467935198
 30
0.0
 11
4760.8077278261453
 21
89.364034855365389
 31
0.0
  0
LINE
  5
29E
100
AcDbEntity
  8
0
370
               0
390
0
  6
Continuous
 62
              30
100
AcDbLine
 10
4760.8077278261453
 20
611.36404591202711
 30
0.0
 11
4760.8077278261453
 21
602.364042574167
 31
0.0
  0
LINE
  5
29F
100
AcDbEntity
  8
0
370
               0
390
0
  6
Continuous
 62
              30
100
AcDbLine
 10
4760.8077278261453
 20
602.364042574167
 30
0.0
 11
4760.8077278261453
 21
98.364034467935198
 31
0.0
  0
LINE
  5
2A0
100
AcDbEntity
  8
0
370
               0
390
0
  6
Continuous
 62
              30
100
AcDbLine
 10
4755.0568672514137
 20
89.364034467935312
 30
0.0
 11
4760.8077217791433
 21
89.364034467935312
 31
0.0
  0
LINE
  5
2A1
100
AcDbEntity
  8
0
370
               0
390
0
  6
Continuous
 62
              30
100
AcDbLine
 10
4760.8077217791433
 20
611.36403446793508
 30
0.0
 11
4755.0568672514137
 21
611.36403446793508
 31
0.0
  0
LINE
  5
2A2
100
AcDbEntity
  8
0
370
               0
390
0
  6
Continuous
 62
              30
100
AcDbLine
 10
4760.8077278261453
 20
98.364034467935198
 30
0.0
 11
4760.8085026865274
 21
98.364034467935198
 31
0.0
  0
LINE
  5
2A3
100
AcDbEntity
  8
0
370
               0
390
0
  6
Continuous
 62
              30
100
AcDbLine
 10
4760.8080258493692
 20
94.364034277945393
 30
0.0
 11
4760.8080258493692
 21
98.364034467935198
 31
0.0
  0
LINE
  5
2A4
100
AcDbEntity
  8
0
370
               0
390
0
  6
Continuous
 62
              30
100
AcDbLine
 10
4760.8080556516916
 20
94.364034277945393
 30
0.0
 11
4760.8080258493692
 21
94.364034277945393
 31
0.0
  0
LINE
  5
2A5
100
AcDbEntity
  8
0
370
               0
390
0
  6
Continuous
 62
              30
100
AcDbLine
 10
4760.8080556516916
 20
89.364034855365389
 30
0.0
 11
4760.8080556516916
 21
94.364034277945393
 31
0.0
  0
ELLIPSE
  5
2A6
100
AcDbEntity
  8
0
370
               0
390
0
  6
Continuous
 62
              30
100
AcDbEllipse
 10
4760.8080501137529
 20
350.36403446793531
 30
0.0
 11
0.0
 21
4.0
 31
0.0
210
0.0
220
0.0
230
1.0
 40
0.000006413627716
 41
0.0
 42
6.2831853071795862
  0
LINE
  5
2A7
100
AcDbEntity
  8
0
370
               0
390
0
  6
Continuous
 62
              30
100
AcDbLine
 10
4760.8085026865274
 20
602.364042574167
 30
0.0
 11
4760.8077278261453
 21
602.364042574167
 31
0.0
  0
LINE
  5
2A8
100
AcDbEntity
  8
0
370
               0
390
0
  6
Continuous
 62
              30
100
AcDbLine
 10
4760.8085026865274
 20
98.364034467935198
 30
0.0
 11
4760.8085026865274
 21
602.364042574167
 31
0.0
  0
LINE
  5
2A9
100
AcDbEntity
  8
0
370
               0
390
0
  6
Continuous
 62
              30
100
AcDbLine
 10
4760.8080556516916
 20
611.36404591202711
 30
0.0
 11
4760.8080556516916
 21
606.36405068039869
 31
0.0
  0
LINE
  5
2AA
100
AcDbEntity
  8
0
370
               0
390
0
  6
Continuous
 62
              30
100
AcDbLine
 10
4760.8080258493692
 20
606.36405068039869
 30
0.0
 11
4760.8080556516916
 21
606.36405068039869
 31
0.0
  0
LINE
  5
2AB
100
AcDbEntity
  8
0
370
               0
390
0
  6
Continuous
 62
              30
100
AcDbLine
 10
4760.8080258493692
 20
602.364042574167
 30
0.0
 11
4760.8080258493692
 21
606.36405068039869
 31
0.0
  0
INSERT
  5
2AC
100
AcDbEntity
  8
0
390
0
 62
               1
100
AcDbBlockReference
  2
グループ
 10
3704.2757508763157
 20
394.87939801389518
 30
0.0
  0
INSERT
  5
2AD
100
AcDbEntity
  8
0
390
0
 62
               1
100
AcDbBlockReference
  2
グループ-1
 10
3704.2757508763157
 20
394.87939801389518
 30
0.0
  0
DIMENSION
  5
2AE
100
AcDbEntity
  8
寸法
370
               0
390
0
  6
Continuous
 62
               1
100
AcDbDimension
  2
*D3
 10
3417.2891130313697
 20
-25.0
 30
0.0
 11
3532.2891467824998
 21
-25.0
 31
0.0
 71
               5
 72
               1
 41
1.0
 42
0.0
  3
HIBINO
100
AcDbAlignedDimension
 13
3647.2891805336299
 23
80.36403524279558
 33
0.0
 14
3417.2891130313697
 24
80.36403524279558
 34
0.0
100
AcDbRotatedDimension
1001
ACAD
1000
DSTYLE
1002
{
1070
             279
1070
               2
1070
             340
1005
2A
1070
             147
1040
7.5
1002
}
  0
DIMENSION
  5
2AF
100
AcDbEntity
  8
寸法
370
               0
390
0
  6
Continuous
 62
               1
100
AcDbDimension
  2
*D4
 10
3300.0
 20
80.36403524279558
 30
0.0
 11
3292.5
 21
375.0
 31
0.0
 70
             128
 71
               5
 72
               1
 41
1.0
 42
0.0
  3
HIBINO
100
AcDbAlignedDimension
 13
3417.2891130313697
 23
620.36404924988722
 33
0.0
 14
3417.2891130313697
 24
80.36403524279558
 34
0.0
 50
-90.0
100
AcDbRotatedDimension
1001
ACAD
1000
DSTYLE
1002
{
1070
             279
1070
               2
1070
             340
1005
2A
1070
             147
1040
7.5
1002
}
  0
DIMENSION
  5
2B0
100
AcDbEntity
  8
寸法
370
               0
390
0
  6
Continuous
 62
               1
100
AcDbDimension
  2
*D5
 10
3300.0
 20
1060.8049214629557
 30
0.0
 11
3292.5
 21
900.0
 31
0.0
 70
             128
 71
               5
 72
               1
 41
1.0
 42
0.0
  3
HIBINO
100
AcDbAlignedDimension
 13
3518.4954376037349
 23
783.00857995261038
 33
0.0
 14
3518.4954376037349
 24
1060.8049214629557
 34
0.0
 50
-90.0
100
AcDbRotatedDimension
1001
ACAD
1000
DSTYLE
1002
{
1070
             271
1070
               0
1070
             279
1070
               2
1070
             340
1005
2A
1070
             147
1040
7.5
1002
}
  0
INSERT
  5
2B1
100
AcDbEntity
  8
0
390
0
 62
               1
100
AcDbBlockReference
  2
グループ-2
 10
3704.2757508763157
 20
394.87939801389518
 30
0.0
  0
ENDSEC
  0
SECTION
  2
OBJECTS
  0
DICTIONARY
  5
19
100
AcDbDictionary
280
               0
281
               1
  3
ACAD_GROUP
350
1A
  3
ACAD_MLINESTYLE
350
1B
  3
ACAD_LAYOUT
350
1E
  3
ACAD_PLOTSETTINGS
350
22
  3
ACAD_PLOTSTYLENAME
350
1F
  3
ACAD_WIPEOUT_VARS
350
23
  0
DICTIONARY
  5
1A
102
{ACAD_REACTORS
330
19
102
}
100
AcDbDictionary
280
               0
281
               1
  0
DICTIONARY
  5
1B
102
{ACAD_REACTORS
330
19
102
}
100
AcDbDictionary
280
               0
281
               1
  3
Standard
350
1C
  0
MLINESTYLE
  5
1C
102
{ACAD_REACTORS
330
1B
102
}
100
AcDbMlineStyle
  2
Standard
 70
               0
  3

 62
               0
 51
90.0
 52
90.0
 71
               2
 49
0.5
 62
             256
  6
ByLayer
 49
-0.5
 62
             256
  6
ByLayer
  0
ACDBDICTIONARYWDFLT
  5
1F
102
{ACAD_REACTORS
330
19
102
}
100
AcDbDictionary
281
               1
  3
Normal
350
1D
100
AcDbDictionaryWithDefault
340
1D
  0
ACDBPLACEHOLDER
  5
1D
102
{ACAD_REACTORS
330
1F
102
}
  0
LAYOUT
  5
20
102
{ACAD_REACTORS
330
1E
102
}
100
AcDbPlotSettings
  1

  2

  4

  6

 40
0.0
 41
0.0
 42
0.0
 43
0.0
 44
0.0
 45
0.0
 46
0.0
 47
0.0
 48
0.0
 49
0.0
140
0.0
141
0.0
142
1.0
143
1.0
 70
            1024
 72
               0
 73
               0
 74
               0
  7
HOPS8i_LR.ctb
 75
               0
147
1.0
148
0.0
149
0.0
100
AcDbLayout
  1
Model
 70
               0
 71
               0
 10
0.0
 20
0.0
 11
0.0
 21
0.0
 12
0.0
 22
0.0
 32
0.0
 14
0.0
 24
0.0
 34
0.0
 15
0.0
 25
0.0
 35
0.0
146
0.0
 13
0.0
 23
0.0
 33
0.0
 16
0.0
 26
0.0
 36
0.0
 17
0.0
 27
0.0
 37
0.0
 76
               0
330
A
331
0
345
0
346
0
  0
LAYOUT
  5
21
102
{ACAD_REACTORS
330
1E
102
}
100
AcDbPlotSettings
  1

  2

  4

  6

 40
0.0
 41
0.0
 42
0.0
 43
0.0
 44
0.0
 45
0.0
 46
0.0
 47
0.0
 48
0.0
 49
0.0
140
0.0
141
0.0
142
1.0
143
1.0
 70
               0
 72
               0
 73
               0
 74
               0
  7

 75
               0
147
1.0
148
0.0
149
0.0
100
AcDbLayout
  1
Layout1
 70
               0
 71
               0
 10
0.0
 20
0.0
 11
0.0
 21
0.0
 12
0.0
 22
0.0
 32
0.0
 14
0.0
 24
0.0
 34
0.0
 15
0.0
 25
0.0
 35
0.0
146
0.0
 13
0.0
 23
0.0
 33
0.0
 16
0.0
 26
0.0
 36
0.0
 17
0.0
 27
0.0
 37
0.0
 76
               0
330
B
331
0
345
0
346
0
  0
DICTIONARY
  5
1E
102
{ACAD_REACTORS
330
19
102
}
100
AcDbDictionary
280
               0
281
               1
  3
Layout1
350
21
  3
Model
350
20
  0
DICTIONARY
  5
22
102
{ACAD_REACTORS
330
19
102
}
100
AcDbDictionary
280
               0
281
               1
  0
WIPEOUTVARIABLES
  5
23
100
AcDbWipeoutVariables
 70
               0
  0
ENDSEC
  0
EOF
