  0
SECTION
  2
HEADER
  9
$ACADVER
  1
AC1015
  9
$ACADMAINTVER
 70
               6
  9
$DWGCODEPAGE
  3
ANSI_932
  9
$INSBASE
 10
0.0
 20
0.0
 30
0.0
  9
$EXTMIN
 10
31547.361406977925
 20
2376.6501666261884
 30
-22.2758
  9
$EXTMAX
 10
34247.361406977921
 20
6382.6596034721661
 30
22.2758
  9
$LIMMIN
 10
0.0
 20
0.0
  9
$LIMMAX
 10
0.0
 20
0.0
  9
$ORTHOMODE
 70
               0
  9
$REGENMODE
 70
               1
  9
$FILLMODE
 70
               1
  9
$QTEXTMODE
 70
               0
  9
$MIRRTEXT
 70
               1
  9
$LTSCALE
 40
76.199999999999989
  9
$ATTMODE
 70
               1
  9
$TEXTSIZE
 40
0.2
  9
$TRACEWID
 40
1.0
  9
$TEXTSTYLE
  7
Standard
  9
$CLAYER
  8
0
  9
$CELTYPE
  6
Continuous
  9
$CECOLOR
 62
             256
  9
$CELTSCALE
 40
1.0
  9
$DISPSILH
 70
               0
  9
$DIMSCALE
 40
1.0
  9
$DIMASZ
 40
37.50933837890625
  9
$DIMEXO
 40
29.999999999999996
  9
$DIMDLI
 40
4.9999999999999991
  9
$DIMRND
 40
0.0
  9
$DIMDLE
 40
0.0
  9
$DIMEXE
 40
29.999999999999996
  9
$DIMTP
 40
0.0
  9
$DIMTM
 40
0.0
  9
$DIMTXT
 40
58.63828125000029
  9
$DIMCEN
 40
0.0
  9
$DIMTSZ
 40
0.0
  9
$DIMTOL
 70
               0
  9
$DIMLIM
 70
               0
  9
$DIMTIH
 70
               0
  9
$DIMTOH
 70
               0
  9
$DIMSE1
 70
               0
  9
$DIMSE2
 70
               0
  9
$DIMTAD
 70
               1
  9
$DIMZIN
 70
              11
  9
$DIMBLK
  1
VW_EMPTYARROW
  9
$DIMASO
 70
               1
  9
$DIMSHO
 70
               1
  9
$DIMPOST
  1
<>
  9
$DIMAPOST
  1
[]
  9
$DIMALT
 70
               0
  9
$DIMALTD
 70
               2
  9
$DIMALTF
 40
1.0
  9
$DIMLFAC
 40
1.0
  9
$DIMTOFL
 70
               1
  9
$DIMTVP
 40
0.0
  9
$DIMTIX
 70
               1
  9
$DIMSOXD
 70
               0
  9
$DIMSAH
 70
               0
  9
$DIMBLK1
  1

  9
$DIMBLK2
  1

  9
$DIMSTYLE
  2
HIBINO
  9
$DIMCLRD
 70
               0
  9
$DIMCLRE
 70
               0
  9
$DIMCLRT
 70
               0
  9
$DIMTFAC
 40
1.0
  9
$DIMGAP
 40
0.4999999999999999
  9
$DIMJUST
 70
               0
  9
$DIMSD1
 70
               0
  9
$DIMSD2
 70
               0
  9
$DIMTOLJ
 70
               1
  9
$DIMTZIN
 70
              11
  9
$DIMALTZ
 70
              11
  9
$DIMALTTZ
 70
              11
  9
$DIMUPT
 70
               0
  9
$DIMDEC
 70
               2
  9
$DIMTDEC
 70
               2
  9
$DIMALTU
 70
               2
  9
$DIMALTTD
 70
               2
  9
$DIMTXSTY
  7
ＭＳ ゴシック
  9
$DIMAUNIT
 70
               0
  9
$DIMADEC
 70
               0
  9
$DIMALTRND
 40
0.0
  9
$DIMAZIN
 70
               0
  9
$DIMDSEP
 70
              46
  9
$DIMATFIT
 70
               0
  9
$DIMFRAC
 70
               2
  9
$DIMLDRBLK
  1

  9
$DIMLUNIT
 70
               2
  9
$DIMLWD
 70
              -2
  9
$DIMLWE
 70
              -2
  9
$DIMTMOVE
 70
               0
  9
$LUNITS
 70
               2
  9
$LUPREC
 70
               4
  9
$SKETCHINC
 40
0.1
  9
$FILLETRAD
 40
0.0
  9
$AUNITS
 70
               0
  9
$AUPREC
 70
               0
  9
$MENU
  1
acad
  9
$ELEVATION
 40
0.0
  9
$PELEVATION
 40
0.0
  9
$THICKNESS
 40
0.0
  9
$LIMCHECK
 70
               0
  9
$CHAMFERA
 40
0.0
  9
$CHAMFERB
 40
0.0
  9
$CHAMFERC
 40
0.0
  9
$CHAMFERD
 40
0.0
  9
$SKPOLY
 70
               0
  9
$TDCREATE
 40
2458457.778946759
  9
$TDUCREATE
 40
0.000000000
  9
$TDUPDATE
 40
2458457.778946759
  9
$TDUUPDATE
 40
0.000000000
  9
$TDINDWG
 40
0.0000000000
  9
$TDUSRTIMER
 40
0.0000000000
  9
$USRTIMER
 70
               1
  9
$ANGBASE
 50
0.0
  9
$ANGDIR
 70
               0
  9
$PDMODE
 70
               1
  9
$PDSIZE
 40
-2.0
  9
$PLINEWID
 40
0.0
  9
$SPLFRAME
 70
               0
  9
$SPLINETYPE
 70
               6
  9
$SPLINESEGS
 70
               8
  9
$HANDSEED
  5
308
  9
$SURFTAB1
 70
               6
  9
$SURFTAB2
 70
               6
  9
$SURFTYPE
 70
               6
  9
$SURFU
 70
               6
  9
$SURFV
 70
               6
  9
$UCSBASE
  2

  9
$UCSNAME
  2

  9
$UCSORG
 10
0.0
 20
0.0
 30
0.0
  9
$UCSXDIR
 10
1.0
 20
0.0
 30
0.0
  9
$UCSYDIR
 10
0.0
 20
1.0
 30
0.0
  9
$UCSORTHOREF
  2

  9
$UCSORTHOVIEW
 70
               0
  9
$UCSORGTOP
 10
0.0
 20
0.0
 30
0.0
  9
$UCSORGBOTTOM
 10
0.0
 20
0.0
 30
0.0
  9
$UCSORGLEFT
 10
0.0
 20
0.0
 30
0.0
  9
$UCSORGRIGHT
 10
0.0
 20
0.0
 30
0.0
  9
$UCSORGFRONT
 10
0.0
 20
0.0
 30
0.0
  9
$UCSORGBACK
 10
0.0
 20
0.0
 30
0.0
  9
$PUCSBASE
  2

  9
$PUCSNAME
  2

  9
$PUCSORG
 10
0.0
 20
0.0
 30
0.0
  9
$PUCSXDIR
 10
1.0
 20
0.0
 30
0.0
  9
$PUCSYDIR
 10
0.0
 20
1.0
 30
0.0
  9
$PUCSORTHOREF
  2

  9
$PUCSORTHOVIEW
 70
               0
  9
$PUCSORGTOP
 10
0.0
 20
0.0
 30
0.0
  9
$PUCSORGBOTTOM
 10
0.0
 20
0.0
 30
0.0
  9
$PUCSORGLEFT
 10
0.0
 20
0.0
 30
0.0
  9
$PUCSORGRIGHT
 10
0.0
 20
0.0
 30
0.0
  9
$PUCSORGFRONT
 10
0.0
 20
0.0
 30
0.0
  9
$PUCSORGBACK
 10
0.0
 20
0.0
 30
0.0
  9
$USERI1
 70
               0
  9
$USERI2
 70
               0
  9
$USERI3
 70
               0
  9
$USERI4
 70
               0
  9
$USERI5
 70
               0
  9
$USERR1
 40
0.0
  9
$USERR2
 40
0.0
  9
$USERR3
 40
0.0
  9
$USERR4
 40
0.0
  9
$USERR5
 40
0.0
  9
$WORLDVIEW
 70
               1
  9
$SHADEDGE
 70
               3
  9
$SHADEDIF
 70
              70
  9
$TILEMODE
 70
               1
  9
$MAXACTVP
 70
              64
  9
$PINSBASE
 10
0.0
 20
0.0
 30
0.0
  9
$PLIMCHECK
 70
               0
  9
$PEXTMIN
 10
1.0000000000000000E+20
 20
1.0000000000000000E+20
 30
1.0000000000000000E+20
  9
$PEXTMAX
 10
-1.0000000000000000E+20
 20
-1.0000000000000000E+20
 30
-1.0000000000000000E+20
  9
$PLIMMIN
 10
0.0
 20
0.0
  9
$PLIMMAX
 10
12.0
 20
9.0
  9
$UNITMODE
 70
               0
  9
$VISRETAIN
 70
               0
  9
$PLINEGEN
 70
               1
  9
$PSLTSCALE
 70
               0
  9
$TREEDEPTH
 70
            3020
  9
$CMLSTYLE
  2
Standard
  9
$CMLJUST
 70
               0
  9
$CMLSCALE
 40
1.0
  9
$PROXYGRAPHICS
 70
               0
  9
$MEASUREMENT
 70
               1
  9
$CELWEIGHT
370
               0
  9
$ENDCAPS
280
               0
  9
$JOINSTYLE
280
               0
  9
$LWDISPLAY
290
               0
  9
$INSUNITS
 70
               4
  9
$HYPERLINKBASE
  1

  9
$STYLESHEET
  1

  9
$XEDIT
290
               1
  9
$CEPSNTYPE
380
               0
  9
$PSTYLEMODE
290
               1
  9
$FINGERPRINTGUID
  2

  9
$VERSIONGUID
  2

  9
$EXTNAMES
290
               1
  9
$PSVPSCALE
 40
0.0
  0
ENDSEC
  0
SECTION
  2
CLASSES
  0
CLASS
  1
LWPOLYLINE
  2
AcDbPolyline
  3
AutoCAD 2000
 90
        0
280
               0
281
               1
  0
CLASS
  1
IMAGE
  2
AcDbRasterImage
  3
ISM
 90
      127
280
               0
281
               1
  0
CLASS
  1
OLE2FRAME
  2
AcDbOle2Frame
  3
AutoCAD 2000
 90
        0
280
               0
281
               1
  0
CLASS
  1
HATCH
  2
AcDbHatch
  3
AutoCAD 2000
 90
        0
280
               0
281
               1
  0
CLASS
  1
DICTIONARYVAR
  2
AcDbDictionaryVar
  3
AutoCAD 2000
 90
        0
280
               0
281
               0
  0
CLASS
  1
RASTERVARIABLES
  2
AcDbRasterVariables
  3
ISM
 90
        0
280
               0
281
               0
  0
CLASS
  1
IMAGEDEF
  2
AcDbRasterImageDef
  3
ISM
 90
        0
280
               0
281
               0
  0
CLASS
  1
IMAGEDEF_REACTOR
  2
AcDbRasterImageDefReactor
  3
ISM
 90
        1
280
               0
281
               0
  0
CLASS
  1
IDBUFFER
  2
AcDbIdBuffer
  3
AutoCAD 2000
 90
        0
280
               0
281
               0
  0
CLASS
  1
SPATIAL_FILTER
  2
AcDbSpatialFilter
  3
AutoCAD 2000
 90
        0
280
               0
281
               0
  0
CLASS
  1
XRECORD
  2
AcDbXrecord
  3
AutoCAD 2000
 90
        0
280
               0
281
               0
  0
CLASS
  1
SORTENTSTABLE
  2
AcDbSortentsTable
  3
AutoCAD 2000
 90
        0
280
               0
281
               0
  0
CLASS
  1
LAYER_INDEX
  2
AcDbLayerIndex
  3
AutoCAD 2000
 90
        0
280
               0
281
               0
  0
CLASS
  1
SPATIAL_INDEX
  2
AcDbSpatialIndex
  3
AutoCAD 2000
 90
        0
280
               0
281
               0
  0
CLASS
  1
OBJECT_PTR
  2
CAseDLPNTableRecord
  3
"ASE-LPNTableRecord"
 90
        1
280
               0
281
               0
  0
CLASS
  1
LAYOUT
  2
AcDbLayout
  3
AutoCAD 2000
 90
        0
280
               0
281
               0
  0
CLASS
  1
PLOTSETTINGS
  2
AcDbPlotSettings
  3
AutoCAD 2000
 90
        0
280
               0
281
               0
  0
CLASS
  1
ACDBDICTIONARYWDFLT
  2
AcDbDictionaryWithDefault
  3
AutoCAD 2000
 90
        0
280
               0
281
               0
  0
CLASS
  1
ACDBPLACEHOLDER
  2
AcDbPlaceHolder
  3
AutoCAD 2000
 90
        0
280
               0
281
               0
  0
CLASS
  1
VBA_PROJECT
  2
AcDbVbaProject
  3
acadvba
 90
        0
280
               0
281
               0
  0
CLASS
  1
WIPEOUT
  2
AcDbWipeout
  3
WipeOut|AutoCAD Express Tool|expresstools@autodesk.com
 90
      127
280
               0
281
               1
  0
CLASS
  1
WIPEOUTVARIABLES
  2
AcDbWipeoutVariables
  3
WipeOut|AutoCAD Express Tool|expresstools@autodesk.com
 90
        0
280
               0
281
               0
  0
CLASS
  1
RTEXT
  2
RText
  3
RText|AutoCAD Express Tool|expresstools@autodesk.com
 90
        0
280
               0
281
               1
  0
CLASS
  1
ARCALIGNEDTEXT
  2
AcDbArcAlignedText
  3
ATEXT|AutoCAD Express Tool|expresstools@autodesk.com
 90
        0
280
               0
281
               1
  0
ENDSEC
  0
SECTION
  2
TABLES
  0
TABLE
  2
VPORT
  5
7
100
AcDbSymbolTable
 70
               1
  0
VPORT
  5
15
100
AcDbSymbolTableRecord
100
AcDbViewportTableRecord
  2
*ACTIVE
 70
               0
 10
0.0
 20
0.0
 11
1.0
 21
1.0
 12
32897.361406977921
 22
4379.6548850491772
 13
0.0
 23
0.0
 14
1.0
 24
1.0
 15
0.0
 25
0.0
 16
0.0
 26
0.0
 36
1.0
 17
0.0
 27
0.0
 37
0.0
 40
4006.0094368459777
 41
0.688564
 42
50.0
 43
0.0
 44
0.0
 50
0.0
 51
0.0
 71
               0
 72
            2000
 73
               1
 74
               1
 75
               0
 76
               0
 77
               0
 78
               0
281
               0
 65
               0
110
0.0
120
0.0
130
0.0
111
1.0
121
0.0
131
0.0
112
0.0
122
1.0
132
0.0
345
0
346
0
 79
               0
146
0.0
  0
ENDTAB
  0
TABLE
  2
LTYPE
  5
4
100
AcDbSymbolTable
 70
              13
  0
LTYPE
  5
11
100
AcDbSymbolTableRecord
100
AcDbLinetypeTableRecord
  2
ByBlock
 70
              64
  3

 72
              65
 73
               0
 40
0.0
  0
LTYPE
  5
12
100
AcDbSymbolTableRecord
100
AcDbLinetypeTableRecord
  2
ByLayer
 70
              64
  3

 72
              65
 73
               0
 40
0.0
  0
LTYPE
  5
13
100
AcDbSymbolTableRecord
100
AcDbLinetypeTableRecord
  2
Continuous
 70
              64
  3
Solid line
 72
              65
 73
               0
 40
0.0
  0
LTYPE
  5
2F
100
AcDbSymbolTableRecord
100
AcDbLinetypeTableRecord
  2
STYLE_01
 70
               0
  3

 72
              65
 73
               4
 40
0.2666666666666667
 49
0.1666666666666667
 74
               0
 49
-0.0333333333333333
 74
               0
 49
0.0333333333333333
 74
               0
 49
-0.0333333333333333
 74
               0
  0
LTYPE
  5
30
100
AcDbSymbolTableRecord
100
AcDbLinetypeTableRecord
  2
STYLE_02
 70
               0
  3

 72
              65
 73
               2
 40
0.694427490234375
 49
0.4860687255859375
 74
               0
 49
-0.2083587646484375
 74
               0
  0
LTYPE
  5
31
100
AcDbSymbolTableRecord
100
AcDbLinetypeTableRecord
  2
STYLE_03
 70
               0
  3

 72
              65
 73
               2
 40
1.25
 49
1.0416412353515625
 74
               0
 49
-0.2083587646484375
 74
               0
  0
LTYPE
  5
32
100
AcDbSymbolTableRecord
100
AcDbLinetypeTableRecord
  2
STYLE_04
 70
               0
  3

 72
              65
 73
               2
 40
1.5277099609375
 49
1.319427490234375
 74
               0
 49
-0.208282470703125
 74
               0
  0
LTYPE
  5
33
100
AcDbSymbolTableRecord
100
AcDbLinetypeTableRecord
  2
STYLE_05
 70
               0
  3

 72
              65
 73
               2
 40
0.208282470703125
 49
0.069427490234375
 74
               0
 49
-0.13885498046875
 74
               0
  0
LTYPE
  5
34
100
AcDbSymbolTableRecord
100
AcDbLinetypeTableRecord
  2
STYLE_06
 70
               0
  3

 72
              65
 73
               4
 40
1.0416412353515625
 49
0.625
 74
               0
 49
-0.208282470703125
 74
               0
 49
0.069427490234375
 74
               0
 49
-0.1389312744140625
 74
               0
  0
LTYPE
  5
35
100
AcDbSymbolTableRecord
100
AcDbLinetypeTableRecord
  2
STYLE_07
 70
               0
  3

 72
              65
 73
               6
 40
1.875
 49
0.625
 74
               0
 49
-0.208282470703125
 74
               0
 49
0.625
 74
               0
 49
-0.2083587646484375
 74
               0
 49
0.069427490234375
 74
               0
 49
-0.1389312744140625
 74
               0
  0
LTYPE
  5
36
100
AcDbSymbolTableRecord
100
AcDbLinetypeTableRecord
  2
STYLE_08
 70
               0
  3

 72
              65
 73
               6
 40
1.25
 49
0.625
 74
               0
 49
-0.208282470703125
 74
               0
 49
0.069427490234375
 74
               0
 49
-0.1389312744140625
 74
               0
 49
0.069427490234375
 74
               0
 49
-0.1389312744140625
 74
               0
  0
LTYPE
  5
37
100
AcDbSymbolTableRecord
100
AcDbLinetypeTableRecord
  2
STYLE_09
 70
               0
  3

 72
              65
 73
               4
 40
5.0
 49
3.75
 74
               0
 49
-0.2777862548828125
 74
               0
 49
0.694427490234375
 74
               0
 49
-0.2777862548828125
 74
               0
  0
LTYPE
  5
38
100
AcDbSymbolTableRecord
100
AcDbLinetypeTableRecord
  2
STYLE_10
 70
               0
  3

 72
              65
 73
               6
 40
5.9375
 49
3.75
 74
               0
 49
-0.2777862548828125
 74
               0
 49
0.694427490234375
 74
               0
 49
-0.2777862548828125
 74
               0
 49
0.625
 74
               0
 49
-0.3125
 74
               0
  0
ENDTAB
  0
TABLE
  2
LAYER
  5
2
100
AcDbSymbolTable
 70
              16
  0
LAYER
  5
14
100
AcDbSymbolTableRecord
100
AcDbLayerTableRecord
  2
0
 70
               0
 62
               7
  6
Continuous
290
               1
370
               0
390
1D
  0
LAYER
  5
39
100
AcDbSymbolTableRecord
100
AcDbLayerTableRecord
  2
DATA
 70
               0
 62
               7
  6
Continuous
290
               1
370
               0
390
1D
  0
LAYER
  5
3A
100
AcDbSymbolTableRecord
100
AcDbLayerTableRecord
  2
一般
 70
               0
 62
               7
  6
Continuous
290
               1
370
               0
390
1D
  0
LAYER
  5
3B
100
AcDbSymbolTableRecord
100
AcDbLayerTableRecord
  2
寸法
 70
               0
 62
               7
  6
Continuous
290
               1
370
               0
390
1D
  0
LAYER
  5
3C
100
AcDbSymbolTableRecord
100
AcDbLayerTableRecord
  2
HIBINO-BASE
 70
               0
 62
               7
  6
Continuous
290
               1
370
               0
390
1D
  0
LAYER
  5
3D
100
AcDbSymbolTableRecord
100
AcDbLayerTableRecord
  2
SPEC
 70
               0
 62
               7
  6
Continuous
290
               1
370
               0
390
1D
  0
LAYER
  5
3E
100
AcDbSymbolTableRecord
100
AcDbLayerTableRecord
  2
DIMNSIONS
 70
               0
 62
               7
  6
Continuous
290
               1
370
               0
390
1D
  0
LAYER
  5
3F
100
AcDbSymbolTableRecord
100
AcDbLayerTableRecord
  2
Layer1
 70
               0
 62
               3
  6
Continuous
290
               1
370
               0
390
1D
  0
LAYER
  5
40
100
AcDbSymbolTableRecord
100
AcDbLayerTableRecord
  2
2D
 70
               0
 62
              82
  6
Continuous
290
               1
370
               0
390
1D
  0
LAYER
  5
41
100
AcDbSymbolTableRecord
100
AcDbLayerTableRecord
  2
FORMAT
 70
               0
 62
               7
  6
Continuous
290
               1
370
               0
390
1D
  0
LAYER
  5
42
100
AcDbSymbolTableRecord
100
AcDbLayerTableRecord
  2
Defpoints
 70
               0
 62
               7
  6
Continuous
290
               0
370
               0
390
1D
  0
LAYER
  5
43
100
AcDbSymbolTableRecord
100
AcDbLayerTableRecord
  2
5in
 70
               0
 62
               7
  6
Continuous
290
               1
370
               0
390
1D
  0
LAYER
  5
44
100
AcDbSymbolTableRecord
100
AcDbLayerTableRecord
  2
MD_Visible
 70
               0
 62
               7
  6
Continuous
290
               1
370
               0
390
1D
  0
LAYER
  5
45
100
AcDbSymbolTableRecord
100
AcDbLayerTableRecord
  2
AM_0
 70
               0
 62
               7
  6
Continuous
290
               1
370
               0
390
1D
  0
LAYER
  5
46
100
AcDbSymbolTableRecord
100
AcDbLayerTableRecord
  2
MD_Visible Narrow
 70
               0
 62
               7
  6
Continuous
290
               1
370
               0
390
1D
  0
LAYER
  5
47
100
AcDbSymbolTableRecord
100
AcDbLayerTableRecord
  2
3
 70
               0
 62
               7
  6
Continuous
290
               1
370
               0
390
1D
  0
ENDTAB
  0
TABLE
  2
STYLE
  5
3
100
AcDbSymbolTable
 70
               3
  0
STYLE
  5
17
100
AcDbSymbolTableRecord
100
AcDbTextStyleTableRecord
  2
Standard
 70
               0
 40
0.0
 41
1.0
 50
0.0
 71
               0
 42
0.0
  3
txt
  4
BIGFONT.SHX
  0
STYLE
  5
2D
100
AcDbSymbolTableRecord
100
AcDbTextStyleTableRecord
  2
ＭＳ ゴシック
 70
               0
 40
0.0
 41
1.0
 50
0.0
 71
               0
 42
0.0
  3

  4
ＭＳ ゴシック
1001
ACAD
1000
ＭＳ ゴシック
1071
        0
  0
STYLE
  5
2E
100
AcDbSymbolTableRecord
100
AcDbTextStyleTableRecord
  2
ＭＳ ゴシック (bold)
 70
               0
 40
0.0
 41
1.0
 50
0.0
 71
               0
 42
0.0
  3

  4
ＭＳ ゴシック
1001
ACAD
1000
ＭＳ ゴシック
1071
 33554432
  0
ENDTAB
  0
TABLE
  2
VIEW
  5
5
100
AcDbSymbolTable
 70
               0
  0
ENDTAB
  0
TABLE
  2
UCS
  5
6
100
AcDbSymbolTable
 70
               0
  0
ENDTAB
  0
TABLE
  2
APPID
  5
8
100
AcDbSymbolTable
 70
               1
  0
APPID
  5
16
100
AcDbSymbolTableRecord
100
AcDbRegAppTableRecord
  2
ACAD
 70
               0
  0
ENDTAB
  0
TABLE
  2
DIMSTYLE
  5
9
100
AcDbSymbolTable
 70
               2
100
AcDbDimStyleTable
 71
               0
  0
DIMSTYLE
105
18
100
AcDbSymbolTableRecord
100
AcDbDimStyleTableRecord
  2
Standard
 70
               0
  3

  4

 40
1.0
 41
0.18
 42
0.0625
 43
0.38
 44
0.18
 45
0.0
 46
0.0
 47
0.0
 48
0.0
 71
               0
 72
               0
 73
               1
 74
               1
 75
               0
 76
               0
 77
               0
 78
               0
 79
               0
140
0.18
141
0.09
142
0.0
143
25.399999999999999
144
1.0
145
0.0
146
1.0
147
0.09
148
0.0
170
               0
171
               2
172
               0
173
               0
174
               0
175
               0
176
               0
177
               0
178
               0
179
               0
271
               4
272
               4
273
               2
274
               2
275
               0
276
               0
277
               2
278
              46
279
               0
280
               0
281
               0
282
               0
283
               1
284
               0
285
               0
286
               0
288
               0
289
               3
340
17
341
0
342
0
343
0
344
0
371
              -2
372
              -2
  0
DIMSTYLE
105
51
100
AcDbSymbolTableRecord
100
AcDbDimStyleTableRecord
  2
HIBINO
 70
               0
  3
<>
  4
[]
 40
1.0
 41
37.50933837890625
 42
29.999999999999996
 43
4.9999999999999991
 44
29.999999999999996
 45
0.0
 46
0.0
 47
0.0
 48
0.0
 71
               0
 72
               0
 73
               0
 74
               0
 75
               0
 76
               0
 77
               1
 78
              11
 79
               0
140
58.63828125000029
141
0.0
142
0.0
143
1.0
144
1.0
145
0.0
146
1.0
147
0.4999999999999999
148
0.0
170
               0
171
               2
172
               1
173
               0
174
               1
175
               0
176
               0
177
               0
178
               0
179
               0
271
               2
272
               2
273
               2
274
               2
275
               0
276
               2
277
               2
278
              46
279
               0
280
               0
281
               0
282
               0
283
               1
284
              11
285
              11
286
              11
288
               0
289
               0
340
2D
341
48
342
48
343
0
344
0
371
              -2
372
              -2
  0
ENDTAB
  0
TABLE
  2
BLOCK_RECORD
  5
1
100
AcDbSymbolTable
 70
              10
  0
BLOCK_RECORD
  5
A
100
AcDbSymbolTableRecord
100
AcDbBlockTableRecord
  2
*MODEL_SPACE
340
20
  0
BLOCK_RECORD
  5
B
100
AcDbSymbolTableRecord
100
AcDbBlockTableRecord
  2
*PAPER_SPACE
340
21
  0
BLOCK_RECORD
  5
48
100
AcDbSymbolTableRecord
100
AcDbBlockTableRecord
  2
VW_EMPTYARROW
340
0
  0
BLOCK_RECORD
  5
24
100
AcDbSymbolTableRecord
100
AcDbBlockTableRecord
  2
グループ
340
0
102
{BLKREFS
331
2FE
102
}
  0
BLOCK_RECORD
  5
25
100
AcDbSymbolTableRecord
100
AcDbBlockTableRecord
  2
グループ-1
340
0
102
{BLKREFS
331
2FF
102
}
  0
BLOCK_RECORD
  5
26
100
AcDbSymbolTableRecord
100
AcDbBlockTableRecord
  2
グループ-2
340
0
102
{BLKREFS
331
300
102
}
  0
BLOCK_RECORD
  5
27
100
AcDbSymbolTableRecord
100
AcDbBlockTableRecord
  2
グループ-3
340
0
102
{BLKREFS
331
301
102
}
  0
BLOCK_RECORD
  5
28
100
AcDbSymbolTableRecord
100
AcDbBlockTableRecord
  2
グループ-4
340
0
102
{BLKREFS
331
302
102
}
  0
BLOCK_RECORD
  5
29
100
AcDbSymbolTableRecord
100
AcDbBlockTableRecord
  2
グループ-5
340
0
102
{BLKREFS
331
303
102
}
  0
BLOCK_RECORD
  5
2A
100
AcDbSymbolTableRecord
100
AcDbBlockTableRecord
  2
*D7
340
0
  0
BLOCK_RECORD
  5
2B
100
AcDbSymbolTableRecord
100
AcDbBlockTableRecord
  2
*D8
340
0
  0
BLOCK_RECORD
  5
2C
100
AcDbSymbolTableRecord
100
AcDbBlockTableRecord
  2
*D9
340
0
  0
ENDTAB
  0
ENDSEC
  0
SECTION
  2
BLOCKS
  0
BLOCK
  5
D
100
AcDbEntity
  8
0
390
0
100
AcDbBlockBegin
  2
*MODEL_SPACE
 70
               0
 10
0.0
 20
0.0
 30
0.0
  3
*MODEL_SPACE
  1

  0
ENDBLK
  5
E
100
AcDbEntity
  8
0
390
0
100
AcDbBlockEnd
  0
BLOCK
  5
F
100
AcDbEntity
 67
               1
  8
0
390
0
100
AcDbBlockBegin
  2
*PAPER_SPACE
 70
               0
 10
0.0
 20
0.0
 30
0.0
  3
*PAPER_SPACE
  1

  0
ENDBLK
  5
10
100
AcDbEntity
 67
               1
  8
0
390
0
100
AcDbBlockEnd
  0
BLOCK
  5
49
100
AcDbEntity
  8
0
370
              -2
390
0
  6
ByBlock
 62
               0
100
AcDbBlockBegin
  2
VW_EMPTYARROW
 70
               0
 10
0.0
 20
0.0
 30
0.0
  3
VW_EMPTYARROW
  1

  0
LINE
  5
4A
100
AcDbEntity
  8
0
370
              -2
390
0
  6
ByBlock
 62
               0
100
AcDbLine
 10
0.0
 20
0.0
 30
0.0
 11
-1.0
 21
0.0
 31
0.0
  0
POLYLINE
  5
4B
100
AcDbEntity
  8
0
370
              -2
390
0
  6
Continuous
 62
               0
100
AcDb2dPolyline
 66
               1
 10
0.0
 20
0.0
 30
0.0
 75
               5
  0
VERTEX
  5
4C
100
AcDbEntity
  8
0
370
              -2
390
0
  6
Continuous
 62
               0
100
AcDbVertex
100
AcDb2dVertex
 10
-0.99993896484375
 20
0.2679328381102957
 30
0.0
  0
VERTEX
  5
4D
100
AcDbEntity
  8
0
370
              -2
390
0
  6
Continuous
 62
               0
100
AcDbVertex
100
AcDb2dVertex
 10
0.0
 20
0.0
 30
0.0
  0
VERTEX
  5
4E
100
AcDbEntity
  8
0
370
              -2
390
0
  6
Continuous
 62
               0
100
AcDbVertex
100
AcDb2dVertex
 10
-0.9999389648437499
 20
-0.2679328381102959
 30
0.0
  0
SEQEND
  5
4F
100
AcDbEntity
  8
0
370
              -2
390
0
  6
Continuous
 62
               0
  0
ENDBLK
  5
50
100
AcDbEntity
  8
0
390
0
100
AcDbBlockEnd
  0
BLOCK
  5
52
100
AcDbEntity
  8
0
390
0
100
AcDbBlockBegin
  2
グループ
 70
               0
 10
0.0
 20
0.0
 30
0.0
  3
グループ
  1

  0
LINE
  5
53
100
AcDbEntity
  8
0
370
               0
390
0
  6
Continuous
 62
              30
100
AcDbLine
 10
1009.7001289907267
 20
-566.91549943509835
 30
0.0
 11
1009.7001289907267
 21
97.084471567241962
 31
0.0
  0
LINE
  5
54
100
AcDbEntity
  8
0
370
               0
390
0
  6
Continuous
 62
              30
100
AcDbLine
 10
1082.8943943563272
 20
-566.91549943509835
 30
0.0
 11
1082.8943943563272
 21
97.084471567241962
 31
0.0
  0
LINE
  5
55
100
AcDbEntity
  8
0
370
               0
390
0
  6
Continuous
 62
              30
100
AcDbLine
 10
1021.8852257314494
 20
-566.91549943509835
 30
0.0
 11
1021.8852257314494
 21
97.084471567241962
 31
0.0
  0
LINE
  5
56
100
AcDbEntity
  8
0
370
               0
390
0
  6
Continuous
 62
              30
100
AcDbLine
 10
814.08865209253338
 20
97.084471567241962
 30
0.0
 11
814.08865209253338
 21
-566.91549943509835
 31
0.0
  0
LINE
  5
57
100
AcDbEntity
  8
0
370
               0
390
0
  6
Continuous
 62
              30
100
AcDbLine
 10
801.90331693323162
 20
97.084471567241962
 30
0.0
 11
801.90331693323162
 21
-566.91549943509835
 31
0.0
  0
LINE
  5
58
100
AcDbEntity
  8
0
370
               0
390
0
  6
Continuous
 62
              30
100
AcDbLine
 10
740.89438672693279
 20
97.084471567241962
 30
0.0
 11
740.89438672693279
 21
-566.91549943509835
 31
0.0
  0
LINE
  5
59
100
AcDbEntity
  8
0
370
               0
390
0
  6
Continuous
 62
              30
100
AcDbLine
 10
881.39421697290447
 20
-450.4154980343892
 30
0.0
 11
881.39421697290447
 21
-382.41549433890123
 31
0.0
  0
LINE
  5
5A
100
AcDbEntity
  8
0
370
               0
390
0
  6
Continuous
 62
              30
100
AcDbLine
 10
942.39432569177654
 20
-382.41549433890123
 30
0.0
 11
942.39432569177654
 21
-450.4154980343892
 31
0.0
  0
LINE
  5
5B
100
AcDbEntity
  8
0
370
               0
390
0
  6
Continuous
 62
              30
100
AcDbLine
 10
949.6353363576701
 20
-584.91549866023797
 30
0.0
 11
996.05877156885174
 21
-584.91549866023797
 31
0.0
  0
LINE
  5
5C
100
AcDbEntity
  8
0
370
               0
390
0
  6
Continuous
 62
              30
100
AcDbLine
 10
949.6353363576701
 20
-566.91549943509835
 30
0.0
 11
1009.7001289907267
 21
-566.91549943509835
 31
0.0
  0
LINE
  5
5D
100
AcDbEntity
  8
0
370
               0
390
0
  6
Continuous
 62
              30
100
AcDbLine
 10
949.6353363576701
 20
-566.91549943509835
 30
0.0
 11
1021.8852257314494
 21
-566.91549943509835
 31
0.0
  0
LINE
  5
5E
100
AcDbEntity
  8
0
370
               0
390
0
  6
Continuous
 62
              30
100
AcDbLine
 10
949.6353363576701
 20
-575.91549904766816
 30
0.0
 11
1021.8852257314494
 21
-575.91549904766816
 31
0.0
  0
CIRCLE
  5
5F
100
AcDbEntity
  8
0
370
               0
390
0
  6
Continuous
 62
              30
100
AcDbCircle
 10
946.89429934790599
 20
-501.14815344221734
 30
0.0
 40
12.75
  0
LINE
  5
60
100
AcDbEntity
  8
0
370
               0
390
0
  6
Continuous
 62
              30
100
AcDbLine
 10
957.89439435632733
 20
-517.6481515330388
 30
0.0
 11
935.89431996973065
 21
-517.6481515330388
 31
0.0
  0
LINE
  5
61
100
AcDbEntity
  8
0
370
               0
390
0
  6
Continuous
 62
              30
100
AcDbLine
 10
935.89431996973065
 20
-484.64815171185273
 30
0.0
 11
957.89439435632733
 21
-484.64815171185273
 31
0.0
  0
LINE
  5
62
100
AcDbEntity
  8
0
370
               0
390
0
  6
Continuous
 62
              30
100
AcDbLine
 10
801.90331693323162
 20
-566.91549943509835
 30
0.0
 11
874.15344472559002
 21
-566.91549943509835
 31
0.0
  0
LINE
  5
63
100
AcDbEntity
  8
0
370
               0
390
0
  6
Continuous
 62
              30
100
AcDbLine
 10
801.90331693323162
 20
-575.91549904766816
 30
0.0
 11
874.15344472559002
 21
-575.91549904766816
 31
0.0
  0
LINE
  5
64
100
AcDbEntity
  8
0
370
               0
390
0
  6
Continuous
 62
              30
100
AcDbLine
 10
814.08865209253338
 20
-566.91549943509835
 30
0.0
 11
874.15344472559002
 21
-566.91549943509835
 31
0.0
  0
LINE
  5
65
100
AcDbEntity
  8
0
370
               0
390
0
  6
Continuous
 62
              30
100
AcDbLine
 10
874.15344472559002
 20
-584.91549866023797
 30
0.0
 11
827.72977109582928
 21
-584.91549866023797
 31
0.0
  0
LINE
  5
66
100
AcDbEntity
  8
0
370
               0
390
0
  6
Continuous
 62
              30
100
AcDbLine
 10
827.72977109582928
 20
-584.91549866023797
 30
0.0
 11
740.89438672693279
 21
-584.91549866023797
 31
0.0
  0
LINE
  5
67
100
AcDbEntity
  8
0
370
               0
390
0
  6
Continuous
 62
              30
100
AcDbLine
 10
740.89438672693279
 20
-566.91549943509835
 30
0.0
 11
801.90331693323162
 21
-566.91549943509835
 31
0.0
  0
LINE
  5
68
100
AcDbEntity
  8
0
370
               0
390
0
  6
Continuous
 62
              30
100
AcDbLine
 10
740.89438672693279
 20
-575.91549904766816
 30
0.0
 11
801.90331693323162
 21
-575.91549904766816
 31
0.0
  0
LINE
  5
69
100
AcDbEntity
  8
0
370
               0
390
0
  6
Continuous
 62
              30
100
AcDbLine
 10
740.89438672693279
 20
-584.91549866023797
 30
0.0
 11
740.89438672693279
 21
-575.91549904766816
 31
0.0
  0
LINE
  5
6A
100
AcDbEntity
  8
0
370
               0
390
0
  6
Continuous
 62
              30
100
AcDbLine
 10
740.89438672693279
 20
-566.91549943509835
 30
0.0
 11
740.89438672693279
 21
-575.91549904766816
 31
0.0
  0
LINE
  5
6B
100
AcDbEntity
  8
0
370
               0
390
0
  6
Continuous
 62
              30
100
AcDbLine
 10
801.90331693323162
 20
-566.91549943509835
 30
0.0
 11
814.08865209253338
 21
-566.91549943509835
 31
0.0
  0
LINE
  5
6C
100
AcDbEntity
  8
0
370
               0
390
0
  6
Continuous
 62
              30
100
AcDbLine
 10
801.90331693323162
 20
-566.91549943509835
 30
0.0
 11
801.90331693323162
 21
-575.91549904766816
 31
0.0
  0
LINE
  5
6D
100
AcDbEntity
  8
0
370
               0
390
0
  6
Continuous
 62
              30
100
AcDbLine
 10
827.72977109582928
 20
-575.91549904766816
 30
0.0
 11
827.72977109582928
 21
-584.91549866023797
 31
0.0
  0
ARC
  5
6E
100
AcDbEntity
  8
0
370
               0
390
0
  6
Continuous
 62
              30
100
AcDbCircle
 10
887.89429934789143
 20
-514.64815344221188
 30
0.0
 40
3.0
100
AcDbArc
 50
270.0
 51
0.0
  0
ARC
  5
6F
100
AcDbEntity
  8
0
370
               0
390
0
  6
Continuous
 62
              30
100
AcDbCircle
 10
865.89429934792054
 20
-514.64815344221188
 30
0.0
 40
3.0
100
AcDbArc
 50
180.0
 51
270.0
  0
ARC
  5
70
100
AcDbEntity
  8
0
370
               0
390
0
  6
Continuous
 62
              30
100
AcDbCircle
 10
935.89429934792054
 20
-514.64815344221188
 30
0.0
 40
3.0
100
AcDbArc
 50
180.0
 51
270.0
  0
LINE
  5
71
100
AcDbEntity
  8
0
370
               0
390
0
  6
Continuous
 62
              30
100
AcDbLine
 10
874.15344472559002
 20
-566.91549943509835
 30
0.0
 11
949.6353363576701
 21
-566.91549943509835
 31
0.0
  0
LINE
  5
72
100
AcDbEntity
  8
0
370
               0
390
0
  6
Continuous
 62
              30
100
AcDbLine
 10
874.15344472559002
 20
-584.91549866023797
 30
0.0
 11
949.6353363576701
 21
-584.91549866023797
 31
0.0
  0
LINE
  5
73
100
AcDbEntity
  8
0
370
               0
390
0
  6
Continuous
 62
              30
100
AcDbLine
 10
874.15344472559002
 20
-575.91549904766816
 30
0.0
 11
874.15344472559002
 21
-566.91549943509835
 31
0.0
  0
LINE
  5
74
100
AcDbEntity
  8
0
370
               0
390
0
  6
Continuous
 62
              30
100
AcDbLine
 10
874.15344472559002
 20
-575.91549904766816
 30
0.0
 11
874.15344472559002
 21
-584.91549866023797
 31
0.0
  0
LINE
  5
75
100
AcDbEntity
  8
0
370
               0
390
0
  6
Continuous
 62
              30
100
AcDbLine
 10
887.89422269495037
 20
-517.6481515330388
 30
0.0
 11
865.89438672693279
 21
-517.6481515330388
 31
0.0
  0
LINE
  5
76
100
AcDbEntity
  8
0
370
               0
390
0
  6
Continuous
 62
              30
100
AcDbLine
 10
949.6353363576701
 20
-584.91549866023797
 30
0.0
 11
949.6353363576701
 21
-575.91549904766816
 31
0.0
  0
LINE
  5
77
100
AcDbEntity
  8
0
370
               0
390
0
  6
Continuous
 62
              30
100
AcDbLine
 10
949.6353363576701
 20
-566.91549943509835
 30
0.0
 11
949.6353363576701
 21
-575.91549904766816
 31
0.0
  0
LINE
  5
78
100
AcDbEntity
  8
0
370
               0
390
0
  6
Continuous
 62
              30
100
AcDbLine
 10
935.89431996973065
 20
-456.9155037564351
 30
0.0
 11
887.89422269495037
 21
-456.9155037564351
 31
0.0
  0
LINE
  5
79
100
AcDbEntity
  8
0
370
               0
390
0
  6
Continuous
 62
              30
100
AcDbLine
 10
865.89438672693279
 20
-484.64815171185273
 30
0.0
 11
887.89422269495037
 21
-484.64815171185273
 31
0.0
  0
CIRCLE
  5
7A
100
AcDbEntity
  8
0
370
               0
390
0
  6
Continuous
 62
              30
100
AcDbCircle
 10
876.89429934790599
 20
-501.14815344221734
 30
0.0
 40
12.75
  0
LINE
  5
7B
100
AcDbEntity
  8
0
370
               0
390
0
  6
Continuous
 62
              30
100
AcDbLine
 10
862.89436574609783
 20
-514.64815290394563
 30
0.0
 11
862.89436574609783
 21
-487.6481503409459
 31
0.0
  0
ARC
  5
7C
100
AcDbEntity
  8
0
370
               0
390
0
  6
Continuous
 62
              30
100
AcDbCircle
 10
865.89429934792054
 20
-487.6481534422137
 30
0.0
 40
3.0
100
AcDbArc
 50
90.0
 51
180.0
  0
LINE
  5
7D
100
AcDbEntity
  8
0
370
               0
390
0
  6
Continuous
 62
              30
100
AcDbLine
 10
890.89424367578533
 20
-487.6481503409459
 30
0.0
 11
890.89424367578533
 21
-514.64815290394563
 31
0.0
  0
ARC
  5
7E
100
AcDbEntity
  8
0
370
               0
390
0
  6
Continuous
 62
              30
100
AcDbCircle
 10
887.89429934789143
 20
-487.6481534422137
 30
0.0
 40
3.0
100
AcDbArc
 50
0.0
 51
90.0
  0
ARC
  5
7F
100
AcDbEntity
  8
0
370
               0
390
0
  6
Continuous
 62
              30
100
AcDbCircle
 10
887.89429934803695
 20
-450.41549886885059
 30
0.0
 40
6.5
100
AcDbArc
 50
180.0
 51
270.0
  0
LINE
  5
80
100
AcDbEntity
  8
0
370
               0
390
0
  6
Continuous
 62
              30
100
AcDbLine
 10
932.89429898889568
 20
-514.64815290394563
 30
0.0
 11
932.89429898889568
 21
-487.6481503409459
 31
0.0
  0
ARC
  5
81
100
AcDbEntity
  8
0
370
               0
390
0
  6
Continuous
 62
              30
100
AcDbCircle
 10
935.89429934792054
 20
-487.6481534422137
 30
0.0
 40
3.0
100
AcDbArc
 50
90.0
 51
180.0
  0
ARC
  5
82
100
AcDbEntity
  8
0
370
               0
390
0
  6
Continuous
 62
              30
100
AcDbCircle
 10
935.89429934806606
 20
-450.41549886885059
 30
0.0
 40
6.500000000001819
100
AcDbArc
 50
270.0
 51
0.0
  0
LINE
  5
83
100
AcDbEntity
  8
0
370
               0
390
0
  6
Continuous
 62
              30
100
AcDbLine
 10
1082.8943943563272
 20
-584.91549866023797
 30
0.0
 11
996.05877156885174
 21
-584.91549866023797
 31
0.0
  0
LINE
  5
84
100
AcDbEntity
  8
0
370
               0
390
0
  6
Continuous
 62
              30
100
AcDbLine
 10
1021.8852257314494
 20
-566.91549943509835
 30
0.0
 11
1082.8943943563272
 21
-566.91549943509835
 31
0.0
  0
LINE
  5
85
100
AcDbEntity
  8
0
370
               0
390
0
  6
Continuous
 62
              30
100
AcDbLine
 10
1021.8852257314494
 20
-575.91549904766816
 30
0.0
 11
1082.8943943563272
 21
-575.91549904766816
 31
0.0
  0
ARC
  5
86
100
AcDbEntity
  8
0
370
               0
390
0
  6
Continuous
 62
              30
100
AcDbCircle
 10
957.89429934789143
 20
-514.64815344221188
 30
0.0
 40
3.0
100
AcDbArc
 50
270.0
 51
0.0
  0
LINE
  5
87
100
AcDbEntity
  8
0
370
               0
390
0
  6
Continuous
 62
              30
100
AcDbLine
 10
1009.7001289907267
 20
-566.91549943509835
 30
0.0
 11
1021.8852257314494
 21
-566.91549943509835
 31
0.0
  0
LINE
  5
88
100
AcDbEntity
  8
0
370
               0
390
0
  6
Continuous
 62
              30
100
AcDbLine
 10
996.05877156885174
 20
-584.91549866023797
 30
0.0
 11
996.05877156885174
 21
-575.91549904766816
 31
0.0
  0
LINE
  5
89
100
AcDbEntity
  8
0
370
               0
390
0
  6
Continuous
 62
              30
100
AcDbLine
 10
1021.8852257314494
 20
-566.91549943509835
 30
0.0
 11
1021.8852257314494
 21
-575.91549904766816
 31
0.0
  0
LINE
  5
8A
100
AcDbEntity
  8
0
370
               0
390
0
  6
Continuous
 62
              30
100
AcDbLine
 10
960.89441533716229
 20
-487.6481503409459
 30
0.0
 11
960.89441533716229
 21
-514.64815290394563
 31
0.0
  0
ARC
  5
8B
100
AcDbEntity
  8
0
370
               0
390
0
  6
Continuous
 62
              30
100
AcDbCircle
 10
957.89429934789143
 20
-487.6481534422137
 30
0.0
 40
3.0
100
AcDbArc
 50
0.0
 51
90.0
  0
LINE
  5
8C
100
AcDbEntity
  8
0
370
               0
390
0
  6
Continuous
 62
              30
100
AcDbLine
 10
1082.8943943563272
 20
-575.91549904766816
 30
0.0
 11
1082.8943943563272
 21
-584.91549866023797
 31
0.0
  0
LINE
  5
8D
100
AcDbEntity
  8
0
370
               0
390
0
  6
Continuous
 62
              30
100
AcDbLine
 10
1082.8943943563272
 20
-575.91549904766816
 30
0.0
 11
1082.8943943563272
 21
-566.91549943509835
 31
0.0
  0
POLYLINE
  5
8E
100
AcDbEntity
  8
0
370
               0
390
0
  6
Continuous
 62
              30
100
AcDb2dPolyline
 66
               1
 10
0.0
 20
0.0
 30
0.0
 75
               5
  0
VERTEX
  5
8F
100
AcDbEntity
  8
0
370
               0
390
0
  6
Continuous
 62
              30
100
AcDbVertex
100
AcDb2dVertex
 10
760.74988599451092
 20
-272.91550339881087
 30
0.0
  0
VERTEX
  5
90
100
AcDbEntity
  8
0
370
               0
390
0
  6
Continuous
 62
              30
100
AcDbVertex
100
AcDb2dVertex
 10
760.71793790491131
 20
-274.01947082701827
 30
0.0
  0
VERTEX
  5
91
100
AcDbEntity
  8
0
370
               0
390
0
  6
Continuous
 62
              30
100
AcDbVertex
100
AcDb2dVertex
 10
760.6254314962199
 20
-275.00381173316146
 30
0.0
  0
VERTEX
  5
92
100
AcDbEntity
  8
0
370
               0
390
0
  6
Continuous
 62
              30
100
AcDbVertex
100
AcDb2dVertex
 10
760.48238034875897
 20
-275.76186360541487
 30
0.0
  0
VERTEX
  5
93
100
AcDbEntity
  8
0
370
               0
390
0
  6
Continuous
 62
              30
100
AcDbVertex
100
AcDb2dVertex
 10
760.3045200887492
 20
-276.21146144095565
 30
0.0
  0
VERTEX
  5
94
100
AcDbEntity
  8
0
370
               0
390
0
  6
Continuous
 62
              30
100
AcDbVertex
100
AcDb2dVertex
 10
760.11068578393963
 20
-276.30387844267989
 30
0.0
  0
VERTEX
  5
95
100
AcDbEntity
  8
0
370
               0
390
0
  6
Continuous
 62
              30
100
AcDbVertex
100
AcDb2dVertex
 10
759.9223351064494
 20
-276.02913083258773
 30
0.0
  0
VERTEX
  5
96
100
AcDbEntity
  8
0
370
               0
390
0
  6
Continuous
 62
              30
100
AcDbVertex
100
AcDb2dVertex
 10
759.75949521692303
 20
-275.41696132842208
 30
0.0
  0
VERTEX
  5
97
100
AcDbEntity
  8
0
370
               0
390
0
  6
Continuous
 62
              30
100
AcDbVertex
100
AcDb2dVertex
 10
759.64028592737225
 20
-274.53370989981795
 30
0.0
  0
VERTEX
  5
98
100
AcDbEntity
  8
0
370
               0
390
0
  6
Continuous
 62
              30
100
AcDbVertex
100
AcDb2dVertex
 10
759.57710500391033
 20
-273.47513140860701
 30
0.0
  0
VERTEX
  5
99
100
AcDbEntity
  8
0
370
               0
390
0
  6
Continuous
 62
              30
100
AcDbVertex
100
AcDb2dVertex
 10
759.57710500391033
 20
-272.35587538901473
 30
0.0
  0
VERTEX
  5
9A
100
AcDbEntity
  8
0
370
               0
390
0
  6
Continuous
 62
              30
100
AcDbVertex
100
AcDb2dVertex
 10
759.64028592737225
 20
-271.2972670954814
 30
0.0
  0
VERTEX
  5
9B
100
AcDbEntity
  8
0
370
               0
390
0
  6
Continuous
 62
              30
100
AcDbVertex
100
AcDb2dVertex
 10
759.75949521692303
 20
-270.41404546919966
 30
0.0
  0
VERTEX
  5
9C
100
AcDbEntity
  8
0
370
               0
390
0
  6
Continuous
 62
              30
100
AcDbVertex
100
AcDb2dVertex
 10
759.9223351064494
 20
-269.80187596503401
 30
0.0
  0
VERTEX
  5
9D
100
AcDbEntity
  8
0
370
               0
390
0
  6
Continuous
 62
              30
100
AcDbVertex
100
AcDb2dVertex
 10
760.11068578393963
 20
-269.52709855261946
 30
0.0
  0
VERTEX
  5
9E
100
AcDbEntity
  8
0
370
               0
390
0
  6
Continuous
 62
              30
100
AcDbVertex
100
AcDb2dVertex
 10
760.3045200887492
 20
-269.61954535666609
 30
0.0
  0
VERTEX
  5
9F
100
AcDbEntity
  8
0
370
               0
390
0
  6
Continuous
 62
              30
100
AcDbVertex
100
AcDb2dVertex
 10
760.48238034875897
 20
-270.06914319220687
 30
0.0
  0
VERTEX
  5
A0
100
AcDbEntity
  8
0
370
               0
390
0
  6
Continuous
 62
              30
100
AcDbVertex
100
AcDb2dVertex
 10
760.6254314962199
 20
-270.8271652621379
 30
0.0
  0
VERTEX
  5
A1
100
AcDbEntity
  8
0
370
               0
390
0
  6
Continuous
 62
              30
100
AcDbVertex
100
AcDb2dVertex
 10
760.71793790491131
 20
-271.81150616828108
 30
0.0
  0
VERTEX
  5
A2
100
AcDbEntity
  8
0
370
               0
390
0
  6
Continuous
 62
              30
100
AcDbVertex
100
AcDb2dVertex
 10
760.74988599451092
 20
-272.91550339881087
 30
0.0
  0
SEQEND
  5
A3
100
AcDbEntity
  8
0
370
               0
390
0
  6
Continuous
 62
              30
  0
LINE
  5
A5
100
AcDbEntity
  8
0
370
               0
390
0
  6
Continuous
 62
              30
100
AcDbLine
 10
887.89422269495037
 20
-375.91550351801652
 30
0.0
 11
935.89431996973065
 21
-375.91550351801652
 31
0.0
  0
ARC
  5
A6
100
AcDbEntity
  8
0
370
               0
390
0
  6
Continuous
 62
              30
100
AcDbCircle
 10
887.89429934803695
 20
-382.41549886885787
 30
0.0
 40
6.500000000001819
100
AcDbArc
 50
90.0
 51
180.0
  0
ARC
  5
A7
100
AcDbEntity
  8
0
370
               0
390
0
  6
Continuous
 62
              30
100
AcDbCircle
 10
935.89429934806606
 20
-382.41549886884877
 30
0.0
 40
6.5
100
AcDbArc
 50
0.0
 51
90.0
  0
CIRCLE
  5
A8
100
AcDbEntity
  8
0
370
               0
390
0
  6
Continuous
 62
              30
100
AcDbCircle
 10
911.8942993480515
 20
-272.91549886885059
 30
0.0
 40
3.5
  0
POLYLINE
  5
A9
100
AcDbEntity
  8
0
370
               0
390
0
  6
Continuous
 62
              30
100
AcDb2dPolyline
 66
               1
 10
0.0
 20
0.0
 30
0.0
 75
               5
  0
VERTEX
  5
AA
100
AcDbEntity
  8
0
370
               0
390
0
  6
Continuous
 62
              30
100
AcDbVertex
100
AcDb2dVertex
 10
759.56899877222088
 20
-196.91549839202071
 30
0.0
  0
VERTEX
  5
AB
100
AcDbEntity
  8
0
370
               0
390
0
  6
Continuous
 62
              30
100
AcDbVertex
100
AcDb2dVertex
 10
759.60094686182049
 20
-195.81153096381331
 30
0.0
  0
VERTEX
  5
AC
100
AcDbEntity
  8
0
370
               0
390
0
  6
Continuous
 62
              30
100
AcDbVertex
100
AcDb2dVertex
 10
759.6934532705119
 20
-194.82719005767012
 30
0.0
  0
VERTEX
  5
AD
100
AcDbEntity
  8
0
370
               0
390
0
  6
Continuous
 62
              30
100
AcDbVertex
100
AcDb2dVertex
 10
759.83650441797283
 20
-194.0691381854167
 30
0.0
  0
VERTEX
  5
AE
100
AcDbEntity
  8
0
370
               0
390
0
  6
Continuous
 62
              30
100
AcDbVertex
100
AcDb2dVertex
 10
760.0146030965617
 20
-193.61954034987593
 30
0.0
  0
VERTEX
  5
AF
100
AcDbEntity
  8
0
370
               0
390
0
  6
Continuous
 62
              30
100
AcDbVertex
100
AcDb2dVertex
 10
760.20819898279217
 20
-193.52712334815169
 30
0.0
  0
VERTEX
  5
B0
100
AcDbEntity
  8
0
370
               0
390
0
  6
Continuous
 62
              30
100
AcDbVertex
100
AcDb2dVertex
 10
760.3965496602824
 20
-193.80187095824385
 30
0.0
  0
VERTEX
  5
B1
100
AcDbEntity
  8
0
370
               0
390
0
  6
Continuous
 62
              30
100
AcDbVertex
100
AcDb2dVertex
 10
760.55938954980877
 20
-194.4140404624095
 30
0.0
  0
VERTEX
  5
B2
100
AcDbEntity
  8
0
370
               0
390
0
  6
Continuous
 62
              30
100
AcDbVertex
100
AcDb2dVertex
 10
760.67883725793865
 20
-195.29729189101363
 30
0.0
  0
VERTEX
  5
B3
100
AcDbEntity
  8
0
370
               0
390
0
  6
Continuous
 62
              30
100
AcDbVertex
100
AcDb2dVertex
 10
760.74177976282147
 20
-196.35587038222457
 30
0.0
  0
VERTEX
  5
B4
100
AcDbEntity
  8
0
370
               0
390
0
  6
Continuous
 62
              30
100
AcDbVertex
100
AcDb2dVertex
 10
760.74177976282147
 20
-197.47512640181685
 30
0.0
  0
VERTEX
  5
B5
100
AcDbEntity
  8
0
370
               0
390
0
  6
Continuous
 62
              30
100
AcDbVertex
100
AcDb2dVertex
 10
760.67883725793865
 20
-198.53373469535018
 30
0.0
  0
VERTEX
  5
B6
100
AcDbEntity
  8
0
370
               0
390
0
  6
Continuous
 62
              30
100
AcDbVertex
100
AcDb2dVertex
 10
760.55938954980877
 20
-199.41695632163191
 30
0.0
  0
VERTEX
  5
B7
100
AcDbEntity
  8
0
370
               0
390
0
  6
Continuous
 62
              30
100
AcDbVertex
100
AcDb2dVertex
 10
760.3965496602824
 20
-200.02912582579756
 30
0.0
  0
VERTEX
  5
B8
100
AcDbEntity
  8
0
370
               0
390
0
  6
Continuous
 62
              30
100
AcDbVertex
100
AcDb2dVertex
 10
760.20819898279217
 20
-200.30387343588973
 30
0.0
  0
VERTEX
  5
B9
100
AcDbEntity
  8
0
370
               0
390
0
  6
Continuous
 62
              30
100
AcDbVertex
100
AcDb2dVertex
 10
760.0146030965617
 20
-200.21145643416548
 30
0.0
  0
VERTEX
  5
BA
100
AcDbEntity
  8
0
370
               0
390
0
  6
Continuous
 62
              30
100
AcDbVertex
100
AcDb2dVertex
 10
759.83650441797283
 20
-199.76185859862471
 30
0.0
  0
VERTEX
  5
BB
100
AcDbEntity
  8
0
370
               0
390
0
  6
Continuous
 62
              30
100
AcDbVertex
100
AcDb2dVertex
 10
759.6934532705119
 20
-199.00383652869368
 30
0.0
  0
VERTEX
  5
BC
100
AcDbEntity
  8
0
370
               0
390
0
  6
Continuous
 62
              30
100
AcDbVertex
100
AcDb2dVertex
 10
759.60094686182049
 20
-198.01946582022811
 30
0.0
  0
VERTEX
  5
BD
100
AcDbEntity
  8
0
370
               0
390
0
  6
Continuous
 62
              30
100
AcDbVertex
100
AcDb2dVertex
 10
759.56899877222088
 20
-196.91549839202071
 30
0.0
  0
SEQEND
  5
BE
100
AcDbEntity
  8
0
370
               0
390
0
  6
Continuous
 62
              30
  0
CIRCLE
  5
C0
100
AcDbEntity
  8
0
370
               0
390
0
  6
Continuous
 62
              30
100
AcDbCircle
 10
911.8942993480515
 20
-196.91549886885605
 30
0.0
 40
3.5
  0
POLYLINE
  5
C1
100
AcDbEntity
  8
0
370
               0
390
0
  6
Continuous
 62
              30
100
AcDb2dPolyline
 66
               1
 10
0.0
 20
0.0
 30
0.0
 75
               5
  0
VERTEX
  5
C2
100
AcDbEntity
  8
0
370
               0
390
0
  6
Continuous
 62
              30
100
AcDbVertex
100
AcDb2dVertex
 10
1063.03865667017
 20
-272.91550339881087
 30
0.0
  0
VERTEX
  5
C3
100
AcDbEntity
  8
0
370
               0
390
0
  6
Continuous
 62
              30
100
AcDbVertex
100
AcDb2dVertex
 10
1063.0706047597696
 20
-271.81150616828108
 30
0.0
  0
VERTEX
  5
C4
100
AcDbEntity
  8
0
370
               0
390
0
  6
Continuous
 62
              30
100
AcDbVertex
100
AcDb2dVertex
 10
1063.163111168461
 20
-270.8271652621379
 30
0.0
  0
VERTEX
  5
C5
100
AcDbEntity
  8
0
370
               0
390
0
  6
Continuous
 62
              30
100
AcDbVertex
100
AcDb2dVertex
 10
1063.3061623159219
 20
-270.06914319220687
 30
0.0
  0
VERTEX
  5
C6
100
AcDbEntity
  8
0
370
               0
390
0
  6
Continuous
 62
              30
100
AcDbVertex
100
AcDb2dVertex
 10
1063.4842609945108
 20
-269.61954535666609
 30
0.0
  0
VERTEX
  5
C7
100
AcDbEntity
  8
0
370
               0
390
0
  6
Continuous
 62
              30
100
AcDbVertex
100
AcDb2dVertex
 10
1063.6778568807413
 20
-269.52709855261946
 30
0.0
  0
VERTEX
  5
C8
100
AcDbEntity
  8
0
370
               0
390
0
  6
Continuous
 62
              30
100
AcDbVertex
100
AcDb2dVertex
 10
1063.8662075582315
 20
-269.80187596503401
 30
0.0
  0
VERTEX
  5
C9
100
AcDbEntity
  8
0
370
               0
390
0
  6
Continuous
 62
              30
100
AcDbVertex
100
AcDb2dVertex
 10
1064.0290474477579
 20
-270.41404546919966
 30
0.0
  0
VERTEX
  5
CA
100
AcDbEntity
  8
0
370
               0
390
0
  6
Continuous
 62
              30
100
AcDbVertex
100
AcDb2dVertex
 10
1064.1482567373087
 20
-271.2972670954814
 30
0.0
  0
VERTEX
  5
CB
100
AcDbEntity
  8
0
370
               0
390
0
  6
Continuous
 62
              30
100
AcDbVertex
100
AcDb2dVertex
 10
1064.2114376607706
 20
-272.35587538901473
 30
0.0
  0
VERTEX
  5
CC
100
AcDbEntity
  8
0
370
               0
390
0
  6
Continuous
 62
              30
100
AcDbVertex
100
AcDb2dVertex
 10
1064.2114376607706
 20
-273.47513140860701
 30
0.0
  0
VERTEX
  5
CD
100
AcDbEntity
  8
0
370
               0
390
0
  6
Continuous
 62
              30
100
AcDbVertex
100
AcDb2dVertex
 10
1064.1482567373087
 20
-274.53370989981795
 30
0.0
  0
VERTEX
  5
CE
100
AcDbEntity
  8
0
370
               0
390
0
  6
Continuous
 62
              30
100
AcDbVertex
100
AcDb2dVertex
 10
1064.0290474477579
 20
-275.41696132842208
 30
0.0
  0
VERTEX
  5
CF
100
AcDbEntity
  8
0
370
               0
390
0
  6
Continuous
 62
              30
100
AcDbVertex
100
AcDb2dVertex
 10
1063.8662075582315
 20
-276.02913083258773
 30
0.0
  0
VERTEX
  5
D0
100
AcDbEntity
  8
0
370
               0
390
0
  6
Continuous
 62
              30
100
AcDbVertex
100
AcDb2dVertex
 10
1063.6778568807413
 20
-276.30387844267989
 30
0.0
  0
VERTEX
  5
D1
100
AcDbEntity
  8
0
370
               0
390
0
  6
Continuous
 62
              30
100
AcDbVertex
100
AcDb2dVertex
 10
1063.4842609945108
 20
-276.21146144095565
 30
0.0
  0
VERTEX
  5
D2
100
AcDbEntity
  8
0
370
               0
390
0
  6
Continuous
 62
              30
100
AcDbVertex
100
AcDb2dVertex
 10
1063.3061623159219
 20
-275.76186360541487
 30
0.0
  0
VERTEX
  5
D3
100
AcDbEntity
  8
0
370
               0
390
0
  6
Continuous
 62
              30
100
AcDbVertex
100
AcDb2dVertex
 10
1063.163111168461
 20
-275.00381173316146
 30
0.0
  0
VERTEX
  5
D4
100
AcDbEntity
  8
0
370
               0
390
0
  6
Continuous
 62
              30
100
AcDbVertex
100
AcDb2dVertex
 10
1063.0706047597696
 20
-274.01947082701827
 30
0.0
  0
VERTEX
  5
D5
100
AcDbEntity
  8
0
370
               0
390
0
  6
Continuous
 62
              30
100
AcDbVertex
100
AcDb2dVertex
 10
1063.03865667017
 20
-272.91550339881087
 30
0.0
  0
SEQEND
  5
D6
100
AcDbEntity
  8
0
370
               0
390
0
  6
Continuous
 62
              30
  0
POLYLINE
  5
D8
100
AcDbEntity
  8
0
370
               0
390
0
  6
Continuous
 62
              30
100
AcDb2dPolyline
 66
               1
 10
0.0
 20
0.0
 30
0.0
 75
               5
  0
VERTEX
  5
D9
100
AcDbEntity
  8
0
370
               0
390
0
  6
Continuous
 62
              30
100
AcDbVertex
100
AcDb2dVertex
 10
1064.21954389246
 20
-196.91549839202071
 30
0.0
  0
VERTEX
  5
DA
100
AcDbEntity
  8
0
370
               0
390
0
  6
Continuous
 62
              30
100
AcDbVertex
100
AcDb2dVertex
 10
1064.1875958028604
 20
-198.01946582022811
 30
0.0
  0
VERTEX
  5
DB
100
AcDbEntity
  8
0
370
               0
390
0
  6
Continuous
 62
              30
100
AcDbVertex
100
AcDb2dVertex
 10
1064.095089394169
 20
-199.00383652869368
 30
0.0
  0
VERTEX
  5
DC
100
AcDbEntity
  8
0
370
               0
390
0
  6
Continuous
 62
              30
100
AcDbVertex
100
AcDb2dVertex
 10
1063.9520382467081
 20
-199.76185859862471
 30
0.0
  0
VERTEX
  5
DD
100
AcDbEntity
  8
0
370
               0
390
0
  6
Continuous
 62
              30
100
AcDbVertex
100
AcDb2dVertex
 10
1063.7739395681192
 20
-200.21145643416548
 30
0.0
  0
VERTEX
  5
DE
100
AcDbEntity
  8
0
370
               0
390
0
  6
Continuous
 62
              30
100
AcDbVertex
100
AcDb2dVertex
 10
1063.5803436818887
 20
-200.30387343588973
 30
0.0
  0
VERTEX
  5
DF
100
AcDbEntity
  8
0
370
               0
390
0
  6
Continuous
 62
              30
100
AcDbVertex
100
AcDb2dVertex
 10
1063.3919930043985
 20
-200.02912582579756
 30
0.0
  0
VERTEX
  5
E0
100
AcDbEntity
  8
0
370
               0
390
0
  6
Continuous
 62
              30
100
AcDbVertex
100
AcDb2dVertex
 10
1063.2291531148721
 20
-199.41695632163191
 30
0.0
  0
VERTEX
  5
E1
100
AcDbEntity
  8
0
370
               0
390
0
  6
Continuous
 62
              30
100
AcDbVertex
100
AcDb2dVertex
 10
1063.1099438253214
 20
-198.53373469535018
 30
0.0
  0
VERTEX
  5
E2
100
AcDbEntity
  8
0
370
               0
390
0
  6
Continuous
 62
              30
100
AcDbVertex
100
AcDb2dVertex
 10
1063.0467629018594
 20
-197.47512640181685
 30
0.0
  0
VERTEX
  5
E3
100
AcDbEntity
  8
0
370
               0
390
0
  6
Continuous
 62
              30
100
AcDbVertex
100
AcDb2dVertex
 10
1063.0467629018594
 20
-196.35587038222457
 30
0.0
  0
VERTEX
  5
E4
100
AcDbEntity
  8
0
370
               0
390
0
  6
Continuous
 62
              30
100
AcDbVertex
100
AcDb2dVertex
 10
1063.1099438253214
 20
-195.29729189101363
 30
0.0
  0
VERTEX
  5
E5
100
AcDbEntity
  8
0
370
               0
390
0
  6
Continuous
 62
              30
100
AcDbVertex
100
AcDb2dVertex
 10
1063.2291531148721
 20
-194.4140404624095
 30
0.0
  0
VERTEX
  5
E6
100
AcDbEntity
  8
0
370
               0
390
0
  6
Continuous
 62
              30
100
AcDbVertex
100
AcDb2dVertex
 10
1063.3919930043985
 20
-193.80187095824385
 30
0.0
  0
VERTEX
  5
E7
100
AcDbEntity
  8
0
370
               0
390
0
  6
Continuous
 62
              30
100
AcDbVertex
100
AcDb2dVertex
 10
1063.5803436818887
 20
-193.52712334815169
 30
0.0
  0
VERTEX
  5
E8
100
AcDbEntity
  8
0
370
               0
390
0
  6
Continuous
 62
              30
100
AcDbVertex
100
AcDb2dVertex
 10
1063.7739395681192
 20
-193.61954034987593
 30
0.0
  0
VERTEX
  5
E9
100
AcDbEntity
  8
0
370
               0
390
0
  6
Continuous
 62
              30
100
AcDbVertex
100
AcDb2dVertex
 10
1063.9520382467081
 20
-194.0691381854167
 30
0.0
  0
VERTEX
  5
EA
100
AcDbEntity
  8
0
370
               0
390
0
  6
Continuous
 62
              30
100
AcDbVertex
100
AcDb2dVertex
 10
1064.095089394169
 20
-194.82719005767012
 30
0.0
  0
VERTEX
  5
EB
100
AcDbEntity
  8
0
370
               0
390
0
  6
Continuous
 62
              30
100
AcDbVertex
100
AcDb2dVertex
 10
1064.1875958028604
 20
-195.81153096381331
 30
0.0
  0
VERTEX
  5
EC
100
AcDbEntity
  8
0
370
               0
390
0
  6
Continuous
 62
              30
100
AcDbVertex
100
AcDb2dVertex
 10
1064.21954389246
 20
-196.91549839202071
 30
0.0
  0
SEQEND
  5
ED
100
AcDbEntity
  8
0
370
               0
390
0
  6
Continuous
 62
              30
  0
LINE
  5
EF
100
AcDbEntity
  8
0
370
               0
390
0
  6
Continuous
 62
              30
100
AcDbLine
 10
949.6353363576701
 20
115.08447824296218
 30
0.0
 11
996.05877156885174
 21
115.08447824296218
 31
0.0
  0
LINE
  5
F0
100
AcDbEntity
  8
0
370
               0
390
0
  6
Continuous
 62
              30
100
AcDbLine
 10
1009.7001289907267
 20
97.084471567241962
 30
0.0
 11
949.6353363576701
 21
97.084471567241962
 31
0.0
  0
LINE
  5
F1
100
AcDbEntity
  8
0
370
               0
390
0
  6
Continuous
 62
              30
100
AcDbLine
 10
1021.8852257314494
 20
97.084471567241962
 30
0.0
 11
949.6353363576701
 21
97.084471567241962
 31
0.0
  0
LINE
  5
F2
100
AcDbEntity
  8
0
370
               0
390
0
  6
Continuous
 62
              30
100
AcDbLine
 10
1021.8852257314494
 20
106.08447490510207
 30
0.0
 11
949.6353363576701
 21
106.08447490510207
 31
0.0
  0
LINE
  5
F3
100
AcDbEntity
  8
0
370
               0
390
0
  6
Continuous
 62
              30
100
AcDbLine
 10
874.15344472559002
 20
97.084471567241962
 30
0.0
 11
801.90331693323162
 21
97.084471567241962
 31
0.0
  0
LINE
  5
F4
100
AcDbEntity
  8
0
370
               0
390
0
  6
Continuous
 62
              30
100
AcDbLine
 10
874.15344472559002
 20
106.08447490510207
 30
0.0
 11
801.90331693323162
 21
106.08447490510207
 31
0.0
  0
LINE
  5
F5
100
AcDbEntity
  8
0
370
               0
390
0
  6
Continuous
 62
              30
100
AcDbLine
 10
874.15344472559002
 20
97.084471567241962
 30
0.0
 11
814.08865209253338
 21
97.084471567241962
 31
0.0
  0
LINE
  5
F6
100
AcDbEntity
  8
0
370
               0
390
0
  6
Continuous
 62
              30
100
AcDbLine
 10
874.15344472559002
 20
115.08447824296218
 30
0.0
 11
827.72977109582928
 21
115.08447824296218
 31
0.0
  0
LINE
  5
F7
100
AcDbEntity
  8
0
370
               0
390
0
  6
Continuous
 62
              30
100
AcDbLine
 10
740.89438672693279
 20
115.08447824296218
 30
0.0
 11
827.72977109582928
 21
115.08447824296218
 31
0.0
  0
LINE
  5
F8
100
AcDbEntity
  8
0
370
               0
390
0
  6
Continuous
 62
              30
100
AcDbLine
 10
801.90331693323162
 20
106.08447490510207
 30
0.0
 11
740.89438672693279
 21
106.08447490510207
 31
0.0
  0
LINE
  5
F9
100
AcDbEntity
  8
0
370
               0
390
0
  6
Continuous
 62
              30
100
AcDbLine
 10
740.89438672693279
 20
97.084471567241962
 30
0.0
 11
801.90331693323162
 21
97.084471567241962
 31
0.0
  0
LINE
  5
FA
100
AcDbEntity
  8
0
370
               0
390
0
  6
Continuous
 62
              30
100
AcDbLine
 10
740.89438672693279
 20
106.08447490510207
 30
0.0
 11
740.89438672693279
 21
97.084471567241962
 31
0.0
  0
LINE
  5
FB
100
AcDbEntity
  8
0
370
               0
390
0
  6
Continuous
 62
              30
100
AcDbLine
 10
740.89438672693279
 20
106.08447490510207
 30
0.0
 11
740.89438672693279
 21
115.08447824296218
 31
0.0
  0
LINE
  5
FC
100
AcDbEntity
  8
0
370
               0
390
0
  6
Continuous
 62
              30
100
AcDbLine
 10
801.90331693323162
 20
97.084471567241962
 30
0.0
 11
801.90331693323162
 21
106.08447490510207
 31
0.0
  0
LINE
  5
FD
100
AcDbEntity
  8
0
370
               0
390
0
  6
Continuous
 62
              30
100
AcDbLine
 10
801.90331693323162
 20
97.084471567241962
 30
0.0
 11
814.08865209253338
 21
97.084471567241962
 31
0.0
  0
LINE
  5
FE
100
AcDbEntity
  8
0
370
               0
390
0
  6
Continuous
 62
              30
100
AcDbLine
 10
827.72977109582928
 20
115.08447824296218
 30
0.0
 11
827.72977109582928
 21
106.08447490510207
 31
0.0
  0
LINE
  5
FF
100
AcDbEntity
  8
0
370
               0
390
0
  6
Continuous
 62
              30
100
AcDbLine
 10
949.6353363576701
 20
115.08447824296218
 30
0.0
 11
874.15344472559002
 21
115.08447824296218
 31
0.0
  0
LINE
  5
100
100
AcDbEntity
  8
0
370
               0
390
0
  6
Continuous
 62
              30
100
AcDbLine
 10
949.6353363576701
 20
97.084471567241962
 30
0.0
 11
874.15344472559002
 21
97.084471567241962
 31
0.0
  0
LINE
  5
101
100
AcDbEntity
  8
0
370
               0
390
0
  6
Continuous
 62
              30
100
AcDbLine
 10
874.15344472559002
 20
97.084471567241962
 30
0.0
 11
874.15344472559002
 21
106.08447490510207
 31
0.0
  0
LINE
  5
102
100
AcDbEntity
  8
0
370
               0
390
0
  6
Continuous
 62
              30
100
AcDbLine
 10
874.15344472559002
 20
115.08447824296218
 30
0.0
 11
874.15344472559002
 21
106.08447490510207
 31
0.0
  0
LINE
  5
103
100
AcDbEntity
  8
0
370
               0
390
0
  6
Continuous
 62
              30
100
AcDbLine
 10
949.6353363576701
 20
106.08447490510207
 30
0.0
 11
949.6353363576701
 21
97.084471567241962
 31
0.0
  0
LINE
  5
104
100
AcDbEntity
  8
0
370
               0
390
0
  6
Continuous
 62
              30
100
AcDbLine
 10
949.6353363576701
 20
106.08447490510207
 30
0.0
 11
949.6353363576701
 21
115.08447824296218
 31
0.0
  0
LINE
  5
105
100
AcDbEntity
  8
0
370
               0
390
0
  6
Continuous
 62
              30
100
AcDbLine
 10
996.05877156885174
 20
115.08447824296218
 30
0.0
 11
1082.8943943563272
 21
115.08447824296218
 31
0.0
  0
LINE
  5
106
100
AcDbEntity
  8
0
370
               0
390
0
  6
Continuous
 62
              30
100
AcDbLine
 10
1082.8943943563272
 20
106.08447490510207
 30
0.0
 11
1021.8852257314494
 21
106.08447490510207
 31
0.0
  0
LINE
  5
107
100
AcDbEntity
  8
0
370
               0
390
0
  6
Continuous
 62
              30
100
AcDbLine
 10
1021.8852257314494
 20
97.084471567241962
 30
0.0
 11
1082.8943943563272
 21
97.084471567241962
 31
0.0
  0
LINE
  5
108
100
AcDbEntity
  8
0
370
               0
390
0
  6
Continuous
 62
              30
100
AcDbLine
 10
1021.8852257314494
 20
97.084471567241962
 30
0.0
 11
1009.7001289907267
 21
97.084471567241962
 31
0.0
  0
LINE
  5
109
100
AcDbEntity
  8
0
370
               0
390
0
  6
Continuous
 62
              30
100
AcDbLine
 10
996.05877156885174
 20
106.08447490510207
 30
0.0
 11
996.05877156885174
 21
115.08447824296218
 31
0.0
  0
LINE
  5
10A
100
AcDbEntity
  8
0
370
               0
390
0
  6
Continuous
 62
              30
100
AcDbLine
 10
1021.8852257314494
 20
97.084471567241962
 30
0.0
 11
1021.8852257314494
 21
106.08447490510207
 31
0.0
  0
LINE
  5
10B
100
AcDbEntity
  8
0
370
               0
390
0
  6
Continuous
 62
              30
100
AcDbLine
 10
1082.8943943563272
 20
97.084471567241962
 30
0.0
 11
1082.8943943563272
 21
106.08447490510207
 31
0.0
  0
LINE
  5
10C
100
AcDbEntity
  8
0
370
               0
390
0
  6
Continuous
 62
              30
100
AcDbLine
 10
1082.8943943563272
 20
115.08447824296218
 30
0.0
 11
1082.8943943563272
 21
106.08447490510207
 31
0.0
  0
ENDBLK
  5
10D
100
AcDbEntity
  8
0
390
0
100
AcDbBlockEnd
  0
BLOCK
  5
10E
100
AcDbEntity
  8
0
390
0
100
AcDbBlockBegin
  2
グループ-1
 70
               0
 10
0.0
 20
0.0
 30
0.0
  3
グループ-1
  1

  0
LINE
  5
10F
100
AcDbEntity
  8
0
370
               0
390
0
  6
Continuous
 62
              30
100
AcDbLine
 10
295.93604893669465
 20
115.08447824296218
 30
0.0
 11
569.09281105980256
 21
115.08447824296218
 31
0.0
  0
LINE
  5
110
100
AcDbEntity
  8
0
370
               0
390
0
  6
Continuous
 62
              30
100
AcDbLine
 10
569.09281105980256
 20
-584.91549866023797
 30
0.0
 11
295.93604893669465
 21
-584.91549866023797
 31
0.0
  0
LINE
  5
111
100
AcDbEntity
  8
0
370
               0
390
0
  6
Continuous
 62
              30
100
AcDbLine
 10
223.09285492882475
 20
-566.91549943509835
 30
0.0
 11
569.09281105980256
 21
-566.91549943509835
 31
0.0
  0
LINE
  5
112
100
AcDbEntity
  8
0
370
               0
390
0
  6
Continuous
 62
              30
100
AcDbLine
 10
223.09285492882475
 20
-575.91549904766816
 30
0.0
 11
569.09281105980256
 21
-575.91549904766816
 31
0.0
  0
LINE
  5
113
100
AcDbEntity
  8
0
370
               0
390
0
  6
Continuous
 62
              30
100
AcDbLine
 10
569.09281105980256
 20
106.08447490510207
 30
0.0
 11
223.09285492882475
 21
106.08447490510207
 31
0.0
  0
LINE
  5
114
100
AcDbEntity
  8
0
370
               0
390
0
  6
Continuous
 62
              30
100
AcDbLine
 10
223.09285492882475
 20
97.084471567241962
 30
0.0
 11
569.09281105980256
 21
97.084471567241962
 31
0.0
  0
LINE
  5
115
100
AcDbEntity
  8
0
370
               0
390
0
  6
Continuous
 62
              30
100
AcDbLine
 10
223.09285492882475
 20
-566.91549943509835
 30
0.0
 11
223.09285492882475
 21
97.084471567241962
 31
0.0
  0
LINE
  5
116
100
AcDbEntity
  8
0
370
               0
390
0
  6
Continuous
 62
              30
100
AcDbLine
 10
223.09285492882475
 20
-584.91549866023797
 30
0.0
 11
295.93604893669465
 21
-584.91549866023797
 31
0.0
  0
LINE
  5
117
100
AcDbEntity
  8
0
370
               0
390
0
  6
Continuous
 62
              30
100
AcDbLine
 10
205.09284825310453
 20
-566.91549943509835
 30
0.0
 11
223.09285492882475
 21
-566.91549943509835
 31
0.0
  0
LINE
  5
118
100
AcDbEntity
  8
0
370
               0
390
0
  6
Continuous
 62
              30
100
AcDbLine
 10
205.09284825310453
 20
-584.91549866023797
 30
0.0
 11
223.09285492882475
 21
-584.91549866023797
 31
0.0
  0
LINE
  5
119
100
AcDbEntity
  8
0
370
               0
390
0
  6
Continuous
 62
              30
100
AcDbLine
 10
205.09284825310453
 20
-566.91549943509835
 30
0.0
 11
205.09284825310453
 21
-584.91549866023797
 31
0.0
  0
LINE
  5
11A
100
AcDbEntity
  8
0
370
               0
390
0
  6
Continuous
 62
              30
100
AcDbLine
 10
223.09285492882475
 20
-584.91549866023797
 30
0.0
 11
223.09285492882475
 21
-575.91549904766816
 31
0.0
  0
LINE
  5
11B
100
AcDbEntity
  8
0
370
               0
390
0
  6
Continuous
 62
              30
100
AcDbLine
 10
223.09285492882475
 20
-566.91549943509835
 30
0.0
 11
223.09285492882475
 21
-575.91549904766816
 31
0.0
  0
LINE
  5
11C
100
AcDbEntity
  8
0
370
               0
390
0
  6
Continuous
 62
              30
100
AcDbLine
 10
295.93604893669465
 20
-584.91549866023797
 30
0.0
 11
295.93604893669465
 21
-575.91549904766816
 31
0.0
  0
LINE
  5
11D
100
AcDbEntity
  8
0
370
               0
390
0
  6
Continuous
 62
              30
100
AcDbLine
 10
223.09285492882475
 20
115.08447824296218
 30
0.0
 11
295.93604893669465
 21
115.08447824296218
 31
0.0
  0
LINE
  5
11E
100
AcDbEntity
  8
0
370
               0
390
0
  6
Continuous
 62
              30
100
AcDbLine
 10
223.09285492882475
 20
97.084471567241962
 30
0.0
 11
223.09285492882475
 21
106.08447490510207
 31
0.0
  0
LINE
  5
11F
100
AcDbEntity
  8
0
370
               0
390
0
  6
Continuous
 62
              30
100
AcDbLine
 10
205.09284825310453
 20
115.08447824296218
 30
0.0
 11
205.09284825310453
 21
97.084471567241962
 31
0.0
  0
LINE
  5
120
100
AcDbEntity
  8
0
370
               0
390
0
  6
Continuous
 62
              30
100
AcDbLine
 10
223.09285492882475
 20
97.084471567241962
 30
0.0
 11
205.09284825310453
 21
97.084471567241962
 31
0.0
  0
LINE
  5
121
100
AcDbEntity
  8
0
370
               0
390
0
  6
Continuous
 62
              30
100
AcDbLine
 10
223.09285492882475
 20
115.08447824296218
 30
0.0
 11
205.09284825310453
 21
115.08447824296218
 31
0.0
  0
LINE
  5
122
100
AcDbEntity
  8
0
370
               0
390
0
  6
Continuous
 62
              30
100
AcDbLine
 10
223.09285492882475
 20
106.08447490510207
 30
0.0
 11
223.09285492882475
 21
115.08447824296218
 31
0.0
  0
LINE
  5
123
100
AcDbEntity
  8
0
370
               0
390
0
  6
Continuous
 62
              30
100
AcDbLine
 10
295.93604893669465
 20
106.08447490510207
 30
0.0
 11
295.93604893669465
 21
115.08447824296218
 31
0.0
  0
LINE
  5
124
100
AcDbEntity
  8
0
370
               0
390
0
  6
Continuous
 62
              30
100
AcDbLine
 10
593.09285969719269
 20
97.084471567241962
 30
0.0
 11
593.09285969719269
 21
-566.91549943509835
 31
0.0
  0
LINE
  5
125
100
AcDbEntity
  8
0
370
               0
390
0
  6
Continuous
 62
              30
100
AcDbLine
 10
592.99630017265656
 20
97.084471567241962
 30
0.0
 11
592.99630017265656
 21
-566.91549943509835
 31
0.0
  0
LINE
  5
126
100
AcDbEntity
  8
0
370
               0
390
0
  6
Continuous
 62
              30
100
AcDbLine
 10
570.49638123497346
 20
-566.91549943509835
 30
0.0
 11
570.49638123497346
 21
97.084471567241962
 31
0.0
  0
LINE
  5
127
100
AcDbEntity
  8
0
370
               0
390
0
  6
Continuous
 62
              30
100
AcDbLine
 10
569.09281105980256
 20
-566.91549943509835
 30
0.0
 11
569.09281105980256
 21
97.084471567241962
 31
0.0
  0
LINE
  5
128
100
AcDbEntity
  8
0
370
               0
390
0
  6
Continuous
 62
              30
100
AcDbLine
 10
570.49638123497346
 20
-566.91549943509835
 30
0.0
 11
592.99630017265656
 21
-566.91549943509835
 31
0.0
  0
LINE
  5
129
100
AcDbEntity
  8
0
370
               0
390
0
  6
Continuous
 62
              30
100
AcDbLine
 10
570.49638123497346
 20
-570.91550009074945
 30
0.0
 11
592.99630017265656
 21
-570.91550009074945
 31
0.0
  0
LINE
  5
12A
100
AcDbEntity
  8
0
370
               0
390
0
  6
Continuous
 62
              30
100
AcDbLine
 10
569.09281105980256
 20
-584.91549866023797
 30
0.0
 11
592.99630017265656
 21
-584.91549866023797
 31
0.0
  0
LINE
  5
12B
100
AcDbEntity
  8
0
370
               0
390
0
  6
Continuous
 62
              30
100
AcDbLine
 10
570.49638123497346
 20
-566.91549943509835
 30
0.0
 11
569.09281105980256
 21
-566.91549943509835
 31
0.0
  0
LINE
  5
12C
100
AcDbEntity
  8
0
370
               0
390
0
  6
Continuous
 62
              30
100
AcDbLine
 10
570.49638123497346
 20
-570.91550009074945
 30
0.0
 11
570.49638123497346
 21
-566.91549943509835
 31
0.0
  0
LINE
  5
12D
100
AcDbEntity
  8
0
370
               0
390
0
  6
Continuous
 62
              30
100
AcDbLine
 10
569.09281105980256
 20
-575.91549904766816
 30
0.0
 11
569.09281105980256
 21
-566.91549943509835
 31
0.0
  0
LINE
  5
12E
100
AcDbEntity
  8
0
370
               0
390
0
  6
Continuous
 62
              30
100
AcDbLine
 10
569.09281105980256
 20
-575.91549904766816
 30
0.0
 11
569.09281105980256
 21
-584.91549866023797
 31
0.0
  0
LINE
  5
12F
100
AcDbEntity
  8
0
370
               0
390
0
  6
Continuous
 62
              30
100
AcDbLine
 10
611.63264603599885
 20
-566.91549943509835
 30
0.0
 11
626.54620499595978
 21
-566.91549943509835
 31
0.0
  0
LINE
  5
130
100
AcDbEntity
  8
0
370
               0
390
0
  6
Continuous
 62
              30
100
AcDbLine
 10
592.99630017265656
 20
-570.91550009074945
 30
0.0
 11
615.55606217369416
 21
-570.91550009074945
 31
0.0
  0
LINE
  5
131
100
AcDbEntity
  8
0
370
               0
390
0
  6
Continuous
 62
              30
100
AcDbLine
 10
615.55606217369416
 20
-584.91549866023797
 30
0.0
 11
592.99630017265656
 21
-584.91549866023797
 31
0.0
  0
LINE
  5
132
100
AcDbEntity
  8
0
370
               0
390
0
  6
Continuous
 62
              30
100
AcDbLine
 10
611.63264603599885
 20
-570.91550009074945
 30
0.0
 11
611.63264603599885
 21
-566.91549943509835
 31
0.0
  0
LINE
  5
133
100
AcDbEntity
  8
0
370
               0
390
0
  6
Continuous
 62
              30
100
AcDbLine
 10
593.09285969719269
 20
-566.91549943509835
 30
0.0
 11
592.99630017265656
 21
-566.91549943509835
 31
0.0
  0
LINE
  5
134
100
AcDbEntity
  8
0
370
               0
390
0
  6
Continuous
 62
              30
100
AcDbLine
 10
592.99630017265656
 20
-570.91550009074945
 30
0.0
 11
592.99630017265656
 21
-566.91549943509835
 31
0.0
  0
LINE
  5
135
100
AcDbEntity
  8
0
370
               0
390
0
  6
Continuous
 62
              30
100
AcDbLine
 10
592.99630017265656
 20
-584.91549866023797
 30
0.0
 11
592.99630017265656
 21
-570.91550009074945
 31
0.0
  0
LINE
  5
136
100
AcDbEntity
  8
0
370
               0
390
0
  6
Continuous
 62
              30
100
AcDbLine
 10
592.99630017265656
 20
-566.91549943509835
 30
0.0
 11
611.63264603599885
 21
-566.91549943509835
 31
0.0
  0
LINE
  5
137
100
AcDbEntity
  8
0
370
               0
390
0
  6
Continuous
 62
              30
100
AcDbLine
 10
615.55606217369416
 20
-570.91550009074945
 30
0.0
 11
630.5461534975467
 21
-570.91550009074945
 31
0.0
  0
LINE
  5
138
100
AcDbEntity
  8
0
370
               0
390
0
  6
Continuous
 62
              30
100
AcDbLine
 10
630.5461534975467
 20
-584.91549866023797
 30
0.0
 11
615.55606217369416
 21
-584.91549866023797
 31
0.0
  0
LINE
  5
139
100
AcDbEntity
  8
0
370
               0
390
0
  6
Continuous
 62
              30
100
AcDbLine
 10
615.55606217369416
 20
-570.91550009074945
 30
0.0
 11
615.55606217369416
 21
-584.91549866023797
 31
0.0
  0
LINE
  5
13A
100
AcDbEntity
  8
0
370
               0
390
0
  6
Continuous
 62
              30
100
AcDbLine
 10
626.54620499595978
 20
-570.91550009074945
 30
0.0
 11
626.54620499595978
 21
-566.91549943509835
 31
0.0
  0
LINE
  5
13B
100
AcDbEntity
  8
0
370
               0
390
0
  6
Continuous
 62
              30
100
AcDbLine
 10
630.5461534975467
 20
-584.91549866023797
 30
0.0
 11
630.5461534975467
 21
-570.91550009074945
 31
0.0
  0
ARC
  5
13C
100
AcDbEntity
  8
0
370
               0
390
0
  6
Continuous
 62
              30
100
AcDbCircle
 10
461.9639458800367
 20
-272.89935939203951
 30
0.0
 40
3.3940394646260281
100
AcDbArc
 50
108.68871170638008
 51
180.27253275922618
  0
ARC
  5
13D
100
AcDbEntity
  8
0
370
               0
390
0
  6
Continuous
 62
              30
100
AcDbCircle
 10
461.96389123065376
 20
-272.93165676128319
 30
0.0
 40
3.3939848603909346
100
AcDbArc
 50
179.72730491527903
 51
251.31195039925672
  0
CIRCLE
  5
13E
100
AcDbEntity
  8
0
370
               0
390
0
  6
Continuous
 62
              30
100
AcDbCircle
 10
459.87088680073714
 20
-272.92611938359096
 30
0.0
 40
3.384737019543536
  0
ARC
  5
13F
100
AcDbEntity
  8
0
370
               0
390
0
  6
Continuous
 62
              30
100
AcDbCircle
 10
461.97520727294534
 20
-196.91549839201707
 30
0.0
 40
3.4129169079596138
100
AcDbArc
 50
108.78111585892681
 51
251.2188841410732
  0
CIRCLE
  5
140
100
AcDbEntity
  8
0
370
               0
390
0
  6
Continuous
 62
              30
100
AcDbCircle
 10
459.79826805391269
 20
-196.90451663744989
 30
0.0
 40
3.3846172410485451
  0
LINE
  5
141
100
AcDbEntity
  8
0
370
               0
390
0
  6
Continuous
 62
              30
100
AcDbLine
 10
570.49638123497346
 20
101.08447967347365
 30
0.0
 11
592.99630017265656
 21
101.08447967347365
 31
0.0
  0
LINE
  5
142
100
AcDbEntity
  8
0
370
               0
390
0
  6
Continuous
 62
              30
100
AcDbLine
 10
592.99630017265656
 20
115.08447824296218
 30
0.0
 11
569.09281105980256
 21
115.08447824296218
 31
0.0
  0
LINE
  5
143
100
AcDbEntity
  8
0
370
               0
390
0
  6
Continuous
 62
              30
100
AcDbLine
 10
570.49638123497346
 20
97.084471567241962
 30
0.0
 11
592.99630017265656
 21
97.084471567241962
 31
0.0
  0
LINE
  5
144
100
AcDbEntity
  8
0
370
               0
390
0
  6
Continuous
 62
              30
100
AcDbLine
 10
570.49638123497346
 20
97.084471567241962
 30
0.0
 11
570.49638123497346
 21
101.08447967347365
 31
0.0
  0
LINE
  5
145
100
AcDbEntity
  8
0
370
               0
390
0
  6
Continuous
 62
              30
100
AcDbLine
 10
569.09281105980256
 20
97.084471567241962
 30
0.0
 11
569.09281105980256
 21
106.08447490510207
 31
0.0
  0
LINE
  5
146
100
AcDbEntity
  8
0
370
               0
390
0
  6
Continuous
 62
              30
100
AcDbLine
 10
570.49638123497346
 20
97.084471567241962
 30
0.0
 11
569.09281105980256
 21
97.084471567241962
 31
0.0
  0
LINE
  5
147
100
AcDbEntity
  8
0
370
               0
390
0
  6
Continuous
 62
              30
100
AcDbLine
 10
569.09281105980256
 20
115.08447824296218
 30
0.0
 11
569.09281105980256
 21
106.08447490510207
 31
0.0
  0
LINE
  5
148
100
AcDbEntity
  8
0
370
               0
390
0
  6
Continuous
 62
              30
100
AcDbLine
 10
592.99630017265656
 20
101.08447967347365
 30
0.0
 11
592.99630017265656
 21
97.084471567241962
 31
0.0
  0
LINE
  5
149
100
AcDbEntity
  8
0
370
               0
390
0
  6
Continuous
 62
              30
100
AcDbLine
 10
611.63264603599885
 20
101.08447967347365
 30
0.0
 11
611.63264603599885
 21
97.084471567241962
 31
0.0
  0
LINE
  5
14A
100
AcDbEntity
  8
0
370
               0
390
0
  6
Continuous
 62
              30
100
AcDbLine
 10
626.54620499595978
 20
97.084471567241962
 30
0.0
 11
626.54620499595978
 21
101.08447967347365
 31
0.0
  0
LINE
  5
14B
100
AcDbEntity
  8
0
370
               0
390
0
  6
Continuous
 62
              30
100
AcDbLine
 10
626.54620499595978
 20
97.084471567241962
 30
0.0
 11
611.63264603599885
 21
97.084471567241962
 31
0.0
  0
LINE
  5
14C
100
AcDbEntity
  8
0
370
               0
390
0
  6
Continuous
 62
              30
100
AcDbLine
 10
592.99630017265656
 20
97.084471567241962
 30
0.0
 11
593.09285969719269
 21
97.084471567241962
 31
0.0
  0
LINE
  5
14D
100
AcDbEntity
  8
0
370
               0
390
0
  6
Continuous
 62
              30
100
AcDbLine
 10
611.63264603599885
 20
97.084471567241962
 30
0.0
 11
592.99630017265656
 21
97.084471567241962
 31
0.0
  0
LINE
  5
14E
100
AcDbEntity
  8
0
370
               0
390
0
  6
Continuous
 62
              30
100
AcDbLine
 10
615.55606217369416
 20
101.08447967347365
 30
0.0
 11
592.99630017265656
 21
101.08447967347365
 31
0.0
  0
LINE
  5
14F
100
AcDbEntity
  8
0
370
               0
390
0
  6
Continuous
 62
              30
100
AcDbLine
 10
592.99630017265656
 20
115.08447824296218
 30
0.0
 11
615.55606217369416
 21
115.08447824296218
 31
0.0
  0
LINE
  5
150
100
AcDbEntity
  8
0
370
               0
390
0
  6
Continuous
 62
              30
100
AcDbLine
 10
592.99630017265656
 20
101.08447967347365
 30
0.0
 11
592.99630017265656
 21
115.08447824296218
 31
0.0
  0
LINE
  5
151
100
AcDbEntity
  8
0
370
               0
390
0
  6
Continuous
 62
              30
100
AcDbLine
 10
630.5461534975467
 20
101.08447967347365
 30
0.0
 11
615.55606217369416
 21
101.08447967347365
 31
0.0
  0
LINE
  5
152
100
AcDbEntity
  8
0
370
               0
390
0
  6
Continuous
 62
              30
100
AcDbLine
 10
615.55606217369416
 20
115.08447824296218
 30
0.0
 11
630.5461534975467
 21
115.08447824296218
 31
0.0
  0
LINE
  5
153
100
AcDbEntity
  8
0
370
               0
390
0
  6
Continuous
 62
              30
100
AcDbLine
 10
615.55606217369416
 20
101.08447967347365
 30
0.0
 11
615.55606217369416
 21
115.08447824296218
 31
0.0
  0
LINE
  5
154
100
AcDbEntity
  8
0
370
               0
390
0
  6
Continuous
 62
              30
100
AcDbLine
 10
630.5461534975467
 20
101.08447967347365
 30
0.0
 11
630.5461534975467
 21
115.08447824296218
 31
0.0
  0
ENDBLK
  5
155
100
AcDbEntity
  8
0
390
0
100
AcDbBlockEnd
  0
BLOCK
  5
156
100
AcDbEntity
  8
0
390
0
100
AcDbBlockBegin
  2
グループ-2
 70
               0
 10
0.0
 20
0.0
 30
0.0
  3
グループ-2
  1

  0
ARC
  5
157
100
AcDbEntity
  8
0
370
               0
390
0
  6
Continuous
 62
              30
100
AcDbCircle
 10
805.04738877741249
 20
824.93326400674141
 30
0.0
 40
1150.8837223578655
100
AcDbArc
 50
190.4819659370836
 51
204.7885887990424
  0
ARC
  5
158
100
AcDbEntity
  8
0
370
               0
390
0
  6
Continuous
 62
              30
100
AcDbCircle
 10
-1116.3086630139633
 20
824.93326400674141
 30
0.0
 40
1150.8837223578657
100
AcDbArc
 50
335.21141120095757
 51
349.51803406291646
  0
LINE
  5
159
100
AcDbEntity
  8
0
370
               0
390
0
  6
Continuous
 62
              30
100
AcDbLine
 10
15.369275502805181
 20
615.55754315533795
 30
0.0
 11
-45.639654703493648
 21
269.55758702435651
 31
0.0
  0
LINE
  5
15A
100
AcDbEntity
  8
0
370
               0
390
0
  6
Continuous
 62
              30
100
AcDbLine
 10
-265.62156350171142
 20
269.55758702435651
 30
0.0
 11
-326.63073212658935
 21
615.55754315533795
 31
0.0
  0
LINE
  5
15B
100
AcDbEntity
  8
0
370
               0
390
0
  6
Continuous
 62
              30
100
AcDbLine
 10
-45.639654703493648
 20
269.55758702435651
 30
0.0
 11
-117.88978249585205
 21
269.55758702435651
 31
0.0
  0
ARC
  5
15C
100
AcDbEntity
  8
0
370
               0
390
0
  6
Continuous
 62
              30
100
AcDbCircle
 10
-318.70242510239484
 20
448.75145272412828
 30
0.0
 40
269.1397588979969
100
AcDbArc
 50
318.2560907692656
 51
336.72464672532647
  0
ARC
  5
15D
100
AcDbEntity
  8
0
370
               0
390
0
  6
Continuous
 62
              30
100
AcDbCircle
 10
7.441150865840541
 20
448.75145272412828
 30
0.0
 40
269.13975889799661
100
AcDbArc
 50
203.27535327467348
 51
221.74390923073381
  0
LINE
  5
15E
100
AcDbEntity
  8
0
370
               0
390
0
  6
Continuous
 62
              30
100
AcDbLine
 10
-193.37167412793212
 20
269.55758702435651
 30
0.0
 11
-265.62156350171142
 21
269.55758702435651
 31
0.0
  0
ARC
  5
15F
100
AcDbEntity
  8
0
370
               0
390
0
  6
Continuous
 62
              30
100
AcDbCircle
 10
-155.63063711827715
 20
300.12368954088834
 30
0.0
 40
48.566121676914861
100
AcDbArc
 50
219.00375119257947
 51
320.9962488074205
  0
CIRCLE
  5
160
100
AcDbEntity
  8
0
370
               0
390
0
  6
Continuous
 62
              30
100
AcDbCircle
 10
-155.63063711834991
 20
506.55756786397524
 30
0.0
 40
3.4000000000014552
  0
ARC
  5
161
100
AcDbEntity
  8
0
370
               0
390
0
  6
Continuous
 62
              30
100
AcDbCircle
 10
-155.63063711827715
 20
-105.98912051496791
 30
0.0
 40
783.00000000002501
100
AcDbArc
 50
78.770648945221694
 51
101.22935105477831
  0
ARC
  5
162
100
AcDbEntity
  8
0
370
               0
390
0
  6
Continuous
 62
              30
100
AcDbCircle
 10
-303.63063711830625
 20
639.46107902893436
 30
0.0
 40
22.999999999997215
100
AcDbArc
 50
101.22935105477571
 51
180.00000000010419
  0
LINE
  5
163
100
AcDbEntity
  8
0
370
               0
390
0
  6
Continuous
 62
              30
100
AcDbLine
 10
-326.63073212658935
 20
615.55754315533795
 30
0.0
 11
-326.63073212658935
 21
639.46103226819196
 31
0.0
  0
CIRCLE
  5
164
100
AcDbEntity
  8
0
370
               0
390
0
  6
Continuous
 62
              30
100
AcDbCircle
 10
-155.63063711834991
 20
586.55756786397524
 30
0.0
 40
3.4000000000014552
  0
ARC
  5
165
100
AcDbEntity
  8
0
370
               0
390
0
  6
Continuous
 62
              30
100
AcDbCircle
 10
-7.6306371182480461
 20
639.46107902893436
 30
0.0
 40
22.999999999996362
100
AcDbArc
 50
359.99999999989586
 51
78.770648945223456
  0
LINE
  5
166
100
AcDbEntity
  8
0
370
               0
390
0
  6
Continuous
 62
              30
100
AcDbLine
 10
15.369275502805181
 20
639.46103226819196
 30
0.0
 11
15.369275502805181
 21
615.55754315533795
 31
0.0
  0
ENDBLK
  5
167
100
AcDbEntity
  8
0
390
0
100
AcDbBlockEnd
  0
BLOCK
  5
168
100
AcDbEntity
  8
0
390
0
100
AcDbBlockBegin
  2
グループ-3
 70
               0
 10
0.0
 20
0.0
 30
0.0
  3
グループ-3
  1

  0
ARC
  5
169
100
AcDbEntity
  8
0
370
               0
390
0
  6
Continuous
 62
              30
100
AcDbCircle
 10
-318.70242510239484
 20
-1000.2578261843419
 30
0.0
 40
269.13975889799661
100
AcDbArc
 50
23.27535327467351
 51
41.743909230734374
  0
ARC
  5
16A
100
AcDbEntity
  8
0
370
               0
390
0
  6
Continuous
 62
              30
100
AcDbCircle
 10
7.441150865840541
 20
-1000.2578261843419
 30
0.0
 40
269.1397588979969
100
AcDbArc
 50
138.25609076926563
 51
156.72464672532652
  0
LINE
  5
16B
100
AcDbEntity
  8
0
370
               0
390
0
  6
Continuous
 62
              30
100
AcDbLine
 10
-45.639654703493648
 20
-821.06396048457009
 30
0.0
 11
15.369275502805181
 21
-1167.0639166155515
 31
0.0
  0
LINE
  5
16C
100
AcDbEntity
  8
0
370
               0
390
0
  6
Continuous
 62
              30
100
AcDbLine
 10
-326.63073212658935
 20
-1167.0639166155515
 30
0.0
 11
-265.62156350171142
 21
-821.06396048457009
 31
0.0
  0
ARC
  5
16D
100
AcDbEntity
  8
0
370
               0
390
0
  6
Continuous
 62
              30
100
AcDbCircle
 10
-155.63063711827715
 20
-445.51725294524567
 30
0.0
 40
783.0000000000241
100
AcDbArc
 50
258.77064894522175
 51
281.22935105477836
  0
ARC
  5
16E
100
AcDbEntity
  8
0
370
               0
390
0
  6
Continuous
 62
              30
100
AcDbCircle
 10
-303.63063711830625
 20
-1190.9674524891479
 30
0.0
 40
22.999999999996362
100
AcDbArc
 50
179.99999999989578
 51
258.77064894522385
  0
ARC
  5
16F
100
AcDbEntity
  8
0
370
               0
390
0
  6
Continuous
 62
              30
100
AcDbCircle
 10
805.04738877741249
 20
-1376.439637466955
 30
0.0
 40
1150.8837223578655
100
AcDbArc
 50
155.2114112009576
 51
169.51803406291643
  0
LINE
  5
170
100
AcDbEntity
  8
0
370
               0
390
0
  6
Continuous
 62
              30
100
AcDbLine
 10
-326.63073212658935
 20
-1190.9674057284055
 30
0.0
 11
-326.63073212658935
 21
-1167.0639166155515
 31
0.0
  0
CIRCLE
  5
171
100
AcDbEntity
  8
0
370
               0
390
0
  6
Continuous
 62
              30
100
AcDbCircle
 10
-155.63063711834991
 20
-1138.0639413241888
 30
0.0
 40
3.4000000000014552
  0
CIRCLE
  5
172
100
AcDbEntity
  8
0
370
               0
390
0
  6
Continuous
 62
              30
100
AcDbCircle
 10
-155.63063711834991
 20
-1058.0639413241888
 30
0.0
 40
3.4000000000014552
  0
LINE
  5
173
100
AcDbEntity
  8
0
370
               0
390
0
  6
Continuous
 62
              30
100
AcDbLine
 10
-152.88104683911376
 20
-1056.0639747896848
 30
0.0
 11
-158.3801713660913
 21
-1056.0639747896848
 31
0.0
  0
ARC
  5
174
100
AcDbEntity
  8
0
370
               0
390
0
  6
Continuous
 62
              30
100
AcDbCircle
 10
-7.6306371182480461
 20
-1190.9674524891479
 30
0.0
 40
22.999999999994539
100
AcDbArc
 50
281.229351054777
 51
0.000000000104194
  0
ARC
  5
175
100
AcDbEntity
  8
0
370
               0
390
0
  6
Continuous
 62
              30
100
AcDbCircle
 10
-1116.3086630139633
 20
-1376.439637466955
 30
0.0
 40
1150.8837223578655
100
AcDbArc
 50
10.481965937083595
 51
24.788588799042419
  0
LINE
  5
176
100
AcDbEntity
  8
0
370
               0
390
0
  6
Continuous
 62
              30
100
AcDbLine
 10
15.369275502805181
 20
-1167.0639166155515
 30
0.0
 11
15.369275502805181
 21
-1190.9674057284055
 31
0.0
  0
LINE
  5
177
100
AcDbEntity
  8
0
370
               0
390
0
  6
Continuous
 62
              30
100
AcDbLine
 10
-117.88978249585205
 20
-821.06396048457009
 30
0.0
 11
-45.639654703493648
 21
-821.06396048457009
 31
0.0
  0
LINE
  5
178
100
AcDbEntity
  8
0
370
               0
390
0
  6
Continuous
 62
              30
100
AcDbLine
 10
-265.62156350171142
 20
-821.06396048457009
 30
0.0
 11
-193.37167412793212
 21
-821.06396048457009
 31
0.0
  0
ARC
  5
179
100
AcDbEntity
  8
0
370
               0
390
0
  6
Continuous
 62
              30
100
AcDbCircle
 10
-155.63063711827715
 20
-851.63006300110192
 30
0.0
 40
48.566121676914861
100
AcDbArc
 50
39.003751192579486
 51
140.99624880742053
  0
ENDBLK
  5
17A
100
AcDbEntity
  8
0
390
0
100
AcDbBlockEnd
  0
BLOCK
  5
17B
100
AcDbEntity
  8
0
390
0
100
AcDbBlockBegin
  2
グループ-4
 70
               0
 10
0.0
 20
0.0
 30
0.0
  3
グループ-4
  1

  0
LINE
  5
17C
100
AcDbEntity
  8
0
370
               0
390
0
  6
Continuous
 62
              30
100
AcDbLine
 10
7.4161085411352587
 20
-566.91549943509835
 30
0.0
 11
7.4161085411352587
 21
97.084471567241962
 31
0.0
  0
LINE
  5
17D
100
AcDbEntity
  8
0
370
               0
390
0
  6
Continuous
 62
              30
100
AcDbLine
 10
11.369088582639165
 20
-566.91549943509835
 30
0.0
 11
11.369088582639165
 21
97.084471567241962
 31
0.0
  0
LINE
  5
17E
100
AcDbEntity
  8
0
370
               0
390
0
  6
Continuous
 62
              30
100
AcDbLine
 10
11.369327001218267
 20
-566.91549943509835
 30
0.0
 11
11.369327001218267
 21
97.084471567241962
 31
0.0
  0
LINE
  5
17F
100
AcDbEntity
  8
0
370
               0
390
0
  6
Continuous
 62
              30
100
AcDbLine
 10
15.369275502805181
 20
97.084471567241962
 30
0.0
 11
15.369275502805181
 21
-566.91549943509835
 31
0.0
  0
LINE
  5
180
100
AcDbEntity
  8
0
370
               0
390
0
  6
Continuous
 62
              30
100
AcDbLine
 10
-322.63030678784423
 20
97.084471567241962
 30
0.0
 11
-322.63030678784423
 21
-566.91549943509835
 31
0.0
  0
LINE
  5
181
100
AcDbEntity
  8
0
370
               0
390
0
  6
Continuous
 62
              30
100
AcDbLine
 10
-318.67732674634033
 20
97.084471567241962
 30
0.0
 11
-318.67732674634033
 21
-566.91549943509835
 31
0.0
  0
LINE
  5
182
100
AcDbEntity
  8
0
370
               0
390
0
  6
Continuous
 62
              30
100
AcDbLine
 10
-322.63054520642334
 20
97.084471567241962
 30
0.0
 11
-322.63054520642334
 21
-566.91549943509835
 31
0.0
  0
LINE
  5
183
100
AcDbEntity
  8
0
370
               0
390
0
  6
Continuous
 62
              30
100
AcDbLine
 10
-326.63073212658935
 20
-566.91549943509835
 30
0.0
 11
-326.63073212658935
 21
97.084471567241962
 31
0.0
  0
CIRCLE
  5
184
100
AcDbEntity
  8
0
370
               0
390
0
  6
Continuous
 62
              30
100
AcDbCircle
 10
-115.63063711834991
 20
-31.915498868856048
 30
0.0
 40
91.0
  0
LINE
  5
185
100
AcDbEntity
  8
0
370
               0
390
0
  6
Continuous
 62
              30
100
AcDbLine
 10
-308.10966164624267
 20
-570.91550009074945
 30
0.0
 11
-3.1517949775414991
 21
-570.91550009074945
 31
0.0
  0
LINE
  5
186
100
AcDbEntity
  8
0
370
               0
390
0
  6
Continuous
 62
              30
100
AcDbLine
 10
-3.1517949775414991
 20
-584.91549866023797
 30
0.0
 11
-308.10966164624267
 21
-584.91549866023797
 31
0.0
  0
LINE
  5
187
100
AcDbEntity
  8
0
370
               0
390
0
  6
Continuous
 62
              30
100
AcDbLine
 10
-307.33074814831787
 20
-566.91549943509835
 30
0.0
 11
-3.9307084754663038
 21
-566.91549943509835
 31
0.0
  0
CIRCLE
  5
188
100
AcDbEntity
  8
0
370
               0
390
0
  6
Continuous
 62
              30
100
AcDbCircle
 10
-100.63217091302511
 20
-506.91549886885605
 30
0.0
 40
45.0
  0
CIRCLE
  5
189
100
AcDbEntity
  8
0
370
               0
390
0
  6
Continuous
 62
              30
100
AcDbCircle
 10
-155.63063711834991
 20
-294.91549886885787
 30
0.0
 40
159.0
  0
LINE
  5
18A
100
AcDbEntity
  8
0
370
               0
390
0
  6
Continuous
 62
              30
100
AcDbLine
 10
-326.63073212658935
 20
-570.91550009074945
 30
0.0
 11
-308.10966164624267
 21
-570.91550009074945
 31
0.0
  0
LINE
  5
18B
100
AcDbEntity
  8
0
370
               0
390
0
  6
Continuous
 62
              30
100
AcDbLine
 10
-308.10966164624267
 20
-584.91549866023797
 30
0.0
 11
-326.63073212658935
 21
-584.91549866023797
 31
0.0
  0
LINE
  5
18C
100
AcDbEntity
  8
0
370
               0
390
0
  6
Continuous
 62
              30
100
AcDbLine
 10
-326.63073212658935
 20
-566.91549943509835
 30
0.0
 11
-322.63054520642334
 21
-566.91549943509835
 31
0.0
  0
LINE
  5
18D
100
AcDbEntity
  8
0
370
               0
390
0
  6
Continuous
 62
              30
100
AcDbLine
 10
-326.63073212658935
 20
-584.91549866023797
 30
0.0
 11
-326.63073212658935
 21
-570.91550009074945
 31
0.0
  0
LINE
  5
18E
100
AcDbEntity
  8
0
370
               0
390
0
  6
Continuous
 62
              30
100
AcDbLine
 10
-326.63073212658935
 20
-570.91550009074945
 30
0.0
 11
-326.63073212658935
 21
-566.91549943509835
 31
0.0
  0
CIRCLE
  5
18F
100
AcDbEntity
  8
0
370
               0
390
0
  6
Continuous
 62
              30
100
AcDbCircle
 10
-210.62910332367471
 20
-506.91549886885605
 30
0.0
 40
45.0
  0
LINE
  5
190
100
AcDbEntity
  8
0
370
               0
390
0
  6
Continuous
 62
              30
100
AcDbLine
 10
-308.10966164624267
 20
-570.91550009074945
 30
0.0
 11
-308.10966164624267
 21
-584.91549866023797
 31
0.0
  0
LINE
  5
191
100
AcDbEntity
  8
0
370
               0
390
0
  6
Continuous
 62
              30
100
AcDbLine
 10
-307.33074814831787
 20
-570.91550009074945
 30
0.0
 11
-307.33074814831787
 21
-566.91549943509835
 31
0.0
  0
LINE
  5
192
100
AcDbEntity
  8
0
370
               0
390
0
  6
Continuous
 62
              30
100
AcDbLine
 10
-322.63054520642334
 20
-570.91550009074945
 30
0.0
 11
-322.63054520642334
 21
-566.91549943509835
 31
0.0
  0
LINE
  5
193
100
AcDbEntity
  8
0
370
               0
390
0
  6
Continuous
 62
              30
100
AcDbLine
 10
-322.63054520642334
 20
-566.91549943509835
 30
0.0
 11
-307.33074814831787
 21
-566.91549943509835
 31
0.0
  0
LINE
  5
194
100
AcDbEntity
  8
0
370
               0
390
0
  6
Continuous
 62
              30
100
AcDbLine
 10
-322.63030678784423
 20
-566.91549943509835
 30
0.0
 11
-322.63054520642334
 21
-566.91549943509835
 31
0.0
  0
LINE
  5
195
100
AcDbEntity
  8
0
370
               0
390
0
  6
Continuous
 62
              30
100
AcDbLine
 10
-255.55219323193603
 20
-504.28764374676484
 30
0.0
 11
-255.55219323193603
 21
-509.54335035506028
 31
0.0
  0
CIRCLE
  5
196
100
AcDbEntity
  8
0
370
               0
390
0
  6
Continuous
 62
              30
100
AcDbCircle
 10
-190.63063711813163
 20
-501.14815344221734
 30
0.0
 40
12.75
  0
CIRCLE
  5
197
100
AcDbEntity
  8
0
370
               0
390
0
  6
Continuous
 62
              30
100
AcDbCircle
 10
-120.63063711813163
 20
-501.14815344221734
 30
0.0
 40
12.75
  0
LINE
  5
198
100
AcDbEntity
  8
0
370
               0
390
0
  6
Continuous
 62
              30
100
AcDbLine
 10
-3.1517949775414991
 20
-570.91550009074945
 30
0.0
 11
-3.1517949775414991
 21
-584.91549866023797
 31
0.0
  0
LINE
  5
199
100
AcDbEntity
  8
0
370
               0
390
0
  6
Continuous
 62
              30
100
AcDbLine
 10
-3.9307084754663038
 20
-570.91550009074945
 30
0.0
 11
-3.9307084754663038
 21
-566.91549943509835
 31
0.0
  0
LINE
  5
19A
100
AcDbEntity
  8
0
370
               0
390
0
  6
Continuous
 62
              30
100
AcDbLine
 10
15.369275502805181
 20
-570.91550009074945
 30
0.0
 11
15.369275502805181
 21
-584.91549866023797
 31
0.0
  0
LINE
  5
19B
100
AcDbEntity
  8
0
370
               0
390
0
  6
Continuous
 62
              30
100
AcDbLine
 10
-3.1517949775414991
 20
-570.91550009074945
 30
0.0
 11
15.369275502805181
 21
-570.91550009074945
 31
0.0
  0
LINE
  5
19C
100
AcDbEntity
  8
0
370
               0
390
0
  6
Continuous
 62
              30
100
AcDbLine
 10
15.369275502805181
 20
-584.91549866023797
 30
0.0
 11
-3.1517949775414991
 21
-584.91549866023797
 31
0.0
  0
LINE
  5
19D
100
AcDbEntity
  8
0
370
               0
390
0
  6
Continuous
 62
              30
100
AcDbLine
 10
11.369327001218267
 20
-570.91550009074945
 30
0.0
 11
11.369327001218267
 21
-566.91549943509835
 31
0.0
  0
LINE
  5
19E
100
AcDbEntity
  8
0
370
               0
390
0
  6
Continuous
 62
              30
100
AcDbLine
 10
-3.9307084754663038
 20
-566.91549943509835
 30
0.0
 11
11.369327001218267
 21
-566.91549943509835
 31
0.0
  0
LINE
  5
19F
100
AcDbEntity
  8
0
370
               0
390
0
  6
Continuous
 62
              30
100
AcDbLine
 10
15.369275502805181
 20
-566.91549943509835
 30
0.0
 11
15.369275502805181
 21
-570.91550009074945
 31
0.0
  0
LINE
  5
1A0
100
AcDbEntity
  8
0
370
               0
390
0
  6
Continuous
 62
              30
100
AcDbLine
 10
11.369327001218267
 20
-566.91549943509835
 30
0.0
 11
15.369275502805181
 21
-566.91549943509835
 31
0.0
  0
LINE
  5
1A1
100
AcDbEntity
  8
0
370
               0
390
0
  6
Continuous
 62
              30
100
AcDbLine
 10
11.369327001218267
 20
-566.91549943509835
 30
0.0
 11
11.369088582639165
 21
-566.91549943509835
 31
0.0
  0
LINE
  5
1A2
100
AcDbEntity
  8
0
370
               0
390
0
  6
Continuous
 62
              30
100
AcDbLine
 10
-55.709024973269038
 20
-509.54335035506028
 30
0.0
 11
-55.709024973269038
 21
-504.28764374676484
 31
0.0
  0
LINE
  5
1A3
100
AcDbEntity
  8
0
370
               0
390
0
  6
Continuous
 62
              30
100
AcDbLine
 10
-3.1517949775414991
 20
101.08447967347365
 30
0.0
 11
-308.10966164624267
 21
101.08447967347365
 31
0.0
  0
LINE
  5
1A4
100
AcDbEntity
  8
0
370
               0
390
0
  6
Continuous
 62
              30
100
AcDbLine
 10
-308.10966164624267
 20
115.08447824296218
 30
0.0
 11
-3.1517949775414991
 21
115.08447824296218
 31
0.0
  0
LINE
  5
1A5
100
AcDbEntity
  8
0
370
               0
390
0
  6
Continuous
 62
              30
100
AcDbLine
 10
-3.9307084754663038
 20
97.084471567241962
 30
0.0
 11
-307.33074814831787
 21
97.084471567241962
 31
0.0
  0
LINE
  5
1A6
100
AcDbEntity
  8
0
370
               0
390
0
  6
Continuous
 62
              30
100
AcDbLine
 10
-326.63073212658935
 20
97.084471567241962
 30
0.0
 11
-322.63054520642334
 21
97.084471567241962
 31
0.0
  0
LINE
  5
1A7
100
AcDbEntity
  8
0
370
               0
390
0
  6
Continuous
 62
              30
100
AcDbLine
 10
-308.10966164624267
 20
101.08447967347365
 30
0.0
 11
-326.63073212658935
 21
101.08447967347365
 31
0.0
  0
LINE
  5
1A8
100
AcDbEntity
  8
0
370
               0
390
0
  6
Continuous
 62
              30
100
AcDbLine
 10
-326.63073212658935
 20
115.08447824296218
 30
0.0
 11
-308.10966164624267
 21
115.08447824296218
 31
0.0
  0
LINE
  5
1A9
100
AcDbEntity
  8
0
370
               0
390
0
  6
Continuous
 62
              30
100
AcDbLine
 10
-326.63073212658935
 20
97.084471567241962
 30
0.0
 11
-326.63073212658935
 21
101.08447967347365
 31
0.0
  0
LINE
  5
1AA
100
AcDbEntity
  8
0
370
               0
390
0
  6
Continuous
 62
              30
100
AcDbLine
 10
-326.63073212658935
 20
101.08447967347365
 30
0.0
 11
-326.63073212658935
 21
115.08447824296218
 31
0.0
  0
LINE
  5
1AB
100
AcDbEntity
  8
0
370
               0
390
0
  6
Continuous
 62
              30
100
AcDbLine
 10
-307.33074814831787
 20
101.08447967347365
 30
0.0
 11
-307.33074814831787
 21
97.084471567241962
 31
0.0
  0
LINE
  5
1AC
100
AcDbEntity
  8
0
370
               0
390
0
  6
Continuous
 62
              30
100
AcDbLine
 10
-322.63054520642334
 20
101.08447967347365
 30
0.0
 11
-322.63054520642334
 21
97.084471567241962
 31
0.0
  0
LINE
  5
1AD
100
AcDbEntity
  8
0
370
               0
390
0
  6
Continuous
 62
              30
100
AcDbLine
 10
-322.63030678784423
 20
97.084471567241962
 30
0.0
 11
-322.63054520642334
 21
97.084471567241962
 31
0.0
  0
LINE
  5
1AE
100
AcDbEntity
  8
0
370
               0
390
0
  6
Continuous
 62
              30
100
AcDbLine
 10
-307.33074814831787
 20
97.084471567241962
 30
0.0
 11
-322.63054520642334
 21
97.084471567241962
 31
0.0
  0
LINE
  5
1AF
100
AcDbEntity
  8
0
370
               0
390
0
  6
Continuous
 62
              30
100
AcDbLine
 10
-308.10966164624267
 20
101.08447967347365
 30
0.0
 11
-308.10966164624267
 21
115.08447824296218
 31
0.0
  0
LINE
  5
1B0
100
AcDbEntity
  8
0
370
               0
390
0
  6
Continuous
 62
              30
100
AcDbLine
 10
-3.9307084754663038
 20
101.08447967347365
 30
0.0
 11
-3.9307084754663038
 21
97.084471567241962
 31
0.0
  0
LINE
  5
1B1
100
AcDbEntity
  8
0
370
               0
390
0
  6
Continuous
 62
              30
100
AcDbLine
 10
11.369327001218267
 20
101.08447967347365
 30
0.0
 11
11.369327001218267
 21
97.084471567241962
 31
0.0
  0
LINE
  5
1B2
100
AcDbEntity
  8
0
370
               0
390
0
  6
Continuous
 62
              30
100
AcDbLine
 10
15.369275502805181
 20
101.08447967347365
 30
0.0
 11
15.369275502805181
 21
97.084471567241962
 31
0.0
  0
LINE
  5
1B3
100
AcDbEntity
  8
0
370
               0
390
0
  6
Continuous
 62
              30
100
AcDbLine
 10
11.369327001218267
 20
97.084471567241962
 30
0.0
 11
11.369088582639165
 21
97.084471567241962
 31
0.0
  0
LINE
  5
1B4
100
AcDbEntity
  8
0
370
               0
390
0
  6
Continuous
 62
              30
100
AcDbLine
 10
11.369327001218267
 20
97.084471567241962
 30
0.0
 11
15.369275502805181
 21
97.084471567241962
 31
0.0
  0
LINE
  5
1B5
100
AcDbEntity
  8
0
370
               0
390
0
  6
Continuous
 62
              30
100
AcDbLine
 10
11.369327001218267
 20
97.084471567241962
 30
0.0
 11
-3.9307084754663038
 21
97.084471567241962
 31
0.0
  0
LINE
  5
1B6
100
AcDbEntity
  8
0
370
               0
390
0
  6
Continuous
 62
              30
100
AcDbLine
 10
-3.1517949775414991
 20
101.08447967347365
 30
0.0
 11
-3.1517949775414991
 21
115.08447824296218
 31
0.0
  0
LINE
  5
1B7
100
AcDbEntity
  8
0
370
               0
390
0
  6
Continuous
 62
              30
100
AcDbLine
 10
15.369275502805181
 20
115.08447824296218
 30
0.0
 11
15.369275502805181
 21
101.08447967347365
 31
0.0
  0
LINE
  5
1B8
100
AcDbEntity
  8
0
370
               0
390
0
  6
Continuous
 62
              30
100
AcDbLine
 10
15.369275502805181
 20
101.08447967347365
 30
0.0
 11
-3.1517949775414991
 21
101.08447967347365
 31
0.0
  0
LINE
  5
1B9
100
AcDbEntity
  8
0
370
               0
390
0
  6
Continuous
 62
              30
100
AcDbLine
 10
-3.1517949775414991
 20
115.08447824296218
 30
0.0
 11
15.369275502805181
 21
115.08447824296218
 31
0.0
  0
CIRCLE
  5
1BA
100
AcDbEntity
  8
0
370
               0
390
0
 62
               1
100
AcDbCircle
 10
-115.63063711834991
 20
-31.915498868856048
 30
0.0
 40
102.0
  0
CIRCLE
  5
1BB
100
AcDbEntity
  8
0
370
               0
390
0
 62
               1
100
AcDbCircle
 10
-47.394832733848375
 20
36.320305515645487
 30
0.0
 40
5.0
  0
CIRCLE
  5
1BC
100
AcDbEntity
  8
0
370
               0
390
0
 62
               1
100
AcDbCircle
 10
-183.86644150285144
 20
36.320305515645487
 30
0.0
 40
5.0
  0
CIRCLE
  5
1BD
100
AcDbEntity
  8
0
370
               0
390
0
 62
               1
100
AcDbCircle
 10
-115.63063711834991
 20
-31.915498868856048
 30
0.0
 40
89.0
  0
CIRCLE
  5
1BE
100
AcDbEntity
  8
0
370
               0
390
0
 62
               1
100
AcDbCircle
 10
-115.63063711834991
 20
-31.915498868856048
 30
0.0
 40
90.0
  0
CIRCLE
  5
1BF
100
AcDbEntity
  8
0
370
               0
390
0
 62
               1
100
AcDbCircle
 10
-115.63063711834991
 20
-31.915498868856048
 30
0.0
 40
91.0
  0
CIRCLE
  5
1C0
100
AcDbEntity
  8
0
370
               0
390
0
  6
Continuous
 62
              30
100
AcDbCircle
 10
-115.63063711834991
 20
-31.915498868856048
 30
0.0
 40
91.0
  0
LINE
  5
1C1
100
AcDbEntity
  8
0
370
               0
390
0
 62
               1
100
AcDbLine
 10
-180.96866402398598
 20
-100.92776038866486
 30
0.0
 11
-181.74512115928962
 21
-98.029982909797582
 31
0.0
  0
LINE
  5
1C2
100
AcDbEntity
  8
0
370
               0
390
0
 62
               1
100
AcDbLine
 10
-186.76421898171691
 20
-99.3748461180503
 30
0.0
 11
-185.98776184641326
 21
-102.27262359691758
 31
0.0
  0
LINE
  5
1C3
100
AcDbEntity
  8
0
370
               0
390
0
 62
               1
100
AcDbLine
 10
-185.98776184641326
 20
-102.27262359691758
 30
0.0
 11
-183.08998436754052
 21
-103.04908073222487
 31
0.0
  0
LINE
  5
1C4
100
AcDbEntity
  8
0
370
               0
390
0
 62
               1
100
AcDbLine
 10
-184.64289863815509
 20
-97.253525774490299
 30
0.0
 11
-186.76421898171691
 21
-99.3748461180503
 31
0.0
  0
CIRCLE
  5
1C5
100
AcDbEntity
  8
0
370
               0
390
0
 62
               1
100
AcDbCircle
 10
-183.86644150285144
 20
-100.15130325335758
 30
0.0
 40
5.0
  0
LINE
  5
1C6
100
AcDbEntity
  8
0
370
               0
390
0
 62
               1
100
AcDbLine
 10
-183.08998436754052
 20
-103.04908073222487
 30
0.0
 11
-180.96866402398598
 21
-100.92776038866486
 31
0.0
  0
LINE
  5
1C7
100
AcDbEntity
  8
0
370
               0
390
0
 62
               1
100
AcDbLine
 10
-181.74512115928962
 20
-98.029982909797582
 30
0.0
 11
-184.64289863815509
 21
-97.253525774490299
 31
0.0
  0
CIRCLE
  5
1C8
100
AcDbEntity
  8
0
370
               0
390
0
 62
               1
100
AcDbCircle
 10
-47.394832733848375
 20
-100.15130325335758
 30
0.0
 40
5.0
  0
LINE
  5
1C9
100
AcDbEntity
  8
0
370
               0
390
0
 62
               1
100
AcDbLine
 10
-48.171289869152019
 20
-103.04908073222487
 30
0.0
 11
-45.273512390286555
 21
-102.27262359691758
 31
0.0
  0
LINE
  5
1CA
100
AcDbEntity
  8
0
370
               0
390
0
 62
               1
100
AcDbLine
 10
-45.273512390286555
 20
-102.27262359691758
 30
0.0
 11
-44.497055254982911
 21
-99.3748461180503
 31
0.0
  0
LINE
  5
1CB
100
AcDbEntity
  8
0
370
               0
390
0
 62
               1
100
AcDbLine
 10
-44.497055254982911
 20
-99.3748461180503
 30
0.0
 11
-46.618375598537455
 21
-97.253525774490299
 31
0.0
  0
LINE
  5
1CC
100
AcDbEntity
  8
0
370
               0
390
0
 62
               1
100
AcDbLine
 10
-46.618375598537455
 20
-97.253525774490299
 30
0.0
 11
-49.516153077402919
 21
-98.029982909798491
 31
0.0
  0
LINE
  5
1CD
100
AcDbEntity
  8
0
370
               0
390
0
 62
               1
100
AcDbLine
 10
-49.516153077402919
 20
-98.029982909798491
 30
0.0
 11
-50.292610212713839
 21
-100.92776038866486
 31
0.0
  0
LINE
  5
1CE
100
AcDbEntity
  8
0
370
               0
390
0
 62
               1
100
AcDbLine
 10
-50.292610212713839
 20
-100.92776038866486
 30
0.0
 11
-48.171289869152019
 21
-103.04908073222487
 31
0.0
  0
CIRCLE
  5
1CF
100
AcDbEntity
  8
0
370
               0
390
0
 62
               1
100
AcDbCircle
 10
-115.63063711834991
 20
-31.915498868856048
 30
0.0
 40
38.0
  0
LINE
  5
1D0
100
AcDbEntity
  8
0
370
               0
390
0
 62
               1
100
AcDbLine
 10
-181.74512115928962
 20
34.198985172086395
 30
0.0
 11
-180.96866402398598
 21
37.096762650953679
 31
0.0
  0
LINE
  5
1D1
100
AcDbEntity
  8
0
370
               0
390
0
 62
               1
100
AcDbLine
 10
-183.08998436754052
 20
39.21808299451277
 30
0.0
 11
-185.98776184641326
 21
38.441625859205487
 31
0.0
  0
LINE
  5
1D2
100
AcDbEntity
  8
0
370
               0
390
0
 62
               1
100
AcDbLine
 10
-185.98776184641326
 20
38.441625859205487
 30
0.0
 11
-186.76421898171691
 21
35.543848380338204
 31
0.0
  0
LINE
  5
1D3
100
AcDbEntity
  8
0
370
               0
390
0
 62
               1
100
AcDbLine
 10
-186.76421898171691
 20
35.543848380338204
 30
0.0
 11
-184.64289863815509
 21
33.422528036778203
 31
0.0
  0
LINE
  5
1D4
100
AcDbEntity
  8
0
370
               0
390
0
 62
               1
100
AcDbLine
 10
-184.64289863815509
 20
33.422528036778203
 30
0.0
 11
-181.74512115928962
 21
34.198985172086395
 31
0.0
  0
LINE
  5
1D5
100
AcDbEntity
  8
0
370
               0
390
0
 62
               1
100
AcDbLine
 10
-180.96866402398598
 20
37.096762650953679
 30
0.0
 11
-183.08998436754052
 21
39.21808299451277
 31
0.0
  0
LINE
  5
1D6
100
AcDbEntity
  8
0
370
               0
390
0
 62
               1
100
AcDbLine
 10
-44.497055254982911
 20
35.543848380338204
 30
0.0
 11
-45.273512390286555
 21
38.441625859205487
 31
0.0
  0
LINE
  5
1D7
100
AcDbEntity
  8
0
370
               0
390
0
 62
               1
100
AcDbLine
 10
-45.273512390286555
 20
38.441625859205487
 30
0.0
 11
-48.171289869152019
 21
39.21808299451277
 31
0.0
  0
LINE
  5
1D8
100
AcDbEntity
  8
0
370
               0
390
0
 62
               1
100
AcDbLine
 10
-48.171289869152019
 20
39.21808299451277
 30
0.0
 11
-50.292610212713839
 21
37.096762650953679
 31
0.0
  0
LINE
  5
1D9
100
AcDbEntity
  8
0
370
               0
390
0
 62
               1
100
AcDbLine
 10
-50.292610212713839
 20
37.096762650953679
 30
0.0
 11
-49.516153077402919
 21
34.198985172086395
 31
0.0
  0
LINE
  5
1DA
100
AcDbEntity
  8
0
370
               0
390
0
 62
               1
100
AcDbLine
 10
-49.516153077402919
 20
34.198985172086395
 30
0.0
 11
-46.618375598537455
 21
33.422528036778203
 31
0.0
  0
LINE
  5
1DB
100
AcDbEntity
  8
0
370
               0
390
0
 62
               1
100
AcDbLine
 10
-46.618375598537455
 20
33.422528036778203
 30
0.0
 11
-44.497055254982911
 21
35.543848380338204
 31
0.0
  0
CIRCLE
  5
1DC
100
AcDbEntity
  8
0
370
               0
390
0
 62
               1
100
AcDbCircle
 10
-155.63063711834991
 20
-294.91549886885787
 30
0.0
 40
155.0
  0
CIRCLE
  5
1DD
100
AcDbEntity
  8
0
370
               0
390
0
 62
               1
100
AcDbCircle
 10
-155.63063711834991
 20
-294.91549886885787
 30
0.0
 40
142.44337567297407
  0
CIRCLE
  5
1DE
100
AcDbEntity
  8
0
370
               0
390
0
 62
               1
100
AcDbCircle
 10
-155.63063711834991
 20
-294.91549886885787
 30
0.0
 40
140.59218183776466
  0
CIRCLE
  5
1DF
100
AcDbEntity
  8
0
370
               0
390
0
 62
               1
100
AcDbCircle
 10
-155.63063711834991
 20
-294.91549886885787
 30
0.0
 40
139.01149720725516
  0
CIRCLE
  5
1E0
100
AcDbEntity
  8
0
370
               0
390
0
  6
Continuous
 62
              30
100
AcDbCircle
 10
-155.63063711834991
 20
-294.91549886885787
 30
0.0
 40
142.0
  0
CIRCLE
  5
1E1
100
AcDbEntity
  8
0
370
               0
390
0
 62
               1
100
AcDbCircle
 10
-155.63063711834991
 20
-294.91549886885787
 30
0.0
 40
54.25
  0
CIRCLE
  5
1E2
100
AcDbEntity
  8
0
370
               0
390
0
 62
               1
100
AcDbCircle
 10
-98.268644700744403
 20
-433.51421368860247
 30
0.0
 40
5.0
  0
LINE
  5
1E3
100
AcDbEntity
  8
0
370
               0
390
0
 62
               1
100
AcDbLine
 10
-291.84929191722119
 20
-354.10377557349148
 30
0.0
 11
-291.45771334056269
 21
-351.12944098936987
 31
0.0
  0
LINE
  5
1E4
100
AcDbEntity
  8
0
370
               0
390
0
 62
               1
100
AcDbLine
 10
-293.83777336143328
 20
-349.30315670234359
 30
0.0
 11
-296.60941195896964
 21
-350.45120699943891
 31
0.0
  0
LINE
  5
1E5
100
AcDbEntity
  8
0
370
               0
390
0
 62
               1
100
AcDbLine
 10
-296.60941195896964
 20
-350.45120699943891
 30
0.0
 11
-297.00099053562815
 21
-353.42554158356052
 31
0.0
  0
LINE
  5
1E6
100
AcDbEntity
  8
0
370
               0
390
0
 62
               1
100
AcDbLine
 10
-297.00099053562815
 20
-353.42554158356052
 30
0.0
 11
-294.62093051475392
 21
-355.2518258705868
 31
0.0
  0
CIRCLE
  5
1E7
100
AcDbEntity
  8
0
370
               0
390
0
 62
               1
100
AcDbCircle
 10
-294.22935193809542
 20
-352.27749128646428
 30
0.0
 40
5.0
  0
LINE
  5
1E8
100
AcDbEntity
  8
0
370
               0
390
0
 62
               1
100
AcDbLine
 10
-291.45771334056269
 20
-351.12944098936987
 30
0.0
 11
-293.83777336143328
 21
-349.30315670234359
 31
0.0
  0
LINE
  5
1E9
100
AcDbEntity
  8
0
370
               0
390
0
 62
               1
100
AcDbLine
 10
-294.62093051475392
 20
-355.2518258705868
 30
0.0
 11
-291.84929191722119
 21
-354.10377557349148
 31
0.0
  0
CIRCLE
  5
1EA
100
AcDbEntity
  8
0
370
               0
390
0
 62
               1
100
AcDbCircle
 10
-213.07367441026952
 20
-433.4806438024998
 30
0.0
 40
5.0
  0
LINE
  5
1EB
100
AcDbEntity
  8
0
370
               0
390
0
 62
               1
100
AcDbLine
 10
-210.09933982614973
 20
-433.08906522584039
 30
0.0
 11
-211.92562411317419
 21
-430.70900520496707
 31
0.0
  0
LINE
  5
1EC
100
AcDbEntity
  8
0
370
               0
390
0
 62
               1
100
AcDbLine
 10
-211.92562411317419
 20
-430.70900520496707
 30
0.0
 11
-214.89995869729762
 21
-431.10058378162739
 31
0.0
  0
LINE
  5
1ED
100
AcDbEntity
  8
0
370
               0
390
0
 62
               1
100
AcDbLine
 10
-214.89995869729762
 20
-431.10058378162739
 30
0.0
 11
-216.04800899439294
 21
-433.87222237916103
 31
0.0
  0
LINE
  5
1EE
100
AcDbEntity
  8
0
370
               0
390
0
 62
               1
100
AcDbLine
 10
-216.04800899439294
 20
-433.87222237916103
 30
0.0
 11
-214.22172470736848
 21
-436.25228240003435
 31
0.0
  0
LINE
  5
1EF
100
AcDbEntity
  8
0
370
               0
390
0
 62
               1
100
AcDbLine
 10
-214.22172470736848
 20
-436.25228240003435
 30
0.0
 11
-211.24739012324505
 21
-435.86070382337493
 31
0.0
  0
LINE
  5
1F0
100
AcDbEntity
  8
0
370
               0
390
0
 62
               1
100
AcDbLine
 10
-211.24739012324505
 20
-435.86070382337493
 30
0.0
 11
-210.09933982614973
 21
-433.08906522584039
 31
0.0
  0
CIRCLE
  5
1F1
100
AcDbEntity
  8
0
370
               0
390
0
 62
               1
100
AcDbCircle
 10
-17.065492184709797
 20
-352.35853616077929
 30
0.0
 40
5.0
  0
LINE
  5
1F2
100
AcDbEntity
  8
0
370
               0
390
0
 62
               1
100
AcDbLine
 10
-17.4570707613683
 20
-349.38420157665769
 30
0.0
 11
-19.837130782242525
 21
-351.21048586368397
 31
0.0
  0
LINE
  5
1F3
100
AcDbEntity
  8
0
370
               0
390
0
 62
               1
100
AcDbLine
 10
-19.837130782242525
 20
-351.21048586368397
 30
0.0
 11
-19.445552205584022
 21
-354.18482044780558
 31
0.0
  0
LINE
  5
1F4
100
AcDbEntity
  8
0
370
               0
390
0
 62
               1
100
AcDbLine
 10
-19.445552205584022
 20
-354.18482044780558
 30
0.0
 11
-16.673913608047656
 21
-355.3328707449009
 31
0.0
  0
LINE
  5
1F5
100
AcDbEntity
  8
0
370
               0
390
0
 62
               1
100
AcDbLine
 10
-16.673913608047656
 20
-355.3328707449009
 30
0.0
 11
-14.29385358717343
 21
-353.50658645787462
 31
0.0
  0
LINE
  5
1F6
100
AcDbEntity
  8
0
370
               0
390
0
 62
               1
100
AcDbLine
 10
-14.29385358717343
 20
-353.50658645787462
 30
0.0
 11
-14.685432163835571
 21
-350.53225187375301
 31
0.0
  0
LINE
  5
1F7
100
AcDbEntity
  8
0
370
               0
390
0
 62
               1
100
AcDbLine
 10
-14.685432163835571
 20
-350.53225187375301
 30
0.0
 11
-17.4570707613683
 21
-349.38420157665769
 31
0.0
  0
LINE
  5
1F8
100
AcDbEntity
  8
0
370
               0
390
0
 62
               1
100
AcDbLine
 10
-96.442360413719939
 20
-431.13415366772915
 30
0.0
 11
-99.416694997839727
 21
-430.74257509106883
 31
0.0
  0
LINE
  5
1F9
100
AcDbEntity
  8
0
370
               0
390
0
 62
               1
100
AcDbLine
 10
-99.416694997839727
 20
-430.74257509106883
 30
0.0
 11
-101.24297928486783
 21
-433.12263511194215
 31
0.0
  0
LINE
  5
1FA
100
AcDbEntity
  8
0
370
               0
390
0
 62
               1
100
AcDbLine
 10
-101.24297928486783
 20
-433.12263511194215
 30
0.0
 11
-100.09492898777251
 21
-435.89427370947669
 31
0.0
  0
LINE
  5
1FB
100
AcDbEntity
  8
0
370
               0
390
0
 62
               1
100
AcDbLine
 10
-100.09492898777251
 20
-435.89427370947669
 30
0.0
 11
-97.120594403649079
 21
-436.28585228613611
 31
0.0
  0
LINE
  5
1FC
100
AcDbEntity
  8
0
370
               0
390
0
 62
               1
100
AcDbLine
 10
-97.120594403649079
 20
-436.28585228613611
 30
0.0
 11
-95.294310116624615
 21
-433.90579226526279
 31
0.0
  0
LINE
  5
1FD
100
AcDbEntity
  8
0
370
               0
390
0
 62
               1
100
AcDbLine
 10
-95.294310116624615
 20
-433.90579226526279
 30
0.0
 11
-96.442360413719939
 21
-431.13415366772915
 31
0.0
  0
LINE
  5
1FE
100
AcDbEntity
  8
0
370
               0
390
0
 62
               1
100
AcDbLine
 10
-291.42414345446093
 20
-238.62051187403267
 30
0.0
 11
-291.81572203111944
 21
-235.64617728991198
 31
0.0
  0
LINE
  5
1FF
100
AcDbEntity
  8
0
370
               0
390
0
 62
               1
100
AcDbLine
 10
-294.58736062865216
 20
-234.49812699281665
 30
0.0
 11
-296.96742064952639
 21
-236.32441127984202
 31
0.0
  0
LINE
  5
200
100
AcDbEntity
  8
0
370
               0
390
0
 62
               1
100
AcDbLine
 10
-296.96742064952639
 20
-236.32441127984202
 30
0.0
 11
-296.57584207286789
 21
-239.29874586396363
 31
0.0
  0
LINE
  5
201
100
AcDbEntity
  8
0
370
               0
390
0
 62
               1
100
AcDbLine
 10
-296.57584207286789
 20
-239.29874586396363
 30
0.0
 11
-293.80420347533152
 21
-240.44679616105896
 31
0.0
  0
CIRCLE
  5
202
100
AcDbEntity
  8
0
370
               0
390
0
 62
               1
100
AcDbCircle
 10
-294.19578205199366
 20
-237.47246157693735
 30
0.0
 40
5.0
  0
LINE
  5
203
100
AcDbEntity
  8
0
370
               0
390
0
 62
               1
100
AcDbLine
 10
-293.80420347533152
 20
-240.44679616105896
 30
0.0
 11
-291.42414345446093
 21
-238.62051187403267
 31
0.0
  0
LINE
  5
204
100
AcDbEntity
  8
0
370
               0
390
0
 62
               1
100
AcDbLine
 10
-291.81572203111944
 20
-235.64617728991198
 30
0.0
 11
-294.58736062865216
 21
-234.49812699281665
 31
0.0
  0
CIRCLE
  5
205
100
AcDbEntity
  8
0
370
               0
390
0
 62
               1
100
AcDbCircle
 10
-17.031922298608038
 20
-237.55350645125236
 30
0.0
 40
5.0
  0
LINE
  5
206
100
AcDbEntity
  8
0
370
               0
390
0
 62
               1
100
AcDbLine
 10
-19.411982319482263
 20
-235.72722216422608
 30
0.0
 11
-19.803560896140766
 21
-238.70155674834768
 31
0.0
  0
LINE
  5
207
100
AcDbEntity
  8
0
370
               0
390
0
 62
               1
100
AcDbLine
 10
-19.803560896140766
 20
-238.70155674834768
 30
0.0
 11
-17.423500875266541
 21
-240.52784103537397
 31
0.0
  0
LINE
  5
208
100
AcDbEntity
  8
0
370
               0
390
0
 62
               1
100
AcDbLine
 10
-17.423500875266541
 20
-240.52784103537397
 30
0.0
 11
-14.651862277733812
 21
-239.37979073827864
 31
0.0
  0
LINE
  5
209
100
AcDbEntity
  8
0
370
               0
390
0
 62
               1
100
AcDbLine
 10
-14.651862277733812
 20
-239.37979073827864
 30
0.0
 11
-14.260283701071671
 21
-236.40545615415704
 31
0.0
  0
LINE
  5
20A
100
AcDbEntity
  8
0
370
               0
390
0
 62
               1
100
AcDbLine
 10
-14.260283701071671
 20
-236.40545615415704
 30
0.0
 11
-16.640343721945897
 21
-234.57917186713075
 31
0.0
  0
LINE
  5
20B
100
AcDbEntity
  8
0
370
               0
390
0
 62
               1
100
AcDbLine
 10
-16.640343721945897
 20
-234.57917186713075
 30
0.0
 11
-19.411982319482263
 21
-235.72722216422608
 31
0.0
  0
CIRCLE
  5
20C
100
AcDbEntity
  8
0
370
               0
390
0
 62
               1
100
AcDbCircle
 10
-98.187599826430301
 20
-156.35035393521594
 30
0.0
 40
5.0
  0
CIRCLE
  5
20D
100
AcDbEntity
  8
0
370
               0
390
0
 62
               1
100
AcDbCircle
 10
-212.99262953595542
 20
-156.31678404911418
 30
0.0
 40
5.0
  0
LINE
  5
20E
100
AcDbEntity
  8
0
370
               0
390
0
 62
               1
100
AcDbLine
 10
-214.81891382298352
 20
-158.6968440699884
 30
0.0
 11
-211.84457923886009
 21
-159.08842264664872
 31
0.0
  0
LINE
  5
20F
100
AcDbEntity
  8
0
370
               0
390
0
 62
               1
100
AcDbLine
 10
-211.84457923886009
 20
-159.08842264664872
 30
0.0
 11
-210.01829495183563
 21
-156.7083626257745
 31
0.0
  0
LINE
  5
210
100
AcDbEntity
  8
0
370
               0
390
0
 62
               1
100
AcDbLine
 10
-210.01829495183563
 20
-156.7083626257745
 30
0.0
 11
-211.16634524893095
 21
-153.93672402824086
 31
0.0
  0
LINE
  5
211
100
AcDbEntity
  8
0
370
               0
390
0
 62
               1
100
AcDbLine
 10
-211.16634524893095
 20
-153.93672402824086
 30
0.0
 11
-214.14067983305074
 21
-153.54514545158054
 31
0.0
  0
LINE
  5
212
100
AcDbEntity
  8
0
370
               0
390
0
 62
               1
100
AcDbLine
 10
-214.14067983305074
 20
-153.54514545158054
 30
0.0
 11
-215.96696412007884
 21
-155.92520547245476
 31
0.0
  0
LINE
  5
213
100
AcDbEntity
  8
0
370
               0
390
0
 62
               1
100
AcDbLine
 10
-215.96696412007884
 20
-155.92520547245476
 30
0.0
 11
-214.81891382298352
 21
-158.6968440699884
 31
0.0
  0
LINE
  5
214
100
AcDbEntity
  8
0
370
               0
390
0
 62
               1
100
AcDbLine
 10
-101.16193441055009
 20
-156.74193251187626
 30
0.0
 11
-99.335650123525625
 21
-159.12199253275048
 31
0.0
  0
LINE
  5
215
100
AcDbEntity
  8
0
370
               0
390
0
 62
               1
100
AcDbLine
 10
-99.335650123525625
 20
-159.12199253275048
 30
0.0
 11
-96.361315539405837
 21
-158.73041395609016
 31
0.0
  0
LINE
  5
216
100
AcDbEntity
  8
0
370
               0
390
0
 62
               1
100
AcDbLine
 10
-96.361315539405837
 20
-158.73041395609016
 30
0.0
 11
-95.213265242310513
 21
-155.95877535855652
 31
0.0
  0
LINE
  5
217
100
AcDbEntity
  8
0
370
               0
390
0
 62
               1
100
AcDbLine
 10
-95.213265242310513
 20
-155.95877535855652
 30
0.0
 11
-97.039549529334977
 21
-153.5787153376823
 31
0.0
  0
LINE
  5
218
100
AcDbEntity
  8
0
370
               0
390
0
 62
               1
100
AcDbLine
 10
-97.039549529334977
 20
-153.5787153376823
 30
0.0
 11
-100.01388411345476
 21
-153.97029391434262
 31
0.0
  0
LINE
  5
219
100
AcDbEntity
  8
0
370
               0
390
0
 62
               1
100
AcDbLine
 10
-100.01388411345476
 20
-153.97029391434262
 30
0.0
 11
-101.16193441055009
 21
-156.74193251187626
 31
0.0
  0
ENDBLK
  5
21A
100
AcDbEntity
  8
0
390
0
100
AcDbBlockEnd
  0
BLOCK
  5
21B
100
AcDbEntity
  8
0
390
0
100
AcDbBlockBegin
  2
グループ-5
 70
               0
 10
0.0
 20
0.0
 30
0.0
  3
グループ-5
  1

  0
LINE
  5
21C
100
AcDbEntity
  8
0
370
               0
390
0
  6
Continuous
 62
              30
100
AcDbLine
 10
-930.26233810197743
 20
97.084471567241962
 30
0.0
 11
-930.26233810197743
 21
-566.91549943509835
 31
0.0
  0
LINE
  5
21D
100
AcDbEntity
  8
0
370
               0
390
0
  6
Continuous
 62
              30
100
AcDbLine
 10
-584.26238197099599
 20
97.084471567241962
 30
0.0
 11
-584.26238197099599
 21
-566.91549943509835
 31
0.0
  0
LINE
  5
21E
100
AcDbEntity
  8
0
370
               0
390
0
  6
Continuous
 62
              30
100
AcDbLine
 10
-931.66590827714833
 20
97.084471567241962
 30
0.0
 11
-931.66590827714833
 21
-566.91549943509835
 31
0.0
  0
LINE
  5
21F
100
AcDbEntity
  8
0
370
               0
390
0
  6
Continuous
 62
              30
100
AcDbLine
 10
-954.16582721483144
 20
-566.91549943509835
 30
0.0
 11
-954.16582721483144
 21
97.084471567241962
 31
0.0
  0
LINE
  5
220
100
AcDbEntity
  8
0
370
               0
390
0
  6
Continuous
 62
              30
100
AcDbLine
 10
-954.26238673936757
 20
-566.91549943509835
 30
0.0
 11
-954.26238673936757
 21
97.084471567241962
 31
0.0
  0
LINE
  5
221
100
AcDbEntity
  8
0
370
               0
390
0
  6
Continuous
 62
              30
100
AcDbLine
 10
-584.26238197099599
 20
-584.91549866023797
 30
0.0
 11
-657.10557597886952
 21
-584.91549866023797
 31
0.0
  0
LINE
  5
222
100
AcDbEntity
  8
0
370
               0
390
0
  6
Continuous
 62
              30
100
AcDbLine
 10
-930.26233810197743
 20
-566.91549943509835
 30
0.0
 11
-584.26238197099599
 21
-566.91549943509835
 31
0.0
  0
LINE
  5
223
100
AcDbEntity
  8
0
370
               0
390
0
  6
Continuous
 62
              30
100
AcDbLine
 10
-930.26233810197743
 20
-575.91549904766816
 30
0.0
 11
-584.26238197099599
 21
-575.91549904766816
 31
0.0
  0
LINE
  5
224
100
AcDbEntity
  8
0
370
               0
390
0
  6
Continuous
 62
              30
100
AcDbLine
 10
-657.10557597886952
 20
-584.91549866023797
 30
0.0
 11
-930.26233810197743
 21
-584.91549866023797
 31
0.0
  0
LINE
  5
225
100
AcDbEntity
  8
0
370
               0
390
0
  6
Continuous
 62
              30
100
AcDbLine
 10
-954.16582721483144
 20
-584.91549866023797
 30
0.0
 11
-976.72558921586904
 21
-584.91549866023797
 31
0.0
  0
LINE
  5
226
100
AcDbEntity
  8
0
370
               0
390
0
  6
Continuous
 62
              30
100
AcDbLine
 10
-976.72558921586904
 20
-570.91550009074945
 30
0.0
 11
-954.16582721483144
 21
-570.91550009074945
 31
0.0
  0
LINE
  5
227
100
AcDbEntity
  8
0
370
               0
390
0
  6
Continuous
 62
              30
100
AcDbLine
 10
-972.80217307817372
 20
-566.91549943509835
 30
0.0
 11
-954.16582721483144
 21
-566.91549943509835
 31
0.0
  0
LINE
  5
228
100
AcDbEntity
  8
0
370
               0
390
0
  6
Continuous
 62
              30
100
AcDbLine
 10
-991.71568053972157
 20
-570.91550009074945
 30
0.0
 11
-991.71568053972157
 21
-584.91549866023797
 31
0.0
  0
LINE
  5
229
100
AcDbEntity
  8
0
370
               0
390
0
  6
Continuous
 62
              30
100
AcDbLine
 10
-987.71573203813466
 20
-566.91549943509835
 30
0.0
 11
-987.71573203813466
 21
-570.91550009074945
 31
0.0
  0
LINE
  5
22A
100
AcDbEntity
  8
0
370
               0
390
0
  6
Continuous
 62
              30
100
AcDbLine
 10
-976.72558921586904
 20
-570.91550009074945
 30
0.0
 11
-976.72558921586904
 21
-584.91549866023797
 31
0.0
  0
LINE
  5
22B
100
AcDbEntity
  8
0
370
               0
390
0
  6
Continuous
 62
              30
100
AcDbLine
 10
-972.80217307817372
 20
-570.91550009074945
 30
0.0
 11
-972.80217307817372
 21
-566.91549943509835
 31
0.0
  0
LINE
  5
22C
100
AcDbEntity
  8
0
370
               0
390
0
  6
Continuous
 62
              30
100
AcDbLine
 10
-976.72558921586904
 20
-584.91549866023797
 30
0.0
 11
-991.71568053972157
 21
-584.91549866023797
 31
0.0
  0
LINE
  5
22D
100
AcDbEntity
  8
0
370
               0
390
0
  6
Continuous
 62
              30
100
AcDbLine
 10
-991.71568053972157
 20
-570.91550009074945
 30
0.0
 11
-976.72558921586904
 21
-570.91550009074945
 31
0.0
  0
LINE
  5
22E
100
AcDbEntity
  8
0
370
               0
390
0
  6
Continuous
 62
              30
100
AcDbLine
 10
-987.71573203813466
 20
-566.91549943509835
 30
0.0
 11
-972.80217307817372
 21
-566.91549943509835
 31
0.0
  0
LINE
  5
22F
100
AcDbEntity
  8
0
370
               0
390
0
  6
Continuous
 62
              30
100
AcDbLine
 10
-954.16582721483144
 20
-584.91549866023797
 30
0.0
 11
-930.26233810197743
 21
-584.91549866023797
 31
0.0
  0
LINE
  5
230
100
AcDbEntity
  8
0
370
               0
390
0
  6
Continuous
 62
              30
100
AcDbLine
 10
-931.66590827714833
 20
-570.91550009074945
 30
0.0
 11
-954.16582721483144
 21
-570.91550009074945
 31
0.0
  0
LINE
  5
231
100
AcDbEntity
  8
0
370
               0
390
0
  6
Continuous
 62
              30
100
AcDbLine
 10
-954.16582721483144
 20
-566.91549943509835
 30
0.0
 11
-931.66590827714833
 21
-566.91549943509835
 31
0.0
  0
LINE
  5
232
100
AcDbEntity
  8
0
370
               0
390
0
  6
Continuous
 62
              30
100
AcDbLine
 10
-954.16582721483144
 20
-570.91550009074945
 30
0.0
 11
-954.16582721483144
 21
-584.91549866023797
 31
0.0
  0
LINE
  5
233
100
AcDbEntity
  8
0
370
               0
390
0
  6
Continuous
 62
              30
100
AcDbLine
 10
-954.16582721483144
 20
-570.91550009074945
 30
0.0
 11
-954.16582721483144
 21
-566.91549943509835
 31
0.0
  0
LINE
  5
234
100
AcDbEntity
  8
0
370
               0
390
0
  6
Continuous
 62
              30
100
AcDbLine
 10
-954.26238673936757
 20
-566.91549943509835
 30
0.0
 11
-954.16582721483144
 21
-566.91549943509835
 31
0.0
  0
LINE
  5
235
100
AcDbEntity
  8
0
370
               0
390
0
  6
Continuous
 62
              30
100
AcDbLine
 10
-930.26233810197743
 20
-566.91549943509835
 30
0.0
 11
-930.26233810197743
 21
-575.91549904766816
 31
0.0
  0
LINE
  5
236
100
AcDbEntity
  8
0
370
               0
390
0
  6
Continuous
 62
              30
100
AcDbLine
 10
-931.66590827714833
 20
-566.91549943509835
 30
0.0
 11
-931.66590827714833
 21
-570.91550009074945
 31
0.0
  0
LINE
  5
237
100
AcDbEntity
  8
0
370
               0
390
0
  6
Continuous
 62
              30
100
AcDbLine
 10
-930.26233810197743
 20
-584.91549866023797
 30
0.0
 11
-930.26233810197743
 21
-575.91549904766816
 31
0.0
  0
LINE
  5
238
100
AcDbEntity
  8
0
370
               0
390
0
  6
Continuous
 62
              30
100
AcDbLine
 10
-930.26233810197743
 20
-566.91549943509835
 30
0.0
 11
-931.66590827714833
 21
-566.91549943509835
 31
0.0
  0
LINE
  5
239
100
AcDbEntity
  8
0
370
               0
390
0
  6
Continuous
 62
              30
100
AcDbLine
 10
-657.10557597886952
 20
-575.91549904766816
 30
0.0
 11
-657.10557597886952
 21
-584.91549866023797
 31
0.0
  0
CIRCLE
  5
23A
100
AcDbEntity
  8
0
370
               0
390
0
  6
Continuous
 62
              30
100
AcDbCircle
 10
-821.0403965508275
 20
-272.90485505681227
 30
0.0
 40
3.3847198291841778
  0
ARC
  5
23B
100
AcDbEntity
  8
0
370
               0
390
0
  6
Continuous
 62
              30
100
AcDbCircle
 10
-823.13347292221158
 20
-272.89935939203951
 30
0.0
 40
3.3940394646263412
100
AcDbArc
 50
359.72746724077376
 51
71.311288293561745
  0
ARC
  5
23C
100
AcDbEntity
  8
0
370
               0
390
0
  6
Continuous
 62
              30
100
AcDbCircle
 10
-823.13341827282136
 20
-272.93165676128319
 30
0.0
 40
3.393984860390217
100
AcDbArc
 50
288.68804960069002
 51
0.272695084720965
  0
CIRCLE
  5
23D
100
AcDbEntity
  8
0
370
               0
390
0
  6
Continuous
 62
              30
100
AcDbCircle
 10
-820.96779509608757
 20
-196.92648014658425
 30
0.0
 40
3.3846172410449071
  0
ARC
  5
23E
100
AcDbEntity
  8
0
370
               0
390
0
  6
Continuous
 62
              30
100
AcDbCircle
 10
-823.14473431507656
 20
-196.91549839201707
 30
0.0
 40
3.4129169079596138
100
AcDbArc
 50
288.7811158589268
 51
71.218884141073161
  0
LINE
  5
23F
100
AcDbEntity
  8
0
370
               0
390
0
  6
Continuous
 62
              30
100
AcDbLine
 10
-566.26237529527577
 20
-584.91549866023797
 30
0.0
 11
-566.26237529527577
 21
-566.91549943509835
 31
0.0
  0
LINE
  5
240
100
AcDbEntity
  8
0
370
               0
390
0
  6
Continuous
 62
              30
100
AcDbLine
 10
-584.26238197099599
 20
-566.91549943509835
 30
0.0
 11
-584.26238197099599
 21
-575.91549904766816
 31
0.0
  0
LINE
  5
241
100
AcDbEntity
  8
0
370
               0
390
0
  6
Continuous
 62
              30
100
AcDbLine
 10
-584.26238197099599
 20
-575.91549904766816
 30
0.0
 11
-584.26238197099599
 21
-584.91549866023797
 31
0.0
  0
LINE
  5
242
100
AcDbEntity
  8
0
370
               0
390
0
  6
Continuous
 62
              30
100
AcDbLine
 10
-584.26238197099599
 20
-584.91549866023797
 30
0.0
 11
-566.26237529527577
 21
-584.91549866023797
 31
0.0
  0
LINE
  5
243
100
AcDbEntity
  8
0
370
               0
390
0
  6
Continuous
 62
              30
100
AcDbLine
 10
-584.26238197099599
 20
-566.91549943509835
 30
0.0
 11
-566.26237529527577
 21
-566.91549943509835
 31
0.0
  0
LINE
  5
244
100
AcDbEntity
  8
0
370
               0
390
0
  6
Continuous
 62
              30
100
AcDbLine
 10
-584.26238197099599
 20
115.08447824296218
 30
0.0
 11
-657.10557597886952
 21
115.08447824296218
 31
0.0
  0
LINE
  5
245
100
AcDbEntity
  8
0
370
               0
390
0
  6
Continuous
 62
              30
100
AcDbLine
 10
-930.26233810197743
 20
97.084471567241962
 30
0.0
 11
-584.26238197099599
 21
97.084471567241962
 31
0.0
  0
LINE
  5
246
100
AcDbEntity
  8
0
370
               0
390
0
  6
Continuous
 62
              30
100
AcDbLine
 10
-584.26238197099599
 20
106.08447490510207
 30
0.0
 11
-930.26233810197743
 21
106.08447490510207
 31
0.0
  0
LINE
  5
247
100
AcDbEntity
  8
0
370
               0
390
0
  6
Continuous
 62
              30
100
AcDbLine
 10
-930.26233810197743
 20
115.08447824296218
 30
0.0
 11
-657.10557597886952
 21
115.08447824296218
 31
0.0
  0
LINE
  5
248
100
AcDbEntity
  8
0
370
               0
390
0
  6
Continuous
 62
              30
100
AcDbLine
 10
-976.72558921586904
 20
115.08447824296218
 30
0.0
 11
-954.16582721483144
 21
115.08447824296218
 31
0.0
  0
LINE
  5
249
100
AcDbEntity
  8
0
370
               0
390
0
  6
Continuous
 62
              30
100
AcDbLine
 10
-954.16582721483144
 20
101.08447967347365
 30
0.0
 11
-976.72558921586904
 21
101.08447967347365
 31
0.0
  0
LINE
  5
24A
100
AcDbEntity
  8
0
370
               0
390
0
  6
Continuous
 62
              30
100
AcDbLine
 10
-954.16582721483144
 20
97.084471567241962
 30
0.0
 11
-972.80217307817372
 21
97.084471567241962
 31
0.0
  0
LINE
  5
24B
100
AcDbEntity
  8
0
370
               0
390
0
  6
Continuous
 62
              30
100
AcDbLine
 10
-987.71573203813466
 20
101.08447967347365
 30
0.0
 11
-987.71573203813466
 21
97.084471567241962
 31
0.0
  0
LINE
  5
24C
100
AcDbEntity
  8
0
370
               0
390
0
  6
Continuous
 62
              30
100
AcDbLine
 10
-972.80217307817372
 20
101.08447967347365
 30
0.0
 11
-972.80217307817372
 21
97.084471567241962
 31
0.0
  0
LINE
  5
24D
100
AcDbEntity
  8
0
370
               0
390
0
  6
Continuous
 62
              30
100
AcDbLine
 10
-972.80217307817372
 20
97.084471567241962
 30
0.0
 11
-987.71573203813466
 21
97.084471567241962
 31
0.0
  0
LINE
  5
24E
100
AcDbEntity
  8
0
370
               0
390
0
  6
Continuous
 62
              30
100
AcDbLine
 10
-991.71568053972157
 20
115.08447824296218
 30
0.0
 11
-991.71568053972157
 21
101.08447967347365
 31
0.0
  0
LINE
  5
24F
100
AcDbEntity
  8
0
370
               0
390
0
  6
Continuous
 62
              30
100
AcDbLine
 10
-976.72558921586904
 20
101.08447967347365
 30
0.0
 11
-976.72558921586904
 21
115.08447824296218
 31
0.0
  0
LINE
  5
250
100
AcDbEntity
  8
0
370
               0
390
0
  6
Continuous
 62
              30
100
AcDbLine
 10
-991.71568053972157
 20
115.08447824296218
 30
0.0
 11
-976.72558921586904
 21
115.08447824296218
 31
0.0
  0
LINE
  5
251
100
AcDbEntity
  8
0
370
               0
390
0
  6
Continuous
 62
              30
100
AcDbLine
 10
-976.72558921586904
 20
101.08447967347365
 30
0.0
 11
-991.71568053972157
 21
101.08447967347365
 31
0.0
  0
LINE
  5
252
100
AcDbEntity
  8
0
370
               0
390
0
  6
Continuous
 62
              30
100
AcDbLine
 10
-930.26233810197743
 20
106.08447490510207
 30
0.0
 11
-930.26233810197743
 21
97.084471567241962
 31
0.0
  0
LINE
  5
253
100
AcDbEntity
  8
0
370
               0
390
0
  6
Continuous
 62
              30
100
AcDbLine
 10
-931.66590827714833
 20
101.08447967347365
 30
0.0
 11
-931.66590827714833
 21
97.084471567241962
 31
0.0
  0
LINE
  5
254
100
AcDbEntity
  8
0
370
               0
390
0
  6
Continuous
 62
              30
100
AcDbLine
 10
-954.16582721483144
 20
101.08447967347365
 30
0.0
 11
-954.16582721483144
 21
97.084471567241962
 31
0.0
  0
LINE
  5
255
100
AcDbEntity
  8
0
370
               0
390
0
  6
Continuous
 62
              30
100
AcDbLine
 10
-954.16582721483144
 20
97.084471567241962
 30
0.0
 11
-931.66590827714833
 21
97.084471567241962
 31
0.0
  0
LINE
  5
256
100
AcDbEntity
  8
0
370
               0
390
0
  6
Continuous
 62
              30
100
AcDbLine
 10
-954.26238673936757
 20
97.084471567241962
 30
0.0
 11
-954.16582721483144
 21
97.084471567241962
 31
0.0
  0
LINE
  5
257
100
AcDbEntity
  8
0
370
               0
390
0
  6
Continuous
 62
              30
100
AcDbLine
 10
-930.26233810197743
 20
97.084471567241962
 30
0.0
 11
-931.66590827714833
 21
97.084471567241962
 31
0.0
  0
LINE
  5
258
100
AcDbEntity
  8
0
370
               0
390
0
  6
Continuous
 62
              30
100
AcDbLine
 10
-931.66590827714833
 20
101.08447967347365
 30
0.0
 11
-954.16582721483144
 21
101.08447967347365
 31
0.0
  0
LINE
  5
259
100
AcDbEntity
  8
0
370
               0
390
0
  6
Continuous
 62
              30
100
AcDbLine
 10
-930.26233810197743
 20
115.08447824296218
 30
0.0
 11
-954.16582721483144
 21
115.08447824296218
 31
0.0
  0
LINE
  5
25A
100
AcDbEntity
  8
0
370
               0
390
0
  6
Continuous
 62
              30
100
AcDbLine
 10
-954.16582721483144
 20
115.08447824296218
 30
0.0
 11
-954.16582721483144
 21
101.08447967347365
 31
0.0
  0
LINE
  5
25B
100
AcDbEntity
  8
0
370
               0
390
0
  6
Continuous
 62
              30
100
AcDbLine
 10
-930.26233810197743
 20
106.08447490510207
 30
0.0
 11
-930.26233810197743
 21
115.08447824296218
 31
0.0
  0
LINE
  5
25C
100
AcDbEntity
  8
0
370
               0
390
0
  6
Continuous
 62
              30
100
AcDbLine
 10
-657.10557597886952
 20
115.08447824296218
 30
0.0
 11
-657.10557597886952
 21
106.08447490510207
 31
0.0
  0
LINE
  5
25D
100
AcDbEntity
  8
0
370
               0
390
0
  6
Continuous
 62
              30
100
AcDbLine
 10
-566.26237529527577
 20
97.084471567241962
 30
0.0
 11
-566.26237529527577
 21
115.08447824296218
 31
0.0
  0
LINE
  5
25E
100
AcDbEntity
  8
0
370
               0
390
0
  6
Continuous
 62
              30
100
AcDbLine
 10
-584.26238197099599
 20
97.084471567241962
 30
0.0
 11
-584.26238197099599
 21
106.08447490510207
 31
0.0
  0
LINE
  5
25F
100
AcDbEntity
  8
0
370
               0
390
0
  6
Continuous
 62
              30
100
AcDbLine
 10
-566.26237529527577
 20
97.084471567241962
 30
0.0
 11
-584.26238197099599
 21
97.084471567241962
 31
0.0
  0
LINE
  5
260
100
AcDbEntity
  8
0
370
               0
390
0
  6
Continuous
 62
              30
100
AcDbLine
 10
-584.26238197099599
 20
115.08447824296218
 30
0.0
 11
-584.26238197099599
 21
106.08447490510207
 31
0.0
  0
LINE
  5
261
100
AcDbEntity
  8
0
370
               0
390
0
  6
Continuous
 62
              30
100
AcDbLine
 10
-566.26237529527577
 20
115.08447824296218
 30
0.0
 11
-584.26238197099599
 21
115.08447824296218
 31
0.0
  0
ENDBLK
  5
262
100
AcDbEntity
  8
0
390
0
100
AcDbBlockEnd
  0
BLOCK
  5
263
100
AcDbEntity
  8
寸法
390
0
100
AcDbBlockBegin
  2
*D7
 70
               1
 10
0.0
 20
0.0
 30
0.0
  3
*D7
  1

  0
LINE
  5
264
100
AcDbEntity
  8
寸法
370
              -2
390
0
  6
Continuous
 62
               0
100
AcDbLine
 10
32712.520647735426
 20
3562.6015575446709
 30
0.0
 11
32437.520647735426
 21
3562.6015575446709
 31
0.0
  0
LINE
  5
265
100
AcDbEntity
  8
寸法
370
              -2
390
0
  6
Continuous
 62
               0
100
AcDbLine
 10
32712.520647735339
 20
3137.1654988688579
 30
0.0
 11
32437.520647735426
 21
3137.1654988688579
 31
0.0
  0
LINE
  5
266
100
AcDbEntity
  8
寸法
370
              -2
390
0
  6
Continuous
 62
               0
100
AcDbLine
 10
32467.520647735426
 20
3562.6015575446709
 30
0.0
 11
32467.520647735426
 21
3137.1654988688579
 31
0.0
  0
POLYLINE
  5
267
100
AcDbEntity
  8
0
370
              -2
390
0
  6
Continuous
 62
               0
100
AcDb2dPolyline
 66
               1
 10
0.0
 20
0.0
 30
0.0
 75
               5
  0
VERTEX
  5
268
100
AcDbEntity
  8
0
370
              -2
390
0
  6
Continuous
 62
               0
100
AcDbVertex
100
AcDb2dVertex
 10
32457.470050808173
 20
3525.0922191657646
 30
0.0
  0
VERTEX
  5
269
100
AcDbEntity
  8
0
370
              -2
390
0
  6
Continuous
 62
               0
100
AcDbVertex
100
AcDb2dVertex
 10
32467.520647735426
 20
3562.6015575446709
 30
0.0
  0
VERTEX
  5
26A
100
AcDbEntity
  8
0
370
              -2
390
0
  6
Continuous
 62
               0
100
AcDbVertex
100
AcDb2dVertex
 10
32477.571244662679
 20
3525.0922191657646
 30
0.0
  0
SEQEND
  5
26B
100
AcDbEntity
  8
0
370
              -2
390
0
  6
Continuous
 62
               0
  0
POLYLINE
  5
26C
100
AcDbEntity
  8
0
370
              -2
390
0
  6
Continuous
 62
               0
100
AcDb2dPolyline
 66
               1
 10
0.0
 20
0.0
 30
0.0
 75
               5
  0
VERTEX
  5
26D
100
AcDbEntity
  8
0
370
              -2
390
0
  6
Continuous
 62
               0
100
AcDbVertex
100
AcDb2dVertex
 10
32477.571244662679
 20
3174.6748372477641
 30
0.0
  0
VERTEX
  5
26E
100
AcDbEntity
  8
0
370
              -2
390
0
  6
Continuous
 62
               0
100
AcDbVertex
100
AcDb2dVertex
 10
32467.520647735426
 20
3137.1654988688579
 30
0.0
  0
VERTEX
  5
26F
100
AcDbEntity
  8
0
370
              -2
390
0
  6
Continuous
 62
               0
100
AcDbVertex
100
AcDb2dVertex
 10
32457.470050808173
 20
3174.6748372477641
 30
0.0
  0
SEQEND
  5
270
100
AcDbEntity
  8
0
370
              -2
390
0
  6
Continuous
 62
               0
  0
WIPEOUT
  5
271
100
AcDbEntity
  8
寸法
370
              -2
390
0
  6
Continuous
 62
               0
 92
        0
100
AcDbWipeout
 90
        0
 10
32383.820647735425
 20
31851.835790022138
 30
0.0
 11
114.29999192555749
 21
0.0
 31
0.0
 12
0.0
 22
114.29999192555749
 32
0.0
 13
1.0
 23
1.0
340
0
 70
               7
280
               1
281
              50
282
              50
283
               0
360
0
 71
               2
 91
        5
 14
0.1666667137617041
 24
250.12806475583881
 14
0.1666667137617041
 24
249.12806475583878
 14
-0.5
 24
249.12806475583878
 14
-0.5
 24
250.12806475583881
 14
0.1666667137617041
 24
250.12806475583881
  0
MTEXT
  5
272
100
AcDbEntity
  8
寸法
390
0
 62
               0
100
AcDbMText
 10
32390.714366485427
 20
3319.3500040372214
 30
0.0
 40
58.63828125000029
 41
0.0
 71
               1
 72
               1
  1
{\fＭＳ ゴシック|b0|i0|c128|p0;\l425}
 11
0.0
 21
1.0
 31
0.0
 73
               1
 44
0.7828267384257842
  0
POINT
  5
273
100
AcDbEntity
  8
Defpoints
370
               0
390
0
 62
               0
100
AcDbPoint
 10
32742.520647735339
 20
3137.1654988688579
 30
0.0
  0
POINT
  5
274
100
AcDbEntity
  8
Defpoints
370
               0
390
0
 62
               0
100
AcDbPoint
 10
32742.520647735426
 20
3562.6015575446709
 30
0.0
  0
POINT
  5
275
100
AcDbEntity
  8
Defpoints
370
               0
390
0
 62
               0
100
AcDbPoint
 10
32467.520647735426
 20
3562.6015575446709
 30
0.0
  0
ENDBLK
  5
276
100
AcDbEntity
  8
寸法
390
0
100
AcDbBlockEnd
  0
BLOCK
  5
277
100
AcDbEntity
  8
寸法
390
0
100
AcDbBlockBegin
  2
*D8
 70
               1
 10
0.0
 20
0.0
 30
0.0
  3
*D8
  1

  0
LINE
  5
278
100
AcDbEntity
  8
寸法
370
              -2
390
0
  6
Continuous
 62
               0
100
AcDbLine
 10
32541.520552727186
 20
3780.7500002086199
 30
0.0
 11
32437.520647735426
 21
3780.7500002086199
 31
0.0
  0
LINE
  5
279
100
AcDbEntity
  8
寸法
370
              -2
390
0
  6
Continuous
 62
               0
100
AcDbLine
 10
32541.520552727186
 20
4480.74997711182
 30
0.0
 11
32437.520647735426
 21
4480.74997711182
 31
0.0
  0
LINE
  5
27A
100
AcDbEntity
  8
寸法
370
              -2
390
0
  6
Continuous
 62
               0
100
AcDbLine
 10
32467.520647735426
 20
3780.7500002086199
 30
0.0
 11
32467.520647735426
 21
4480.74997711182
 31
0.0
  0
POLYLINE
  5
27B
100
AcDbEntity
  8
0
370
              -2
390
0
  6
Continuous
 62
               0
100
AcDb2dPolyline
 66
               1
 10
0.0
 20
0.0
 30
0.0
 75
               5
  0
VERTEX
  5
27C
100
AcDbEntity
  8
0
370
              -2
390
0
  6
Continuous
 62
               0
100
AcDbVertex
100
AcDb2dVertex
 10
32477.571244662679
 20
3818.2593385875261
 30
0.0
  0
VERTEX
  5
27D
100
AcDbEntity
  8
0
370
              -2
390
0
  6
Continuous
 62
               0
100
AcDbVertex
100
AcDb2dVertex
 10
32467.520647735426
 20
3780.7500002086199
 30
0.0
  0
VERTEX
  5
27E
100
AcDbEntity
  8
0
370
              -2
390
0
  6
Continuous
 62
               0
100
AcDbVertex
100
AcDb2dVertex
 10
32457.470050808173
 20
3818.2593385875261
 30
0.0
  0
SEQEND
  5
27F
100
AcDbEntity
  8
0
370
              -2
390
0
  6
Continuous
 62
               0
  0
POLYLINE
  5
280
100
AcDbEntity
  8
0
370
              -2
390
0
  6
Continuous
 62
               0
100
AcDb2dPolyline
 66
               1
 10
0.0
 20
0.0
 30
0.0
 75
               5
  0
VERTEX
  5
281
100
AcDbEntity
  8
0
370
              -2
390
0
  6
Continuous
 62
               0
100
AcDbVertex
100
AcDb2dVertex
 10
32457.470050808173
 20
4443.2406387329138
 30
0.0
  0
VERTEX
  5
282
100
AcDbEntity
  8
0
370
              -2
390
0
  6
Continuous
 62
               0
100
AcDbVertex
100
AcDb2dVertex
 10
32467.520647735426
 20
4480.74997711182
 30
0.0
  0
VERTEX
  5
283
100
AcDbEntity
  8
0
370
              -2
390
0
  6
Continuous
 62
               0
100
AcDbVertex
100
AcDb2dVertex
 10
32477.571244662679
 20
4443.2406387329138
 30
0.0
  0
SEQEND
  5
284
100
AcDbEntity
  8
0
370
              -2
390
0
  6
Continuous
 62
               0
  0
WIPEOUT
  5
285
100
AcDbEntity
  8
寸法
370
              -2
390
0
  6
Continuous
 62
               0
 92
        0
100
AcDbWipeout
 90
        0
 10
32383.820647735425
 20
32606.085778682358
 30
0.0
 11
114.29999192555744
 21
0.0
 31
0.0
 12
0.0
 22
114.29999192555744
 32
0.0
 13
1.0
 23
1.0
340
0
 70
               7
280
               1
281
              50
282
              50
283
               0
360
0
 71
               2
 91
        5
 14
0.1666667137617044
 24
250.12806475583892
 14
0.1666667137617044
 24
249.12806475583889
 14
-0.5
 24
249.12806475583889
 14
-0.5
 24
250.12806475583892
 14
0.1666667137617044
 24
250.12806475583892
  0
MTEXT
  5
286
100
AcDbEntity
  8
寸法
390
0
 62
               0
100
AcDbMText
 10
32390.714366485427
 20
4073.5999926974409
 30
0.0
 40
58.63828125000029
 41
0.0
 71
               1
 72
               1
  1
{\fＭＳ ゴシック|b0|i0|c128|p0;\l700}
 11
0.0
 21
1.0
 31
0.0
 73
               1
 44
0.7828267384257842
  0
POINT
  5
287
100
AcDbEntity
  8
Defpoints
370
               0
390
0
 62
               0
100
AcDbPoint
 10
32571.520552727186
 20
4480.74997711182
 30
0.0
  0
POINT
  5
288
100
AcDbEntity
  8
Defpoints
370
               0
390
0
 62
               0
100
AcDbPoint
 10
32571.520552727186
 20
3780.7500002086199
 30
0.0
  0
POINT
  5
289
100
AcDbEntity
  8
Defpoints
370
               0
390
0
 62
               0
100
AcDbPoint
 10
32467.520647735426
 20
3780.7500002086199
 30
0.0
  0
ENDBLK
  5
28A
100
AcDbEntity
  8
寸法
390
0
100
AcDbBlockEnd
  0
BLOCK
  5
28B
100
AcDbEntity
  8
寸法
390
0
100
AcDbBlockBegin
  2
*D9
 70
               1
 10
0.0
 20
0.0
 30
0.0
  3
*D9
  1

  0
LINE
  5
28C
100
AcDbEntity
  8
寸法
370
              -2
390
0
  6
Continuous
 62
               0
100
AcDbLine
 10
32571.520552727186
 20
3750.7500002086199
 30
0.0
 11
32571.520552727186
 21
3636.5
 31
0.0
  0
LINE
  5
28D
100
AcDbEntity
  8
寸法
370
              -2
390
0
  6
Continuous
 62
               0
100
AcDbLine
 10
32913.520560356577
 20
3750.7500002086199
 30
0.0
 11
32913.520560356577
 21
3636.5
 31
0.0
  0
LINE
  5
28E
100
AcDbEntity
  8
寸法
370
              -2
390
0
  6
Continuous
 62
               0
100
AcDbLine
 10
32571.520552727186
 20
3666.5
 30
0.0
 11
32913.520560356577
 21
3666.5
 31
0.0
  0
POLYLINE
  5
28F
100
AcDbEntity
  8
0
370
              -2
390
0
  6
Continuous
 62
               0
100
AcDb2dPolyline
 66
               1
 10
0.0
 20
0.0
 30
0.0
 75
               5
  0
VERTEX
  5
290
100
AcDbEntity
  8
0
370
              -2
390
0
  6
Continuous
 62
               0
100
AcDbVertex
100
AcDb2dVertex
 10
32609.029891106093
 20
3656.4494030727465
 30
0.0
  0
VERTEX
  5
291
100
AcDbEntity
  8
0
370
              -2
390
0
  6
Continuous
 62
               0
100
AcDbVertex
100
AcDb2dVertex
 10
32571.520552727186
 20
3666.5
 30
0.0
  0
VERTEX
  5
292
100
AcDbEntity
  8
0
370
              -2
390
0
  6
Continuous
 62
               0
100
AcDbVertex
100
AcDb2dVertex
 10
32609.029891106093
 20
3676.5505969272535
 30
0.0
  0
SEQEND
  5
293
100
AcDbEntity
  8
0
370
              -2
390
0
  6
Continuous
 62
               0
  0
POLYLINE
  5
294
100
AcDbEntity
  8
0
370
              -2
390
0
  6
Continuous
 62
               0
100
AcDb2dPolyline
 66
               1
 10
0.0
 20
0.0
 30
0.0
 75
               5
  0
VERTEX
  5
295
100
AcDbEntity
  8
0
370
              -2
390
0
  6
Continuous
 62
               0
100
AcDbVertex
100
AcDb2dVertex
 10
32876.011221977671
 20
3676.5505969272535
 30
0.0
  0
VERTEX
  5
296
100
AcDbEntity
  8
0
370
              -2
390
0
  6
Continuous
 62
               0
100
AcDbVertex
100
AcDb2dVertex
 10
32913.520560356577
 20
3666.5
 30
0.0
  0
VERTEX
  5
297
100
AcDbEntity
  8
0
370
              -2
390
0
  6
Continuous
 62
               0
100
AcDbVertex
100
AcDb2dVertex
 10
32876.011221977671
 20
3656.4494030727465
 30
0.0
  0
SEQEND
  5
298
100
AcDbEntity
  8
0
370
              -2
390
0
  6
Continuous
 62
               0
  0
WIPEOUT
  5
299
100
AcDbEntity
  8
寸法
370
              -2
390
0
  6
Continuous
 62
               0
 92
        0
100
AcDbWipeout
 90
        0
 10
32685.370560579104
 20
32206.485785984918
 30
0.0
 11
114.29999192555745
 21
0.0
 31
0.0
 12
0.0
 22
114.29999192555745
 32
0.0
 13
1.0
 23
1.0
340
0
 70
               7
280
               1
281
              50
282
              50
283
               0
360
0
 71
               2
 91
        5
 14
-0.5
 24
250.12806475583889
 14
0.5000000000000213
 24
250.12806475583889
 14
0.5000000000000213
 24
249.46139804207718
 14
-0.5
 24
249.46139804207718
 14
-0.5
 24
250.12806475583889
  0
MTEXT
  5
29A
100
AcDbEntity
  8
寸法
390
0
 62
               0
100
AcDbMText
 10
32685.370560579104
 20
3743.3062812500002
 30
0.0
 40
58.63828125000029
 41
0.0
 71
               1
 72
               1
  1
{\fＭＳ ゴシック|b0|i0|c128|p0;\l342}
 73
               1
 44
0.7828267384257842
  0
POINT
  5
29B
100
AcDbEntity
  8
Defpoints
370
               0
390
0
 62
               0
100
AcDbPoint
 10
32913.520560356577
 20
3780.7500002086199
 30
0.0
  0
POINT
  5
29C
100
AcDbEntity
  8
Defpoints
370
               0
390
0
 62
               0
100
AcDbPoint
 10
32571.520552727186
 20
3780.7500002086199
 30
0.0
  0
POINT
  5
29D
100
AcDbEntity
  8
Defpoints
370
               0
390
0
 62
               0
100
AcDbPoint
 10
32571.520552727186
 20
3666.5
 30
0.0
  0
ENDBLK
  5
29E
100
AcDbEntity
  8
寸法
390
0
100
AcDbBlockEnd
  0
ENDSEC
  0
SECTION
  2
ENTITIES
  0
LINE
  5
29F
100
AcDbEntity
  8
一般
370
               0
390
0
  6
Continuous
 62
               2
100
AcDbLine
 10
31547.361406977925
 20
6382.6596034721661
 30
0.0
 11
34247.361406977921
 21
6382.6596034721661
 31
0.0
  0
LINE
  5
2A0
100
AcDbEntity
  8
一般
370
               0
390
0
  6
Continuous
 62
               2
100
AcDbLine
 10
34247.361406977921
 20
2482.6596034721656
 30
0.0
 11
31547.361406977925
 21
2482.6596034721656
 31
0.0
  0
LINE
  5
2A1
100
AcDbEntity
  8
一般
370
               0
390
0
  6
Continuous
 62
               2
100
AcDbLine
 10
31547.361406977925
 20
2482.6596034721656
 30
0.0
 11
31547.361406977925
 21
6382.6596034721661
 31
0.0
  0
LINE
  5
2A2
100
AcDbEntity
  8
一般
370
               0
390
0
  6
Continuous
 62
               2
100
AcDbLine
 10
34247.361406977921
 20
6382.6596034721661
 30
0.0
 11
34247.361406977921
 21
2482.6596034721656
 31
0.0
  0
LINE
  5
2A3
100
AcDbEntity
  8
一般
370
               0
390
0
  6
Continuous
 62
               2
100
AcDbLine
 10
32897.361406977921
 20
2820.1596034721656
 30
0.0
 11
34247.361406977921
 21
2820.1596034721656
 31
0.0
  0
LINE
  5
2A4
100
AcDbEntity
  8
一般
370
               0
390
0
  6
Continuous
 62
               2
100
AcDbLine
 10
32897.361406977921
 20
2482.6596034721656
 30
0.0
 11
32897.361406977921
 21
2820.1596034721656
 31
0.0
  0
MTEXT
  5
2A5
100
AcDbEntity
  8
一般
390
0
 62
               1
100
AcDbMText
 10
32910.861406977921
 20
2806.961820659666
 30
0.0
 40
24.432617187499996
 41
0.0
 71
               1
 72
               1
  1
{\fＭＳ ゴシック|b0|i0|c128|p0;\lNOTE}
 73
               1
 44
0.7828267384257843
  0
LINE
  5
2A6
100
AcDbEntity
  8
一般
370
               0
390
0
  6
Continuous
 62
               1
100
AcDbLine
 10
33422.361406977921
 20
2482.6596034721656
 30
0.0
 11
33422.361406977921
 21
2820.1596034721656
 31
0.0
  0
MTEXT
  5
2A7
100
AcDbEntity
  8
一般
390
0
 62
               1
100
AcDbMText
 10
33435.861406977921
 20
2806.961820659666
 30
0.0
 40
24.432617187499996
 41
0.0
 71
               1
 72
               1
  1
{\fＭＳ ゴシック|b0|i0|c128|p0;\lTITLE}
 73
               1
 44
0.7828267384257843
  0
LINE
  5
2A8
100
AcDbEntity
  8
一般
370
               0
390
0
  6
Continuous
 62
               1
100
AcDbLine
 10
32897.361406977921
 20
2632.6596034721656
 30
0.0
 11
34247.361406977921
 21
2632.6596034721656
 31
0.0
  0
MTEXT
  5
2A9
100
AcDbEntity
  8
一般
390
0
 62
               1
100
AcDbMText
 10
33623.361406977921
 20
2620.3066206596659
 30
0.0
 40
24.432617187499996
 41
0.0
 71
               1
 72
               1
  1
{\fＭＳ ゴシック|b0|i0|c128|p0;\lDRAWN}
 73
               1
 44
0.7828267384257843
  0
MTEXT
  5
2AA
100
AcDbEntity
  8
一般
390
0
 62
               1
100
AcDbMText
 10
33248.361406977921
 20
2620.3066206596659
 30
0.0
 40
24.432617187499996
 41
0.0
 71
               1
 72
               1
  1
{\fＭＳ ゴシック|b0|i0|c128|p0;\lDATE}
 73
               1
 44
0.7828267384257843
  0
MTEXT
  5
2AB
100
AcDbEntity
  8
一般
390
0
 62
               1
100
AcDbMText
 10
33098.361406977921
 20
2620.3066206596659
 30
0.0
 40
24.432617187499996
 41
0.0
 71
               1
 72
               1
  1
{\fＭＳ ゴシック|b0|i0|c128|p0;\lSCALE}
 73
               1
 44
0.7828267384257843
  0
MTEXT
  5
2AC
100
AcDbEntity
  8
一般
390
0
 62
               1
100
AcDbMText
 10
33435.861406977921
 20
2620.3066206596659
 30
0.0
 40
24.432617187499996
 41
0.0
 71
               1
 72
               1
  1
{\fＭＳ ゴシック|b0|i0|c128|p0;\lDESIGN}
 73
               1
 44
0.7828267384257843
  0
MTEXT
  5
2AD
100
AcDbEntity
  8
一般
390
0
 62
               1
100
AcDbMText
 10
33998.361406977921
 20
2620.3066206596659
 30
0.0
 40
24.432617187499996
 41
0.0
 71
               1
 72
               1
  1
{\fＭＳ ゴシック|b0|i0|c128|p0;\lDRAWING NO.}
 73
               1
 44
0.7828267384257843
  0
MTEXT
  5
2AE
100
AcDbEntity
  8
一般
390
0
 62
               1
100
AcDbMText
 10
33810.861406977921
 20
2620.3066206596659
 30
0.0
 40
24.432617187499996
 41
0.0
 71
               1
 72
               1
  1
{\fＭＳ ゴシック|b0|i0|c128|p0;\lCHECK}
 73
               1
 44
0.7828267384257843
  0
LINE
  5
2AF
100
AcDbEntity
  8
一般
370
               0
390
0
  6
Continuous
 62
               1
100
AcDbLine
 10
33112.986406977921
 20
2501.4096034721656
 30
0.0
 11
33169.236406977921
 21
2557.6596034721656
 31
0.0
  0
MTEXT
  5
2B0
100
AcDbEntity
  8
一般
390
0
 62
               1
100
AcDbMText
 10
33103.611406977921
 20
2565.4580706596662
 30
0.0
 40
24.432617187499996
 41
0.0
 71
               1
 72
               1
  1
{\fＭＳ ゴシック|b0|i0|c128|p0;\l1}
 73
               1
 44
0.7828267384257843
  0
LINE
  5
2B1
100
AcDbEntity
  8
一般
370
               0
390
0
  6
Continuous
 62
               1
100
AcDbLine
 10
33084.861406977921
 20
2482.6596034721656
 30
0.0
 11
33084.861406977921
 21
2632.6596034721656
 31
0.0
  0
LINE
  5
2B2
100
AcDbEntity
  8
一般
370
               0
390
0
  6
Continuous
 62
               1
100
AcDbLine
 10
33234.861406977921
 20
2482.6596034721656
 30
0.0
 11
33234.861406977921
 21
2632.6596034721656
 31
0.0
  0
LINE
  5
2B3
100
AcDbEntity
  8
一般
370
               0
390
0
  6
Continuous
 62
               1
100
AcDbLine
 10
33609.861406977921
 20
2632.6596034721656
 30
0.0
 11
33609.861406977921
 21
2482.6596034721656
 31
0.0
  0
LINE
  5
2B4
100
AcDbEntity
  8
一般
370
               0
390
0
  6
Continuous
 62
               1
100
AcDbLine
 10
33984.861406977921
 20
2632.6596034721656
 30
0.0
 11
33984.861406977921
 21
2482.6596034721656
 31
0.0
  0
LINE
  5
2B5
100
AcDbEntity
  8
一般
370
               0
390
0
  6
Continuous
 62
               1
100
AcDbLine
 10
33797.361406977921
 20
2482.6596034721656
 30
0.0
 11
33797.361406977921
 21
2632.6596034721656
 31
0.0
  0
MTEXT
  5
2B6
100
AcDbEntity
  8
一般
390
0
 62
               1
100
AcDbMText
 10
33267.709506977924
 20
2560.0469206596654
 30
0.0
 40
24.432617187499996
 41
0.0
 71
               1
 72
               1
  1
{\fＭＳ ゴシック|b0|i0|c128|p0;\l2018.12}
 73
               1
 44
0.7828267384257843
  0
MTEXT
  5
2B7
100
AcDbEntity
  8
一般
390
0
 62
               1
100
AcDbMText
 10
33159.861406977921
 20
2537.3330706596662
 30
0.0
 40
24.432617187499996
 41
0.0
 71
               1
 72
               1
  1
{\fＭＳ ゴシック|b0|i0|c128|p0;\l15}
 73
               1
 44
0.7828267384257843
  0
MTEXT
  5
2B8
100
AcDbEntity
  8
一般
390
0
 62
               1
100
AcDbMText
 10
33642.448557143442
 20
2570.0469206596654
 30
0.0
 40
24.432617187499996
 41
0.0
 71
               1
 72
               1
  1
{\fＭＳ ゴシック|b0|i0|c128|p0;\lKojima\P Shohei}
 73
               1
 44
0.7828267384257843
  0
MTEXT
  5
2B9
100
AcDbEntity
  8
一般
390
0
 62
               1
100
AcDbMText
 10
32955.611406977921
 20
2561.1648378471655
 30
0.0
 40
48.865234374999993
 41
0.0
 71
               1
 72
               1
  1
{\fＭＳ ゴシック|b0|i0|c128|p0;\lA4}
 73
               1
 44
0.7828267384257843
  0
MTEXT
  5
2BA
100
AcDbEntity
  8
一般
390
0
 62
               1
100
AcDbMText
 10
32911.736406977921
 20
2617.8003956596658
 30
0.0
 40
24.432617187499996
 41
0.0
 71
               1
 72
               1
  1
{\fＭＳ ゴシック|b0|i0|c128|p0;\lPAPER SIZE}
 73
               1
 44
0.7828267384257843
  0
MTEXT
  5
2BB
100
AcDbEntity
  8
一般
390
0
 62
               1
100
AcDbMText
 10
31588.755935831276
 20
2439.218337199105
 30
0.0
 40
52.937337239583329
 41
0.0
 71
               1
 72
               1
  1
{\fＭＳ ゴシック|b0|i0|c128|p0;\lHibino-Intersound Corporation}
 73
               1
 44
0.7828267384257843
  0
MTEXT
  5
2BC
100
AcDbEntity
  8
一般
390
0
 62
               1
100
AcDbMText
 10
33200.070552181132
 20
2444.4846609984461
 30
0.0
 40
52.937337239583329
 41
0.0
 71
               1
 72
               1
  1
{\fＭＳ ゴシック|b0|i0|c128|p0;\lヒビノインタ ーサウンド株式会社}
 73
               1
 44
0.7828267384257843
  0
MTEXT
  5
2BD
100
AcDbEntity
  8
0
390
0
 62
               1
100
AcDbMText
 10
31804.080887871864
 20
3036.3922502047835
 30
0.0
 40
48.865234375000092
 41
0.0
 71
               1
 72
               1
  1
{\fＭＳ ゴシック|b0|i0|c128|p0;\l(単位：mm）}
 73
               1
 44
0.7828267384257843
  0
MTEXT
  5
2BE
100
AcDbEntity
  8
0
390
0
 62
               1
100
AcDbMText
 10
33523.274256812401
 20
2761.641698784666
 30
0.0
 40
40.721028645833343
 41
590.90278868393318
 71
               1
 72
               1
  1
{\fＭＳ ゴシック|b0|i0|c128|p0;\lCODA AUDIO \P    D20-L/R\fＭＳ ゴシック|b0|i0|c128|p0;\l(White)}
 73
               1
 44
0.7828267384257843
  0
MTEXT
  5
2BF
100
AcDbEntity
  8
一般
390
0
 62
               1
100
AcDbMText
 10
31693.372468411144
 20
2565.7795720073182
 30
0.0
 40
24.432617187500004
 41
0.0
 71
               1
 72
               1
  1
{\fＭＳ ゴシック|b0|i0|c128|p0;\l仕様および外観は予告なく変更されることがありますので、ご了承ください。}
 73
               1
 44
0.7828267384257843
  0
MTEXT
  5
2C0
100
AcDbEntity
  8
一般
390
0
 62
               1
100
AcDbMText
 10
31803.677045496337
 20
6320.939390098476
 30
0.0
 40
36.64892578125
 41
0.0
 71
               1
 72
               1
  1
{\fＭＳ ゴシック|b0|i0|c128|p0;\l仕様}
 73
               1
 44
0.7828267384257843
  0
LINE
  5
2C1
100
AcDbEntity
  8
一般
370
               0
390
0
  6
Continuous
 62
               1
100
AcDbLine
 10
31784.927045496337
 20
6263.391414317226
 30
0.0
 11
33997.427045496341
 21
6263.391414317226
 31
0.0
  0
LINE
  5
2C2
100
AcDbEntity
  8
一般
370
               0
390
0
  6
Continuous
 62
               1
100
AcDbLine
 10
31784.927045496337
 20
6207.141414317226
 30
0.0
 11
33997.427045496341
 21
6207.141414317226
 31
0.0
  0
LINE
  5
2C3
100
AcDbEntity
  8
一般
370
               0
390
0
  6
Continuous
 62
               1
100
AcDbLine
 10
31784.927045496337
 20
6094.641414317226
 30
0.0
 11
33997.427045496341
 21
6094.641414317226
 31
0.0
  0
LINE
  5
2C4
100
AcDbEntity
  8
一般
370
               0
390
0
  6
Continuous
 62
               1
100
AcDbLine
 10
32272.427045496337
 20
6150.891414317226
 30
0.0
 11
33997.427045496341
 21
6150.891414317226
 31
0.0
  0
LINE
  5
2C5
100
AcDbEntity
  8
一般
370
               0
390
0
  6
Continuous
 62
               1
100
AcDbLine
 10
31784.927045496337
 20
6263.391414317226
 30
0.0
 11
31784.927045496337
 21
5250.891414317226
 31
0.0
  0
LINE
  5
2C6
100
AcDbEntity
  8
一般
370
               0
390
0
  6
Continuous
 62
               1
100
AcDbLine
 10
32272.427045496337
 20
6263.391414317226
 30
0.0
 11
32272.427045496337
 21
5250.891414317226
 31
0.0
  0
LINE
  5
2C7
100
AcDbEntity
  8
一般
370
               0
390
0
  6
Continuous
 62
               1
100
AcDbLine
 10
33997.427045496341
 20
6263.391414317226
 30
0.0
 11
33997.427045496341
 21
5250.891414317226
 31
0.0
  0
LINE
  5
2C8
100
AcDbEntity
  8
一般
370
               0
390
0
  6
Continuous
 62
               1
100
AcDbLine
 10
31784.927045496337
 20
6038.391414317226
 30
0.0
 11
33997.427045496341
 21
6038.391414317226
 31
0.0
  0
LINE
  5
2C9
100
AcDbEntity
  8
一般
370
               0
390
0
  6
Continuous
 62
               1
100
AcDbLine
 10
31784.927045496337
 20
5982.141414317226
 30
0.0
 11
33997.427045496341
 21
5982.141414317226
 31
0.0
  0
LINE
  5
2CA
100
AcDbEntity
  8
一般
370
               0
390
0
  6
Continuous
 62
               1
100
AcDbLine
 10
31784.927045496337
 20
5925.891414317226
 30
0.0
 11
33997.427045496341
 21
5925.891414317226
 31
0.0
  0
LINE
  5
2CB
100
AcDbEntity
  8
一般
370
               0
390
0
  6
Continuous
 62
               1
100
AcDbLine
 10
31784.927045496337
 20
5869.641414317226
 30
0.0
 11
33997.427045496341
 21
5869.641414317226
 31
0.0
  0
LINE
  5
2CC
100
AcDbEntity
  8
一般
370
               0
390
0
  6
Continuous
 62
               1
100
AcDbLine
 10
32272.427045496337
 20
5813.391414317226
 30
0.0
 11
33997.427045496341
 21
5813.391414317226
 31
0.0
  0
LINE
  5
2CD
100
AcDbEntity
  8
一般
370
               0
390
0
  6
Continuous
 62
               1
100
AcDbLine
 10
32272.427045496337
 20
5757.141414317226
 30
0.0
 11
33997.427045496341
 21
5757.141414317226
 31
0.0
  0
LINE
  5
2CE
100
AcDbEntity
  8
一般
370
               0
390
0
  6
Continuous
 62
               1
100
AcDbLine
 10
32272.427045496337
 20
5700.891414317226
 30
0.0
 11
33997.427045496341
 21
5700.891414317226
 31
0.0
  0
LINE
  5
2CF
100
AcDbEntity
  8
一般
370
               0
390
0
  6
Continuous
 62
               1
100
AcDbLine
 10
31784.927045496337
 20
5644.641414317226
 30
0.0
 11
33997.427045496341
 21
5644.641414317226
 31
0.0
  0
LINE
  5
2D0
100
AcDbEntity
  8
一般
370
               0
390
0
  6
Continuous
 62
               1
100
AcDbLine
 10
31784.927045496337
 20
5588.391414317226
 30
0.0
 11
33997.427045496341
 21
5588.391414317226
 31
0.0
  0
LINE
  5
2D1
100
AcDbEntity
  8
一般
370
               0
390
0
  6
Continuous
 62
               1
100
AcDbLine
 10
31784.927045496337
 20
5532.141414317226
 30
0.0
 11
33997.427045496341
 21
5532.141414317226
 31
0.0
  0
MTEXT
  5
2D2
100
AcDbEntity
  8
一般
390
0
 62
               1
100
AcDbMText
 10
31796.173643235732
 20
5518.6087327103123
 30
0.0
 40
28.504720052083332
 41
0.0
 71
               1
 72
               1
  1
{\fＭＳ ゴシック|b0|i0|c128|p0;\lエンクロージャー}
 73
               1
 44
0.7828267384257843
  0
MTEXT
  5
2D3
100
AcDbEntity
  8
一般
390
0
 62
               1
100
AcDbMText
 10
32286.378578262971
 20
5404.1858206815468
 30
0.0
 40
28.504720052083332
 41
0.0
 71
               1
 72
               1
  1
{\fＭＳ ゴシック|b0|i0|c128|p0;\l342(W)×700(H)×425(D)mm}
 73
               1
 44
0.7828267384257843
  0
MTEXT
  5
2D4
100
AcDbEntity
  8
一般
390
0
 62
               1
100
AcDbMText
 10
32285.726716188998
 20
5462.3566144061224
 30
0.0
 40
28.504720052083332
 41
0.0
 71
               1
 72
               1
  1
{\fＭＳ ゴシック|b0|i0|c128|p0;\lポリウレア樹脂塗装　黒色   ※Whiteは白色（RAL9016)}
 73
               1
 44
0.7828267384257843
  0
MTEXT
  5
2D5
100
AcDbEntity
  8
一般
390
0
 62
               1
100
AcDbMText
 10
31798.277405326335
 20
5463.9920877656523
 30
0.0
 40
28.504720052083332
 41
0.0
 71
               1
 72
               1
  1
{\fＭＳ ゴシック|b0|i0|c128|p0;\l仕上げ}
 73
               1
 44
0.7828267384257843
  0
MTEXT
  5
2D6
100
AcDbEntity
  8
一般
390
0
 62
               1
100
AcDbMText
 10
31797.853078801796
 20
5632.0263815428243
 30
0.0
 40
28.504720052083332
 41
0.0
 71
               1
 72
               1
  1
{\fＭＳ ゴシック|b0|i0|c128|p0;\l入力コネクタ ー}
 73
               1
 44
0.7828267384257843
  0
MTEXT
  5
2D7
100
AcDbEntity
  8
一般
390
0
 62
               1
100
AcDbMText
 10
32286.037236976113
 20
5629.78256342655
 30
0.0
 40
28.504720052083332
 41
0.0
 71
               1
 72
               1
  1
{\fＭＳ ゴシック|b0|i0|c128|p0;\l2×Neutrik NL4MP(±1)}
 73
               1
 44
0.7828267384257843
  0
MTEXT
  5
2D8
100
AcDbEntity
  8
一般
390
0
 62
               1
100
AcDbMText
 10
31798.188321605427
 20
5574.7951972294613
 30
0.0
 40
28.504720052083332
 41
0.0
 71
               1
 72
               1
  1
{\fＭＳ ゴシック|b0|i0|c128|p0;\l公称インピーダンス}
 73
               1
 44
0.7828267384257843
  0
MTEXT
  5
2D9
100
AcDbEntity
  8
一般
390
0
 62
               1
100
AcDbMText
 10
32285.730549877517
 20
5574.4082143942987
 30
0.0
 40
28.504720052083332
 41
0.0
 71
               1
 72
               1
  1
{\fＭＳ ゴシック|b0|i0|c128|p0;\l4Ω}
 73
               1
 44
0.7828267384257843
  0
MTEXT
  5
2DA
100
AcDbEntity
  8
一般
390
0
 62
               1
100
AcDbMText
 10
31797.619603539271
 20
6194.3166671314229
 30
0.0
 40
28.504720052083332
 41
0.0
 71
               1
 72
               1
  1
{\fＭＳ ゴシック|b0|i0|c128|p0;\l形式}
 73
               1
 44
0.7828267384257843
  0
MTEXT
  5
2DB
100
AcDbEntity
  8
一般
390
0
 62
               1
100
AcDbMText
 10
32285.94488067802
 20
6191.939226852116
 30
0.0
 40
28.504720052083332
 41
0.0
 71
               1
 72
               1
  1
{\fＭＳ ゴシック|b0|i0|c128|p0;\l3-Way フルレンジ・スピーカーシステム}
 73
               1
 44
0.7828267384257843
  0
MTEXT
  5
2DC
100
AcDbEntity
  8
一般
390
0
 62
               1
100
AcDbMText
 10
31798.079983258605
 20
6081.0788308817655
 30
0.0
 40
28.504720052083332
 41
0.0
 71
               1
 72
               1
  1
{\fＭＳ ゴシック|b0|i0|c128|p0;\l周波数特性}
 73
               1
 44
0.7828267384257843
  0
MTEXT
  5
2DD
100
AcDbEntity
  8
一般
390
0
 62
               1
100
AcDbMText
 10
31797.440502408841
 20
6024.5937001308639
 30
0.0
 40
28.504720052083332
 41
0.0
 71
               1
 72
               1
  1
{\fＭＳ ゴシック|b0|i0|c128|p0;\l許容入力(AES/ピーク）}
 73
               1
 44
0.7828267384257843
  0
MTEXT
  5
2DE
100
AcDbEntity
  8
一般
390
0
 62
               1
100
AcDbMText
 10
31797.932996677053
 20
5969.817944520436
 30
0.0
 40
28.504720052083332
 41
0.0
 71
               1
 72
               1
  1
{\fＭＳ ゴシック|b0|i0|c128|p0;\l感度}
 73
               1
 44
0.7828267384257843
  0
MTEXT
  5
2DF
100
AcDbEntity
  8
一般
390
0
 62
               1
100
AcDbMText
 10
31798.477198256318
 20
5913.3847608340602
 30
0.0
 40
28.504720052083332
 41
0.0
 71
               1
 72
               1
  1
{\fＭＳ ゴシック|b0|i0|c128|p0;\l最大音圧}
 73
               1
 44
0.7828267384257843
  0
MTEXT
  5
2E0
100
AcDbEntity
  8
一般
390
0
 62
               1
100
AcDbMText
 10
31795.566139259419
 20
5856.7134776843632
 30
0.0
 40
28.504720052083332
 41
0.0
 71
               1
 72
               1
  1
{\fＭＳ ゴシック|b0|i0|c128|p0;\lカバレージ角}
 73
               1
 44
0.7828267384257843
  0
MTEXT
  5
2E1
100
AcDbEntity
  8
一般
390
0
 62
               1
100
AcDbMText
 10
31786.832159469308
 20
5803.3759991913294
 30
0.0
 40
28.504720052083332
 41
0.0
 71
               1
 72
               1
  1
{\fＭＳ ゴシック|b0|i0|c128|p0;\lドライバー構成}
 73
               1
 44
0.7828267384257843
  0
MTEXT
  5
2E2
100
AcDbEntity
  8
一般
390
0
 62
               1
100
AcDbMText
 10
31796.258805623118
 20
5686.8841853224967
 30
0.0
 40
28.504720052083332
 41
0.0
 71
               1
 72
               1
  1
{\fＭＳ ゴシック|b0|i0|c128|p0;\lクロスオーバー}
 73
               1
 44
0.7828267384257843
  0
MTEXT
  5
2E3
100
AcDbEntity
  8
一般
390
0
 62
               1
100
AcDbMText
 10
31796.942074504273
 20
5406.130836650661
 30
0.0
 40
28.504720052083332
 41
0.0
 71
               1
 72
               1
  1
{\fＭＳ ゴシック|b0|i0|c128|p0;\l寸法}
 73
               1
 44
0.7828267384257843
  0
MTEXT
  5
2E4
100
AcDbEntity
  8
一般
390
0
 62
               1
100
AcDbMText
 10
32285.498928201992
 20
5351.1458324342402
 30
0.0
 40
28.504720052083332
 41
0.0
 71
               1
 72
               1
  1
{\fＭＳ ゴシック|b0|i0|c128|p0;\l約26kg}
 73
               1
 44
0.7828267384257843
  0
MTEXT
  5
2E5
100
AcDbEntity
  8
一般
390
0
 62
               1
100
AcDbMText
 10
31797.586698606832
 20
5350.4473423138052
 30
0.0
 40
28.504720052083332
 41
0.0
 71
               1
 72
               1
  1
{\fＭＳ ゴシック|b0|i0|c128|p0;\l重量}
 73
               1
 44
0.7828267384257843
  0
MTEXT
  5
2E6
100
AcDbEntity
  8
一般
390
0
 62
               1
100
AcDbMText
 10
32286.063707842492
 20
6078.8330324247618
 30
0.0
 40
28.504720052083332
 41
0.0
 71
               1
 72
               1
  1
{\fＭＳ ゴシック|b0|i0|c128|p0;\l35Hz～20kHz(-4dB)}
 73
               1
 44
0.7828267384257843
  0
MTEXT
  5
2E7
100
AcDbEntity
  8
一般
390
0
 62
               1
100
AcDbMText
 10
32285.455925114951
 20
6023.1335188055255
 30
0.0
 40
28.504720052083332
 41
0.0
 71
               1
 72
               1
  1
{\fＭＳ ゴシック|b0|i0|c128|p0;\l1000W/4000W}
 73
               1
 44
0.7828267384257843
  0
MTEXT
  5
2E8
100
AcDbEntity
  8
一般
390
0
 62
               1
100
AcDbMText
 10
32285.885519735453
 20
5967.3156524774568
 30
0.0
 40
28.504720052083332
 41
0.0
 71
               1
 72
               1
  1
{\fＭＳ ゴシック|b0|i0|c128|p0;\l97dB}
 73
               1
 44
0.7828267384257843
  0
MTEXT
  5
2E9
100
AcDbEntity
  8
一般
390
0
 62
               1
100
AcDbMText
 10
32284.081346320767
 20
5911.305683111209
 30
0.0
 40
28.504720052083332
 41
0.0
 71
               1
 72
               1
  1
{\fＭＳ ゴシック|b0|i0|c128|p0;\l133dB}
 73
               1
 44
0.7828267384257843
  0
MTEXT
  5
2EA
100
AcDbEntity
  8
一般
390
0
 62
               1
100
AcDbMText
 10
32286.149639243387
 20
5853.7238566307888
 30
0.0
 40
28.504720052083332
 41
0.0
 71
               1
 72
               1
  1
{\fＭＳ ゴシック|b0|i0|c128|p0;\l90°円錐}
 73
               1
 44
0.7828267384257843
  0
MTEXT
  5
2EB
100
AcDbEntity
  8
一般
390
0
 62
               1
100
AcDbMText
 10
32285.763985863123
 20
5800.6369267190548
 30
0.0
 40
28.504720052083332
 41
0.0
 71
               1
 72
               1
  1
{\fＭＳ ゴシック|b0|i0|c128|p0;\l低域：1×12インチユニット}
 73
               1
 44
0.7828267384257843
  0
MTEXT
  5
2EC
100
AcDbEntity
  8
一般
390
0
 62
               1
100
AcDbMText
 10
32285.583541089018
 20
5744.7878843583767
 30
0.0
 40
28.504720052083332
 41
0.0
 71
               1
 72
               1
  1
{\fＭＳ ゴシック|b0|i0|c128|p0;\l中高域：8インチ/1.75インチコアキシャルドライバー、2インチ+1.75インチボイスコイル径 }
 73
               1
 44
0.7828267384257843
  0
MTEXT
  5
2ED
100
AcDbEntity
  8
一般
390
0
 62
               1
100
AcDbMText
 10
32285.563591564343
 20
5686.8281321182822
 30
0.0
 40
28.504720052083332
 41
0.0
 71
               1
 72
               1
  1
{\fＭＳ ゴシック|b0|i0|c128|p0;\l300Hz, 1.3kHz（パッシブ）}
 73
               1
 44
0.7828267384257843
  0
MTEXT
  5
2EE
100
AcDbEntity
  8
一般
390
0
 62
               1
100
AcDbMText
 10
32285.080030918372
 20
5519.4931066938116
 30
0.0
 40
28.504720052083332
 41
0.0
 71
               1
 72
               1
  1
{\fＭＳ ゴシック|b0|i0|c128|p0;\l合板}
 73
               1
 44
0.7828267384257843
  0
LINE
  5
2EF
100
AcDbEntity
  8
一般
370
               0
390
0
  6
Continuous
 62
               1
100
AcDbLine
 10
31784.927045496337
 20
5475.891414317226
 30
0.0
 11
33997.427045496341
 21
5475.891414317226
 31
0.0
  0
LINE
  5
2F0
100
AcDbEntity
  8
一般
370
               0
390
0
  6
Continuous
 62
               1
100
AcDbLine
 10
31784.927045496337
 20
5419.641414317226
 30
0.0
 11
33997.427045496341
 21
5419.641414317226
 31
0.0
  0
LINE
  5
2F1
100
AcDbEntity
  8
一般
370
               0
390
0
  6
Continuous
 62
               1
100
AcDbLine
 10
31784.927045496337
 20
5363.391414317226
 30
0.0
 11
33997.427045496341
 21
5363.391414317226
 31
0.0
  0
MTEXT
  5
2F2
100
AcDbEntity
  8
一般
390
0
 62
               1
100
AcDbMText
 10
32587.041108656544
 20
6246.5830175868168
 30
0.0
 40
28.504720052083332
 41
0.0
 71
               1
 72
               1
  1
{\fＭＳ ゴシック|b0|i0|c128|p0;\lD20-L(White)}
 73
               1
 44
0.7828267384257843
  0
LINE
  5
2F3
100
AcDbEntity
  8
一般
370
               0
390
0
  6
Continuous
 62
               1
100
AcDbLine
 10
31784.927045496337
 20
5307.141414317226
 30
0.0
 11
33997.427045496341
 21
5307.141414317226
 31
0.0
  0
MTEXT
  5
2F4
100
AcDbEntity
  8
一般
390
0
 62
               1
100
AcDbMText
 10
33237.041108656544
 20
6248.3831417010488
 30
0.0
 40
28.504720052083332
 41
0.0
 71
               1
 72
               1
  1
{\fＭＳ ゴシック|b0|i0|c128|p0;\lD20-R(White)}
 73
               1
 44
0.7828267384257843
  0
LINE
  5
2F5
100
AcDbEntity
  8
一般
370
               0
390
0
  6
Continuous
 62
               1
100
AcDbLine
 10
33122.427045496341
 20
6094.641414317226
 30
0.0
 11
33122.427045496341
 21
6150.891414317226
 31
0.0
  0
LINE
  5
2F6
100
AcDbEntity
  8
一般
370
               0
390
0
  6
Continuous
 62
               1
100
AcDbLine
 10
33122.427045496341
 20
6207.141414317226
 30
0.0
 11
33122.427045496341
 21
6263.391414317226
 31
0.0
  0
MTEXT
  5
2F7
100
AcDbEntity
  8
一般
390
0
 62
               1
100
AcDbMText
 10
32285.84117041936
 20
6136.7506023355627
 30
0.0
 40
28.504720052083332
 41
0.0
 71
               1
 72
               1
  1
{\fＭＳ ゴシック|b0|i0|c128|p0;\lL仕様}
 73
               1
 44
0.7828267384257843
  0
MTEXT
  5
2F8
100
AcDbEntity
  8
一般
390
0
 62
               1
100
AcDbMText
 10
33135.754759220232
 20
6137.0890130076759
 30
0.0
 40
28.504720052083332
 41
0.0
 71
               1
 72
               1
  1
{\fＭＳ ゴシック|b0|i0|c128|p0;\lR仕様}
 73
               1
 44
0.7828267384257843
  0
LINE
  5
2F9
100
AcDbEntity
  8
一般
370
               0
390
0
  6
Continuous
 62
               1
100
AcDbLine
 10
32272.427045496337
 20
5700.891414317226
 30
0.0
 11
31784.927045496337
 21
5700.891414317226
 31
0.0
  0
LINE
  5
2FA
100
AcDbEntity
  8
一般
370
               0
390
0
  6
Continuous
 62
               1
100
AcDbLine
 10
32272.427045496337
 20
5813.391414317226
 30
0.0
 11
31784.927045496337
 21
5813.391414317226
 31
0.0
  0
LINE
  5
2FB
100
AcDbEntity
  8
一般
370
               0
390
0
  6
Continuous
 62
               1
100
AcDbLine
 10
31784.927045496337
 20
5250.891414317226
 30
0.0
 11
33997.427045496341
 21
5250.891414317226
 31
0.0
  0
MTEXT
  5
2FC
100
AcDbEntity
  8
一般
390
0
 62
               1
100
AcDbMText
 10
31798.177045496337
 20
5290.790301035976
 30
0.0
 40
28.504720052083332
 41
0.0
 71
               1
 72
               1
  1
{\fＭＳ ゴシック|b0|i0|c128|p0;\lその他}
 73
               1
 44
0.7828267384257843
  0
MTEXT
  5
2FD
100
AcDbEntity
  8
一般
390
0
 62
               1
100
AcDbMText
 10
32285.177045496337
 20
5289.1403010359763
 30
0.0
 40
28.504720052083332
 41
0.0
 71
               1
 72
               1
  1
{\fＭＳ ゴシック|b0|i0|c128|p0;\lL仕様のユニット配置はR仕様の対称位置となります。}
 73
               1
 44
0.7828267384257843
  0
INSERT
  5
2FE
100
AcDbEntity
  8
0
390
0
 62
               1
100
AcDbBlockReference
  2
グループ
 10
32898.151284853775
 20
4365.6654988688579
 30
0.0
  0
INSERT
  5
2FF
100
AcDbEntity
  8
0
390
0
 62
               1
100
AcDbBlockReference
  2
グループ-1
 10
32898.151284853775
 20
4365.6654988688579
 30
0.0
  0
INSERT
  5
300
100
AcDbEntity
  8
0
390
0
 62
               1
100
AcDbBlockReference
  2
グループ-2
 10
32898.151284853775
 20
4365.6654988688579
 30
0.0
  0
INSERT
  5
301
100
AcDbEntity
  8
0
390
0
 62
               1
100
AcDbBlockReference
  2
グループ-3
 10
32898.151284853775
 20
4365.6654988688579
 30
0.0
  0
INSERT
  5
302
100
AcDbEntity
  8
0
390
0
 62
               1
100
AcDbBlockReference
  2
グループ-4
 10
32898.151284853775
 20
4365.6654988688579
 30
0.0
  0
INSERT
  5
303
100
AcDbEntity
  8
0
390
0
 62
               1
100
AcDbBlockReference
  2
グループ-5
 10
32898.151284853775
 20
4365.6654988688579
 30
0.0
  0
DIMENSION
  5
304
100
AcDbEntity
  8
寸法
370
               0
390
0
  6
Continuous
 62
               1
100
AcDbDimension
  2
*D7
 10
32467.520647735426
 20
3562.6015575446709
 30
0.0
 11
32460.020647735426
 21
3376.5
 31
0.0
 70
             128
 71
               5
 72
               1
 41
1.0
 42
0.0
  3
HIBINO
100
AcDbAlignedDimension
 13
32742.520647735339
 23
3137.1654988688579
 33
0.0
 14
32742.520647735426
 24
3562.6015575446709
 34
0.0
 50
-90.0
100
AcDbRotatedDimension
1001
ACAD
1000
DSTYLE
1002
{
1070
             271
1070
               0
1070
             279
1070
               2
1070
             340
1005
2D
1070
             147
1040
7.5
1002
}
  0
DIMENSION
  5
305
100
AcDbEntity
  8
寸法
370
               0
390
0
  6
Continuous
 62
               1
100
AcDbDimension
  2
*D8
 10
32467.520647735426
 20
3780.7500002086199
 30
0.0
 11
32467.520647735426
 21
4130.74998866022
 31
0.0
 71
               5
 72
               1
 41
1.0
 42
0.0
  3
HIBINO
100
AcDbAlignedDimension
 13
32571.520552727186
 23
4480.74997711182
 33
0.0
 14
32571.520552727186
 24
3780.7500002086199
 34
0.0
 50
-90.0
100
AcDbRotatedDimension
1001
ACAD
1000
DSTYLE
1002
{
1070
             279
1070
               2
1070
             340
1005
2D
1070
             147
1040
7.5
1002
}
  0
DIMENSION
  5
306
100
AcDbEntity
  8
寸法
370
               0
390
0
  6
Continuous
 62
               1
100
AcDbDimension
  2
*D9
 10
32571.520552727186
 20
3666.5
 30
0.0
 11
32742.520556541884
 21
3674.0
 31
0.0
 70
             128
 71
               5
 72
               1
 41
1.0
 42
0.0
  3
HIBINO
100
AcDbAlignedDimension
 13
32913.520560356577
 23
3780.7500002086199
 33
0.0
 14
32571.520552727186
 24
3780.7500002086199
 34
0.0
100
AcDbRotatedDimension
1001
ACAD
1000
DSTYLE
1002
{
1070
             279
1070
               2
1070
             340
1005
2D
1070
             147
1040
7.5
1002
}
  0
MTEXT
  5
307
100
AcDbEntity
  8
0
390
0
 62
               1
100
AcDbMText
 10
33327.135994855409
 20
3283.3126953125002
 30
0.0
 40
40.721028645833343
 41
0.0
 71
               1
 72
               1
  1
{\fＭＳ ゴシック|b1|i0|c128|p0;\L寸法図はD20-R(右側)仕様}
 73
               1
 44
0.7828267384257843
  0
ENDSEC
  0
SECTION
  2
OBJECTS
  0
DICTIONARY
  5
19
100
AcDbDictionary
280
               0
281
               1
  3
ACAD_GROUP
350
1A
  3
ACAD_MLINESTYLE
350
1B
  3
ACAD_LAYOUT
350
1E
  3
ACAD_PLOTSETTINGS
350
22
  3
ACAD_PLOTSTYLENAME
350
1F
  3
ACAD_WIPEOUT_VARS
350
23
  0
DICTIONARY
  5
1A
102
{ACAD_REACTORS
330
19
102
}
100
AcDbDictionary
280
               0
281
               1
  0
DICTIONARY
  5
1B
102
{ACAD_REACTORS
330
19
102
}
100
AcDbDictionary
280
               0
281
               1
  3
Standard
350
1C
  0
MLINESTYLE
  5
1C
102
{ACAD_REACTORS
330
1B
102
}
100
AcDbMlineStyle
  2
Standard
 70
               0
  3

 62
               0
 51
90.0
 52
90.0
 71
               2
 49
0.5
 62
             256
  6
ByLayer
 49
-0.5
 62
             256
  6
ByLayer
  0
ACDBDICTIONARYWDFLT
  5
1F
102
{ACAD_REACTORS
330
19
102
}
100
AcDbDictionary
281
               1
  3
Normal
350
1D
100
AcDbDictionaryWithDefault
340
1D
  0
ACDBPLACEHOLDER
  5
1D
102
{ACAD_REACTORS
330
1F
102
}
  0
LAYOUT
  5
20
102
{ACAD_REACTORS
330
1E
102
}
100
AcDbPlotSettings
  1

  2

  4

  6

 40
0.0
 41
0.0
 42
0.0
 43
0.0
 44
0.0
 45
0.0
 46
0.0
 47
0.0
 48
0.0
 49
0.0
140
0.0
141
0.0
142
1.0
143
1.0
 70
            1024
 72
               0
 73
               0
 74
               0
  7
D20_LR.ctb
 75
               0
147
1.0
148
0.0
149
0.0
100
AcDbLayout
  1
Model
 70
               0
 71
               0
 10
0.0
 20
0.0
 11
0.0
 21
0.0
 12
0.0
 22
0.0
 32
0.0
 14
0.0
 24
0.0
 34
0.0
 15
0.0
 25
0.0
 35
0.0
146
0.0
 13
0.0
 23
0.0
 33
0.0
 16
0.0
 26
0.0
 36
0.0
 17
0.0
 27
0.0
 37
0.0
 76
               0
330
A
331
0
345
0
346
0
  0
LAYOUT
  5
21
102
{ACAD_REACTORS
330
1E
102
}
100
AcDbPlotSettings
  1

  2

  4

  6

 40
0.0
 41
0.0
 42
0.0
 43
0.0
 44
0.0
 45
0.0
 46
0.0
 47
0.0
 48
0.0
 49
0.0
140
0.0
141
0.0
142
1.0
143
1.0
 70
               0
 72
               0
 73
               0
 74
               0
  7

 75
               0
147
1.0
148
0.0
149
0.0
100
AcDbLayout
  1
Layout1
 70
               0
 71
               0
 10
0.0
 20
0.0
 11
0.0
 21
0.0
 12
0.0
 22
0.0
 32
0.0
 14
0.0
 24
0.0
 34
0.0
 15
0.0
 25
0.0
 35
0.0
146
0.0
 13
0.0
 23
0.0
 33
0.0
 16
0.0
 26
0.0
 36
0.0
 17
0.0
 27
0.0
 37
0.0
 76
               0
330
B
331
0
345
0
346
0
  0
DICTIONARY
  5
1E
102
{ACAD_REACTORS
330
19
102
}
100
AcDbDictionary
280
               0
281
               1
  3
Layout1
350
21
  3
Model
350
20
  0
DICTIONARY
  5
22
102
{ACAD_REACTORS
330
19
102
}
100
AcDbDictionary
280
               0
281
               1
  0
WIPEOUTVARIABLES
  5
23
100
AcDbWipeoutVariables
 70
               0
  0
ENDSEC
  0
EOF
