  0
SECTION
  2
HEADER
  9
$ACADVER
  1
AC1015
  9
$ACADMAINTVER
 70
               6
  9
$DWGCODEPAGE
  3
ANSI_932
  9
$INSBASE
 10
0.0
 20
0.0
 30
0.0
  9
$EXTMIN
 10
-2373.7331179628609
 20
-1539.298197632221
 30
-22.250399999999999
  9
$EXTMAX
 10
326.26688203713854
 20
2466.7112392137565
 30
22.250399999999999
  9
$LIMMIN
 10
0.0
 20
0.0
  9
$LIMMAX
 10
0.0
 20
0.0
  9
$ORTHOMODE
 70
               0
  9
$REGENMODE
 70
               1
  9
$FILLMODE
 70
               1
  9
$QTEXTMODE
 70
               0
  9
$MIRRTEXT
 70
               1
  9
$LTSCALE
 40
76.199999999999989
  9
$ATTMODE
 70
               1
  9
$TEXTSIZE
 40
0.2
  9
$TRACEWID
 40
1.0
  9
$TEXTSTYLE
  7
Standard
  9
$CLAYER
  8
0
  9
$CELTYPE
  6
Continuous
  9
$CECOLOR
 62
             256
  9
$CELTSCALE
 40
1.0
  9
$DISPSILH
 70
               0
  9
$DIMSCALE
 40
1.0
  9
$DIMASZ
 40
37.50933837890625
  9
$DIMEXO
 40
29.999999999999996
  9
$DIMDLI
 40
4.9999999999999991
  9
$DIMRND
 40
0.0
  9
$DIMDLE
 40
0.0
  9
$DIMEXE
 40
29.999999999999996
  9
$DIMTP
 40
0.0
  9
$DIMTM
 40
0.0
  9
$DIMTXT
 40
58.63828125000029
  9
$DIMCEN
 40
0.0
  9
$DIMTSZ
 40
0.0
  9
$DIMTOL
 70
               0
  9
$DIMLIM
 70
               0
  9
$DIMTIH
 70
               0
  9
$DIMTOH
 70
               0
  9
$DIMSE1
 70
               0
  9
$DIMSE2
 70
               0
  9
$DIMTAD
 70
               1
  9
$DIMZIN
 70
              11
  9
$DIMBLK
  1
VW_EMPTYARROW
  9
$DIMASO
 70
               1
  9
$DIMSHO
 70
               1
  9
$DIMPOST
  1
<>
  9
$DIMAPOST
  1
[]
  9
$DIMALT
 70
               0
  9
$DIMALTD
 70
               2
  9
$DIMALTF
 40
1.0
  9
$DIMLFAC
 40
1.0
  9
$DIMTOFL
 70
               1
  9
$DIMTVP
 40
0.0
  9
$DIMTIX
 70
               1
  9
$DIMSOXD
 70
               0
  9
$DIMSAH
 70
               0
  9
$DIMBLK1
  1

  9
$DIMBLK2
  1

  9
$DIMSTYLE
  2
HIBINO
  9
$DIMCLRD
 70
               0
  9
$DIMCLRE
 70
               0
  9
$DIMCLRT
 70
               0
  9
$DIMTFAC
 40
1.0
  9
$DIMGAP
 40
0.4999999999999999
  9
$DIMJUST
 70
               0
  9
$DIMSD1
 70
               0
  9
$DIMSD2
 70
               0
  9
$DIMTOLJ
 70
               1
  9
$DIMTZIN
 70
              11
  9
$DIMALTZ
 70
              11
  9
$DIMALTTZ
 70
              11
  9
$DIMUPT
 70
               0
  9
$DIMDEC
 70
               2
  9
$DIMTDEC
 70
               2
  9
$DIMALTU
 70
               2
  9
$DIMALTTD
 70
               2
  9
$DIMTXSTY
  7
ＭＳ ゴシック
  9
$DIMAUNIT
 70
               0
  9
$DIMADEC
 70
               2
  9
$DIMALTRND
 40
0.0
  9
$DIMAZIN
 70
               0
  9
$DIMDSEP
 70
              46
  9
$DIMATFIT
 70
               0
  9
$DIMFRAC
 70
               2
  9
$DIMLDRBLK
  1

  9
$DIMLUNIT
 70
               2
  9
$DIMLWD
 70
              -2
  9
$DIMLWE
 70
              -2
  9
$DIMTMOVE
 70
               0
  9
$LUNITS
 70
               2
  9
$LUPREC
 70
               4
  9
$SKETCHINC
 40
0.1
  9
$FILLETRAD
 40
0.0
  9
$AUNITS
 70
               0
  9
$AUPREC
 70
               0
  9
$MENU
  1
acad
  9
$ELEVATION
 40
0.0
  9
$PELEVATION
 40
0.0
  9
$THICKNESS
 40
0.0
  9
$LIMCHECK
 70
               0
  9
$CHAMFERA
 40
0.0
  9
$CHAMFERB
 40
0.0
  9
$CHAMFERC
 40
0.0
  9
$CHAMFERD
 40
0.0
  9
$SKPOLY
 70
               0
  9
$TDCREATE
 40
2458457.742800926
  9
$TDUCREATE
 40
0.000000000
  9
$TDUPDATE
 40
2458457.742800926
  9
$TDUUPDATE
 40
0.000000000
  9
$TDINDWG
 40
0.0000000000
  9
$TDUSRTIMER
 40
0.0000000000
  9
$USRTIMER
 70
               1
  9
$ANGBASE
 50
0.0
  9
$ANGDIR
 70
               0
  9
$PDMODE
 70
               1
  9
$PDSIZE
 40
-2.0
  9
$PLINEWID
 40
0.0
  9
$SPLFRAME
 70
               0
  9
$SPLINETYPE
 70
               6
  9
$SPLINESEGS
 70
               8
  9
$HANDSEED
  5
490
  9
$SURFTAB1
 70
               6
  9
$SURFTAB2
 70
               6
  9
$SURFTYPE
 70
               6
  9
$SURFU
 70
               6
  9
$SURFV
 70
               6
  9
$UCSBASE
  2

  9
$UCSNAME
  2

  9
$UCSORG
 10
0.0
 20
0.0
 30
0.0
  9
$UCSXDIR
 10
1.0
 20
0.0
 30
0.0
  9
$UCSYDIR
 10
0.0
 20
1.0
 30
0.0
  9
$UCSORTHOREF
  2

  9
$UCSORTHOVIEW
 70
               0
  9
$UCSORGTOP
 10
0.0
 20
0.0
 30
0.0
  9
$UCSORGBOTTOM
 10
0.0
 20
0.0
 30
0.0
  9
$UCSORGLEFT
 10
0.0
 20
0.0
 30
0.0
  9
$UCSORGRIGHT
 10
0.0
 20
0.0
 30
0.0
  9
$UCSORGFRONT
 10
0.0
 20
0.0
 30
0.0
  9
$UCSORGBACK
 10
0.0
 20
0.0
 30
0.0
  9
$PUCSBASE
  2

  9
$PUCSNAME
  2

  9
$PUCSORG
 10
0.0
 20
0.0
 30
0.0
  9
$PUCSXDIR
 10
1.0
 20
0.0
 30
0.0
  9
$PUCSYDIR
 10
0.0
 20
1.0
 30
0.0
  9
$PUCSORTHOREF
  2

  9
$PUCSORTHOVIEW
 70
               0
  9
$PUCSORGTOP
 10
0.0
 20
0.0
 30
0.0
  9
$PUCSORGBOTTOM
 10
0.0
 20
0.0
 30
0.0
  9
$PUCSORGLEFT
 10
0.0
 20
0.0
 30
0.0
  9
$PUCSORGRIGHT
 10
0.0
 20
0.0
 30
0.0
  9
$PUCSORGFRONT
 10
0.0
 20
0.0
 30
0.0
  9
$PUCSORGBACK
 10
0.0
 20
0.0
 30
0.0
  9
$USERI1
 70
               0
  9
$USERI2
 70
               0
  9
$USERI3
 70
               0
  9
$USERI4
 70
               0
  9
$USERI5
 70
               0
  9
$USERR1
 40
0.0
  9
$USERR2
 40
0.0
  9
$USERR3
 40
0.0
  9
$USERR4
 40
0.0
  9
$USERR5
 40
0.0
  9
$WORLDVIEW
 70
               1
  9
$SHADEDGE
 70
               3
  9
$SHADEDIF
 70
              70
  9
$TILEMODE
 70
               1
  9
$MAXACTVP
 70
              64
  9
$PINSBASE
 10
0.0
 20
0.0
 30
0.0
  9
$PLIMCHECK
 70
               0
  9
$PEXTMIN
 10
1.0000000000000000E+20
 20
1.0000000000000000E+20
 30
1.0000000000000000E+20
  9
$PEXTMAX
 10
-1.0000000000000000E+20
 20
-1.0000000000000000E+20
 30
-1.0000000000000000E+20
  9
$PLIMMIN
 10
0.0
 20
0.0
  9
$PLIMMAX
 10
12.0
 20
9.0
  9
$UNITMODE
 70
               0
  9
$VISRETAIN
 70
               0
  9
$PLINEGEN
 70
               1
  9
$PSLTSCALE
 70
               0
  9
$TREEDEPTH
 70
            3020
  9
$CMLSTYLE
  2
Standard
  9
$CMLJUST
 70
               0
  9
$CMLSCALE
 40
1.0
  9
$PROXYGRAPHICS
 70
               0
  9
$MEASUREMENT
 70
               1
  9
$CELWEIGHT
370
               0
  9
$ENDCAPS
280
               0
  9
$JOINSTYLE
280
               0
  9
$LWDISPLAY
290
               0
  9
$INSUNITS
 70
               4
  9
$HYPERLINKBASE
  1

  9
$STYLESHEET
  1

  9
$XEDIT
290
               1
  9
$CEPSNTYPE
380
               0
  9
$PSTYLEMODE
290
               1
  9
$FINGERPRINTGUID
  2

  9
$VERSIONGUID
  2

  9
$EXTNAMES
290
               1
  9
$PSVPSCALE
 40
0.0
  0
ENDSEC
  0
SECTION
  2
CLASSES
  0
CLASS
  1
LWPOLYLINE
  2
AcDbPolyline
  3
AutoCAD 2000
 90
        0
280
               0
281
               1
  0
CLASS
  1
IMAGE
  2
AcDbRasterImage
  3
ISM
 90
      127
280
               0
281
               1
  0
CLASS
  1
OLE2FRAME
  2
AcDbOle2Frame
  3
AutoCAD 2000
 90
        0
280
               0
281
               1
  0
CLASS
  1
HATCH
  2
AcDbHatch
  3
AutoCAD 2000
 90
        0
280
               0
281
               1
  0
CLASS
  1
DICTIONARYVAR
  2
AcDbDictionaryVar
  3
AutoCAD 2000
 90
        0
280
               0
281
               0
  0
CLASS
  1
RASTERVARIABLES
  2
AcDbRasterVariables
  3
ISM
 90
        0
280
               0
281
               0
  0
CLASS
  1
IMAGEDEF
  2
AcDbRasterImageDef
  3
ISM
 90
        0
280
               0
281
               0
  0
CLASS
  1
IMAGEDEF_REACTOR
  2
AcDbRasterImageDefReactor
  3
ISM
 90
        1
280
               0
281
               0
  0
CLASS
  1
IDBUFFER
  2
AcDbIdBuffer
  3
AutoCAD 2000
 90
        0
280
               0
281
               0
  0
CLASS
  1
SPATIAL_FILTER
  2
AcDbSpatialFilter
  3
AutoCAD 2000
 90
        0
280
               0
281
               0
  0
CLASS
  1
XRECORD
  2
AcDbXrecord
  3
AutoCAD 2000
 90
        0
280
               0
281
               0
  0
CLASS
  1
SORTENTSTABLE
  2
AcDbSortentsTable
  3
AutoCAD 2000
 90
        0
280
               0
281
               0
  0
CLASS
  1
LAYER_INDEX
  2
AcDbLayerIndex
  3
AutoCAD 2000
 90
        0
280
               0
281
               0
  0
CLASS
  1
SPATIAL_INDEX
  2
AcDbSpatialIndex
  3
AutoCAD 2000
 90
        0
280
               0
281
               0
  0
CLASS
  1
OBJECT_PTR
  2
CAseDLPNTableRecord
  3
"ASE-LPNTableRecord"
 90
        1
280
               0
281
               0
  0
CLASS
  1
LAYOUT
  2
AcDbLayout
  3
AutoCAD 2000
 90
        0
280
               0
281
               0
  0
CLASS
  1
PLOTSETTINGS
  2
AcDbPlotSettings
  3
AutoCAD 2000
 90
        0
280
               0
281
               0
  0
CLASS
  1
ACDBDICTIONARYWDFLT
  2
AcDbDictionaryWithDefault
  3
AutoCAD 2000
 90
        0
280
               0
281
               0
  0
CLASS
  1
ACDBPLACEHOLDER
  2
AcDbPlaceHolder
  3
AutoCAD 2000
 90
        0
280
               0
281
               0
  0
CLASS
  1
VBA_PROJECT
  2
AcDbVbaProject
  3
acadvba
 90
        0
280
               0
281
               0
  0
CLASS
  1
WIPEOUT
  2
AcDbWipeout
  3
WipeOut|AutoCAD Express Tool|expresstools@autodesk.com
 90
      127
280
               0
281
               1
  0
CLASS
  1
WIPEOUTVARIABLES
  2
AcDbWipeoutVariables
  3
WipeOut|AutoCAD Express Tool|expresstools@autodesk.com
 90
        0
280
               0
281
               0
  0
CLASS
  1
RTEXT
  2
RText
  3
RText|AutoCAD Express Tool|expresstools@autodesk.com
 90
        0
280
               0
281
               1
  0
CLASS
  1
ARCALIGNEDTEXT
  2
AcDbArcAlignedText
  3
ATEXT|AutoCAD Express Tool|expresstools@autodesk.com
 90
        0
280
               0
281
               1
  0
ENDSEC
  0
SECTION
  2
TABLES
  0
TABLE
  2
VPORT
  5
7
100
AcDbSymbolTable
 70
               1
  0
VPORT
  5
15
100
AcDbSymbolTableRecord
100
AcDbViewportTableRecord
  2
*ACTIVE
 70
               0
 10
0.0
 20
0.0
 11
1.0
 21
1.0
 12
-1023.7331179628611
 22
463.70652079076785
 13
0.0
 23
0.0
 14
1.0
 24
1.0
 15
0.0
 25
0.0
 16
0.0
 26
0.0
 36
1.0
 17
0.0
 27
0.0
 37
0.0
 40
4006.0094368459777
 41
0.688564
 42
50.0
 43
0.0
 44
0.0
 50
0.0
 51
0.0
 71
               0
 72
            2000
 73
               1
 74
               1
 75
               0
 76
               0
 77
               0
 78
               0
281
               0
 65
               0
110
0.0
120
0.0
130
0.0
111
1.0
121
0.0
131
0.0
112
0.0
122
1.0
132
0.0
345
0
346
0
 79
               0
146
0.0
  0
ENDTAB
  0
TABLE
  2
LTYPE
  5
4
100
AcDbSymbolTable
 70
              13
  0
LTYPE
  5
11
100
AcDbSymbolTableRecord
100
AcDbLinetypeTableRecord
  2
ByBlock
 70
              64
  3

 72
              65
 73
               0
 40
0.0
  0
LTYPE
  5
12
100
AcDbSymbolTableRecord
100
AcDbLinetypeTableRecord
  2
ByLayer
 70
              64
  3

 72
              65
 73
               0
 40
0.0
  0
LTYPE
  5
13
100
AcDbSymbolTableRecord
100
AcDbLinetypeTableRecord
  2
Continuous
 70
              64
  3
Solid line
 72
              65
 73
               0
 40
0.0
  0
LTYPE
  5
36
100
AcDbSymbolTableRecord
100
AcDbLinetypeTableRecord
  2
STYLE_01
 70
               0
  3

 72
              65
 73
               4
 40
0.1333333333333333
 49
0.0833333333333333
 74
               0
 49
-0.0166666666666667
 74
               0
 49
0.0166666666666667
 74
               0
 49
-0.0166666666666667
 74
               0
  0
LTYPE
  5
37
100
AcDbSymbolTableRecord
100
AcDbLinetypeTableRecord
  2
STYLE_02
 70
               0
  3

 72
              65
 73
               4
 40
0.2666666666666667
 49
0.1666666666666667
 74
               0
 49
-0.0333333333333333
 74
               0
 49
0.0333333333333333
 74
               0
 49
-0.0333333333333333
 74
               0
  0
LTYPE
  5
38
100
AcDbSymbolTableRecord
100
AcDbLinetypeTableRecord
  2
STYLE_03
 70
               0
  3

 72
              65
 73
               2
 40
1.25
 49
1.0416412353515625
 74
               0
 49
-0.2083587646484375
 74
               0
  0
LTYPE
  5
39
100
AcDbSymbolTableRecord
100
AcDbLinetypeTableRecord
  2
STYLE_04
 70
               0
  3

 72
              65
 73
               2
 40
1.5277099609375
 49
1.319427490234375
 74
               0
 49
-0.208282470703125
 74
               0
  0
LTYPE
  5
3A
100
AcDbSymbolTableRecord
100
AcDbLinetypeTableRecord
  2
STYLE_05
 70
               0
  3

 72
              65
 73
               2
 40
0.208282470703125
 49
0.069427490234375
 74
               0
 49
-0.13885498046875
 74
               0
  0
LTYPE
  5
3B
100
AcDbSymbolTableRecord
100
AcDbLinetypeTableRecord
  2
STYLE_06
 70
               0
  3

 72
              65
 73
               4
 40
1.0416412353515625
 49
0.625
 74
               0
 49
-0.208282470703125
 74
               0
 49
0.069427490234375
 74
               0
 49
-0.1389312744140625
 74
               0
  0
LTYPE
  5
3C
100
AcDbSymbolTableRecord
100
AcDbLinetypeTableRecord
  2
STYLE_07
 70
               0
  3

 72
              65
 73
               6
 40
1.875
 49
0.625
 74
               0
 49
-0.208282470703125
 74
               0
 49
0.625
 74
               0
 49
-0.2083587646484375
 74
               0
 49
0.069427490234375
 74
               0
 49
-0.1389312744140625
 74
               0
  0
LTYPE
  5
3D
100
AcDbSymbolTableRecord
100
AcDbLinetypeTableRecord
  2
STYLE_08
 70
               0
  3

 72
              65
 73
               6
 40
1.25
 49
0.625
 74
               0
 49
-0.208282470703125
 74
               0
 49
0.069427490234375
 74
               0
 49
-0.1389312744140625
 74
               0
 49
0.069427490234375
 74
               0
 49
-0.1389312744140625
 74
               0
  0
LTYPE
  5
3E
100
AcDbSymbolTableRecord
100
AcDbLinetypeTableRecord
  2
STYLE_09
 70
               0
  3

 72
              65
 73
               4
 40
5.0
 49
3.75
 74
               0
 49
-0.2777862548828125
 74
               0
 49
0.694427490234375
 74
               0
 49
-0.2777862548828125
 74
               0
  0
LTYPE
  5
3F
100
AcDbSymbolTableRecord
100
AcDbLinetypeTableRecord
  2
STYLE_10
 70
               0
  3

 72
              65
 73
               6
 40
5.9375
 49
3.75
 74
               0
 49
-0.2777862548828125
 74
               0
 49
0.694427490234375
 74
               0
 49
-0.2777862548828125
 74
               0
 49
0.625
 74
               0
 49
-0.3125
 74
               0
  0
ENDTAB
  0
TABLE
  2
LAYER
  5
2
100
AcDbSymbolTable
 70
              12
  0
LAYER
  5
14
100
AcDbSymbolTableRecord
100
AcDbLayerTableRecord
  2
0
 70
               0
 62
               7
  6
Continuous
290
               1
370
               0
390
1D
  0
LAYER
  5
40
100
AcDbSymbolTableRecord
100
AcDbLayerTableRecord
  2
DATA
 70
               0
 62
               7
  6
Continuous
290
               1
370
               0
390
1D
  0
LAYER
  5
41
100
AcDbSymbolTableRecord
100
AcDbLayerTableRecord
  2
一般
 70
               0
 62
               7
  6
Continuous
290
               1
370
               0
390
1D
  0
LAYER
  5
42
100
AcDbSymbolTableRecord
100
AcDbLayerTableRecord
  2
寸法
 70
               0
 62
               7
  6
Continuous
290
               1
370
               0
390
1D
  0
LAYER
  5
43
100
AcDbSymbolTableRecord
100
AcDbLayerTableRecord
  2
HIBINO-BASE
 70
               0
 62
               7
  6
Continuous
290
               1
370
               0
390
1D
  0
LAYER
  5
44
100
AcDbSymbolTableRecord
100
AcDbLayerTableRecord
  2
SPEC
 70
               0
 62
               7
  6
Continuous
290
               1
370
               0
390
1D
  0
LAYER
  5
45
100
AcDbSymbolTableRecord
100
AcDbLayerTableRecord
  2
DIMNSIONS
 70
               0
 62
               7
  6
Continuous
290
               1
370
               0
390
1D
  0
LAYER
  5
46
100
AcDbSymbolTableRecord
100
AcDbLayerTableRecord
  2
Layer1
 70
               0
 62
               3
  6
Continuous
290
               1
370
               0
390
1D
  0
LAYER
  5
47
100
AcDbSymbolTableRecord
100
AcDbLayerTableRecord
  2
2D
 70
               0
 62
              82
  6
Continuous
290
               1
370
               0
390
1D
  0
LAYER
  5
48
100
AcDbSymbolTableRecord
100
AcDbLayerTableRecord
  2
FORMAT
 70
               0
 62
               7
  6
Continuous
290
               1
370
               0
390
1D
  0
LAYER
  5
49
100
AcDbSymbolTableRecord
100
AcDbLayerTableRecord
  2
Defpoints
 70
               0
 62
               7
  6
Continuous
290
               0
370
               0
390
1D
  0
LAYER
  5
4A
100
AcDbSymbolTableRecord
100
AcDbLayerTableRecord
  2
5in
 70
               0
 62
               7
  6
Continuous
290
               1
370
               0
390
1D
  0
ENDTAB
  0
TABLE
  2
STYLE
  5
3
100
AcDbSymbolTable
 70
               2
  0
STYLE
  5
17
100
AcDbSymbolTableRecord
100
AcDbTextStyleTableRecord
  2
Standard
 70
               0
 40
0.0
 41
1.0
 50
0.0
 71
               0
 42
0.0
  3
txt
  4
BIGFONT.SHX
  0
STYLE
  5
35
100
AcDbSymbolTableRecord
100
AcDbTextStyleTableRecord
  2
ＭＳ ゴシック
 70
               0
 40
0.0
 41
1.0
 50
0.0
 71
               0
 42
0.0
  3

  4
ＭＳ ゴシック
1001
ACAD
1000
ＭＳ ゴシック
1071
        0
  0
ENDTAB
  0
TABLE
  2
VIEW
  5
5
100
AcDbSymbolTable
 70
               0
  0
ENDTAB
  0
TABLE
  2
UCS
  5
6
100
AcDbSymbolTable
 70
               0
  0
ENDTAB
  0
TABLE
  2
APPID
  5
8
100
AcDbSymbolTable
 70
               1
  0
APPID
  5
16
100
AcDbSymbolTableRecord
100
AcDbRegAppTableRecord
  2
ACAD
 70
               0
  0
ENDTAB
  0
TABLE
  2
DIMSTYLE
  5
9
100
AcDbSymbolTable
 70
               2
100
AcDbDimStyleTable
 71
               0
  0
DIMSTYLE
105
18
100
AcDbSymbolTableRecord
100
AcDbDimStyleTableRecord
  2
Standard
 70
               0
  3

  4

 40
1.0
 41
0.18
 42
0.0625
 43
0.38
 44
0.18
 45
0.0
 46
0.0
 47
0.0
 48
0.0
 71
               0
 72
               0
 73
               1
 74
               1
 75
               0
 76
               0
 77
               0
 78
               0
 79
               0
140
0.18
141
0.09
142
0.0
143
25.399999999999999
144
1.0
145
0.0
146
1.0
147
0.09
148
0.0
170
               0
171
               2
172
               0
173
               0
174
               0
175
               0
176
               0
177
               0
178
               0
179
               0
271
               4
272
               4
273
               2
274
               2
275
               0
276
               0
277
               2
278
              46
279
               0
280
               0
281
               0
282
               0
283
               1
284
               0
285
               0
286
               0
288
               0
289
               3
340
17
341
0
342
0
343
0
344
0
371
              -2
372
              -2
  0
DIMSTYLE
105
54
100
AcDbSymbolTableRecord
100
AcDbDimStyleTableRecord
  2
HIBINO
 70
               0
  3
<>
  4
[]
 40
1.0
 41
37.50933837890625
 42
29.999999999999996
 43
4.9999999999999991
 44
29.999999999999996
 45
0.0
 46
0.0
 47
0.0
 48
0.0
 71
               0
 72
               0
 73
               0
 74
               0
 75
               0
 76
               0
 77
               1
 78
              11
 79
               0
140
58.63828125000029
141
0.0
142
0.0
143
1.0
144
1.0
145
0.0
146
1.0
147
0.4999999999999999
148
0.0
170
               0
171
               2
172
               1
173
               0
174
               1
175
               0
176
               0
177
               0
178
               0
179
               2
271
               2
272
               2
273
               2
274
               2
275
               0
276
               2
277
               2
278
              46
279
               0
280
               0
281
               0
282
               0
283
               1
284
              11
285
              11
286
              11
288
               0
289
               0
340
35
341
4B
342
4B
343
0
344
0
371
              -2
372
              -2
  0
ENDTAB
  0
TABLE
  2
BLOCK_RECORD
  5
1
100
AcDbSymbolTable
 70
              18
  0
BLOCK_RECORD
  5
A
100
AcDbSymbolTableRecord
100
AcDbBlockTableRecord
  2
*MODEL_SPACE
340
20
  0
BLOCK_RECORD
  5
B
100
AcDbSymbolTableRecord
100
AcDbBlockTableRecord
  2
*PAPER_SPACE
340
21
  0
BLOCK_RECORD
  5
4B
100
AcDbSymbolTableRecord
100
AcDbBlockTableRecord
  2
VW_EMPTYARROW
340
0
  0
BLOCK_RECORD
  5
24
100
AcDbSymbolTableRecord
100
AcDbBlockTableRecord
  2
グループ
340
0
102
{BLKREFS
331
47B
102
}
  0
BLOCK_RECORD
  5
25
100
AcDbSymbolTableRecord
100
AcDbBlockTableRecord
  2
*D2
340
0
  0
BLOCK_RECORD
  5
26
100
AcDbSymbolTableRecord
100
AcDbBlockTableRecord
  2
*D3
340
0
  0
BLOCK_RECORD
  5
27
100
AcDbSymbolTableRecord
100
AcDbBlockTableRecord
  2
*D4
340
0
  0
BLOCK_RECORD
  5
28
100
AcDbSymbolTableRecord
100
AcDbBlockTableRecord
  2
グループ-1
340
0
102
{BLKREFS
331
47D
102
}
  0
BLOCK_RECORD
  5
29
100
AcDbSymbolTableRecord
100
AcDbBlockTableRecord
  2
*D6
340
0
  0
BLOCK_RECORD
  5
2A
100
AcDbSymbolTableRecord
100
AcDbBlockTableRecord
  2
グループ-2
340
0
102
{BLKREFS
331
480
102
}
  0
BLOCK_RECORD
  5
2B
100
AcDbSymbolTableRecord
100
AcDbBlockTableRecord
  2
*D8
340
0
  0
BLOCK_RECORD
  5
2C
100
AcDbSymbolTableRecord
100
AcDbBlockTableRecord
  2
グループ-3
340
0
102
{BLKREFS
331
483
102
}
  0
BLOCK_RECORD
  5
2D
100
AcDbSymbolTableRecord
100
AcDbBlockTableRecord
  2
グループ-4
340
0
102
{BLKREFS
331
484
102
}
  0
BLOCK_RECORD
  5
2E
100
AcDbSymbolTableRecord
100
AcDbBlockTableRecord
  2
*D11
340
0
  0
BLOCK_RECORD
  5
2F
100
AcDbSymbolTableRecord
100
AcDbBlockTableRecord
  2
*D12
340
0
  0
BLOCK_RECORD
  5
30
100
AcDbSymbolTableRecord
100
AcDbBlockTableRecord
  2
グループ-5
340
0
102
{BLKREFS
331
487
102
}
  0
BLOCK_RECORD
  5
31
100
AcDbSymbolTableRecord
100
AcDbBlockTableRecord
  2
*D14
340
0
  0
BLOCK_RECORD
  5
32
100
AcDbSymbolTableRecord
100
AcDbBlockTableRecord
  2
*D15
340
0
  0
BLOCK_RECORD
  5
33
100
AcDbSymbolTableRecord
100
AcDbBlockTableRecord
  2
グループ-6
340
0
102
{BLKREFS
331
488
102
}
  0
BLOCK_RECORD
  5
34
100
AcDbSymbolTableRecord
100
AcDbBlockTableRecord
  2
*D17
340
0
  0
ENDTAB
  0
ENDSEC
  0
SECTION
  2
BLOCKS
  0
BLOCK
  5
D
100
AcDbEntity
  8
0
390
0
100
AcDbBlockBegin
  2
*MODEL_SPACE
 70
               0
 10
0.0
 20
0.0
 30
0.0
  3
*MODEL_SPACE
  1

  0
ENDBLK
  5
E
100
AcDbEntity
  8
0
390
0
100
AcDbBlockEnd
  0
BLOCK
  5
F
100
AcDbEntity
 67
               1
  8
0
390
0
100
AcDbBlockBegin
  2
*PAPER_SPACE
 70
               0
 10
0.0
 20
0.0
 30
0.0
  3
*PAPER_SPACE
  1

  0
ENDBLK
  5
10
100
AcDbEntity
 67
               1
  8
0
390
0
100
AcDbBlockEnd
  0
BLOCK
  5
4C
100
AcDbEntity
  8
0
370
              -2
390
0
  6
ByBlock
 62
               0
100
AcDbBlockBegin
  2
VW_EMPTYARROW
 70
               0
 10
0.0
 20
0.0
 30
0.0
  3
VW_EMPTYARROW
  1

  0
LINE
  5
4D
100
AcDbEntity
  8
0
370
              -2
390
0
  6
ByBlock
 62
               0
100
AcDbLine
 10
0.0
 20
0.0
 30
0.0
 11
-1.0
 21
0.0
 31
0.0
  0
POLYLINE
  5
4E
100
AcDbEntity
  8
0
370
              -2
390
0
  6
Continuous
 62
               0
100
AcDb2dPolyline
 66
               1
 10
0.0
 20
0.0
 30
0.0
 75
               5
  0
VERTEX
  5
4F
100
AcDbEntity
  8
0
370
              -2
390
0
  6
Continuous
 62
               0
100
AcDbVertex
100
AcDb2dVertex
 10
-0.99993896484375
 20
0.2679328381102957
 30
0.0
  0
VERTEX
  5
50
100
AcDbEntity
  8
0
370
              -2
390
0
  6
Continuous
 62
               0
100
AcDbVertex
100
AcDb2dVertex
 10
0.0
 20
0.0
 30
0.0
  0
VERTEX
  5
51
100
AcDbEntity
  8
0
370
              -2
390
0
  6
Continuous
 62
               0
100
AcDbVertex
100
AcDb2dVertex
 10
-0.9999389648437499
 20
-0.2679328381102959
 30
0.0
  0
SEQEND
  5
52
100
AcDbEntity
  8
0
370
              -2
390
0
  6
Continuous
 62
               0
  0
ENDBLK
  5
53
100
AcDbEntity
  8
0
390
0
100
AcDbBlockEnd
  0
BLOCK
  5
55
100
AcDbEntity
  8
0
390
0
100
AcDbBlockBegin
  2
グループ
 70
               0
 10
0.0
 20
0.0
 30
0.0
  3
グループ
  1

  0
LINE
  5
56
100
AcDbEntity
  8
0
370
               0
390
0
  6
Continuous
 62
              30
100
AcDbLine
 10
248.55626906601196
 20
1020.2628052242372
 30
0.0
 11
238.55626906601128
 21
1020.2628052242372
 31
0.0
  0
LINE
  5
57
100
AcDbEntity
  8
0
370
               0
390
0
  6
Continuous
 62
              30
100
AcDbLine
 10
238.55626906601128
 20
1020.2628052242372
 30
0.0
 11
238.55626906601128
 21
1025.7628052242371
 31
0.0
  0
LINE
  5
58
100
AcDbEntity
  8
0
370
               0
390
0
  6
Continuous
 62
              30
100
AcDbLine
 10
248.55626906601128
 20
1025.7628052242371
 30
0.0
 11
238.55626906601128
 21
1025.7628052242371
 31
0.0
  0
LINE
  5
59
100
AcDbEntity
  8
0
370
               0
390
0
  6
Continuous
 62
              30
100
AcDbLine
 10
248.55626906601196
 20
1020.2628052242372
 30
0.0
 11
248.55626906601128
 21
1025.7628052242371
 31
0.0
  0
LINE
  5
5A
100
AcDbEntity
  8
0
370
               0
390
0
  6
Continuous
 62
              30
100
AcDbLine
 10
239.05626906601151
 20
1026.2628052242371
 30
0.0
 11
248.05626906601151
 21
1026.2628052242371
 31
0.0
  0
ARC
  5
5B
100
AcDbEntity
  8
0
370
               0
390
0
  6
Continuous
 62
              30
100
AcDbCircle
 10
239.05626906601151
 20
1025.7628052242371
 30
0.0
 40
0.5000000000004548
100
AcDbArc
 50
90.0
 51
180.0
  0
ARC
  5
5C
100
AcDbEntity
  8
0
370
               0
390
0
  6
Continuous
 62
              30
100
AcDbCircle
 10
248.05626906601151
 20
1025.7628052242371
 30
0.0
 40
0.5
100
AcDbArc
 50
0.0
 51
90.0
  0
LINE
  5
5D
100
AcDbEntity
  8
0
370
               0
390
0
  6
Continuous
 62
              30
100
AcDbLine
 10
-467.44373093398826
 20
1020.2628052242377
 30
0.0
 11
-477.44373093398895
 21
1020.2628052242377
 31
0.0
  0
LINE
  5
5E
100
AcDbEntity
  8
0
370
               0
390
0
  6
Continuous
 62
              30
100
AcDbLine
 10
-477.44373093398895
 20
1020.2628052242377
 30
0.0
 11
-477.44373093398895
 21
1025.7628052242376
 31
0.0
  0
LINE
  5
5F
100
AcDbEntity
  8
0
370
               0
390
0
  6
Continuous
 62
              30
100
AcDbLine
 10
-467.44373093398895
 20
1025.7628052242376
 30
0.0
 11
-477.44373093398895
 21
1025.7628052242376
 31
0.0
  0
LINE
  5
60
100
AcDbEntity
  8
0
370
               0
390
0
  6
Continuous
 62
              30
100
AcDbLine
 10
-467.44373093398826
 20
1020.2628052242377
 30
0.0
 11
-467.44373093398895
 21
1025.7628052242376
 31
0.0
  0
LINE
  5
61
100
AcDbEntity
  8
0
370
               0
390
0
  6
Continuous
 62
              30
100
AcDbLine
 10
-476.94373093398872
 20
1026.2628052242376
 30
0.0
 11
-467.94373093398872
 21
1026.2628052242376
 31
0.0
  0
ARC
  5
62
100
AcDbEntity
  8
0
370
               0
390
0
  6
Continuous
 62
              30
100
AcDbCircle
 10
-476.94373093398872
 20
1025.7628052242376
 30
0.0
 40
0.5000000000004548
100
AcDbArc
 50
90.0
 51
180.0
  0
ARC
  5
63
100
AcDbEntity
  8
0
370
               0
390
0
  6
Continuous
 62
              30
100
AcDbCircle
 10
-467.94373093398872
 20
1025.7628052242376
 30
0.0
 40
0.5
100
AcDbArc
 50
0.0
 51
90.0
  0
LINE
  5
64
100
AcDbEntity
  8
0
370
               0
390
0
  6
Continuous
 62
              30
100
AcDbLine
 10
248.55626906601105
 20
683.26280522423781
 30
0.0
 11
248.55626906600924
 21
1020.2628052242377
 31
0.0
  0
LINE
  5
65
100
AcDbEntity
  8
0
370
               0
390
0
  6
Continuous
 62
              30
100
AcDbLine
 10
238.55626906601015
 20
693.26280522423781
 30
0.0
 11
238.55626906600924
 21
1020.2628052242377
 31
0.0
  0
LINE
  5
66
100
AcDbEntity
  8
0
370
               0
390
0
  6
Continuous
 62
              30
100
AcDbLine
 10
248.55626906601105
 20
683.26280522423781
 30
0.0
 11
238.55626906601015
 21
693.26280522423781
 31
0.0
  0
LINE
  5
67
100
AcDbEntity
  8
0
370
               0
390
0
  6
Continuous
 62
              30
100
AcDbLine
 10
-467.44373093398985
 20
693.26280522423781
 30
0.0
 11
-467.44373093398872
 21
1020.2628052242377
 31
0.0
  0
LINE
  5
68
100
AcDbEntity
  8
0
370
               0
390
0
  6
Continuous
 62
              30
100
AcDbLine
 10
-467.44373093398985
 20
693.26280522423781
 30
0.0
 11
-477.44373093399076
 21
683.26280522423781
 31
0.0
  0
LINE
  5
69
100
AcDbEntity
  8
0
370
               0
390
0
  6
Continuous
 62
              30
100
AcDbLine
 10
-477.44373093399076
 20
683.26280522423781
 30
0.0
 11
-477.44373093398872
 21
1020.2628052242377
 31
0.0
  0
LINE
  5
6A
100
AcDbEntity
  8
0
370
               0
390
0
  6
Continuous
 62
              30
100
AcDbLine
 10
-467.44373093399008
 20
693.26280522423781
 30
0.0
 11
238.55626906601015
 21
693.26280522423781
 31
0.0
  0
LINE
  5
6B
100
AcDbEntity
  8
0
370
               0
390
0
  6
Continuous
 62
              30
100
AcDbLine
 10
-477.44373093399008
 20
683.26280522423781
 30
0.0
 11
248.55626906601015
 21
683.26280522423781
 31
0.0
  0
ENDBLK
  5
6C
100
AcDbEntity
  8
0
390
0
100
AcDbBlockEnd
  0
BLOCK
  5
6D
100
AcDbEntity
  8
寸法
390
0
100
AcDbBlockBegin
  2
*D2
 70
               1
 10
0.0
 20
0.0
 30
0.0
  3
*D2
  1

  0
LINE
  5
6E
100
AcDbEntity
  8
寸法
370
              -2
390
0
  6
Continuous
 62
               0
100
AcDbLine
 10
-1530.3869710209988
 20
1475.4799398346863
 30
0.0
 11
-1679.8869710209983
 21
1475.4799398346863
 31
0.0
  0
LINE
  5
6F
100
AcDbEntity
  8
寸法
370
              -2
390
0
  6
Continuous
 62
               0
100
AcDbLine
 10
-1530.3869710210006
 20
1132.9799398346865
 30
0.0
 11
-1679.8869710209983
 21
1132.9799398346865
 31
0.0
  0
LINE
  5
70
100
AcDbEntity
  8
寸法
370
              -2
390
0
  6
Continuous
 62
               0
100
AcDbLine
 10
-1649.8869710209983
 20
1475.4799398346863
 30
0.0
 11
-1649.8869710209983
 21
1132.9799398346865
 31
0.0
  0
POLYLINE
  5
71
100
AcDbEntity
  8
0
370
              -2
390
0
  6
Continuous
 62
               0
100
AcDb2dPolyline
 66
               1
 10
0.0
 20
0.0
 30
0.0
 75
               5
  0
VERTEX
  5
72
100
AcDbEntity
  8
0
370
              -2
390
0
  6
Continuous
 62
               0
100
AcDbVertex
100
AcDb2dVertex
 10
-1659.9375679482521
 20
1437.9706014557801
 30
0.0
  0
VERTEX
  5
73
100
AcDbEntity
  8
0
370
              -2
390
0
  6
Continuous
 62
               0
100
AcDbVertex
100
AcDb2dVertex
 10
-1649.8869710209983
 20
1475.4799398346863
 30
0.0
  0
VERTEX
  5
74
100
AcDbEntity
  8
0
370
              -2
390
0
  6
Continuous
 62
               0
100
AcDbVertex
100
AcDb2dVertex
 10
-1639.8363740937448
 20
1437.9706014557801
 30
0.0
  0
SEQEND
  5
75
100
AcDbEntity
  8
0
370
              -2
390
0
  6
Continuous
 62
               0
  0
POLYLINE
  5
76
100
AcDbEntity
  8
0
370
              -2
390
0
  6
Continuous
 62
               0
100
AcDb2dPolyline
 66
               1
 10
0.0
 20
0.0
 30
0.0
 75
               5
  0
VERTEX
  5
77
100
AcDbEntity
  8
0
370
              -2
390
0
  6
Continuous
 62
               0
100
AcDbVertex
100
AcDb2dVertex
 10
-1639.8363740937448
 20
1170.4892782135928
 30
0.0
  0
VERTEX
  5
78
100
AcDbEntity
  8
0
370
              -2
390
0
  6
Continuous
 62
               0
100
AcDbVertex
100
AcDb2dVertex
 10
-1649.8869710209983
 20
1132.9799398346865
 30
0.0
  0
VERTEX
  5
79
100
AcDbEntity
  8
0
370
              -2
390
0
  6
Continuous
 62
               0
100
AcDbVertex
100
AcDb2dVertex
 10
-1659.9375679482521
 20
1170.4892782135928
 30
0.0
  0
SEQEND
  5
7A
100
AcDbEntity
  8
0
370
              -2
390
0
  6
Continuous
 62
               0
  0
MTEXT
  5
7B
100
AcDbEntity
  8
寸法
390
0
 62
               0
100
AcDbMText
 10
-1764.7932522709989
 20
1304.2299398346865
 30
0.0
 40
58.63828125000029
 41
0.0
 71
               1
 72
               1
  1
{\fＭＳ ゴシック|b0|i0|c128|p0;\l343}
 11
0.0
 21
1.0
 31
0.0
 73
               1
 44
0.7828267384257842
  0
POINT
  5
7C
100
AcDbEntity
  8
Defpoints
370
               0
390
0
 62
               0
100
AcDbPoint
 10
-1500.3869710210006
 20
1132.9799398346865
 30
0.0
  0
POINT
  5
7D
100
AcDbEntity
  8
Defpoints
370
               0
390
0
 62
               0
100
AcDbPoint
 10
-1500.3869710209988
 20
1475.4799398346863
 30
0.0
  0
POINT
  5
7E
100
AcDbEntity
  8
Defpoints
370
               0
390
0
 62
               0
100
AcDbPoint
 10
-1649.8869710209983
 20
1475.4799398346863
 30
0.0
  0
ENDBLK
  5
7F
100
AcDbEntity
  8
寸法
390
0
100
AcDbBlockEnd
  0
BLOCK
  5
80
100
AcDbEntity
  8
寸法
390
0
100
AcDbBlockBegin
  2
*D3
 70
               1
 10
0.0
 20
0.0
 30
0.0
  3
*D3
  1

  0
LINE
  5
81
100
AcDbEntity
  8
寸法
370
              -2
390
0
  6
Continuous
 62
               0
100
AcDbLine
 10
-110.54462681190694
 20
357.65041728154523
 30
0.0
 11
38.55626906601006
 21
183.26280522423784
 31
0.0
  0
POLYLINE
  5
82
100
AcDbEntity
  8
0
370
              -2
390
0
  6
Continuous
 62
               0
100
AcDb2dPolyline
 66
               1
 10
0.0
 20
0.0
 30
0.0
 75
               5
  0
VERTEX
  5
83
100
AcDbEntity
  8
0
370
              -2
390
0
  6
Continuous
 62
               0
100
AcDbVertex
100
AcDb2dVertex
 10
-93.521568484921218
 20
322.74797539829797
 30
0.0
  0
VERTEX
  5
84
100
AcDbEntity
  8
0
370
              -2
390
0
  6
Continuous
 62
               0
100
AcDbVertex
100
AcDb2dVertex
 10
-110.54462681190694
 20
357.65041728154523
 30
0.0
  0
VERTEX
  5
85
100
AcDbEntity
  8
0
370
              -2
390
0
  6
Continuous
 62
               0
100
AcDbVertex
100
AcDb2dVertex
 10
-78.351004909009447
 20
335.93554512003601
 30
0.0
  0
SEQEND
  5
86
100
AcDbEntity
  8
0
370
              -2
390
0
  6
Continuous
 62
               0
  0
LINE
  5
87
100
AcDbEntity
  8
寸法
370
              -2
390
0
  6
Continuous
 62
               0
100
AcDbLine
 10
38.55626906601006
 20
183.26280522423784
 30
0.0
 11
220.95626502878878
 21
183.26280522423784
 31
0.0
  0
MTEXT
  5
88
100
AcDbEntity
  8
寸法
390
0
 62
               0
100
AcDbMText
 10
144.75626704739943
 20
298.16908647423827
 30
0.0
 40
58.63828125000029
 41
0.0
 71
               1
 72
               1
  1
{\fＭＳ ゴシック|b0|i0|c128|p0;\lφ12}
 73
               1
 44
0.7828267384257842
  0
POINT
  5
89
100
AcDbEntity
  8
Defpoints
370
               0
390
0
 62
               0
100
AcDbPoint
 10
-118.34283505607321
 20
366.77116002436048
 30
0.0
  0
POINT
  5
8A
100
AcDbEntity
  8
Defpoints
370
               0
390
0
 62
               0
100
AcDbPoint
 10
-110.54462681190694
 20
357.65041728154523
 30
0.0
  0
ENDBLK
  5
8B
100
AcDbEntity
  8
寸法
390
0
100
AcDbBlockEnd
  0
BLOCK
  5
8C
100
AcDbEntity
  8
寸法
390
0
100
AcDbBlockBegin
  2
*D4
 70
               1
 10
0.0
 20
0.0
 30
0.0
  3
*D4
  1

  0
LINE
  5
8D
100
AcDbEntity
  8
寸法
370
              -2
390
0
  6
Continuous
 62
               0
100
AcDbLine
 10
-52.373757545795442
 20
363.61264819376527
 30
0.0
 11
13.556269066010032
 21
408.26280522423781
 31
0.0
  0
POLYLINE
  5
8E
100
AcDbEntity
  8
0
370
              -2
390
0
  6
Continuous
 62
               0
100
AcDb2dPolyline
 66
               1
 10
0.0
 20
0.0
 30
0.0
 75
               5
  0
VERTEX
  5
8F
100
AcDbEntity
  8
0
370
              -2
390
0
  6
Continuous
 62
               0
100
AcDbVertex
100
AcDb2dVertex
 10
-15.656884230636201
 20
376.25528154983306
 30
0.0
  0
VERTEX
  5
90
100
AcDbEntity
  8
0
370
              -2
390
0
  6
Continuous
 62
               0
100
AcDbVertex
100
AcDb2dVertex
 10
-52.373757545795442
 20
363.61264819376527
 30
0.0
  0
VERTEX
  5
91
100
AcDbEntity
  8
0
370
              -2
390
0
  6
Continuous
 62
               0
100
AcDbVertex
100
AcDb2dVertex
 10
-26.897329185366477
 20
392.91992650843207
 30
0.0
  0
SEQEND
  5
92
100
AcDbEntity
  8
0
370
              -2
390
0
  6
Continuous
 62
               0
  0
LINE
  5
93
100
AcDbEntity
  8
寸法
370
              -2
390
0
  6
Continuous
 62
               0
100
AcDbLine
 10
13.556269066010032
 20
408.26280522423781
 30
0.0
 11
43.556269066010032
 21
408.26280522423781
 31
0.0
  0
POINT
  5
94
100
AcDbEntity
  8
Defpoints
370
               0
390
0
 62
               0
100
AcDbPoint
 10
-56.513704322184267
 20
360.80892911214033
 30
0.0
  0
POINT
  5
95
100
AcDbEntity
  8
Defpoints
370
               0
390
0
 62
               0
100
AcDbPoint
 10
-52.373757545795442
 20
363.61264819376527
 30
0.0
  0
ENDBLK
  5
96
100
AcDbEntity
  8
寸法
390
0
100
AcDbBlockEnd
  0
BLOCK
  5
97
100
AcDbEntity
  8
0
390
0
100
AcDbBlockBegin
  2
グループ-1
 70
               0
 10
0.0
 20
0.0
 30
0.0
  3
グループ-1
  1

  0
LINE
  5
98
100
AcDbEntity
  8
0
370
               0
390
0
  6
Continuous
 62
              30
100
AcDbLine
 10
239.05626906601151
 20
381.71078865295419
 30
0.0
 11
239.05626906601151
 21
342.71078865295419
 31
0.0
  0
LINE
  5
99
100
AcDbEntity
  8
0
370
               0
390
0
  6
Continuous
 62
              30
100
AcDbLine
 10
248.05626906601151
 20
381.71078865295419
 30
0.0
 11
239.05626906601151
 21
381.71078865295419
 31
0.0
  0
LINE
  5
9A
100
AcDbEntity
  8
0
370
               0
390
0
  6
Continuous
 62
              30
100
AcDbLine
 10
248.05626906601151
 20
342.71078865295419
 30
0.0
 11
248.05626906601151
 21
381.71078865295419
 31
0.0
  0
LINE
  5
9B
100
AcDbEntity
  8
0
370
               0
390
0
  6
Continuous
 62
              30
100
AcDbLine
 10
239.05626906601151
 20
342.71078865295419
 30
0.0
 11
248.05626906601151
 21
342.71078865295419
 31
0.0
  0
LINE
  5
9C
100
AcDbEntity
  8
0
370
               0
390
0
  6
Continuous
 62
              30
100
AcDbLine
 10
238.55626906601128
 20
382.21078865295419
 30
0.0
 11
248.55626906601151
 21
382.21078865295419
 31
0.0
  0
LINE
  5
9D
100
AcDbEntity
  8
0
370
               0
390
0
  6
Continuous
 62
              30
100
AcDbLine
 10
248.55626906601151
 20
382.21078865295419
 30
0.0
 11
248.05626906601151
 21
381.71078865295419
 31
0.0
  0
LINE
  5
9E
100
AcDbEntity
  8
0
370
               0
390
0
  6
Continuous
 62
              30
100
AcDbLine
 10
238.55626906601151
 20
382.21078865295419
 30
0.0
 11
239.05626906601151
 21
381.71078865295419
 31
0.0
  0
LINE
  5
9F
100
AcDbEntity
  8
0
370
               0
390
0
  6
Continuous
 62
              30
100
AcDbLine
 10
248.55626906601151
 20
382.21078865295419
 30
0.0
 11
248.55626906601128
 21
342.21078865295408
 31
0.0
  0
LINE
  5
A0
100
AcDbEntity
  8
0
370
               0
390
0
  6
Continuous
 62
              30
100
AcDbLine
 10
248.05626906601151
 20
342.71078865295419
 30
0.0
 11
248.55626906601128
 21
342.21078865295419
 31
0.0
  0
LINE
  5
A1
100
AcDbEntity
  8
0
370
               0
390
0
  6
Continuous
 62
              30
100
AcDbLine
 10
238.55626906601128
 20
342.21078865295419
 30
0.0
 11
238.55626906601128
 21
382.21078865295419
 31
0.0
  0
LINE
  5
A2
100
AcDbEntity
  8
0
370
               0
390
0
  6
Continuous
 62
              30
100
AcDbLine
 10
239.05626906601151
 20
342.71078865295419
 30
0.0
 11
238.55626906601128
 21
342.21078865295419
 31
0.0
  0
LINE
  5
A3
100
AcDbEntity
  8
0
370
               0
390
0
  6
Continuous
 62
              30
100
AcDbLine
 10
248.55626906601128
 20
342.21078865295408
 30
0.0
 11
238.55626906601128
 21
342.21078865295419
 31
0.0
  0
LINE
  5
A4
100
AcDbEntity
  8
0
370
               0
390
0
  6
Continuous
 62
              30
100
AcDbLine
 10
-476.94373093398872
 20
381.71078865295431
 30
0.0
 11
-476.94373093398872
 21
342.71078865295442
 31
0.0
  0
LINE
  5
A5
100
AcDbEntity
  8
0
370
               0
390
0
  6
Continuous
 62
              30
100
AcDbLine
 10
-467.94373093398872
 20
381.71078865295442
 30
0.0
 11
-476.94373093398872
 21
381.71078865295431
 31
0.0
  0
LINE
  5
A6
100
AcDbEntity
  8
0
370
               0
390
0
  6
Continuous
 62
              30
100
AcDbLine
 10
-467.94373093398872
 20
342.71078865295442
 30
0.0
 11
-467.94373093398872
 21
381.71078865295442
 31
0.0
  0
LINE
  5
A7
100
AcDbEntity
  8
0
370
               0
390
0
  6
Continuous
 62
              30
100
AcDbLine
 10
-476.94373093398872
 20
342.71078865295442
 30
0.0
 11
-467.94373093398872
 21
342.71078865295442
 31
0.0
  0
LINE
  5
A8
100
AcDbEntity
  8
0
370
               0
390
0
  6
Continuous
 62
              30
100
AcDbLine
 10
-467.44373093398872
 20
382.21078865295431
 30
0.0
 11
-467.44373093398895
 21
342.21078865295431
 31
0.0
  0
LINE
  5
A9
100
AcDbEntity
  8
0
370
               0
390
0
  6
Continuous
 62
              30
100
AcDbLine
 10
-467.94373093398872
 20
342.71078865295442
 30
0.0
 11
-467.44373093398895
 21
342.21078865295442
 31
0.0
  0
LINE
  5
AA
100
AcDbEntity
  8
0
370
               0
390
0
  6
Continuous
 62
              30
100
AcDbLine
 10
-467.44373093398872
 20
382.21078865295442
 30
0.0
 11
-467.94373093398872
 21
381.71078865295442
 31
0.0
  0
LINE
  5
AB
100
AcDbEntity
  8
0
370
               0
390
0
  6
Continuous
 62
              30
100
AcDbLine
 10
-477.44373093398895
 20
382.21078865295442
 30
0.0
 11
-467.44373093398872
 21
382.21078865295431
 31
0.0
  0
LINE
  5
AC
100
AcDbEntity
  8
0
370
               0
390
0
  6
Continuous
 62
              30
100
AcDbLine
 10
-477.44373093398872
 20
382.21078865295431
 30
0.0
 11
-476.94373093398872
 21
381.71078865295431
 31
0.0
  0
LINE
  5
AD
100
AcDbEntity
  8
0
370
               0
390
0
  6
Continuous
 62
              30
100
AcDbLine
 10
-467.44373093398895
 20
342.21078865295431
 30
0.0
 11
-477.44373093398895
 21
342.21078865295442
 31
0.0
  0
LINE
  5
AE
100
AcDbEntity
  8
0
370
               0
390
0
  6
Continuous
 62
              30
100
AcDbLine
 10
-476.94373093398872
 20
342.71078865295442
 30
0.0
 11
-477.44373093398895
 21
342.21078865295431
 31
0.0
  0
LINE
  5
AF
100
AcDbEntity
  8
0
370
               0
390
0
  6
Continuous
 62
              30
100
AcDbLine
 10
-477.44373093398895
 20
342.21078865295442
 30
0.0
 11
-477.44373093398895
 21
382.21078865295442
 31
0.0
  0
CIRCLE
  5
B0
100
AcDbEntity
  8
0
370
               0
390
0
  6
Continuous
 62
              30
100
AcDbCircle
 10
-174.44373093398985
 20
362.21078865295283
 30
0.0
 40
5.9999999999997726
  0
CIRCLE
  5
B1
100
AcDbEntity
  8
0
370
               0
390
0
  6
Continuous
 62
              30
100
AcDbCircle
 10
-174.44373093398985
 20
362.21078865295283
 30
0.0
 40
5.4999999999997726
  0
CIRCLE
  5
B2
100
AcDbEntity
  8
0
370
               0
390
0
  6
Continuous
 62
              30
100
AcDbCircle
 10
-174.44373093398985
 20
362.21078865295283
 30
0.0
 40
2.5000000000002274
  0
CIRCLE
  5
B3
100
AcDbEntity
  8
0
370
               0
390
0
  6
Continuous
 62
              30
100
AcDbCircle
 10
-54.443730933989855
 20
362.21078865295283
 30
0.0
 40
6.0
  0
CIRCLE
  5
B4
100
AcDbEntity
  8
0
370
               0
390
0
  6
Continuous
 62
              30
100
AcDbCircle
 10
-54.443730933989855
 20
362.21078865295283
 30
0.0
 40
5.5
  0
CIRCLE
  5
B5
100
AcDbEntity
  8
0
370
               0
390
0
  6
Continuous
 62
              30
100
AcDbCircle
 10
-54.443730933989855
 20
362.21078865295283
 30
0.0
 40
2.5
  0
LINE
  5
B6
100
AcDbEntity
  8
0
370
               0
390
0
  6
Continuous
 62
              30
100
AcDbLine
 10
-467.44373093399008
 20
342.21078865295283
 30
0.0
 11
238.55626906601015
 21
342.21078865295283
 31
0.0
  0
LINE
  5
B7
100
AcDbEntity
  8
0
370
               0
390
0
  6
Continuous
 62
              30
100
AcDbLine
 10
-467.44373093399008
 20
382.21078865295283
 30
0.0
 11
238.55626906601015
 21
382.21078865295283
 31
0.0
  0
CIRCLE
  5
B8
100
AcDbEntity
  8
0
370
               0
390
0
  6
Continuous
 62
              30
100
AcDbCircle
 10
-114.44373093399008
 20
362.21078865295283
 30
0.0
 40
6.0
  0
CIRCLE
  5
B9
100
AcDbEntity
  8
0
370
               0
390
0
  6
Continuous
 62
              30
100
AcDbCircle
 10
-374.44373093399008
 20
362.21078865295283
 30
0.0
 40
6.0
  0
CIRCLE
  5
BA
100
AcDbEntity
  8
0
370
               0
390
0
  6
Continuous
 62
              30
100
AcDbCircle
 10
145.55626906601015
 20
362.21078865295283
 30
0.0
 40
6.0
  0
CIRCLE
  5
BB
100
AcDbEntity
  8
0
370
               0
390
0
  6
Continuous
 62
              30
100
AcDbCircle
 10
-54.443730933989855
 20
362.21078865295283
 30
0.0
 40
10.0
  0
CIRCLE
  5
BC
100
AcDbEntity
  8
0
370
               0
390
0
  6
Continuous
 62
              30
100
AcDbCircle
 10
-174.44373093398985
 20
362.21078865295283
 30
0.0
 40
10.000000000000227
  0
DIMENSION
  5
BD
100
AcDbEntity
  8
寸法
370
               0
390
0
  6
Continuous
 62
               1
100
AcDbDimension
  2
*D3
 10
-118.34283505607321
 20
366.77116002436048
 30
0.0
 11
68.556269066010799
 21
183.26280522423846
 31
0.0
 70
               3
 71
               5
 72
               1
 41
1.0
 42
0.0
  3
HIBINO
100
AcDbDiametricDimension
 15
-110.54462681190694
 25
357.65041728154523
 35
0.0
 40
229.43869854635986
1001
ACAD
1000
DSTYLE
1002
{
1070
             172
1070
               0
1070
             289
1070
               0
1070
             342
1005
4B
1070
             340
1005
35
1070
              73
1070
               1
1070
              74
1070
               1
1070
              76
1070
               1
1070
               3
1000

1070
             174
1070
               0
1070
             147
1040
7.5
1002
}
  0
DIMENSION
  5
BE
100
AcDbEntity
  8
寸法
370
               0
390
0
  6
Continuous
 62
               1
100
AcDbDimension
  2
*D4
 10
-56.513704322184267
 20
360.80892911214033
 30
0.0
 11
43.556269066010572
 21
408.26280522423701
 31
0.0
 70
               3
 71
               5
 72
               1
 41
1.0
 42
0.0
  1
 
  3
HIBINO
100
AcDbDiametricDimension
 15
-52.373757545795442
 25
363.61264819376527
 35
0.0
 40
79.62665968053183
1001
ACAD
1000
DSTYLE
1002
{
1070
             271
1070
               0
1070
             172
1070
               0
1070
             289
1070
               0
1070
             342
1005
4B
1070
             340
1005
35
1070
              73
1070
               1
1070
              74
1070
               1
1070
              75
1070
               1
1070
              76
1070
               1
1070
             174
1070
               0
1070
             147
1040
7.5
1002
}
  0
ENDBLK
  5
BF
100
AcDbEntity
  8
0
390
0
100
AcDbBlockEnd
  0
BLOCK
  5
C0
100
AcDbEntity
  8
寸法
390
0
100
AcDbBlockBegin
  2
*D6
 70
               1
 10
0.0
 20
0.0
 30
0.0
  3
*D6
  1

  0
LINE
  5
C1
100
AcDbEntity
  8
寸法
370
              -2
390
0
  6
Continuous
 62
               0
100
AcDbLine
 10
-1500.3869710210006
 20
1102.9799398346865
 30
0.0
 11
-1500.3869710210006
 21
967.02792326340318
 31
0.0
  0
LINE
  5
C2
100
AcDbEntity
  8
寸法
370
              -2
390
0
  6
Continuous
 62
               0
100
AcDbLine
 10
-774.38697102099979
 20
1102.9799398346865
 30
0.0
 11
-774.38697102099979
 21
967.02792326340318
 31
0.0
  0
LINE
  5
C3
100
AcDbEntity
  8
寸法
370
              -2
390
0
  6
Continuous
 62
               0
100
AcDbLine
 10
-1500.3869710210006
 20
997.02792326340318
 30
0.0
 11
-774.38697102099979
 21
997.02792326340318
 31
0.0
  0
POLYLINE
  5
C4
100
AcDbEntity
  8
0
370
              -2
390
0
  6
Continuous
 62
               0
100
AcDb2dPolyline
 66
               1
 10
0.0
 20
0.0
 30
0.0
 75
               5
  0
VERTEX
  5
C5
100
AcDbEntity
  8
0
370
              -2
390
0
  6
Continuous
 62
               0
100
AcDbVertex
100
AcDb2dVertex
 10
-1462.8776326420943
 20
986.97732633614942
 30
0.0
  0
VERTEX
  5
C6
100
AcDbEntity
  8
0
370
              -2
390
0
  6
Continuous
 62
               0
100
AcDbVertex
100
AcDb2dVertex
 10
-1500.3869710210006
 20
997.02792326340318
 30
0.0
  0
VERTEX
  5
C7
100
AcDbEntity
  8
0
370
              -2
390
0
  6
Continuous
 62
               0
100
AcDbVertex
100
AcDb2dVertex
 10
-1462.8776326420943
 20
1007.0785201906567
 30
0.0
  0
SEQEND
  5
C8
100
AcDbEntity
  8
0
370
              -2
390
0
  6
Continuous
 62
               0
  0
POLYLINE
  5
C9
100
AcDbEntity
  8
0
370
              -2
390
0
  6
Continuous
 62
               0
100
AcDb2dPolyline
 66
               1
 10
0.0
 20
0.0
 30
0.0
 75
               5
  0
VERTEX
  5
CA
100
AcDbEntity
  8
0
370
              -2
390
0
  6
Continuous
 62
               0
100
AcDbVertex
100
AcDb2dVertex
 10
-811.89630939990604
 20
1007.0785201906567
 30
0.0
  0
VERTEX
  5
CB
100
AcDbEntity
  8
0
370
              -2
390
0
  6
Continuous
 62
               0
100
AcDbVertex
100
AcDb2dVertex
 10
-774.38697102099979
 20
997.02792326340318
 30
0.0
  0
VERTEX
  5
CC
100
AcDbEntity
  8
0
370
              -2
390
0
  6
Continuous
 62
               0
100
AcDbVertex
100
AcDb2dVertex
 10
-811.89630939990604
 20
986.97732633614942
 30
0.0
  0
SEQEND
  5
CD
100
AcDbEntity
  8
0
370
              -2
390
0
  6
Continuous
 62
               0
  0
MTEXT
  5
CE
100
AcDbEntity
  8
寸法
390
0
 62
               0
100
AcDbMText
 10
-1137.3869710210001
 20
1111.9342045134035
 30
0.0
 40
58.63828125000029
 41
0.0
 71
               1
 72
               1
  1
{\fＭＳ ゴシック|b0|i0|c128|p0;\l726}
 73
               1
 44
0.7828267384257842
  0
POINT
  5
CF
100
AcDbEntity
  8
Defpoints
370
               0
390
0
 62
               0
100
AcDbPoint
 10
-774.38697102099979
 20
1132.9799398346865
 30
0.0
  0
POINT
  5
D0
100
AcDbEntity
  8
Defpoints
370
               0
390
0
 62
               0
100
AcDbPoint
 10
-1500.3869710210006
 20
1132.9799398346865
 30
0.0
  0
POINT
  5
D1
100
AcDbEntity
  8
Defpoints
370
               0
390
0
 62
               0
100
AcDbPoint
 10
-1500.3869710210006
 20
997.02792326340318
 30
0.0
  0
ENDBLK
  5
D2
100
AcDbEntity
  8
寸法
390
0
100
AcDbBlockEnd
  0
BLOCK
  5
D3
100
AcDbEntity
  8
0
390
0
100
AcDbBlockBegin
  2
グループ-2
 70
               0
 10
0.0
 20
0.0
 30
0.0
  3
グループ-2
  1

  0
LINE
  5
D4
100
AcDbEntity
  8
0
370
               0
390
0
  6
Continuous
 62
              30
100
AcDbLine
 10
511.3938362990076
 20
1025.7628052242376
 30
0.0
 11
471.39383629900749
 21
1025.7628052242376
 31
0.0
  0
ARC
  5
D5
100
AcDbEntity
  8
0
370
               0
390
0
  6
Continuous
 62
              30
100
AcDbCircle
 10
471.89383629900772
 20
1025.7628052242376
 30
0.0
 40
0.5
100
AcDbArc
 50
90.0
 51
180.0
  0
LINE
  5
D6
100
AcDbEntity
  8
0
370
               0
390
0
  6
Continuous
 62
              30
100
AcDbLine
 10
471.89383629900772
 20
1026.2628052242376
 30
0.0
 11
510.89383629900749
 21
1026.2628052242376
 31
0.0
  0
ARC
  5
D7
100
AcDbEntity
  8
0
370
               0
390
0
  6
Continuous
 62
              30
100
AcDbCircle
 10
510.89383629900749
 20
1025.7628052242376
 30
0.0
 40
0.5000000000001137
100
AcDbArc
 50
0.0
 51
90.0
  0
LINE
  5
D8
100
AcDbEntity
  8
0
370
               0
390
0
  6
Continuous
 62
              30
100
AcDbLine
 10
511.3938362990076
 20
1020.2628052242377
 30
0.0
 11
471.39383629900749
 21
1020.2628052242377
 31
0.0
  0
LINE
  5
D9
100
AcDbEntity
  8
0
370
               0
390
0
  6
Continuous
 62
              30
100
AcDbLine
 10
511.3938362990076
 20
1020.2628052242377
 30
0.0
 11
511.3938362990076
 21
1025.7628052242376
 31
0.0
  0
LINE
  5
DA
100
AcDbEntity
  8
0
370
               0
390
0
  6
Continuous
 62
              30
100
AcDbLine
 10
471.39383629900749
 20
1020.2628052242377
 30
0.0
 11
471.39383629900749
 21
1025.7628052242376
 31
0.0
  0
LINE
  5
DB
100
AcDbEntity
  8
0
370
               0
390
0
  6
Continuous
 62
              30
100
AcDbLine
 10
511.39383629900908
 20
683.26280522423781
 30
0.0
 11
511.39383629900919
 21
1020.2628052242377
 31
0.0
  0
LINE
  5
DC
100
AcDbEntity
  8
0
370
               0
390
0
  6
Continuous
 62
              30
100
AcDbLine
 10
511.39383629900908
 20
683.26280522423781
 30
0.0
 11
471.39383629900908
 21
683.26280522423781
 31
0.0
  0
LINE
  5
DD
100
AcDbEntity
  8
0
370
               0
390
0
  6
Continuous
 62
              30
100
AcDbLine
 10
471.39383629900908
 20
683.26280522423781
 30
0.0
 11
471.39383629900908
 21
1020.2628052242377
 31
0.0
  0
CIRCLE
  5
DE
100
AcDbEntity
  8
0
370
               0
390
0
  6
Continuous
 62
              30
100
AcDbCircle
 10
491.39383629900908
 20
997.2628052242377
 30
0.0
 40
10.0
  0
CIRCLE
  5
DF
100
AcDbEntity
  8
0
370
               0
390
0
  6
Continuous
 62
              30
100
AcDbCircle
 10
491.39383629900908
 20
997.26280522423679
 30
0.0
 40
3.5
  0
ENDBLK
  5
E0
100
AcDbEntity
  8
0
390
0
100
AcDbBlockEnd
  0
BLOCK
  5
E1
100
AcDbEntity
  8
寸法
390
0
100
AcDbBlockBegin
  2
*D8
 70
               1
 10
0.0
 20
0.0
 30
0.0
  3
*D8
  1

  0
LINE
  5
E2
100
AcDbEntity
  8
寸法
370
              -2
390
0
  6
Continuous
 62
               0
100
AcDbLine
 10
-1530.3869710209988
 20
831.92792326340304
 30
0.0
 11
-1669.3869710209999
 21
831.92792326340304
 31
0.0
  0
LINE
  5
E3
100
AcDbEntity
  8
寸法
370
              -2
390
0
  6
Continuous
 62
               0
100
AcDbLine
 10
-1530.3869710209988
 20
791.92792326340304
 30
0.0
 11
-1669.3869710209999
 21
791.92792326340304
 31
0.0
  0
LINE
  5
E4
100
AcDbEntity
  8
寸法
370
              -2
390
0
  6
Continuous
 62
               0
100
AcDbLine
 10
-1639.3869710209999
 20
791.92792326340304
 30
0.0
 11
-1639.3869710209999
 21
676.74640845687259
 31
0.0
  0
LINE
  5
E5
100
AcDbEntity
  8
寸法
370
              -2
390
0
  6
Continuous
 62
               0
100
AcDbLine
 10
-1639.3869710209999
 20
831.92792326340304
 30
0.0
 11
-1639.3869710209999
 21
791.92792326340304
 31
0.0
  0
POLYLINE
  5
E6
100
AcDbEntity
  8
0
370
              -2
390
0
  6
Continuous
 62
               0
100
AcDb2dPolyline
 66
               1
 10
0.0
 20
0.0
 30
0.0
 75
               5
  0
VERTEX
  5
E7
100
AcDbEntity
  8
0
370
              -2
390
0
  6
Continuous
 62
               0
100
AcDbVertex
100
AcDb2dVertex
 10
-1649.4375679482537
 20
794.41858488449679
 30
0.0
  0
VERTEX
  5
E8
100
AcDbEntity
  8
0
370
              -2
390
0
  6
Continuous
 62
               0
100
AcDbVertex
100
AcDb2dVertex
 10
-1639.3869710209999
 20
831.92792326340304
 30
0.0
  0
VERTEX
  5
E9
100
AcDbEntity
  8
0
370
              -2
390
0
  6
Continuous
 62
               0
100
AcDbVertex
100
AcDb2dVertex
 10
-1629.3363740937461
 20
794.41858488449679
 30
0.0
  0
SEQEND
  5
EA
100
AcDbEntity
  8
0
370
              -2
390
0
  6
Continuous
 62
               0
  0
POLYLINE
  5
EB
100
AcDbEntity
  8
0
370
              -2
390
0
  6
Continuous
 62
               0
100
AcDb2dPolyline
 66
               1
 10
0.0
 20
0.0
 30
0.0
 75
               5
  0
VERTEX
  5
EC
100
AcDbEntity
  8
0
370
              -2
390
0
  6
Continuous
 62
               0
100
AcDbVertex
100
AcDb2dVertex
 10
-1629.3363740937461
 20
829.43726164230929
 30
0.0
  0
VERTEX
  5
ED
100
AcDbEntity
  8
0
370
              -2
390
0
  6
Continuous
 62
               0
100
AcDbVertex
100
AcDb2dVertex
 10
-1639.3869710209999
 20
791.92792326340304
 30
0.0
  0
VERTEX
  5
EE
100
AcDbEntity
  8
0
370
              -2
390
0
  6
Continuous
 62
               0
100
AcDbVertex
100
AcDb2dVertex
 10
-1649.4375679482537
 20
829.43726164230929
 30
0.0
  0
SEQEND
  5
EF
100
AcDbEntity
  8
0
370
              -2
390
0
  6
Continuous
 62
               0
  0
MTEXT
  5
F0
100
AcDbEntity
  8
寸法
390
0
 62
               0
100
AcDbMText
 10
-1716.1932522710001
 20
676.74640845687259
 30
0.0
 40
58.63828125000029
 41
0.0
 71
               1
 72
               1
  1
{\fＭＳ ゴシック|b0|i0|c128|p0;\l40}
 11
0.0
 21
1.0
 31
0.0
 73
               1
 44
0.7828267384257842
  0
POINT
  5
F1
100
AcDbEntity
  8
Defpoints
370
               0
390
0
 62
               0
100
AcDbPoint
 10
-1500.3869710209988
 20
791.92792326340304
 30
0.0
  0
POINT
  5
F2
100
AcDbEntity
  8
Defpoints
370
               0
390
0
 62
               0
100
AcDbPoint
 10
-1500.3869710209988
 20
831.92792326340304
 30
0.0
  0
POINT
  5
F3
100
AcDbEntity
  8
Defpoints
370
               0
390
0
 62
               0
100
AcDbPoint
 10
-1639.3869710209999
 20
831.92792326340304
 30
0.0
  0
ENDBLK
  5
F4
100
AcDbEntity
  8
寸法
390
0
100
AcDbBlockEnd
  0
BLOCK
  5
F5
100
AcDbEntity
  8
0
390
0
100
AcDbBlockBegin
  2
グループ-3
 70
               0
 10
0.0
 20
0.0
 30
0.0
  3
グループ-3
  1

  0
LINE
  5
F6
100
AcDbEntity
  8
0
370
               0
390
0
  6
Continuous
 62
              30
100
AcDbLine
 10
721.03062220747233
 20
-589.68285559314313
 30
0.0
 11
692.95349837487902
 21
-605.89143417240348
 31
0.0
  0
LINE
  5
F7
100
AcDbEntity
  8
0
370
               0
390
0
  6
Continuous
 62
              30
100
AcDbLine
 10
727.89454260446928
 20
-593.64531249506263
 30
0.0
 11
721.03062220747233
 21
-589.6828555931429
 31
0.0
  0
LINE
  5
F8
100
AcDbEntity
  8
0
370
               0
390
0
  6
Continuous
 62
              30
100
AcDbLine
 10
979.12459734055938
 20
-738.67733600078645
 30
0.0
 11
951.04747350796606
 21
-754.88591458004657
 31
0.0
  0
LINE
  5
F9
100
AcDbEntity
  8
0
370
               0
390
0
  6
Continuous
 62
              30
100
AcDbLine
 10
985.98851773755632
 20
-742.63979290270618
 30
0.0
 11
979.12459734055938
 21
-738.67733600078645
 31
0.0
  0
LINE
  5
FA
100
AcDbEntity
  8
0
370
               0
390
0
  6
Continuous
 62
              30
100
AcDbLine
 10
801.28793125251286
 20
-1047.7182559387466
 30
0.0
 11
800.93432041355572
 21
-1047.5140543911348
 31
0.0
  0
LINE
  5
FB
100
AcDbEntity
  8
0
370
               0
390
0
  6
Continuous
 62
              30
100
AcDbLine
 10
793.15488195649459
 20
-1047.5140543911348
 30
0.0
 11
792.801271117537
 21
-1047.7182559387466
 31
0.0
  0
LINE
  5
FC
100
AcDbEntity
  8
0
370
               0
390
0
  6
Continuous
 62
              30
100
AcDbLine
 10
791.04460118502493
 20
-1050.1670822387227
 30
0.0
 11
791.04460118502493
 21
-1051.1109502819213
 31
0.0
  0
LINE
  5
FD
100
AcDbEntity
  8
0
370
               0
390
0
  6
Continuous
 62
              30
100
AcDbLine
 10
803.04460118502493
 20
-1051.1109502819213
 30
0.0
 11
803.04460118502493
 21
-1050.1670822387227
 31
0.0
  0
LINE
  5
FE
100
AcDbEntity
  8
0
370
               0
390
0
  6
Continuous
 62
              30
100
AcDbLine
 10
886.14074499489834
 20
-1096.7027426481091
 30
0.0
 11
885.7871341559412
 21
-1096.4985411004977
 31
0.0
  0
LINE
  5
FF
100
AcDbEntity
  8
0
370
               0
390
0
  6
Continuous
 62
              30
100
AcDbLine
 10
878.00769569888007
 20
-1096.4985411004977
 30
0.0
 11
877.65408485992248
 21
-1096.7027426481091
 31
0.0
  0
LINE
  5
100
100
AcDbEntity
  8
0
370
               0
390
0
  6
Continuous
 62
              30
100
AcDbLine
 10
875.89741492741041
 20
-1099.1515689480852
 30
0.0
 11
875.89741492741041
 21
-1100.0954369912838
 31
0.0
  0
LINE
  5
101
100
AcDbEntity
  8
0
370
               0
390
0
  6
Continuous
 62
              30
100
AcDbLine
 10
887.89741492741041
 20
-1100.0954369912838
 30
0.0
 11
887.89741492741041
 21
-1099.1515689480852
 31
0.0
  0
LINE
  5
102
100
AcDbEntity
  8
0
370
               0
390
0
  6
Continuous
 62
              30
100
AcDbLine
 10
935.7338538064314
 20
-704.26533988463734
 30
0.0
 11
914.49169435014483
 21
-695.67880853467568
 31
0.0
  0
LINE
  5
103
100
AcDbEntity
  8
0
370
               0
390
0
  6
Continuous
 62
              30
100
AcDbLine
 10
899.50121466066503
 20
-781.75609941654693
 30
0.0
 11
916.96845614081121
 21
-788.81672886315573
 31
0.0
  0
LINE
  5
104
100
AcDbEntity
  8
0
370
               0
390
0
  6
Continuous
 62
              30
100
AcDbLine
 10
764.83000307067687
 20
-605.46074803050146
 30
0.0
 11
747.36276159053114
 21
-598.40011858389266
 31
0.0
  0
LINE
  5
105
100
AcDbEntity
  8
0
370
               0
390
0
  6
Continuous
 62
              30
100
AcDbLine
 10
728.59736392491141
 20
-682.95150756241082
 30
0.0
 11
749.83952338119798
 21
-691.53803891237249
 31
0.0
  0
LINE
  5
106
100
AcDbEntity
  8
0
370
               0
390
0
  6
Continuous
 62
              30
100
AcDbLine
 10
728.10169001933809
 20
-593.93402672689422
 30
0.0
 11
699.81741877187596
 21
-610.26218896334854
 31
0.0
  0
LINE
  5
107
100
AcDbEntity
  8
0
370
               0
390
0
  6
Continuous
 62
              30
100
AcDbLine
 10
699.81741877187596
 20
-610.26218896334854
 30
0.0
 11
699.81741877187596
 21
-609.44571450149419
 31
0.0
  0
LINE
  5
108
100
AcDbEntity
  8
0
370
               0
390
0
  6
Continuous
 62
              30
100
AcDbLine
 10
699.81741877187596
 20
-609.44571450149442
 30
0.0
 11
727.39458323815143
 21
-593.52575632095113
 31
0.0
  0
SPLINE
  5
109
100
AcDbEntity
  8
0
370
               0
390
0
  6
Continuous
 62
              30
100
AcDbSpline
210
0.0
220
0.0
230
1.0
 70
               8
 71
               2
 72
              13
 73
              10
 74
               0
 42
0.000001
 43
0.000001
 40
0.0
 40
0.0
 40
0.0
 40
1.0
 40
2.0
 40
3.0
 40
4.0
 40
5.0
 40
6.0
 40
7.0
 40
8.0
 40
8.0
 40
8.0
 10
728.10169001933809
 20
-593.93402672689422
 30
0.0
 10
728.10157283981289
 20
-593.89728093923941
 30
0.0
 10
728.08390868322749
 20
-593.84055266139831
 30
0.0
 10
728.0500762134966
 20
-593.77454965923903
 30
0.0
 10
727.97268825957144
 20
-593.6945003522701
 30
0.0
 10
727.86500093521408
 20
-593.62573828442373
 30
0.0
 10
727.73463381473448
 20
-593.57320442441255
 30
0.0
 10
727.59207729920718
 20
-593.53959673101167
 30
0.0
 10
727.45683068526705
 20
-593.52574763795496
 30
0.0
 10
727.39458323815143
 20
-593.52575632095113
 30
0.0
  0
LINE
  5
10A
100
AcDbEntity
  8
0
370
               0
390
0
  6
Continuous
 62
              30
100
AcDbLine
 10
699.81741877187596
 20
-610.26218896334854
 30
0.0
 11
692.7463509600102
 21
-606.18014840423507
 31
0.0
  0
SPLINE
  5
10B
100
AcDbEntity
  8
0
370
               0
390
0
  6
Continuous
 62
              30
100
AcDbSpline
210
0.0
220
0.0
230
1.0
 70
               8
 71
               2
 72
              14
 73
              11
 74
               0
 42
0.000001
 43
0.000001
 40
0.0
 40
0.0
 40
0.0
 40
1.0
 40
2.0
 40
3.0
 40
4.0
 40
5.0
 40
6.0
 40
7.0
 40
8.0
 40
9.0
 40
9.0
 40
9.0
 10
693.45345774119687
 20
-605.77187799829198
 30
0.0
 10
693.39119367044077
 20
-605.77186541376523
 30
0.0
 10
693.2558941954685
 20
-605.78566872899546
 30
0.0
 10
693.11329468418717
 20
-605.81923592698513
 30
0.0
 10
692.98284669510531
 20
-605.8717410740885
 30
0.0
 10
692.89977898454663
 20
-605.92512114636838
 30
0.0
 10
692.85344390797491
 20
-605.96288502648031
 30
0.0
 10
692.81519827265947
 20
-606.00295546590132
 30
0.0
 10
692.77164368954618
 20
-606.06310308629259
 30
0.0
 10
692.74643036094221
 20
-606.14348516159816
 30
0.0
 10
692.7463509600102
 20
-606.18014840423507
 30
0.0
  0
LINE
  5
10C
100
AcDbEntity
  8
0
370
               0
390
0
  6
Continuous
 62
              30
100
AcDbLine
 10
693.45345774119687
 20
-605.77187799829221
 30
0.0
 11
699.81741877187596
 21
-609.44571450149442
 31
0.0
  0
LINE
  5
10D
100
AcDbEntity
  8
0
370
               0
390
0
  6
Continuous
 62
              30
100
AcDbLine
 10
728.10169001933809
 20
-598.42500119226588
 30
0.0
 11
699.81741877187596
 21
-614.7531634287202
 31
0.0
  0
LINE
  5
10E
100
AcDbEntity
  8
0
370
               0
390
0
  6
Continuous
 62
              30
100
AcDbLine
 10
699.81741877187596
 20
-614.7531634287202
 30
0.0
 11
699.81741877187596
 21
-610.26218896334854
 31
0.0
  0
LINE
  5
10F
100
AcDbEntity
  8
0
370
               0
390
0
  6
Continuous
 62
              30
100
AcDbLine
 10
728.10169001933809
 20
-598.42500119226588
 30
0.0
 11
728.10169001933809
 21
-593.93402672689422
 31
0.0
  0
LINE
  5
110
100
AcDbEntity
  8
0
370
               0
390
0
  6
Continuous
 62
              30
100
AcDbLine
 10
699.81741877187596
 20
-614.7531634287202
 30
0.0
 11
692.7463509600102
 21
-610.67112286960673
 31
0.0
  0
LINE
  5
111
100
AcDbEntity
  8
0
370
               0
390
0
  6
Continuous
 62
              30
100
AcDbLine
 10
692.7463509600102
 20
-610.67112286960673
 30
0.0
 11
692.7463509600102
 21
-606.18014840423507
 31
0.0
  0
LINE
  5
112
100
AcDbEntity
  8
0
370
               0
390
0
  6
Continuous
 62
              30
100
AcDbLine
 10
721.03062220747233
 20
-589.8519198177496
 30
0.0
 11
693.45345774119687
 21
-605.77187799829221
 31
0.0
  0
LINE
  5
113
100
AcDbEntity
  8
0
370
               0
390
0
  6
Continuous
 62
              30
100
AcDbLine
 10
727.39458323815143
 20
-593.52575632095113
 30
0.0
 11
721.03062220747233
 21
-589.8519198177496
 31
0.0
  0
LINE
  5
114
100
AcDbEntity
  8
0
370
               0
390
0
  6
Continuous
 62
              30
100
AcDbLine
 10
721.03062220747233
 20
-589.85191981774938
 30
0.0
 11
721.03062220747233
 21
-589.68285559314313
 31
0.0
  0
LINE
  5
115
100
AcDbEntity
  8
0
370
               0
390
0
  6
Continuous
 62
              30
100
AcDbLine
 10
986.19566515242514
 20
-742.92850713453754
 30
0.0
 11
957.91139390496301
 21
-759.25666937099186
 31
0.0
  0
LINE
  5
116
100
AcDbEntity
  8
0
370
               0
390
0
  6
Continuous
 62
              30
100
AcDbLine
 10
957.91139390496301
 20
-759.25666937099186
 30
0.0
 11
957.91139390496301
 21
-758.44019490913797
 31
0.0
  0
LINE
  5
117
100
AcDbEntity
  8
0
370
               0
390
0
  6
Continuous
 62
              30
100
AcDbLine
 10
957.91139390496301
 20
-758.44019490913797
 30
0.0
 11
985.48855837123847
 21
-742.52023672859468
 31
0.0
  0
SPLINE
  5
118
100
AcDbEntity
  8
0
370
               0
390
0
  6
Continuous
 62
              30
100
AcDbSpline
210
0.0
220
0.0
230
1.0
 70
               8
 71
               2
 72
              13
 73
              10
 74
               0
 42
0.000001
 43
0.000001
 40
0.0
 40
0.0
 40
0.0
 40
1.0
 40
2.0
 40
3.0
 40
4.0
 40
5.0
 40
6.0
 40
7.0
 40
8.0
 40
8.0
 40
8.0
 10
986.19566515242514
 20
-742.92850713453754
 30
0.0
 10
986.19554797289993
 20
-742.89176134688296
 30
0.0
 10
986.17788381631453
 20
-742.83503306904231
 30
0.0
 10
986.14405134658364
 20
-742.76903006688235
 30
0.0
 10
986.06666339265848
 20
-742.6889807599141
 30
0.0
 10
985.95897606830158
 20
-742.62021869206728
 30
0.0
 10
985.82860894782152
 20
-742.56768483205633
 30
0.0
 10
985.68605243229376
 20
-742.53407713865499
 30
0.0
 10
985.55080581835409
 20
-742.5202280455992
 30
0.0
 10
985.48855837123847
 20
-742.52023672859468
 30
0.0
  0
LINE
  5
119
100
AcDbEntity
  8
0
370
               0
390
0
  6
Continuous
 62
              30
100
AcDbLine
 10
957.91139390496301
 20
-759.25666937099186
 30
0.0
 11
950.8403260930977
 21
-755.17462881187839
 31
0.0
  0
SPLINE
  5
11A
100
AcDbEntity
  8
0
370
               0
390
0
  6
Continuous
 62
              30
100
AcDbSpline
210
0.0
220
0.0
230
1.0
 70
               8
 71
               2
 72
              14
 73
              11
 74
               0
 42
0.000001
 43
0.000001
 40
0.0
 40
0.0
 40
0.0
 40
1.0
 40
2.0
 40
3.0
 40
4.0
 40
5.0
 40
6.0
 40
7.0
 40
8.0
 40
9.0
 40
9.0
 40
9.0
 10
951.54743287428391
 20
-754.76635840593599
 30
0.0
 10
951.48516880352827
 20
-754.76634582140923
 30
0.0
 10
951.34986932855554
 20
-754.78014913663901
 30
0.0
 10
951.20726981727466
 20
-754.81371633462868
 30
0.0
 10
951.07682182819235
 20
-754.86622148173183
 30
0.0
 10
950.99375411763322
 20
-754.91960155401239
 30
0.0
 10
950.9474190410624
 20
-754.95736543412431
 30
0.0
 10
950.90917340574651
 20
-754.99743587354487
 30
0.0
 10
950.86561882263322
 20
-755.05758349393636
 30
0.0
 10
950.84040549402926
 20
-755.13796556924217
 30
0.0
 10
950.84032609309725
 20
-755.17462881187839
 30
0.0
  0
LINE
  5
11B
100
AcDbEntity
  8
0
370
               0
390
0
  6
Continuous
 62
              30
100
AcDbLine
 10
951.54743287428391
 20
-754.76635840593553
 30
0.0
 11
957.91139390496301
 21
-758.44019490913797
 31
0.0
  0
LINE
  5
11C
100
AcDbEntity
  8
0
370
               0
390
0
  6
Continuous
 62
              30
100
AcDbLine
 10
986.19566515242514
 20
-747.41948159990943
 30
0.0
 11
957.91139390496301
 21
-763.74764383636375
 31
0.0
  0
LINE
  5
11D
100
AcDbEntity
  8
0
370
               0
390
0
  6
Continuous
 62
              30
100
AcDbLine
 10
957.91139390496301
 20
-763.74764383636375
 30
0.0
 11
957.91139390496301
 21
-759.25666937099186
 31
0.0
  0
LINE
  5
11E
100
AcDbEntity
  8
0
370
               0
390
0
  6
Continuous
 62
              30
100
AcDbLine
 10
986.19566515242514
 20
-747.41948159990943
 30
0.0
 11
986.19566515242514
 21
-742.92850713453754
 31
0.0
  0
LINE
  5
11F
100
AcDbEntity
  8
0
370
               0
390
0
  6
Continuous
 62
              30
100
AcDbLine
 10
957.91139390496301
 20
-763.74764383636375
 30
0.0
 11
950.84032609309725
 21
-759.66560327725028
 31
0.0
  0
LINE
  5
120
100
AcDbEntity
  8
0
370
               0
390
0
  6
Continuous
 62
              30
100
AcDbLine
 10
950.84032609309725
 20
-759.66560327725028
 30
0.0
 11
950.8403260930977
 21
-755.17462881187839
 31
0.0
  0
LINE
  5
121
100
AcDbEntity
  8
0
370
               0
390
0
  6
Continuous
 62
              30
100
AcDbLine
 10
979.12459734055938
 20
-738.8464002253927
 30
0.0
 11
951.54743287428391
 21
-754.76635840593553
 31
0.0
  0
LINE
  5
122
100
AcDbEntity
  8
0
370
               0
390
0
  6
Continuous
 62
              30
100
AcDbLine
 10
985.48855837123847
 20
-742.52023672859468
 30
0.0
 11
979.12459734055938
 21
-738.8464002253927
 31
0.0
  0
LINE
  5
123
100
AcDbEntity
  8
0
370
               0
390
0
  6
Continuous
 62
              30
100
AcDbLine
 10
979.12459734055938
 20
-738.8464002253927
 30
0.0
 11
979.12459734055938
 21
-738.67733600078645
 31
0.0
  0
ARC
  5
124
100
AcDbEntity
  8
0
370
               0
390
0
  6
Continuous
 62
              30
100
AcDbCircle
 10
800.39873488456078
 20
-1050.1519656202274
 30
0.0
 40
2.5910640660763686
100
AcDbArc
 50
335.36102703891464
 51
69.929381941897645
  0
ARC
  5
125
100
AcDbEntity
  8
0
370
               0
390
0
  6
Continuous
 62
              30
100
AcDbCircle
 10
793.7097538357616
 20
-1050.1599131767284
 30
0.0
 40
2.6053258343167163
100
AcDbArc
 50
110.39177813615107
 51
204.30327919143619
  0
POLYLINE
  5
126
100
AcDbEntity
  8
0
370
               0
390
0
  6
Continuous
 62
              30
100
AcDb2dPolyline
 66
               1
 10
0.0
 20
0.0
 30
0.0
 75
               5
  0
VERTEX
  5
127
100
AcDbEntity
  8
0
370
               0
390
0
  6
Continuous
 62
              30
100
AcDbVertex
100
AcDb2dVertex
 10
793.15551388849917
 20
-1047.5136895252672
 30
0.0
  0
VERTEX
  5
128
100
AcDbEntity
  8
0
370
               0
390
0
  6
Continuous
 62
              30
100
AcDbVertex
100
AcDb2dVertex
 10
792.28146146421068
 20
-1048.1712706245446
 30
0.0
  0
VERTEX
  5
129
100
AcDbEntity
  8
0
370
               0
390
0
  6
Continuous
 62
              30
100
AcDbVertex
100
AcDb2dVertex
 10
791.73200914043491
 20
-1048.937040033627
 30
0.0
  0
VERTEX
  5
12A
100
AcDbEntity
  8
0
370
               0
390
0
  6
Continuous
 62
              30
100
AcDbVertex
100
AcDb2dVertex
 10
791.54460118502493
 20
-1049.7588118327799
 30
0.0
  0
VERTEX
  5
12B
100
AcDbEntity
  8
0
370
               0
390
0
  6
Continuous
 62
              30
100
AcDbVertex
100
AcDb2dVertex
 10
791.73200914043537
 20
-1050.5805836319325
 30
0.0
  0
VERTEX
  5
12C
100
AcDbEntity
  8
0
370
               0
390
0
  6
Continuous
 62
              30
100
AcDbVertex
100
AcDb2dVertex
 10
792.28146146421068
 20
-1051.3463530410149
 30
0.0
  0
VERTEX
  5
12D
100
AcDbEntity
  8
0
370
               0
390
0
  6
Continuous
 62
              30
100
AcDbVertex
100
AcDb2dVertex
 10
792.67122135083173
 20
-1051.6841809261489
 30
0.0
  0
SEQEND
  5
12E
100
AcDbEntity
  8
0
370
               0
390
0
  6
Continuous
 62
              30
  0
POLYLINE
  5
130
100
AcDbEntity
  8
0
370
               0
390
0
  6
Continuous
 62
              30
100
AcDb2dPolyline
 66
               1
 10
0.0
 20
0.0
 30
0.0
 75
               5
  0
VERTEX
  5
131
100
AcDbEntity
  8
0
370
               0
390
0
  6
Continuous
 62
              30
100
AcDbVertex
100
AcDb2dVertex
 10
801.41798101922177
 20
-1051.6841809261459
 30
0.0
  0
VERTEX
  5
132
100
AcDbEntity
  8
0
370
               0
390
0
  6
Continuous
 62
              30
100
AcDbVertex
100
AcDb2dVertex
 10
801.80774090583918
 20
-1051.3463530410149
 30
0.0
  0
VERTEX
  5
133
100
AcDbEntity
  8
0
370
               0
390
0
  6
Continuous
 62
              30
100
AcDbVertex
100
AcDb2dVertex
 10
802.35719322961495
 20
-1050.5805836319323
 30
0.0
  0
VERTEX
  5
134
100
AcDbEntity
  8
0
370
               0
390
0
  6
Continuous
 62
              30
100
AcDbVertex
100
AcDb2dVertex
 10
802.54460118502493
 20
-1049.7588118327799
 30
0.0
  0
VERTEX
  5
135
100
AcDbEntity
  8
0
370
               0
390
0
  6
Continuous
 62
              30
100
AcDbVertex
100
AcDb2dVertex
 10
802.35719322961495
 20
-1048.937040033627
 30
0.0
  0
VERTEX
  5
136
100
AcDbEntity
  8
0
370
               0
390
0
  6
Continuous
 62
              30
100
AcDbVertex
100
AcDb2dVertex
 10
801.80774090583918
 20
-1048.1712706245446
 30
0.0
  0
VERTEX
  5
137
100
AcDbEntity
  8
0
370
               0
390
0
  6
Continuous
 62
              30
100
AcDbVertex
100
AcDb2dVertex
 10
800.93368848155114
 20
-1047.5136895252672
 30
0.0
  0
VERTEX
  5
138
100
AcDbEntity
  8
0
370
               0
390
0
  6
Continuous
 62
              30
100
AcDbVertex
100
AcDb2dVertex
 10
799.79460118502493
 20
-1047.0091098010071
 30
0.0
  0
VERTEX
  5
139
100
AcDbEntity
  8
0
370
               0
390
0
  6
Continuous
 62
              30
100
AcDbVertex
100
AcDb2dVertex
 10
798.46810593308874
 20
-1046.6919177261148
 30
0.0
  0
VERTEX
  5
13A
100
AcDbEntity
  8
0
370
               0
390
0
  6
Continuous
 62
              30
100
AcDbVertex
100
AcDb2dVertex
 10
797.04460118502493
 20
-1046.5837294163093
 30
0.0
  0
VERTEX
  5
13B
100
AcDbEntity
  8
0
370
               0
390
0
  6
Continuous
 62
              30
100
AcDbVertex
100
AcDb2dVertex
 10
795.62109643696112
 20
-1046.6919177261148
 30
0.0
  0
VERTEX
  5
13C
100
AcDbEntity
  8
0
370
               0
390
0
  6
Continuous
 62
              30
100
AcDbVertex
100
AcDb2dVertex
 10
794.29460118502493
 20
-1047.0091098010071
 30
0.0
  0
VERTEX
  5
13D
100
AcDbEntity
  8
0
370
               0
390
0
  6
Continuous
 62
              30
100
AcDbVertex
100
AcDb2dVertex
 10
793.15551388849917
 20
-1047.5136895252672
 30
0.0
  0
SEQEND
  5
13E
100
AcDbEntity
  8
0
370
               0
390
0
  6
Continuous
 62
              30
  0
POLYLINE
  5
140
100
AcDbEntity
  8
0
370
               0
390
0
  6
Continuous
 62
              30
100
AcDb2dPolyline
 66
               1
 10
0.0
 20
0.0
 30
0.0
 75
               5
  0
VERTEX
  5
141
100
AcDbEntity
  8
0
370
               0
390
0
  6
Continuous
 62
              30
100
AcDbVertex
100
AcDb2dVertex
 10
798.8123681379916
 20
-1050.7793219725581
 30
0.0
  0
VERTEX
  5
142
100
AcDbEntity
  8
0
370
               0
390
0
  6
Continuous
 62
              30
100
AcDbVertex
100
AcDb2dVertex
 10
799.35430001630311
 20
-1050.3111079405876
 30
0.0
  0
VERTEX
  5
143
100
AcDbEntity
  8
0
370
               0
390
0
  6
Continuous
 62
              30
100
AcDbVertex
100
AcDb2dVertex
 10
799.54460118502493
 20
-1049.7588118327799
 30
0.0
  0
VERTEX
  5
144
100
AcDbEntity
  8
0
370
               0
390
0
  6
Continuous
 62
              30
100
AcDbVertex
100
AcDb2dVertex
 10
799.35430001630311
 20
-1049.2065157249722
 30
0.0
  0
VERTEX
  5
145
100
AcDbEntity
  8
0
370
               0
390
0
  6
Continuous
 62
              30
100
AcDbVertex
100
AcDb2dVertex
 10
798.8123681379916
 20
-1048.7383016930016
 30
0.0
  0
VERTEX
  5
146
100
AcDbEntity
  8
0
370
               0
390
0
  6
Continuous
 62
              30
100
AcDbVertex
100
AcDb2dVertex
 10
798.00130976593755
 20
-1048.4254510788646
 30
0.0
  0
VERTEX
  5
147
100
AcDbEntity
  8
0
370
               0
390
0
  6
Continuous
 62
              30
100
AcDbVertex
100
AcDb2dVertex
 10
797.04460118502493
 20
-1048.3155925525662
 30
0.0
  0
VERTEX
  5
148
100
AcDbEntity
  8
0
370
               0
390
0
  6
Continuous
 62
              30
100
AcDbVertex
100
AcDb2dVertex
 10
796.08789260411231
 20
-1048.4254510788646
 30
0.0
  0
VERTEX
  5
149
100
AcDbEntity
  8
0
370
               0
390
0
  6
Continuous
 62
              30
100
AcDbVertex
100
AcDb2dVertex
 10
795.27683423205872
 20
-1048.7383016930016
 30
0.0
  0
VERTEX
  5
14A
100
AcDbEntity
  8
0
370
               0
390
0
  6
Continuous
 62
              30
100
AcDbVertex
100
AcDb2dVertex
 10
794.73490235374675
 20
-1049.2065157249722
 30
0.0
  0
VERTEX
  5
14B
100
AcDbEntity
  8
0
370
               0
390
0
  6
Continuous
 62
              30
100
AcDbVertex
100
AcDb2dVertex
 10
794.54460118502493
 20
-1049.7588118327799
 30
0.0
  0
VERTEX
  5
14C
100
AcDbEntity
  8
0
370
               0
390
0
  6
Continuous
 62
              30
100
AcDbVertex
100
AcDb2dVertex
 10
794.73490235374675
 20
-1050.3111079405876
 30
0.0
  0
VERTEX
  5
14D
100
AcDbEntity
  8
0
370
               0
390
0
  6
Continuous
 62
              30
100
AcDbVertex
100
AcDb2dVertex
 10
795.27683423205872
 20
-1050.7793219725581
 30
0.0
  0
VERTEX
  5
14E
100
AcDbEntity
  8
0
370
               0
390
0
  6
Continuous
 62
              30
100
AcDbVertex
100
AcDb2dVertex
 10
796.08789260411231
 20
-1051.0921725866951
 30
0.0
  0
VERTEX
  5
14F
100
AcDbEntity
  8
0
370
               0
390
0
  6
Continuous
 62
              30
100
AcDbVertex
100
AcDb2dVertex
 10
797.04460118502493
 20
-1051.2020311129936
 30
0.0
  0
VERTEX
  5
150
100
AcDbEntity
  8
0
370
               0
390
0
  6
Continuous
 62
              30
100
AcDbVertex
100
AcDb2dVertex
 10
798.00130976593755
 20
-1051.0921725866951
 30
0.0
  0
VERTEX
  5
151
100
AcDbEntity
  8
0
370
               0
390
0
  6
Continuous
 62
              30
100
AcDbVertex
100
AcDb2dVertex
 10
798.8123681379916
 20
-1050.7793219725581
 30
0.0
  0
SEQEND
  5
152
100
AcDbEntity
  8
0
370
               0
390
0
  6
Continuous
 62
              30
  0
ARC
  5
154
100
AcDbEntity
  8
0
370
               0
390
0
  6
Continuous
 62
              30
100
AcDbCircle
 10
797.04459139638675
 20
-1054.050371971899
 30
0.0
 40
3.7178707962453492
100
AcDbArc
 50
61.604298707786157
 51
118.39032636118301
  0
ARC
  5
155
100
AcDbEntity
  8
0
370
               0
390
0
  6
Continuous
 62
              30
100
AcDbCircle
 10
797.04460118502493
 20
-1056.3292567359269
 30
0.0
 40
5.736766966853919
100
AcDbArc
 50
73.179691583952433
 51
106.82030841601451
  0
ARC
  5
156
100
AcDbEntity
  8
0
370
               0
390
0
  6
Continuous
 62
              30
100
AcDbCircle
 10
885.25154862695354
 20
-1099.1364523295802
 30
0.0
 40
2.5910640660650852
100
AcDbArc
 50
335.36102703617831
 51
69.929381941974555
  0
ARC
  5
157
100
AcDbEntity
  8
0
370
               0
390
0
  6
Continuous
 62
              30
100
AcDbCircle
 10
878.56256757813981
 20
-1099.1443998860818
 30
0.0
 40
2.6053258343052299
100
AcDbArc
 50
110.39177813607427
 51
204.30327919382091
  0
POLYLINE
  5
158
100
AcDbEntity
  8
0
370
               0
390
0
  6
Continuous
 62
              30
100
AcDb2dPolyline
 66
               1
 10
0.0
 20
0.0
 30
0.0
 75
               5
  0
VERTEX
  5
159
100
AcDbEntity
  8
0
370
               0
390
0
  6
Continuous
 62
              30
100
AcDbVertex
100
AcDb2dVertex
 10
878.00832763088465
 20
-1096.4981762346301
 30
0.0
  0
VERTEX
  5
15A
100
AcDbEntity
  8
0
370
               0
390
0
  6
Continuous
 62
              30
100
AcDbVertex
100
AcDb2dVertex
 10
877.13427520659616
 20
-1097.1557573339073
 30
0.0
  0
VERTEX
  5
15B
100
AcDbEntity
  8
0
370
               0
390
0
  6
Continuous
 62
              30
100
AcDbVertex
100
AcDb2dVertex
 10
876.58482288282084
 20
-1097.92152674299
 30
0.0
  0
VERTEX
  5
15C
100
AcDbEntity
  8
0
370
               0
390
0
  6
Continuous
 62
              30
100
AcDbVertex
100
AcDb2dVertex
 10
876.39741492741041
 20
-1098.7432985421424
 30
0.0
  0
VERTEX
  5
15D
100
AcDbEntity
  8
0
370
               0
390
0
  6
Continuous
 62
              30
100
AcDbVertex
100
AcDb2dVertex
 10
876.58482288282084
 20
-1099.5650703412953
 30
0.0
  0
VERTEX
  5
15E
100
AcDbEntity
  8
0
370
               0
390
0
  6
Continuous
 62
              30
100
AcDbVertex
100
AcDb2dVertex
 10
877.13427520659616
 20
-1100.3308397503779
 30
0.0
  0
VERTEX
  5
15F
100
AcDbEntity
  8
0
370
               0
390
0
  6
Continuous
 62
              30
100
AcDbVertex
100
AcDb2dVertex
 10
877.52403509339911
 20
-1100.6686676356489
 30
0.0
  0
SEQEND
  5
160
100
AcDbEntity
  8
0
370
               0
390
0
  6
Continuous
 62
              30
  0
POLYLINE
  5
162
100
AcDbEntity
  8
0
370
               0
390
0
  6
Continuous
 62
              30
100
AcDb2dPolyline
 66
               1
 10
0.0
 20
0.0
 30
0.0
 75
               5
  0
VERTEX
  5
163
100
AcDbEntity
  8
0
370
               0
390
0
  6
Continuous
 62
              30
100
AcDbVertex
100
AcDb2dVertex
 10
886.27079476140443
 20
-1100.6686676356621
 30
0.0
  0
VERTEX
  5
164
100
AcDbEntity
  8
0
370
               0
390
0
  6
Continuous
 62
              30
100
AcDbVertex
100
AcDb2dVertex
 10
886.66055464822512
 20
-1100.3308397503777
 30
0.0
  0
VERTEX
  5
165
100
AcDbEntity
  8
0
370
               0
390
0
  6
Continuous
 62
              30
100
AcDbVertex
100
AcDb2dVertex
 10
887.21000697200043
 20
-1099.5650703412953
 30
0.0
  0
VERTEX
  5
166
100
AcDbEntity
  8
0
370
               0
390
0
  6
Continuous
 62
              30
100
AcDbVertex
100
AcDb2dVertex
 10
887.39741492741041
 20
-1098.7432985421424
 30
0.0
  0
VERTEX
  5
167
100
AcDbEntity
  8
0
370
               0
390
0
  6
Continuous
 62
              30
100
AcDbVertex
100
AcDb2dVertex
 10
887.21000697200043
 20
-1097.92152674299
 30
0.0
  0
VERTEX
  5
168
100
AcDbEntity
  8
0
370
               0
390
0
  6
Continuous
 62
              30
100
AcDbVertex
100
AcDb2dVertex
 10
886.66055464822512
 20
-1097.1557573339073
 30
0.0
  0
VERTEX
  5
169
100
AcDbEntity
  8
0
370
               0
390
0
  6
Continuous
 62
              30
100
AcDbVertex
100
AcDb2dVertex
 10
885.78650222393662
 20
-1096.4981762346301
 30
0.0
  0
VERTEX
  5
16A
100
AcDbEntity
  8
0
370
               0
390
0
  6
Continuous
 62
              30
100
AcDbVertex
100
AcDb2dVertex
 10
884.64741492741041
 20
-1095.9935965103696
 30
0.0
  0
VERTEX
  5
16B
100
AcDbEntity
  8
0
370
               0
390
0
  6
Continuous
 62
              30
100
AcDbVertex
100
AcDb2dVertex
 10
883.32091967547422
 20
-1095.6764044354773
 30
0.0
  0
VERTEX
  5
16C
100
AcDbEntity
  8
0
370
               0
390
0
  6
Continuous
 62
              30
100
AcDbVertex
100
AcDb2dVertex
 10
881.89741492741041
 20
-1095.5682161256718
 30
0.0
  0
VERTEX
  5
16D
100
AcDbEntity
  8
0
370
               0
390
0
  6
Continuous
 62
              30
100
AcDbVertex
100
AcDb2dVertex
 10
880.4739101793466
 20
-1095.6764044354773
 30
0.0
  0
VERTEX
  5
16E
100
AcDbEntity
  8
0
370
               0
390
0
  6
Continuous
 62
              30
100
AcDbVertex
100
AcDb2dVertex
 10
879.14741492741041
 20
-1095.9935965103698
 30
0.0
  0
VERTEX
  5
16F
100
AcDbEntity
  8
0
370
               0
390
0
  6
Continuous
 62
              30
100
AcDbVertex
100
AcDb2dVertex
 10
878.00832763088465
 20
-1096.4981762346301
 30
0.0
  0
SEQEND
  5
170
100
AcDbEntity
  8
0
370
               0
390
0
  6
Continuous
 62
              30
  0
POLYLINE
  5
172
100
AcDbEntity
  8
0
370
               0
390
0
  6
Continuous
 62
              30
100
AcDb2dPolyline
 66
               1
 10
0.0
 20
0.0
 30
0.0
 75
               5
  0
VERTEX
  5
173
100
AcDbEntity
  8
0
370
               0
390
0
  6
Continuous
 62
              30
100
AcDbVertex
100
AcDb2dVertex
 10
883.66518188037708
 20
-1099.7638086819209
 30
0.0
  0
VERTEX
  5
174
100
AcDbEntity
  8
0
370
               0
390
0
  6
Continuous
 62
              30
100
AcDbVertex
100
AcDb2dVertex
 10
884.20711375868859
 20
-1099.2955946499501
 30
0.0
  0
VERTEX
  5
175
100
AcDbEntity
  8
0
370
               0
390
0
  6
Continuous
 62
              30
100
AcDbVertex
100
AcDb2dVertex
 10
884.39741492741041
 20
-1098.7432985421424
 30
0.0
  0
VERTEX
  5
176
100
AcDbEntity
  8
0
370
               0
390
0
  6
Continuous
 62
              30
100
AcDbVertex
100
AcDb2dVertex
 10
884.20711375868859
 20
-1098.1910024343347
 30
0.0
  0
VERTEX
  5
177
100
AcDbEntity
  8
0
370
               0
390
0
  6
Continuous
 62
              30
100
AcDbVertex
100
AcDb2dVertex
 10
883.66518188037708
 20
-1097.7227884023641
 30
0.0
  0
VERTEX
  5
178
100
AcDbEntity
  8
0
370
               0
390
0
  6
Continuous
 62
              30
100
AcDbVertex
100
AcDb2dVertex
 10
882.85412350832348
 20
-1097.4099377882271
 30
0.0
  0
VERTEX
  5
179
100
AcDbEntity
  8
0
370
               0
390
0
  6
Continuous
 62
              30
100
AcDbVertex
100
AcDb2dVertex
 10
881.89741492741041
 20
-1097.3000792619287
 30
0.0
  0
VERTEX
  5
17A
100
AcDbEntity
  8
0
370
               0
390
0
  6
Continuous
 62
              30
100
AcDbVertex
100
AcDb2dVertex
 10
880.94070634649779
 20
-1097.4099377882271
 30
0.0
  0
VERTEX
  5
17B
100
AcDbEntity
  8
0
370
               0
390
0
  6
Continuous
 62
              30
100
AcDbVertex
100
AcDb2dVertex
 10
880.1296479744442
 20
-1097.7227884023641
 30
0.0
  0
VERTEX
  5
17C
100
AcDbEntity
  8
0
370
               0
390
0
  6
Continuous
 62
              30
100
AcDbVertex
100
AcDb2dVertex
 10
879.58771609613223
 20
-1098.1910024343347
 30
0.0
  0
VERTEX
  5
17D
100
AcDbEntity
  8
0
370
               0
390
0
  6
Continuous
 62
              30
100
AcDbVertex
100
AcDb2dVertex
 10
879.39741492741041
 20
-1098.7432985421424
 30
0.0
  0
VERTEX
  5
17E
100
AcDbEntity
  8
0
370
               0
390
0
  6
Continuous
 62
              30
100
AcDbVertex
100
AcDb2dVertex
 10
879.58771609613223
 20
-1099.2955946499501
 30
0.0
  0
VERTEX
  5
17F
100
AcDbEntity
  8
0
370
               0
390
0
  6
Continuous
 62
              30
100
AcDbVertex
100
AcDb2dVertex
 10
880.1296479744442
 20
-1099.7638086819209
 30
0.0
  0
VERTEX
  5
180
100
AcDbEntity
  8
0
370
               0
390
0
  6
Continuous
 62
              30
100
AcDbVertex
100
AcDb2dVertex
 10
880.94070634649779
 20
-1100.0766592960576
 30
0.0
  0
VERTEX
  5
181
100
AcDbEntity
  8
0
370
               0
390
0
  6
Continuous
 62
              30
100
AcDbVertex
100
AcDb2dVertex
 10
881.89741492741041
 20
-1100.1865178223561
 30
0.0
  0
VERTEX
  5
182
100
AcDbEntity
  8
0
370
               0
390
0
  6
Continuous
 62
              30
100
AcDbVertex
100
AcDb2dVertex
 10
882.85412350832348
 20
-1100.0766592960576
 30
0.0
  0
VERTEX
  5
183
100
AcDbEntity
  8
0
370
               0
390
0
  6
Continuous
 62
              30
100
AcDbVertex
100
AcDb2dVertex
 10
883.66518188037708
 20
-1099.7638086819209
 30
0.0
  0
SEQEND
  5
184
100
AcDbEntity
  8
0
370
               0
390
0
  6
Continuous
 62
              30
  0
ARC
  5
186
100
AcDbEntity
  8
0
370
               0
390
0
  6
Continuous
 62
              30
100
AcDbCircle
 10
881.89740513877223
 20
-1103.034858681262
 30
0.0
 40
3.7178707962457498
100
AcDbArc
 50
61.604298707789496
 51
118.39032636117967
  0
ARC
  5
187
100
AcDbEntity
  8
0
370
               0
390
0
  6
Continuous
 62
              30
100
AcDbCircle
 10
881.89741492741041
 20
-1105.3137434451314
 30
0.0
 40
5.7367669666982861
100
AcDbArc
 50
73.179691578201613
 51
106.82030842157502
  0
LINE
  5
188
100
AcDbEntity
  8
0
370
               0
390
0
  6
Continuous
 62
              30
100
AcDbLine
 10
957.91139390496483
 20
-1163.8526416603818
 30
0.0
 11
957.91139390496301
 21
-763.74764383636375
 31
0.0
  0
LINE
  5
189
100
AcDbEntity
  8
0
370
               0
390
0
  6
Continuous
 62
              30
100
AcDbLine
 10
957.91139390496483
 20
-1163.8526416603818
 30
0.0
 11
950.84032609309907
 21
-1151.6051929824112
 31
0.0
  0
LINE
  5
18A
100
AcDbEntity
  8
0
370
               0
390
0
  6
Continuous
 62
              30
100
AcDbLine
 10
950.84032609309907
 20
-1151.6051929824112
 30
0.0
 11
950.8403260930977
 21
-759.66560327725028
 31
0.0
  0
LINE
  5
18B
100
AcDbEntity
  8
0
370
               0
390
0
  6
Continuous
 62
              30
100
AcDbLine
 10
986.1956651524265
 20
-1147.5244794239279
 30
0.0
 11
986.19566515242514
 21
-747.41948159990943
 31
0.0
  0
LINE
  5
18C
100
AcDbEntity
  8
0
370
               0
390
0
  6
Continuous
 62
              30
100
AcDbLine
 10
986.1956651524265
 20
-1147.5244794239279
 30
0.0
 11
957.91139390496483
 21
-1163.8526416603818
 31
0.0
  0
POLYLINE
  5
18D
100
AcDbEntity
  8
0
370
               0
390
0
  6
Continuous
 62
              30
100
AcDb2dPolyline
 66
               1
 10
0.0
 20
0.0
 30
0.0
 75
               5
  0
VERTEX
  5
18E
100
AcDbEntity
  8
0
370
               0
390
0
  6
Continuous
 62
              30
100
AcDbVertex
100
AcDb2dVertex
 10
972.05352952869453
 20
-782.52940951036635
 30
0.0
  0
VERTEX
  5
18F
100
AcDbEntity
  8
0
370
               0
390
0
  6
Continuous
 62
              30
100
AcDbVertex
100
AcDb2dVertex
 10
973.39173791104668
 20
-781.60931869293518
 30
0.0
  0
VERTEX
  5
190
100
AcDbEntity
  8
0
370
               0
390
0
  6
Continuous
 62
              30
100
AcDbVertex
100
AcDb2dVertex
 10
974.68157995579259
 20
-780.42736323073996
 30
0.0
  0
VERTEX
  5
191
100
AcDbEntity
  8
0
370
               0
390
0
  6
Continuous
 62
              30
100
AcDbVertex
100
AcDb2dVertex
 10
975.876437410785
 20
-779.02626207374033
 30
0.0
  0
VERTEX
  5
192
100
AcDbEntity
  8
0
370
               0
390
0
  6
Continuous
 62
              30
100
AcDbVertex
100
AcDb2dVertex
 10
976.93312501442915
 20
-777.45665466828268
 30
0.0
  0
VERTEX
  5
193
100
AcDbEntity
  8
0
370
               0
390
0
  6
Continuous
 62
              30
100
AcDbVertex
100
AcDb2dVertex
 10
977.81345132355682
 20
-775.77527071557279
 30
0.0
  0
VERTEX
  5
194
100
AcDbEntity
  8
0
370
               0
390
0
  6
Continuous
 62
              30
100
AcDbVertex
100
AcDb2dVertex
 10
978.4855990516885
 20
-774.04287981246534
 30
0.0
  0
VERTEX
  5
195
100
AcDbEntity
  8
0
370
               0
390
0
  6
Continuous
 62
              30
100
AcDbVertex
100
AcDb2dVertex
 10
978.92527502866506
 20
-772.32209507989819
 30
0.0
  0
VERTEX
  5
196
100
AcDbEntity
  8
0
370
               0
390
0
  6
Continuous
 62
              30
100
AcDbVertex
100
AcDb2dVertex
 10
979.11658821911487
 20
-770.67511016156777
 30
0.0
  0
VERTEX
  5
197
100
AcDbEntity
  8
0
370
               0
390
0
  6
Continuous
 62
              30
100
AcDbVertex
100
AcDb2dVertex
 10
979.05262406587281
 20
-769.1614513835998
 30
0.0
  0
VERTEX
  5
198
100
AcDbEntity
  8
0
370
               0
390
0
  6
Continuous
 62
              30
100
AcDbVertex
100
AcDb2dVertex
 10
978.73569440009396
 20
-767.83582631802983
 30
0.0
  0
VERTEX
  5
199
100
AcDbEntity
  8
0
370
               0
390
0
  6
Continuous
 62
              30
100
AcDbVertex
100
AcDb2dVertex
 10
978.17725388565214
 20
-766.7461465086094
 30
0.0
  0
VERTEX
  5
19A
100
AcDbEntity
  8
0
370
               0
390
0
  6
Continuous
 62
              30
100
AcDbVertex
100
AcDb2dVertex
 10
977.39748601774136
 20
-765.93179582278435
 30
0.0
  0
VERTEX
  5
19B
100
AcDbEntity
  8
0
370
               0
390
0
  6
Continuous
 62
              30
100
AcDbVertex
100
AcDb2dVertex
 10
976.42457363877384
 20
-765.42220701610995
 30
0.0
  0
VERTEX
  5
19C
100
AcDbEntity
  8
0
370
               0
390
0
  6
Continuous
 62
              30
100
AcDbVertex
100
AcDb2dVertex
 10
975.29368033702394
 20
-765.23579795578098
 30
0.0
  0
VERTEX
  5
19D
100
AcDbEntity
  8
0
370
               0
390
0
  6
Continuous
 62
              30
100
AcDbVertex
100
AcDb2dVertex
 10
974.04567954292997
 20
-765.37930595092075
 30
0.0
  0
VERTEX
  5
19E
100
AcDbEntity
  8
0
370
               0
390
0
  6
Continuous
 62
              30
100
AcDbVertex
100
AcDb2dVertex
 10
972.72567725682529
 20
-765.84754424867924
 30
0.0
  0
VERTEX
  5
19F
100
AcDbEntity
  8
0
370
               0
390
0
  6
Continuous
 62
              30
100
AcDbVertex
100
AcDb2dVertex
 10
971.38138180056239
 20
-766.62358949699228
 30
0.0
  0
VERTEX
  5
1A0
100
AcDbEntity
  8
0
370
               0
390
0
  6
Continuous
 62
              30
100
AcDbVertex
100
AcDb2dVertex
 10
970.06137951445817
 20
-767.67939339862005
 30
0.0
  0
VERTEX
  5
1A1
100
AcDbEntity
  8
0
370
               0
390
0
  6
Continuous
 62
              30
100
AcDbVertex
100
AcDb2dVertex
 10
968.8133787203642
 20
-768.97679644968639
 30
0.0
  0
VERTEX
  5
1A2
100
AcDbEntity
  8
0
370
               0
390
0
  6
Continuous
 62
              30
100
AcDbVertex
100
AcDb2dVertex
 10
967.68248541861431
 20
-770.46890712357617
 30
0.0
  0
VERTEX
  5
1A3
100
AcDbEntity
  8
0
370
               0
390
0
  6
Continuous
 62
              30
100
AcDbVertex
100
AcDb2dVertex
 10
966.70957303964678
 20
-772.10179665287797
 30
0.0
  0
VERTEX
  5
1A4
100
AcDbEntity
  8
0
370
               0
390
0
  6
Continuous
 62
              30
100
AcDbVertex
100
AcDb2dVertex
 10
965.92980517173601
 20
-773.81644815555092
 30
0.0
  0
VERTEX
  5
1A5
100
AcDbEntity
  8
0
370
               0
390
0
  6
Continuous
 62
              30
100
AcDbVertex
100
AcDb2dVertex
 10
965.37136465729418
 20
-775.55088965880759
 30
0.0
  0
VERTEX
  5
1A6
100
AcDbEntity
  8
0
370
               0
390
0
  6
Continuous
 62
              30
100
AcDbVertex
100
AcDb2dVertex
 10
965.05443499151534
 20
-777.24243392767676
 30
0.0
  0
VERTEX
  5
1A7
100
AcDbEntity
  8
0
370
               0
390
0
  6
Continuous
 62
              30
100
AcDbVertex
100
AcDb2dVertex
 10
964.99047083827372
 20
-778.82994414500581
 30
0.0
  0
VERTEX
  5
1A8
100
AcDbEntity
  8
0
370
               0
390
0
  6
Continuous
 62
              30
100
AcDbVertex
100
AcDb2dVertex
 10
965.18178402872309
 20
-780.25604355532323
 30
0.0
  0
VERTEX
  5
1A9
100
AcDbEntity
  8
0
370
               0
390
0
  6
Continuous
 62
              30
100
AcDbVertex
100
AcDb2dVertex
 10
965.6214600057001
 20
-781.46918921027418
 30
0.0
  0
VERTEX
  5
1AA
100
AcDbEntity
  8
0
370
               0
390
0
  6
Continuous
 62
              30
100
AcDbVertex
100
AcDb2dVertex
 10
966.29360773383132
 20
-782.42553486506904
 30
0.0
  0
VERTEX
  5
1AB
100
AcDbEntity
  8
0
370
               0
390
0
  6
Continuous
 62
              30
100
AcDbVertex
100
AcDb2dVertex
 10
967.17393404295899
 20
-783.09051569600842
 30
0.0
  0
VERTEX
  5
1AC
100
AcDbEntity
  8
0
370
               0
390
0
  6
Continuous
 62
              30
100
AcDbVertex
100
AcDb2dVertex
 10
968.23062164660314
 20
-783.44009756327205
 30
0.0
  0
VERTEX
  5
1AD
100
AcDbEntity
  8
0
370
               0
390
0
  6
Continuous
 62
              30
100
AcDbVertex
100
AcDb2dVertex
 10
969.42547910159556
 20
-783.46164566735024
 30
0.0
  0
VERTEX
  5
1AE
100
AcDbEntity
  8
0
370
               0
390
0
  6
Continuous
 62
              30
100
AcDbVertex
100
AcDb2dVertex
 10
970.71532114634192
 20
-783.15438120361887
 30
0.0
  0
VERTEX
  5
1AF
100
AcDbEntity
  8
0
370
               0
390
0
  6
Continuous
 62
              30
100
AcDbVertex
100
AcDb2dVertex
 10
972.05352952869453
 20
-782.52940951036635
 30
0.0
  0
SEQEND
  5
1B0
100
AcDbEntity
  8
0
370
               0
390
0
  6
Continuous
 62
              30
  0
ARC
  5
1B2
100
AcDbEntity
  8
0
370
               0
390
0
  6
Continuous
 62
              30
100
AcDbCircle
 10
963.37105478875401
 20
-769.35171541365071
 30
0.0
 40
5.1443902490828206
100
AcDbArc
 50
299.83893854103525
 51
0.1664379924088166
  0
POLYLINE
  5
1B3
100
AcDbEntity
  8
0
370
               0
390
0
  6
Continuous
 62
              30
100
AcDb2dPolyline
 66
               1
 10
0.0
 20
0.0
 30
0.0
 75
               5
  0
VERTEX
  5
1B4
100
AcDbEntity
  8
0
370
               0
390
0
  6
Continuous
 62
              30
100
AcDbVertex
100
AcDb2dVertex
 10
976.4945954444288
 20
-765.44620480092226
 30
0.0
  0
VERTEX
  5
1B5
100
AcDbEntity
  8
0
370
               0
390
0
  6
Continuous
 62
              30
100
AcDbVertex
100
AcDb2dVertex
 10
976.75279115177727
 20
-765.69016183408166
 30
0.0
  0
VERTEX
  5
1B6
100
AcDbEntity
  8
0
370
               0
390
0
  6
Continuous
 62
              30
100
AcDbVertex
100
AcDb2dVertex
 10
977.4249388799085
 20
-766.64650748887652
 30
0.0
  0
VERTEX
  5
1B7
100
AcDbEntity
  8
0
370
               0
390
0
  6
Continuous
 62
              30
100
AcDbVertex
100
AcDb2dVertex
 10
977.86461485688551
 20
-767.85965314382747
 30
0.0
  0
VERTEX
  5
1B8
100
AcDbEntity
  8
0
370
               0
390
0
  6
Continuous
 62
              30
100
AcDbVertex
100
AcDb2dVertex
 10
978.05592804733533
 20
-769.28575255414489
 30
0.0
  0
VERTEX
  5
1B9
100
AcDbEntity
  8
0
370
               0
390
0
  6
Continuous
 62
              30
100
AcDbVertex
100
AcDb2dVertex
 10
977.99196389409281
 20
-770.8732627714744
 30
0.0
  0
VERTEX
  5
1BA
100
AcDbEntity
  8
0
370
               0
390
0
  6
Continuous
 62
              30
100
AcDbVertex
100
AcDb2dVertex
 10
977.67503422831396
 20
-772.56480704034357
 30
0.0
  0
VERTEX
  5
1BB
100
AcDbEntity
  8
0
370
               0
390
0
  6
Continuous
 62
              30
100
AcDbVertex
100
AcDb2dVertex
 10
977.11659371387213
 20
-774.29924854359979
 30
0.0
  0
VERTEX
  5
1BC
100
AcDbEntity
  8
0
370
               0
390
0
  6
Continuous
 62
              30
100
AcDbVertex
100
AcDb2dVertex
 10
976.33682584596181
 20
-776.01390004627274
 30
0.0
  0
VERTEX
  5
1BD
100
AcDbEntity
  8
0
370
               0
390
0
  6
Continuous
 62
              30
100
AcDbVertex
100
AcDb2dVertex
 10
975.36391346699429
 20
-777.64678957557453
 30
0.0
  0
VERTEX
  5
1BE
100
AcDbEntity
  8
0
370
               0
390
0
  6
Continuous
 62
              30
100
AcDbVertex
100
AcDb2dVertex
 10
974.23302016524394
 20
-779.13890024946431
 30
0.0
  0
VERTEX
  5
1BF
100
AcDbEntity
  8
0
370
               0
390
0
  6
Continuous
 62
              30
100
AcDbVertex
100
AcDb2dVertex
 10
972.98501937114997
 20
-780.43630330053111
 30
0.0
  0
VERTEX
  5
1C0
100
AcDbEntity
  8
0
370
               0
390
0
  6
Continuous
 62
              30
100
AcDbVertex
100
AcDb2dVertex
 10
971.66501708504575
 20
-781.49210720215842
 30
0.0
  0
VERTEX
  5
1C1
100
AcDbEntity
  8
0
370
               0
390
0
  6
Continuous
 62
              30
100
AcDbVertex
100
AcDb2dVertex
 10
970.32072162878285
 20
-782.26815245047146
 30
0.0
  0
VERTEX
  5
1C2
100
AcDbEntity
  8
0
370
               0
390
0
  6
Continuous
 62
              30
100
AcDbVertex
100
AcDb2dVertex
 10
969.00071934267817
 20
-782.73639074822995
 30
0.0
  0
VERTEX
  5
1C3
100
AcDbEntity
  8
0
370
               0
390
0
  6
Continuous
 62
              30
100
AcDbVertex
100
AcDb2dVertex
 10
967.75271854858465
 20
-782.87989874336972
 30
0.0
  0
VERTEX
  5
1C4
100
AcDbEntity
  8
0
370
               0
390
0
  6
Continuous
 62
              30
100
AcDbVertex
100
AcDb2dVertex
 10
966.62182524683431
 20
-782.69348968304075
 30
0.0
  0
VERTEX
  5
1C5
100
AcDbEntity
  8
0
370
               0
390
0
  6
Continuous
 62
              30
100
AcDbVertex
100
AcDb2dVertex
 10
966.55180344135852
 20
-782.66949189833394
 30
0.0
  0
SEQEND
  5
1C6
100
AcDbEntity
  8
0
370
               0
390
0
  6
Continuous
 62
              30
  0
LINE
  5
1C8
100
AcDbEntity
  8
0
370
               0
390
0
  6
Continuous
 62
              30
100
AcDbLine
 10
699.8174187718746
 20
-1006.6927531338797
 30
0.0
 11
699.81741877187596
 21
-614.75316342872043
 31
0.0
  0
LINE
  5
1C9
100
AcDbEntity
  8
0
370
               0
390
0
  6
Continuous
 62
              30
100
AcDbLine
 10
699.8174187718746
 20
-1006.6927531338797
 30
0.0
 11
692.74635096000884
 21
-1010.7761206936234
 31
0.0
  0
LINE
  5
1CA
100
AcDbEntity
  8
0
370
               0
390
0
  6
Continuous
 62
              30
100
AcDbLine
 10
692.74635096000884
 20
-1010.7761206936234
 30
0.0
 11
692.7463509600102
 21
-610.67112286960673
 31
0.0
  0
LINE
  5
1CB
100
AcDbEntity
  8
0
370
               0
390
0
  6
Continuous
 62
              30
100
AcDbLine
 10
728.10169001933673
 20
-990.36459089742539
 30
0.0
 11
728.10169001933764
 21
-682.72778080266244
 31
0.0
  0
LINE
  5
1CC
100
AcDbEntity
  8
0
370
               0
390
0
  6
Continuous
 62
              30
100
AcDbLine
 10
728.10169001933764
 20
-610.02917173818014
 30
0.0
 11
728.10169001933809
 21
-598.42500119226634
 31
0.0
  0
LINE
  5
1CD
100
AcDbEntity
  8
0
370
               0
390
0
  6
Continuous
 62
              30
100
AcDbLine
 10
728.10169001933673
 20
-990.36459089742539
 30
0.0
 11
699.8174187718746
 21
-1006.6927531338797
 31
0.0
  0
POLYLINE
  5
1CE
100
AcDbEntity
  8
0
370
               0
390
0
  6
Continuous
 62
              30
100
AcDb2dPolyline
 66
               1
 10
0.0
 20
0.0
 30
0.0
 75
               5
  0
VERTEX
  5
1CF
100
AcDbEntity
  8
0
370
               0
390
0
  6
Continuous
 62
              30
100
AcDbVertex
100
AcDb2dVertex
 10
713.95955439560657
 20
-628.22741382546565
 30
0.0
  0
VERTEX
  5
1D0
100
AcDbEntity
  8
0
370
               0
390
0
  6
Continuous
 62
              30
100
AcDbVertex
100
AcDb2dVertex
 10
713.15596420777865
 20
-628.53646804936943
 30
0.0
  0
VERTEX
  5
1D1
100
AcDbEntity
  8
0
370
               0
390
0
  6
Continuous
 62
              30
100
AcDbVertex
100
AcDb2dVertex
 10
712.43945548578813
 20
-628.50233441847877
 30
0.0
  0
VERTEX
  5
1D2
100
AcDbEntity
  8
0
370
               0
390
0
  6
Continuous
 62
              30
100
AcDbVertex
100
AcDb2dVertex
 10
711.88767306744148
 20
-628.12871184133928
 30
0.0
  0
VERTEX
  5
1D3
100
AcDbEntity
  8
0
370
               0
390
0
  6
Continuous
 62
              30
100
AcDbVertex
100
AcDb2dVertex
 10
711.5604111395528
 20
-627.45608812153478
 30
0.0
  0
VERTEX
  5
1D4
100
AcDbEntity
  8
0
370
               0
390
0
  6
Continuous
 62
              30
100
AcDbVertex
100
AcDb2dVertex
 10
711.49313361000031
 20
-626.55735247593907
 30
0.0
  0
VERTEX
  5
1D5
100
AcDbEntity
  8
0
370
               0
390
0
  6
Continuous
 62
              30
100
AcDbVertex
100
AcDb2dVertex
 10
711.69313104303046
 20
-625.52989685707234
 30
0.0
  0
VERTEX
  5
1D6
100
AcDbEntity
  8
0
370
               0
390
0
  6
Continuous
 62
              30
100
AcDbVertex
100
AcDb2dVertex
 10
712.13873061349341
 20
-624.48506202385579
 30
0.0
  0
VERTEX
  5
1D7
100
AcDbEntity
  8
0
370
               0
390
0
  6
Continuous
 62
              30
100
AcDbVertex
100
AcDb2dVertex
 10
712.78164469374087
 20
-623.5360720427509
 30
0.0
  0
VERTEX
  5
1D8
100
AcDbEntity
  8
0
370
               0
390
0
  6
Continuous
 62
              30
100
AcDbVertex
100
AcDb2dVertex
 10
713.55220356733707
 20
-622.78576470330722
 30
0.0
  0
VERTEX
  5
1D9
100
AcDbEntity
  8
0
370
               0
390
0
  6
Continuous
 62
              30
100
AcDbVertex
100
AcDb2dVertex
 10
714.36690522387607
 20
-622.31544744797179
 30
0.0
  0
VERTEX
  5
1DA
100
AcDbEntity
  8
0
370
               0
390
0
  6
Continuous
 62
              30
100
AcDbVertex
100
AcDb2dVertex
 10
715.13746409747273
 20
-622.17608644908364
 30
0.0
  0
VERTEX
  5
1DB
100
AcDbEntity
  8
0
370
               0
390
0
  6
Continuous
 62
              30
100
AcDbVertex
100
AcDb2dVertex
 10
715.78037817771974
 20
-622.38278363328163
 30
0.0
  0
VERTEX
  5
1DC
100
AcDbEntity
  8
0
370
               0
390
0
  6
Continuous
 62
              30
100
AcDbVertex
100
AcDb2dVertex
 10
716.22597774818314
 20
-622.91314015342027
 30
0.0
  0
VERTEX
  5
1DD
100
AcDbEntity
  8
0
370
               0
390
0
  6
Continuous
 62
              30
100
AcDbVertex
100
AcDb2dVertex
 10
716.42597518121283
 20
-623.70968365121325
 30
0.0
  0
VERTEX
  5
1DE
100
AcDbEntity
  8
0
370
               0
390
0
  6
Continuous
 62
              30
100
AcDbVertex
100
AcDb2dVertex
 10
716.3586976516608
 20
-624.68609627902902
 30
0.0
  0
VERTEX
  5
1DF
100
AcDbEntity
  8
0
370
               0
390
0
  6
Continuous
 62
              30
100
AcDbVertex
100
AcDb2dVertex
 10
716.03143572377212
 20
-625.73656857804076
 30
0.0
  0
VERTEX
  5
1E0
100
AcDbEntity
  8
0
370
               0
390
0
  6
Continuous
 62
              30
100
AcDbVertex
100
AcDb2dVertex
 10
715.47965330542502
 20
-626.74726557489339
 30
0.0
  0
VERTEX
  5
1E1
100
AcDbEntity
  8
0
370
               0
390
0
  6
Continuous
 62
              30
100
AcDbVertex
100
AcDb2dVertex
 10
714.7631445834345
 20
-627.60866256739791
 30
0.0
  0
VERTEX
  5
1E2
100
AcDbEntity
  8
0
370
               0
390
0
  6
Continuous
 62
              30
100
AcDbVertex
100
AcDb2dVertex
 10
713.95955439560657
 20
-628.22741382546565
 30
0.0
  0
SEQEND
  5
1E3
100
AcDbEntity
  8
0
370
               0
390
0
  6
Continuous
 62
              30
  0
ARC
  5
1E5
100
AcDbEntity
  8
0
370
               0
390
0
  6
Continuous
 62
              30
100
AcDbCircle
 10
698.14393583275341
 20
-616.23935872849847
 30
0.0
 40
17.095909957987491
100
AcDbArc
 50
321.30616008032769
 51
338.69921645235399
  0
POLYLINE
  5
1E6
100
AcDbEntity
  8
0
370
               0
390
0
  6
Continuous
 62
              30
100
AcDb2dPolyline
 66
               1
 10
0.0
 20
0.0
 30
0.0
 75
               5
  0
VERTEX
  5
1E7
100
AcDbEntity
  8
0
370
               0
390
0
  6
Continuous
 62
              30
100
AcDbVertex
100
AcDb2dVertex
 10
712.89889422382703
 20
-627.61510774159842
 30
0.0
  0
VERTEX
  5
1E8
100
AcDbEntity
  8
0
370
               0
390
0
  6
Continuous
 62
              30
100
AcDbVertex
100
AcDb2dVertex
 10
712.09530403599865
 20
-627.92416196550221
 30
0.0
  0
VERTEX
  5
1E9
100
AcDbEntity
  8
0
370
               0
390
0
  6
Continuous
 62
              30
100
AcDbVertex
100
AcDb2dVertex
 10
711.76163813057656
 20
-627.95202492218959
 30
0.0
  0
SEQEND
  5
1EA
100
AcDbEntity
  8
0
370
               0
390
0
  6
Continuous
 62
              30
  0
ARC
  5
1EC
100
AcDbEntity
  8
0
370
               0
390
0
  6
Continuous
 62
              30
100
AcDbCircle
 10
710.66116129552756
 20
-623.54688863723413
 30
0.0
 40
4.6430437580867405
100
AcDbArc
 50
298.81309056969212
 51
17.189566032364386
  0
LINE
  5
1ED
100
AcDbEntity
  8
0
370
               0
390
0
  6
Continuous
 62
              30
100
AcDbLine
 10
950.84032609309907
 20
-1151.6051929824107
 30
0.0
 11
699.81741877187505
 21
-1006.6927531338797
 31
0.0
  0
LINE
  5
1EE
100
AcDbEntity
  8
0
370
               0
390
0
  6
Continuous
 62
              30
100
AcDbLine
 10
957.91139390496437
 20
-1163.8526416603818
 30
0.0
 11
692.74635096000929
 21
-1010.7761206936236
 31
0.0
  0
LINE
  5
1EF
100
AcDbEntity
  8
0
370
               0
390
0
  6
Continuous
 62
              30
100
AcDbLine
 10
950.84032609309907
 20
-1118.9488685095025
 30
0.0
 11
728.10169001933673
 21
-990.36459089742539
 31
0.0
  0
POLYLINE
  5
1F0
100
AcDbEntity
  8
0
370
               0
390
0
  6
Continuous
 62
              30
100
AcDb2dPolyline
 66
               1
 10
0.0
 20
0.0
 30
0.0
 75
               5
  0
VERTEX
  5
1F1
100
AcDbEntity
  8
0
370
               0
390
0
  6
Continuous
 62
              30
100
AcDbVertex
100
AcDb2dVertex
 10
843.71364874333722
 20
-1073.4341162753863
 30
0.0
  0
VERTEX
  5
1F2
100
AcDbEntity
  8
0
370
               0
390
0
  6
Continuous
 62
              30
100
AcDbVertex
100
AcDb2dVertex
 10
844.63546021824141
 20
-1072.7480720654501
 30
0.0
  0
VERTEX
  5
1F3
100
AcDbEntity
  8
0
370
               0
390
0
  6
Continuous
 62
              30
100
AcDbVertex
100
AcDb2dVertex
 10
845.23277017027931
 20
-1071.9512407637039
 30
0.0
  0
VERTEX
  5
1F4
100
AcDbEntity
  8
0
370
               0
390
0
  6
Continuous
 62
              30
100
AcDbVertex
100
AcDb2dVertex
 10
845.46804741841197
 20
-1071.0936902113767
 30
0.0
  0
VERTEX
  5
1F5
100
AcDbEntity
  8
0
370
               0
390
0
  6
Continuous
 62
              30
100
AcDbVertex
100
AcDb2dVertex
 10
845.32650862785022
 20
-1070.2293034635218
 30
0.0
  0
VERTEX
  5
1F6
100
AcDbEntity
  8
0
370
               0
390
0
  6
Continuous
 62
              30
100
AcDbVertex
100
AcDb2dVertex
 10
844.81704720134803
 20
-1069.412393118499
 30
0.0
  0
VERTEX
  5
1F7
100
AcDbEntity
  8
0
370
               0
390
0
  6
Continuous
 62
              30
100
AcDbVertex
100
AcDb2dVertex
 10
843.97167447400079
 20
-1068.6942886576717
 30
0.0
  0
VERTEX
  5
1F8
100
AcDbEntity
  8
0
370
               0
390
0
  6
Continuous
 62
              30
100
AcDbVertex
100
AcDb2dVertex
 10
842.84350832333075
 20
-1068.1201112253179
 30
0.0
  0
VERTEX
  5
1F9
100
AcDbEntity
  8
0
370
               0
390
0
  6
Continuous
 62
              30
100
AcDbVertex
100
AcDb2dVertex
 10
841.50343557768929
 20
-1067.7259385011889
 30
0.0
  0
VERTEX
  5
1FA
100
AcDbEntity
  8
0
370
               0
390
0
  6
Continuous
 62
              30
100
AcDbVertex
100
AcDb2dVertex
 10
840.0356579361287
 20
-1067.5365378072074
 30
0.0
  0
VERTEX
  5
1FB
100
AcDbEntity
  8
0
370
               0
390
0
  6
Continuous
 62
              30
100
AcDbVertex
100
AcDb2dVertex
 10
838.5324012659762
 20
-1067.5638098855438
 30
0.0
  0
VERTEX
  5
1FC
100
AcDbEntity
  8
0
370
               0
390
0
  6
Continuous
 62
              30
100
AcDbVertex
100
AcDb2dVertex
 10
837.08812071240891
 20
-1067.8060411312158
 30
0.0
  0
VERTEX
  5
1FD
100
AcDbEntity
  8
0
370
               0
390
0
  6
Continuous
 62
              30
100
AcDbVertex
100
AcDb2dVertex
 10
835.79356573430005
 20
-1068.2480112641942
 30
0.0
  0
VERTEX
  5
1FE
100
AcDbEntity
  8
0
370
               0
390
0
  6
Continuous
 62
              30
100
AcDbVertex
100
AcDb2dVertex
 10
834.73007798196386
 20
-1068.8619496755716
 30
0.0
  0
VERTEX
  5
1FF
100
AcDbEntity
  8
0
370
               0
390
0
  6
Continuous
 62
              30
100
AcDbVertex
100
AcDb2dVertex
 10
833.96448030211377
 20
-1069.6092803570532
 30
0.0
  0
VERTEX
  5
200
100
AcDbEntity
  8
0
370
               0
390
0
  6
Continuous
 62
              30
100
AcDbVertex
100
AcDb2dVertex
 10
833.54487801264713
 20
-1070.4430457734318
 30
0.0
  0
VERTEX
  5
201
100
AcDbEntity
  8
0
370
               0
390
0
  6
Continuous
 62
              30
100
AcDbVertex
100
AcDb2dVertex
 10
833.49763626859931
 20
-1071.3108573772215
 30
0.0
  0
VERTEX
  5
202
100
AcDbEntity
  8
0
370
               0
390
0
  6
Continuous
 62
              30
100
AcDbVertex
100
AcDb2dVertex
 10
833.82572344249229
 20
-1072.1581873737682
 30
0.0
  0
VERTEX
  5
203
100
AcDbEntity
  8
0
370
               0
390
0
  6
Continuous
 62
              30
100
AcDbVertex
100
AcDb2dVertex
 10
834.50852461057048
 20
-1072.9317949031274
 30
0.0
  0
VERTEX
  5
204
100
AcDbEntity
  8
0
370
               0
390
0
  6
Continuous
 62
              30
100
AcDbVertex
100
AcDb2dVertex
 10
835.5031368642758
 20
-1073.5830713591004
 30
0.0
  0
VERTEX
  5
205
100
AcDbEntity
  8
0
370
               0
390
0
  6
Continuous
 62
              30
100
AcDbVertex
100
AcDb2dVertex
 10
836.74706505778067
 20
-1074.0710946467302
 30
0.0
  0
VERTEX
  5
206
100
AcDbEntity
  8
0
370
               0
390
0
  6
Continuous
 62
              30
100
AcDbVertex
100
AcDb2dVertex
 10
838.16214860783839
 20
-1074.3652004680316
 30
0.0
  0
VERTEX
  5
207
100
AcDbEntity
  8
0
370
               0
390
0
  6
Continuous
 62
              30
100
AcDbVertex
100
AcDb2dVertex
 10
839.65947261068641
 20
-1074.4469090726061
 30
0.0
  0
VERTEX
  5
208
100
AcDbEntity
  8
0
370
               0
390
0
  6
Continuous
 62
              30
100
AcDbVertex
100
AcDb2dVertex
 10
841.14495469245321
 20
-1074.311086408326
 30
0.0
  0
VERTEX
  5
209
100
AcDbEntity
  8
0
370
               0
390
0
  6
Continuous
 62
              30
100
AcDbVertex
100
AcDb2dVertex
 10
842.52525655071986
 20
-1073.9662667127081
 30
0.0
  0
VERTEX
  5
20A
100
AcDbEntity
  8
0
370
               0
390
0
  6
Continuous
 62
              30
100
AcDbVertex
100
AcDb2dVertex
 10
843.71364874333722
 20
-1073.4341162753863
 30
0.0
  0
SEQEND
  5
20B
100
AcDbEntity
  8
0
370
               0
390
0
  6
Continuous
 62
              30
  0
POLYLINE
  5
20D
100
AcDbEntity
  8
0
370
               0
390
0
  6
Continuous
 62
              30
100
AcDb2dPolyline
 66
               1
 10
0.0
 20
0.0
 30
0.0
 75
               5
  0
VERTEX
  5
20E
100
AcDbEntity
  8
0
370
               0
390
0
  6
Continuous
 62
              30
100
AcDbVertex
100
AcDb2dVertex
 10
928.5664624857227
 20
-1122.4186029847488
 30
0.0
  0
VERTEX
  5
20F
100
AcDbEntity
  8
0
370
               0
390
0
  6
Continuous
 62
              30
100
AcDbVertex
100
AcDb2dVertex
 10
929.48827396062688
 20
-1121.7325587748128
 30
0.0
  0
VERTEX
  5
210
100
AcDbEntity
  8
0
370
               0
390
0
  6
Continuous
 62
              30
100
AcDbVertex
100
AcDb2dVertex
 10
930.08558391266524
 20
-1120.9357274730664
 30
0.0
  0
VERTEX
  5
211
100
AcDbEntity
  8
0
370
               0
390
0
  6
Continuous
 62
              30
100
AcDbVertex
100
AcDb2dVertex
 10
930.3208611607979
 20
-1120.0781769207392
 30
0.0
  0
VERTEX
  5
212
100
AcDbEntity
  8
0
370
               0
390
0
  6
Continuous
 62
              30
100
AcDbVertex
100
AcDb2dVertex
 10
930.17932237023615
 20
-1119.2137901728843
 30
0.0
  0
VERTEX
  5
213
100
AcDbEntity
  8
0
370
               0
390
0
  6
Continuous
 62
              30
100
AcDbVertex
100
AcDb2dVertex
 10
929.66986094373351
 20
-1118.3968798278615
 30
0.0
  0
VERTEX
  5
214
100
AcDbEntity
  8
0
370
               0
390
0
  6
Continuous
 62
              30
100
AcDbVertex
100
AcDb2dVertex
 10
928.82448821638627
 20
-1117.6787753670346
 30
0.0
  0
VERTEX
  5
215
100
AcDbEntity
  8
0
370
               0
390
0
  6
Continuous
 62
              30
100
AcDbVertex
100
AcDb2dVertex
 10
927.69632206571623
 20
-1117.1045979346804
 30
0.0
  0
VERTEX
  5
216
100
AcDbEntity
  8
0
370
               0
390
0
  6
Continuous
 62
              30
100
AcDbVertex
100
AcDb2dVertex
 10
926.35624932007522
 20
-1116.7104252105514
 30
0.0
  0
VERTEX
  5
217
100
AcDbEntity
  8
0
370
               0
390
0
  6
Continuous
 62
              30
100
AcDbVertex
100
AcDb2dVertex
 10
924.88847167851418
 20
-1116.5210245165702
 30
0.0
  0
VERTEX
  5
218
100
AcDbEntity
  8
0
370
               0
390
0
  6
Continuous
 62
              30
100
AcDbVertex
100
AcDb2dVertex
 10
923.38521500836214
 20
-1116.5482965949063
 30
0.0
  0
VERTEX
  5
219
100
AcDbEntity
  8
0
370
               0
390
0
  6
Continuous
 62
              30
100
AcDbVertex
100
AcDb2dVertex
 10
921.94093445479484
 20
-1116.7905278405788
 30
0.0
  0
VERTEX
  5
21A
100
AcDbEntity
  8
0
370
               0
390
0
  6
Continuous
 62
              30
100
AcDbVertex
100
AcDb2dVertex
 10
920.64637947668552
 20
-1117.2324979735572
 30
0.0
  0
VERTEX
  5
21B
100
AcDbEntity
  8
0
370
               0
390
0
  6
Continuous
 62
              30
100
AcDbVertex
100
AcDb2dVertex
 10
919.58289172434934
 20
-1117.8464363849343
 30
0.0
  0
VERTEX
  5
21C
100
AcDbEntity
  8
0
370
               0
390
0
  6
Continuous
 62
              30
100
AcDbVertex
100
AcDb2dVertex
 10
918.81729404449925
 20
-1118.5937670664157
 30
0.0
  0
VERTEX
  5
21D
100
AcDbEntity
  8
0
370
               0
390
0
  6
Continuous
 62
              30
100
AcDbVertex
100
AcDb2dVertex
 10
918.39769175503261
 20
-1119.4275324827945
 30
0.0
  0
VERTEX
  5
21E
100
AcDbEntity
  8
0
370
               0
390
0
  6
Continuous
 62
              30
100
AcDbVertex
100
AcDb2dVertex
 10
918.35045001098479
 20
-1120.295344086584
 30
0.0
  0
VERTEX
  5
21F
100
AcDbEntity
  8
0
370
               0
390
0
  6
Continuous
 62
              30
100
AcDbVertex
100
AcDb2dVertex
 10
918.67853718487777
 20
-1121.1426740831309
 30
0.0
  0
VERTEX
  5
220
100
AcDbEntity
  8
0
370
               0
390
0
  6
Continuous
 62
              30
100
AcDbVertex
100
AcDb2dVertex
 10
919.36133835295595
 20
-1121.9162816124904
 30
0.0
  0
VERTEX
  5
221
100
AcDbEntity
  8
0
370
               0
390
0
  6
Continuous
 62
              30
100
AcDbVertex
100
AcDb2dVertex
 10
920.35595060666128
 20
-1122.5675580684629
 30
0.0
  0
VERTEX
  5
222
100
AcDbEntity
  8
0
370
               0
390
0
  6
Continuous
 62
              30
100
AcDbVertex
100
AcDb2dVertex
 10
921.59987880016615
 20
-1123.0555813560927
 30
0.0
  0
VERTEX
  5
223
100
AcDbEntity
  8
0
370
               0
390
0
  6
Continuous
 62
              30
100
AcDbVertex
100
AcDb2dVertex
 10
923.01496235022432
 20
-1123.3496871773941
 30
0.0
  0
VERTEX
  5
224
100
AcDbEntity
  8
0
370
               0
390
0
  6
Continuous
 62
              30
100
AcDbVertex
100
AcDb2dVertex
 10
924.51228635307234
 20
-1123.4313957819691
 30
0.0
  0
VERTEX
  5
225
100
AcDbEntity
  8
0
370
               0
390
0
  6
Continuous
 62
              30
100
AcDbVertex
100
AcDb2dVertex
 10
925.99776843483869
 20
-1123.2955731176885
 30
0.0
  0
VERTEX
  5
226
100
AcDbEntity
  8
0
370
               0
390
0
  6
Continuous
 62
              30
100
AcDbVertex
100
AcDb2dVertex
 10
927.37807029310579
 20
-1122.9507534220706
 30
0.0
  0
VERTEX
  5
227
100
AcDbEntity
  8
0
370
               0
390
0
  6
Continuous
 62
              30
100
AcDbVertex
100
AcDb2dVertex
 10
928.5664624857227
 20
-1122.4186029847488
 30
0.0
  0
SEQEND
  5
228
100
AcDbEntity
  8
0
370
               0
390
0
  6
Continuous
 62
              30
  0
POLYLINE
  5
22A
100
AcDbEntity
  8
0
370
               0
390
0
  6
Continuous
 62
              30
100
AcDb2dPolyline
 66
               1
 10
0.0
 20
0.0
 30
0.0
 75
               5
  0
VERTEX
  5
22B
100
AcDbEntity
  8
0
370
               0
390
0
  6
Continuous
 62
              30
100
AcDbVertex
100
AcDb2dVertex
 10
758.86083500095128
 20
-1024.4496295660238
 30
0.0
  0
VERTEX
  5
22C
100
AcDbEntity
  8
0
370
               0
390
0
  6
Continuous
 62
              30
100
AcDbVertex
100
AcDb2dVertex
 10
759.78264647585593
 20
-1023.7635853560873
 30
0.0
  0
VERTEX
  5
22D
100
AcDbEntity
  8
0
370
               0
390
0
  6
Continuous
 62
              30
100
AcDbVertex
100
AcDb2dVertex
 10
760.37995642789383
 20
-1022.966754054341
 30
0.0
  0
VERTEX
  5
22E
100
AcDbEntity
  8
0
370
               0
390
0
  6
Continuous
 62
              30
100
AcDbVertex
100
AcDb2dVertex
 10
760.61523367602649
 20
-1022.109203502014
 30
0.0
  0
VERTEX
  5
22F
100
AcDbEntity
  8
0
370
               0
390
0
  6
Continuous
 62
              30
100
AcDbVertex
100
AcDb2dVertex
 10
760.47369488546474
 20
-1021.2448167541593
 30
0.0
  0
VERTEX
  5
230
100
AcDbEntity
  8
0
370
               0
390
0
  6
Continuous
 62
              30
100
AcDbVertex
100
AcDb2dVertex
 10
759.96423345896255
 20
-1020.4279064091361
 30
0.0
  0
VERTEX
  5
231
100
AcDbEntity
  8
0
370
               0
390
0
  6
Continuous
 62
              30
100
AcDbVertex
100
AcDb2dVertex
 10
759.11886073161486
 20
-1019.7098019483092
 30
0.0
  0
VERTEX
  5
232
100
AcDbEntity
  8
0
370
               0
390
0
  6
Continuous
 62
              30
100
AcDbVertex
100
AcDb2dVertex
 10
757.99069458094482
 20
-1019.1356245159554
 30
0.0
  0
VERTEX
  5
233
100
AcDbEntity
  8
0
370
               0
390
0
  6
Continuous
 62
              30
100
AcDbVertex
100
AcDb2dVertex
 10
756.65062183530381
 20
-1018.7414517918264
 30
0.0
  0
VERTEX
  5
234
100
AcDbEntity
  8
0
370
               0
390
0
  6
Continuous
 62
              30
100
AcDbVertex
100
AcDb2dVertex
 10
755.18284419374322
 20
-1018.5520510978449
 30
0.0
  0
VERTEX
  5
235
100
AcDbEntity
  8
0
370
               0
390
0
  6
Continuous
 62
              30
100
AcDbVertex
100
AcDb2dVertex
 10
753.67958752359073
 20
-1018.5793231761811
 30
0.0
  0
VERTEX
  5
236
100
AcDbEntity
  8
0
370
               0
390
0
  6
Continuous
 62
              30
100
AcDbVertex
100
AcDb2dVertex
 10
752.23530697002343
 20
-1018.8215544218533
 30
0.0
  0
VERTEX
  5
237
100
AcDbEntity
  8
0
370
               0
390
0
  6
Continuous
 62
              30
100
AcDbVertex
100
AcDb2dVertex
 10
750.94075199191457
 20
-1019.2635245548317
 30
0.0
  0
VERTEX
  5
238
100
AcDbEntity
  8
0
370
               0
390
0
  6
Continuous
 62
              30
100
AcDbVertex
100
AcDb2dVertex
 10
749.87726423957793
 20
-1019.8774629662089
 30
0.0
  0
VERTEX
  5
239
100
AcDbEntity
  8
0
370
               0
390
0
  6
Continuous
 62
              30
100
AcDbVertex
100
AcDb2dVertex
 10
749.11166655972829
 20
-1020.6247936476907
 30
0.0
  0
VERTEX
  5
23A
100
AcDbEntity
  8
0
370
               0
390
0
  6
Continuous
 62
              30
100
AcDbVertex
100
AcDb2dVertex
 10
748.6920642702612
 20
-1021.458559064069
 30
0.0
  0
VERTEX
  5
23B
100
AcDbEntity
  8
0
370
               0
390
0
  6
Continuous
 62
              30
100
AcDbVertex
100
AcDb2dVertex
 10
748.64482252621383
 20
-1022.326370667859
 30
0.0
  0
VERTEX
  5
23C
100
AcDbEntity
  8
0
370
               0
390
0
  6
Continuous
 62
              30
100
AcDbVertex
100
AcDb2dVertex
 10
748.97290970010681
 20
-1023.1737006644057
 30
0.0
  0
VERTEX
  5
23D
100
AcDbEntity
  8
0
370
               0
390
0
  6
Continuous
 62
              30
100
AcDbVertex
100
AcDb2dVertex
 10
749.655710868185
 20
-1023.9473081937649
 30
0.0
  0
VERTEX
  5
23E
100
AcDbEntity
  8
0
370
               0
390
0
  6
Continuous
 62
              30
100
AcDbVertex
100
AcDb2dVertex
 10
750.65032312189032
 20
-1024.5985846497374
 30
0.0
  0
VERTEX
  5
23F
100
AcDbEntity
  8
0
370
               0
390
0
  6
Continuous
 62
              30
100
AcDbVertex
100
AcDb2dVertex
 10
751.89425131539519
 20
-1025.0866079373675
 30
0.0
  0
VERTEX
  5
240
100
AcDbEntity
  8
0
370
               0
390
0
  6
Continuous
 62
              30
100
AcDbVertex
100
AcDb2dVertex
 10
753.30933486545291
 20
-1025.3807137586689
 30
0.0
  0
VERTEX
  5
241
100
AcDbEntity
  8
0
370
               0
390
0
  6
Continuous
 62
              30
100
AcDbVertex
100
AcDb2dVertex
 10
754.80665886830093
 20
-1025.4624223632436
 30
0.0
  0
VERTEX
  5
242
100
AcDbEntity
  8
0
370
               0
390
0
  6
Continuous
 62
              30
100
AcDbVertex
100
AcDb2dVertex
 10
756.29214095006773
 20
-1025.3265996989635
 30
0.0
  0
VERTEX
  5
243
100
AcDbEntity
  8
0
370
               0
390
0
  6
Continuous
 62
              30
100
AcDbVertex
100
AcDb2dVertex
 10
757.67244280833438
 20
-1024.9817800033452
 30
0.0
  0
VERTEX
  5
244
100
AcDbEntity
  8
0
370
               0
390
0
  6
Continuous
 62
              30
100
AcDbVertex
100
AcDb2dVertex
 10
758.86083500095128
 20
-1024.4496295660238
 30
0.0
  0
SEQEND
  5
245
100
AcDbEntity
  8
0
370
               0
390
0
  6
Continuous
 62
              30
  0
POLYLINE
  5
247
100
AcDbEntity
  8
0
370
               0
390
0
  6
Continuous
 62
              30
100
AcDb2dPolyline
 66
               1
 10
0.0
 20
0.0
 30
0.0
 75
               5
  0
VERTEX
  5
248
100
AcDbEntity
  8
0
370
               0
390
0
  6
Continuous
 62
              30
100
AcDbVertex
100
AcDb2dVertex
 10
804.11566899689069
 20
-1050.5746891443505
 30
0.0
  0
VERTEX
  5
249
100
AcDbEntity
  8
0
370
               0
390
0
  6
Continuous
 62
              30
100
AcDbVertex
100
AcDb2dVertex
 10
805.32609397213855
 20
-1049.7283900982789
 30
0.0
  0
VERTEX
  5
24A
100
AcDbEntity
  8
0
370
               0
390
0
  6
Continuous
 62
              30
100
AcDbVertex
100
AcDb2dVertex
 10
806.2372042208417
 20
-1048.7651429232837
 30
0.0
  0
VERTEX
  5
24B
100
AcDbEntity
  8
0
370
               0
390
0
  6
Continuous
 62
              30
100
AcDbVertex
100
AcDb2dVertex
 10
806.81606984473683
 20
-1047.7197618819851
 30
0.0
  0
VERTEX
  5
24C
100
AcDbEntity
  8
0
370
               0
390
0
  6
Continuous
 62
              30
100
AcDbVertex
100
AcDb2dVertex
 10
807.04176913195624
 20
-1046.6300297689299
 30
0.0
  0
VERTEX
  5
24D
100
AcDbEntity
  8
0
370
               0
390
0
  6
Continuous
 62
              30
100
AcDbVertex
100
AcDb2dVertex
 10
806.90614472220705
 20
-1045.5353323419527
 30
0.0
  0
VERTEX
  5
24E
100
AcDbEntity
  8
0
370
               0
390
0
  6
Continuous
 62
              30
100
AcDbVertex
100
AcDb2dVertex
 10
806.41409843502288
 20
-1044.4752348182706
 30
0.0
  0
VERTEX
  5
24F
100
AcDbEntity
  8
0
370
               0
390
0
  6
Continuous
 62
              30
100
AcDbVertex
100
AcDb2dVertex
 10
805.58341410523644
 20
-1043.4880518844475
 30
0.0
  0
VERTEX
  5
250
100
AcDbEntity
  8
0
370
               0
390
0
  6
Continuous
 62
              30
100
AcDbVertex
100
AcDb2dVertex
 10
804.4441148288538
 20
-1042.6094629037907
 30
0.0
  0
VERTEX
  5
251
100
AcDbEntity
  8
0
370
               0
390
0
  6
Continuous
 62
              30
100
AcDbVertex
100
AcDb2dVertex
 10
803.03737785013845
 20
-1041.8712223712032
 30
0.0
  0
VERTEX
  5
252
100
AcDbEntity
  8
0
370
               0
390
0
  6
Continuous
 62
              30
100
AcDbVertex
100
AcDb2dVertex
 10
801.41404630871875
 20
-1041.3000122229996
 30
0.0
  0
VERTEX
  5
253
100
AcDbEntity
  8
0
370
               0
390
0
  6
Continuous
 62
              30
100
AcDbVertex
100
AcDb2dVertex
 10
799.63279163605011
 20
-1040.9164774822093
 30
0.0
  0
VERTEX
  5
254
100
AcDbEntity
  8
0
370
               0
390
0
  6
Continuous
 62
              30
100
AcDbVertex
100
AcDb2dVertex
 10
797.75799301701727
 20
-1040.7344800936544
 30
0.0
  0
VERTEX
  5
255
100
AcDbEntity
  8
0
370
               0
390
0
  6
Continuous
 62
              30
100
AcDbVertex
100
AcDb2dVertex
 10
795.8574105584521
 20
-1040.7605979171472
 30
0.0
  0
VERTEX
  5
256
100
AcDbEntity
  8
0
370
               0
390
0
  6
Continuous
 62
              30
100
AcDbVertex
100
AcDb2dVertex
 10
793.99973626232577
 20
-1040.9938869864968
 30
0.0
  0
VERTEX
  5
257
100
AcDbEntity
  8
0
370
               0
390
0
  6
Continuous
 62
              30
100
AcDbVertex
100
AcDb2dVertex
 10
792.25211131782453
 20
-1041.4259156269086
 30
0.0
  0
VERTEX
  5
258
100
AcDbEntity
  8
0
370
               0
390
0
  6
Continuous
 62
              30
100
AcDbVertex
100
AcDb2dVertex
 10
790.67769944383417
 20
-1042.0410691976781
 30
0.0
  0
VERTEX
  5
259
100
AcDbEntity
  8
0
370
               0
390
0
  6
Continuous
 62
              30
100
AcDbVertex
100
AcDb2dVertex
 10
789.33340398757127
 20
-1042.8171144459911
 30
0.0
  0
VERTEX
  5
25A
100
AcDbEntity
  8
0
370
               0
390
0
  6
Continuous
 62
              30
100
AcDbVertex
100
AcDb2dVertex
 10
788.26781128935227
 20
-1043.7260030746074
 30
0.0
  0
VERTEX
  5
25B
100
AcDbEntity
  8
0
370
               0
390
0
  6
Continuous
 62
              30
100
AcDbVertex
100
AcDb2dVertex
 10
787.51943464566648
 20
-1044.7348854804022
 30
0.0
  0
VERTEX
  5
25C
100
AcDbEntity
  8
0
370
               0
390
0
  6
Continuous
 62
              30
100
AcDbVertex
100
AcDb2dVertex
 10
787.11532233829212
 20
-1045.8072980246129
 30
0.0
  0
VERTEX
  5
25D
100
AcDbEntity
  8
0
370
               0
390
0
  6
Continuous
 62
              30
100
AcDbVertex
100
AcDb2dVertex
 10
787.07008003892224
 20
-1046.9044809237482
 30
0.0
  0
VERTEX
  5
25E
100
AcDbEntity
  8
0
370
               0
390
0
  6
Continuous
 62
              30
100
AcDbVertex
100
AcDb2dVertex
 10
787.38534292213444
 20
-1047.9867791291508
 30
0.0
  0
VERTEX
  5
25F
100
AcDbEntity
  8
0
370
               0
390
0
  6
Continuous
 62
              30
100
AcDbVertex
100
AcDb2dVertex
 10
788.04971656591897
 20
-1049.0150755637774
 30
0.0
  0
VERTEX
  5
260
100
AcDbEntity
  8
0
370
               0
390
0
  6
Continuous
 62
              30
100
AcDbVertex
100
AcDb2dVertex
 10
789.03918877578144
 20
-1049.9522049152797
 30
0.0
  0
VERTEX
  5
261
100
AcDbEntity
  8
0
370
               0
390
0
  6
Continuous
 62
              30
100
AcDbVertex
100
AcDb2dVertex
 10
790.31799744801265
 20
-1050.7642968872287
 30
0.0
  0
VERTEX
  5
262
100
AcDbEntity
  8
0
370
               0
390
0
  6
Continuous
 62
              30
100
AcDbVertex
100
AcDb2dVertex
 10
791.83992310529447
 20
-1051.4220003598721
 30
0.0
  0
VERTEX
  5
263
100
AcDbEntity
  8
0
370
               0
390
0
  6
Continuous
 62
              30
100
AcDbVertex
100
AcDb2dVertex
 10
793.54995938903403
 20
-1051.9015442160799
 30
0.0
  0
VERTEX
  5
264
100
AcDbEntity
  8
0
370
               0
390
0
  6
Continuous
 62
              30
100
AcDbVertex
100
AcDb2dVertex
 10
795.38630113248109
 20
-1052.1855964914485
 30
0.0
  0
VERTEX
  5
265
100
AcDbEntity
  8
0
370
               0
390
0
  6
Continuous
 62
              30
100
AcDbVertex
100
AcDb2dVertex
 10
797.28257816048608
 20
-1052.2638907966557
 30
0.0
  0
VERTEX
  5
266
100
AcDbEntity
  8
0
370
               0
390
0
  6
Continuous
 62
              30
100
AcDbVertex
100
AcDb2dVertex
 10
799.17025408055497
 20
-1052.1335973715172
 30
0.0
  0
VERTEX
  5
267
100
AcDbEntity
  8
0
370
               0
390
0
  6
Continuous
 62
              30
100
AcDbVertex
100
AcDb2dVertex
 10
800.98110336664467
 20
-1051.799425359894
 30
0.0
  0
VERTEX
  5
268
100
AcDbEntity
  8
0
370
               0
390
0
  6
Continuous
 62
              30
100
AcDbVertex
100
AcDb2dVertex
 10
802.64967720743425
 20
-1051.2734526089625
 30
0.0
  0
VERTEX
  5
269
100
AcDbEntity
  8
0
370
               0
390
0
  6
Continuous
 62
              30
100
AcDbVertex
100
AcDb2dVertex
 10
804.11566899689069
 20
-1050.5746891443505
 30
0.0
  0
SEQEND
  5
26A
100
AcDbEntity
  8
0
370
               0
390
0
  6
Continuous
 62
              30
  0
POLYLINE
  5
26C
100
AcDbEntity
  8
0
370
               0
390
0
  6
Continuous
 62
              30
100
AcDb2dPolyline
 66
               1
 10
0.0
 20
0.0
 30
0.0
 75
               5
  0
VERTEX
  5
26D
100
AcDbEntity
  8
0
370
               0
390
0
  6
Continuous
 62
              30
100
AcDbVertex
100
AcDb2dVertex
 10
888.96848273927617
 20
-1099.559175853713
 30
0.0
  0
VERTEX
  5
26E
100
AcDbEntity
  8
0
370
               0
390
0
  6
Continuous
 62
              30
100
AcDbVertex
100
AcDb2dVertex
 10
890.17890771452403
 20
-1098.7128768076414
 30
0.0
  0
VERTEX
  5
26F
100
AcDbEntity
  8
0
370
               0
390
0
  6
Continuous
 62
              30
100
AcDbVertex
100
AcDb2dVertex
 10
891.09001796322718
 20
-1097.7496296326462
 30
0.0
  0
VERTEX
  5
270
100
AcDbEntity
  8
0
370
               0
390
0
  6
Continuous
 62
              30
100
AcDbVertex
100
AcDb2dVertex
 10
891.66888358712231
 20
-1096.704248591348
 30
0.0
  0
VERTEX
  5
271
100
AcDbEntity
  8
0
370
               0
390
0
  6
Continuous
 62
              30
100
AcDbVertex
100
AcDb2dVertex
 10
891.89458287434172
 20
-1095.6145164782924
 30
0.0
  0
VERTEX
  5
272
100
AcDbEntity
  8
0
370
               0
390
0
  6
Continuous
 62
              30
100
AcDbVertex
100
AcDb2dVertex
 10
891.75895846459252
 20
-1094.5198190513152
 30
0.0
  0
VERTEX
  5
273
100
AcDbEntity
  8
0
370
               0
390
0
  6
Continuous
 62
              30
100
AcDbVertex
100
AcDb2dVertex
 10
891.26691217740836
 20
-1093.4597215276335
 30
0.0
  0
VERTEX
  5
274
100
AcDbEntity
  8
0
370
               0
390
0
  6
Continuous
 62
              30
100
AcDbVertex
100
AcDb2dVertex
 10
890.43622784762192
 20
-1092.47253859381
 30
0.0
  0
VERTEX
  5
275
100
AcDbEntity
  8
0
370
               0
390
0
  6
Continuous
 62
              30
100
AcDbVertex
100
AcDb2dVertex
 10
889.29692857123928
 20
-1091.5939496131534
 30
0.0
  0
VERTEX
  5
276
100
AcDbEntity
  8
0
370
               0
390
0
  6
Continuous
 62
              30
100
AcDbVertex
100
AcDb2dVertex
 10
887.89019159252393
 20
-1090.8557090805662
 30
0.0
  0
VERTEX
  5
277
100
AcDbEntity
  8
0
370
               0
390
0
  6
Continuous
 62
              30
100
AcDbVertex
100
AcDb2dVertex
 10
886.26686005110423
 20
-1090.2844989323621
 30
0.0
  0
VERTEX
  5
278
100
AcDbEntity
  8
0
370
               0
390
0
  6
Continuous
 62
              30
100
AcDbVertex
100
AcDb2dVertex
 10
884.48560537843559
 20
-1089.9009641915718
 30
0.0
  0
VERTEX
  5
279
100
AcDbEntity
  8
0
370
               0
390
0
  6
Continuous
 62
              30
100
AcDbVertex
100
AcDb2dVertex
 10
882.61080675940275
 20
-1089.7189668030169
 30
0.0
  0
VERTEX
  5
27A
100
AcDbEntity
  8
0
370
               0
390
0
  6
Continuous
 62
              30
100
AcDbVertex
100
AcDb2dVertex
 10
880.71022430083758
 20
-1089.7450846265097
 30
0.0
  0
VERTEX
  5
27B
100
AcDbEntity
  8
0
370
               0
390
0
  6
Continuous
 62
              30
100
AcDbVertex
100
AcDb2dVertex
 10
878.85255000471125
 20
-1089.9783736958593
 30
0.0
  0
VERTEX
  5
27C
100
AcDbEntity
  8
0
370
               0
390
0
  6
Continuous
 62
              30
100
AcDbVertex
100
AcDb2dVertex
 10
877.10492506021001
 20
-1090.4104023362711
 30
0.0
  0
VERTEX
  5
27D
100
AcDbEntity
  8
0
370
               0
390
0
  6
Continuous
 62
              30
100
AcDbVertex
100
AcDb2dVertex
 10
875.53051318621965
 20
-1091.0255559070411
 30
0.0
  0
VERTEX
  5
27E
100
AcDbEntity
  8
0
370
               0
390
0
  6
Continuous
 62
              30
100
AcDbVertex
100
AcDb2dVertex
 10
874.18621772995675
 20
-1091.8016011553541
 30
0.0
  0
VERTEX
  5
27F
100
AcDbEntity
  8
0
370
               0
390
0
  6
Continuous
 62
              30
100
AcDbVertex
100
AcDb2dVertex
 10
873.12062503173775
 20
-1092.7104897839702
 30
0.0
  0
VERTEX
  5
280
100
AcDbEntity
  8
0
370
               0
390
0
  6
Continuous
 62
              30
100
AcDbVertex
100
AcDb2dVertex
 10
872.37224838805196
 20
-1093.7193721897652
 30
0.0
  0
VERTEX
  5
281
100
AcDbEntity
  8
0
370
               0
390
0
  6
Continuous
 62
              30
100
AcDbVertex
100
AcDb2dVertex
 10
871.9681360806776
 20
-1094.7917847339759
 30
0.0
  0
VERTEX
  5
282
100
AcDbEntity
  8
0
370
               0
390
0
  6
Continuous
 62
              30
100
AcDbVertex
100
AcDb2dVertex
 10
871.92289378130818
 20
-1095.888967633111
 30
0.0
  0
VERTEX
  5
283
100
AcDbEntity
  8
0
370
               0
390
0
  6
Continuous
 62
              30
100
AcDbVertex
100
AcDb2dVertex
 10
872.23815666451992
 20
-1096.9712658385133
 30
0.0
  0
VERTEX
  5
284
100
AcDbEntity
  8
0
370
               0
390
0
  6
Continuous
 62
              30
100
AcDbVertex
100
AcDb2dVertex
 10
872.90253030830445
 20
-1097.9995622731399
 30
0.0
  0
VERTEX
  5
285
100
AcDbEntity
  8
0
370
               0
390
0
  6
Continuous
 62
              30
100
AcDbVertex
100
AcDb2dVertex
 10
873.89200251816692
 20
-1098.9366916246427
 30
0.0
  0
VERTEX
  5
286
100
AcDbEntity
  8
0
370
               0
390
0
  6
Continuous
 62
              30
100
AcDbVertex
100
AcDb2dVertex
 10
875.17081119039813
 20
-1099.7487835965912
 30
0.0
  0
VERTEX
  5
287
100
AcDbEntity
  8
0
370
               0
390
0
  6
Continuous
 62
              30
100
AcDbVertex
100
AcDb2dVertex
 10
876.69273684767995
 20
-1100.406487069235
 30
0.0
  0
VERTEX
  5
288
100
AcDbEntity
  8
0
370
               0
390
0
  6
Continuous
 62
              30
100
AcDbVertex
100
AcDb2dVertex
 10
878.40277313141951
 20
-1100.8860309254424
 30
0.0
  0
VERTEX
  5
289
100
AcDbEntity
  8
0
370
               0
390
0
  6
Continuous
 62
              30
100
AcDbVertex
100
AcDb2dVertex
 10
880.23911487486703
 20
-1101.170083200811
 30
0.0
  0
VERTEX
  5
28A
100
AcDbEntity
  8
0
370
               0
390
0
  6
Continuous
 62
              30
100
AcDbVertex
100
AcDb2dVertex
 10
882.13539190287156
 20
-1101.2483775060182
 30
0.0
  0
VERTEX
  5
28B
100
AcDbEntity
  8
0
370
               0
390
0
  6
Continuous
 62
              30
100
AcDbVertex
100
AcDb2dVertex
 10
884.02306782294045
 20
-1101.11808408088
 30
0.0
  0
VERTEX
  5
28C
100
AcDbEntity
  8
0
370
               0
390
0
  6
Continuous
 62
              30
100
AcDbVertex
100
AcDb2dVertex
 10
885.83391710903015
 20
-1100.7839120692565
 30
0.0
  0
VERTEX
  5
28D
100
AcDbEntity
  8
0
370
               0
390
0
  6
Continuous
 62
              30
100
AcDbVertex
100
AcDb2dVertex
 10
887.50249094981973
 20
-1100.257939318325
 30
0.0
  0
VERTEX
  5
28E
100
AcDbEntity
  8
0
370
               0
390
0
  6
Continuous
 62
              30
100
AcDbVertex
100
AcDb2dVertex
 10
888.96848273927617
 20
-1099.559175853713
 30
0.0
  0
SEQEND
  5
28F
100
AcDbEntity
  8
0
370
               0
390
0
  6
Continuous
 62
              30
  0
POLYLINE
  5
291
100
AcDbEntity
  8
0
370
               0
390
0
  6
Continuous
 62
              30
100
AcDb2dPolyline
 66
               1
 10
0.0
 20
0.0
 30
0.0
 75
               5
  0
VERTEX
  5
292
100
AcDbEntity
  8
0
370
               0
390
0
  6
Continuous
 62
              30
100
AcDbVertex
100
AcDb2dVertex
 10
920.08118111148406
 20
-1118.7449655316414
 30
0.0
  0
VERTEX
  5
293
100
AcDbEntity
  8
0
370
               0
390
0
  6
Continuous
 62
              30
100
AcDbVertex
100
AcDb2dVertex
 10
921.26957330410096
 20
-1118.2128150943195
 30
0.0
  0
VERTEX
  5
294
100
AcDbEntity
  8
0
370
               0
390
0
  6
Continuous
 62
              30
100
AcDbVertex
100
AcDb2dVertex
 10
922.64987516236806
 20
-1117.8679953987016
 30
0.0
  0
VERTEX
  5
295
100
AcDbEntity
  8
0
370
               0
390
0
  6
Continuous
 62
              30
100
AcDbVertex
100
AcDb2dVertex
 10
924.13535724413487
 20
-1117.7321727344211
 30
0.0
  0
VERTEX
  5
296
100
AcDbEntity
  8
0
370
               0
390
0
  6
Continuous
 62
              30
100
AcDbVertex
100
AcDb2dVertex
 10
925.63268124698243
 20
-1117.813881338996
 30
0.0
  0
VERTEX
  5
297
100
AcDbEntity
  8
0
370
               0
390
0
  6
Continuous
 62
              30
100
AcDbVertex
100
AcDb2dVertex
 10
927.0477647970406
 20
-1118.1079871602974
 30
0.0
  0
VERTEX
  5
298
100
AcDbEntity
  8
0
370
               0
390
0
  6
Continuous
 62
              30
100
AcDbVertex
100
AcDb2dVertex
 10
928.29169299054547
 20
-1118.5960104479273
 30
0.0
  0
VERTEX
  5
299
100
AcDbEntity
  8
0
370
               0
390
0
  6
Continuous
 62
              30
100
AcDbVertex
100
AcDb2dVertex
 10
929.2863052442508
 20
-1119.2472869039
 30
0.0
  0
VERTEX
  5
29A
100
AcDbEntity
  8
0
370
               0
390
0
  6
Continuous
 62
              30
100
AcDbVertex
100
AcDb2dVertex
 10
929.96910641232898
 20
-1120.0208944332594
 30
0.0
  0
VERTEX
  5
29B
100
AcDbEntity
  8
0
370
               0
390
0
  6
Continuous
 62
              30
100
AcDbVertex
100
AcDb2dVertex
 10
930.22929673735962
 20
-1120.5817842581951
 30
0.0
  0
SEQEND
  5
29C
100
AcDbEntity
  8
0
370
               0
390
0
  6
Continuous
 62
              30
  0
ARC
  5
29E
100
AcDbEntity
  8
0
370
               0
390
0
  6
Continuous
 62
              30
100
AcDbCircle
 10
921.52527341632185
 20
-1121.7233468271061
 30
0.0
 40
3.3100087199380317
100
AcDbArc
 50
115.86680298098796
 51
159.82540461259373
  0
POLYLINE
  5
29F
100
AcDbEntity
  8
0
370
               0
390
0
  6
Continuous
 62
              30
100
AcDb2dPolyline
 66
               1
 10
0.0
 20
0.0
 30
0.0
 75
               5
  0
VERTEX
  5
2A0
100
AcDbEntity
  8
0
370
               0
390
0
  6
Continuous
 62
              30
100
AcDbVertex
100
AcDb2dVertex
 10
874.8263471155451
 20
-1092.6199059533146
 30
0.0
  0
VERTEX
  5
2A1
100
AcDbEntity
  8
0
370
               0
390
0
  6
Continuous
 62
              30
100
AcDbVertex
100
AcDb2dVertex
 10
876.29233890500154
 20
-1091.9211424887021
 30
0.0
  0
VERTEX
  5
2A2
100
AcDbEntity
  8
0
370
               0
390
0
  6
Continuous
 62
              30
100
AcDbVertex
100
AcDb2dVertex
 10
877.96091274579112
 20
-1091.3951697377709
 30
0.0
  0
VERTEX
  5
2A3
100
AcDbEntity
  8
0
370
               0
390
0
  6
Continuous
 62
              30
100
AcDbVertex
100
AcDb2dVertex
 10
879.77176203188083
 20
-1091.0609977261474
 30
0.0
  0
VERTEX
  5
2A4
100
AcDbEntity
  8
0
370
               0
390
0
  6
Continuous
 62
              30
100
AcDbVertex
100
AcDb2dVertex
 10
881.65943795194926
 20
-1090.9307043010092
 30
0.0
  0
VERTEX
  5
2A5
100
AcDbEntity
  8
0
370
               0
390
0
  6
Continuous
 62
              30
100
AcDbVertex
100
AcDb2dVertex
 10
883.55571497995425
 20
-1091.0089986062162
 30
0.0
  0
VERTEX
  5
2A6
100
AcDbEntity
  8
0
370
               0
390
0
  6
Continuous
 62
              30
100
AcDbVertex
100
AcDb2dVertex
 10
885.39205672340177
 20
-1091.2930508815853
 30
0.0
  0
VERTEX
  5
2A7
100
AcDbEntity
  8
0
370
               0
390
0
  6
Continuous
 62
              30
100
AcDbVertex
100
AcDb2dVertex
 10
887.10209300714132
 20
-1091.7725947377926
 30
0.0
  0
VERTEX
  5
2A8
100
AcDbEntity
  8
0
370
               0
390
0
  6
Continuous
 62
              30
100
AcDbVertex
100
AcDb2dVertex
 10
888.62401866442315
 20
-1092.4302982104364
 30
0.0
  0
VERTEX
  5
2A9
100
AcDbEntity
  8
0
370
               0
390
0
  6
Continuous
 62
              30
100
AcDbVertex
100
AcDb2dVertex
 10
889.90282733665435
 20
-1093.242390182385
 30
0.0
  0
VERTEX
  5
2AA
100
AcDbEntity
  8
0
370
               0
390
0
  6
Continuous
 62
              30
100
AcDbVertex
100
AcDb2dVertex
 10
890.89229954651682
 20
-1094.1795195338877
 30
0.0
  0
VERTEX
  5
2AB
100
AcDbEntity
  8
0
370
               0
390
0
  6
Continuous
 62
              30
100
AcDbVertex
100
AcDb2dVertex
 10
891.55667319030135
 20
-1095.2078159685141
 30
0.0
  0
VERTEX
  5
2AC
100
AcDbEntity
  8
0
370
               0
390
0
  6
Continuous
 62
              30
100
AcDbVertex
100
AcDb2dVertex
 10
891.84098743694176
 20
-1096.0895409035211
 30
0.0
  0
SEQEND
  5
2AD
100
AcDbEntity
  8
0
370
               0
390
0
  6
Continuous
 62
              30
  0
ARC
  5
2AF
100
AcDbEntity
  8
0
370
               0
390
0
  6
Continuous
 62
              30
100
AcDbCircle
 10
877.1011209553335
 20
-1097.4270755095324
 30
0.0
 40
5.318221052608922
100
AcDbArc
 50
115.32371914955158
 51
165.43368539090719
  0
POLYLINE
  5
2B0
100
AcDbEntity
  8
0
370
               0
390
0
  6
Continuous
 62
              30
100
AcDb2dPolyline
 66
               1
 10
0.0
 20
0.0
 30
0.0
 75
               5
  0
VERTEX
  5
2B1
100
AcDbEntity
  8
0
370
               0
390
0
  6
Continuous
 62
              30
100
AcDbVertex
100
AcDb2dVertex
 10
835.22836736909858
 20
-1069.7604788222786
 30
0.0
  0
VERTEX
  5
2B2
100
AcDbEntity
  8
0
370
               0
390
0
  6
Continuous
 62
              30
100
AcDbVertex
100
AcDb2dVertex
 10
836.41675956171548
 20
-1069.228328384957
 30
0.0
  0
VERTEX
  5
2B3
100
AcDbEntity
  8
0
370
               0
390
0
  6
Continuous
 62
              30
100
AcDbVertex
100
AcDb2dVertex
 10
837.79706141998258
 20
-1068.8835086893391
 30
0.0
  0
VERTEX
  5
2B4
100
AcDbEntity
  8
0
370
               0
390
0
  6
Continuous
 62
              30
100
AcDbVertex
100
AcDb2dVertex
 10
839.28254350174893
 20
-1068.7476860250586
 30
0.0
  0
VERTEX
  5
2B5
100
AcDbEntity
  8
0
370
               0
390
0
  6
Continuous
 62
              30
100
AcDbVertex
100
AcDb2dVertex
 10
840.77986750459695
 20
-1068.8293946296335
 30
0.0
  0
VERTEX
  5
2B6
100
AcDbEntity
  8
0
370
               0
390
0
  6
Continuous
 62
              30
100
AcDbVertex
100
AcDb2dVertex
 10
842.19495105465512
 20
-1069.1235004509349
 30
0.0
  0
VERTEX
  5
2B7
100
AcDbEntity
  8
0
370
               0
390
0
  6
Continuous
 62
              30
100
AcDbVertex
100
AcDb2dVertex
 10
843.43887924815954
 20
-1069.6115237385648
 30
0.0
  0
VERTEX
  5
2B8
100
AcDbEntity
  8
0
370
               0
390
0
  6
Continuous
 62
              30
100
AcDbVertex
100
AcDb2dVertex
 10
844.43349150186532
 20
-1070.2628001945372
 30
0.0
  0
VERTEX
  5
2B9
100
AcDbEntity
  8
0
370
               0
390
0
  6
Continuous
 62
              30
100
AcDbVertex
100
AcDb2dVertex
 10
845.11629266994305
 20
-1071.0364077238969
 30
0.0
  0
VERTEX
  5
2BA
100
AcDbEntity
  8
0
370
               0
390
0
  6
Continuous
 62
              30
100
AcDbVertex
100
AcDb2dVertex
 10
845.37648299497505
 20
-1071.5972975488357
 30
0.0
  0
SEQEND
  5
2BB
100
AcDbEntity
  8
0
370
               0
390
0
  6
Continuous
 62
              30
  0
ARC
  5
2BD
100
AcDbEntity
  8
0
370
               0
390
0
  6
Continuous
 62
              30
100
AcDbCircle
 10
836.67245967393455
 20
-1072.7388601177418
 30
0.0
 40
3.3100087199360106
100
AcDbArc
 50
115.86680298096992
 51
159.8254046126649
  0
POLYLINE
  5
2BE
100
AcDbEntity
  8
0
370
               0
390
0
  6
Continuous
 62
              30
100
AcDb2dPolyline
 66
               1
 10
0.0
 20
0.0
 30
0.0
 75
               5
  0
VERTEX
  5
2BF
100
AcDbEntity
  8
0
370
               0
390
0
  6
Continuous
 62
              30
100
AcDbVertex
100
AcDb2dVertex
 10
789.97353337315963
 20
-1043.6354192439521
 30
0.0
  0
VERTEX
  5
2C0
100
AcDbEntity
  8
0
370
               0
390
0
  6
Continuous
 62
              30
100
AcDbVertex
100
AcDb2dVertex
 10
791.43952516261606
 20
-1042.9366557793396
 30
0.0
  0
VERTEX
  5
2C1
100
AcDbEntity
  8
0
370
               0
390
0
  6
Continuous
 62
              30
100
AcDbVertex
100
AcDb2dVertex
 10
793.10809900340564
 20
-1042.4106830284081
 30
0.0
  0
VERTEX
  5
2C2
100
AcDbEntity
  8
0
370
               0
390
0
  6
Continuous
 62
              30
100
AcDbVertex
100
AcDb2dVertex
 10
794.91894828949535
 20
-1042.0765110167849
 30
0.0
  0
VERTEX
  5
2C3
100
AcDbEntity
  8
0
370
               0
390
0
  6
Continuous
 62
              30
100
AcDbVertex
100
AcDb2dVertex
 10
796.80662420956378
 20
-1041.9462175916465
 30
0.0
  0
VERTEX
  5
2C4
100
AcDbEntity
  8
0
370
               0
390
0
  6
Continuous
 62
              30
100
AcDbVertex
100
AcDb2dVertex
 10
798.70290123756877
 20
-1042.0245118968537
 30
0.0
  0
VERTEX
  5
2C5
100
AcDbEntity
  8
0
370
               0
390
0
  6
Continuous
 62
              30
100
AcDbVertex
100
AcDb2dVertex
 10
800.53924298101583
 20
-1042.3085641722228
 30
0.0
  0
VERTEX
  5
2C6
100
AcDbEntity
  8
0
370
               0
390
0
  6
Continuous
 62
              30
100
AcDbVertex
100
AcDb2dVertex
 10
802.24927926475584
 20
-1042.7881080284301
 30
0.0
  0
VERTEX
  5
2C7
100
AcDbEntity
  8
0
370
               0
390
0
  6
Continuous
 62
              30
100
AcDbVertex
100
AcDb2dVertex
 10
803.77120492203767
 20
-1043.4458115010739
 30
0.0
  0
VERTEX
  5
2C8
100
AcDbEntity
  8
0
370
               0
390
0
  6
Continuous
 62
              30
100
AcDbVertex
100
AcDb2dVertex
 10
805.05001359426842
 20
-1044.2579034730225
 30
0.0
  0
VERTEX
  5
2C9
100
AcDbEntity
  8
0
370
               0
390
0
  6
Continuous
 62
              30
100
AcDbVertex
100
AcDb2dVertex
 10
806.03948580413089
 20
-1045.195032824525
 30
0.0
  0
VERTEX
  5
2CA
100
AcDbEntity
  8
0
370
               0
390
0
  6
Continuous
 62
              30
100
AcDbVertex
100
AcDb2dVertex
 10
806.70385944791587
 20
-1046.2233292591513
 30
0.0
  0
VERTEX
  5
2CB
100
AcDbEntity
  8
0
370
               0
390
0
  6
Continuous
 62
              30
100
AcDbVertex
100
AcDb2dVertex
 10
806.98817369455446
 20
-1047.105054194149
 30
0.0
  0
SEQEND
  5
2CC
100
AcDbEntity
  8
0
370
               0
390
0
  6
Continuous
 62
              30
  0
ARC
  5
2CE
100
AcDbEntity
  8
0
370
               0
390
0
  6
Continuous
 62
              30
100
AcDbCircle
 10
792.24830721294893
 20
-1048.4425888001715
 30
0.0
 40
5.3182210526107498
100
AcDbArc
 50
115.32371914955311
 51
165.43368539080871
  0
POLYLINE
  5
2CF
100
AcDbEntity
  8
0
370
               0
390
0
  6
Continuous
 62
              30
100
AcDb2dPolyline
 66
               1
 10
0.0
 20
0.0
 30
0.0
 75
               5
  0
VERTEX
  5
2D0
100
AcDbEntity
  8
0
370
               0
390
0
  6
Continuous
 62
              30
100
AcDbVertex
100
AcDb2dVertex
 10
750.3755536267131
 20
-1020.7759921129159
 30
0.0
  0
VERTEX
  5
2D1
100
AcDbEntity
  8
0
370
               0
390
0
  6
Continuous
 62
              30
100
AcDbVertex
100
AcDb2dVertex
 10
751.56394581933
 20
-1020.2438416755945
 30
0.0
  0
VERTEX
  5
2D2
100
AcDbEntity
  8
0
370
               0
390
0
  6
Continuous
 62
              30
100
AcDbVertex
100
AcDb2dVertex
 10
752.94424767759665
 20
-1019.8990219799762
 30
0.0
  0
VERTEX
  5
2D3
100
AcDbEntity
  8
0
370
               0
390
0
  6
Continuous
 62
              30
100
AcDbVertex
100
AcDb2dVertex
 10
754.42972975936345
 20
-1019.7631993156961
 30
0.0
  0
VERTEX
  5
2D4
100
AcDbEntity
  8
0
370
               0
390
0
  6
Continuous
 62
              30
100
AcDbVertex
100
AcDb2dVertex
 10
755.92705376221147
 20
-1019.844907920271
 30
0.0
  0
VERTEX
  5
2D5
100
AcDbEntity
  8
0
370
               0
390
0
  6
Continuous
 62
              30
100
AcDbVertex
100
AcDb2dVertex
 10
757.34213731226964
 20
-1020.1390137415722
 30
0.0
  0
VERTEX
  5
2D6
100
AcDbEntity
  8
0
370
               0
390
0
  6
Continuous
 62
              30
100
AcDbVertex
100
AcDb2dVertex
 10
758.58606550577406
 20
-1020.6270370292023
 30
0.0
  0
VERTEX
  5
2D7
100
AcDbEntity
  8
0
370
               0
390
0
  6
Continuous
 62
              30
100
AcDbVertex
100
AcDb2dVertex
 10
759.58067775947984
 20
-1021.2783134851747
 30
0.0
  0
VERTEX
  5
2D8
100
AcDbEntity
  8
0
370
               0
390
0
  6
Continuous
 62
              30
100
AcDbVertex
100
AcDb2dVertex
 10
760.26347892755757
 20
-1022.0519210145339
 30
0.0
  0
VERTEX
  5
2D9
100
AcDbEntity
  8
0
370
               0
390
0
  6
Continuous
 62
              30
100
AcDbVertex
100
AcDb2dVertex
 10
760.52366925258866
 20
-1022.6128108394701
 30
0.0
  0
SEQEND
  5
2DA
100
AcDbEntity
  8
0
370
               0
390
0
  6
Continuous
 62
              30
  0
ARC
  5
2DC
100
AcDbEntity
  8
0
370
               0
390
0
  6
Continuous
 62
              30
100
AcDbCircle
 10
751.81964593154999
 20
-1023.7543734083802
 30
0.0
 40
3.3100087199372261
100
AcDbArc
 50
115.86680298097723
 51
159.82540461259569
  0
LINE
  5
2DD
100
AcDbEntity
  8
0
370
               0
390
0
  6
Continuous
 62
              30
100
AcDbLine
 10
911.99085411238775
 20
-730.3348352463654
 30
0.0
 11
895.52492577838439
 21
-723.67895780899426
 31
0.0
  0
POLYLINE
  5
2DE
100
AcDbEntity
  8
0
370
               0
390
0
  6
Continuous
 62
              30
100
AcDb2dPolyline
 66
               1
 10
0.0
 20
0.0
 30
0.0
 75
               5
  0
VERTEX
  5
2DF
100
AcDbEntity
  8
0
370
               0
390
0
  6
Continuous
 62
              30
100
AcDbVertex
100
AcDb2dVertex
 10
914.49169435014483
 20
-695.67880853467568
 30
0.0
  0
VERTEX
  5
2E0
100
AcDbEntity
  8
0
370
               0
390
0
  6
Continuous
 62
              30
100
AcDbVertex
100
AcDb2dVertex
 10
913.61185938685321
 20
-695.42535868548066
 30
0.0
  0
VERTEX
  5
2E1
100
AcDbEntity
  8
0
370
               0
390
0
  6
Continuous
 62
              30
100
AcDbVertex
100
AcDb2dVertex
 10
912.27410380203582
 20
-695.37016920056294
 30
0.0
  0
VERTEX
  5
2E2
100
AcDbEntity
  8
0
370
               0
390
0
  6
Continuous
 62
              30
100
AcDbVertex
100
AcDb2dVertex
 10
910.83803559651824
 20
-695.6661393036652
 30
0.0
  0
VERTEX
  5
2E3
100
AcDbEntity
  8
0
370
               0
390
0
  6
Continuous
 62
              30
100
AcDbVertex
100
AcDb2dVertex
 10
909.33040600382355
 20
-696.30775563176394
 30
0.0
  0
VERTEX
  5
2E4
100
AcDbEntity
  8
0
370
               0
390
0
  6
Continuous
 62
              30
100
AcDbVertex
100
AcDb2dVertex
 10
907.77929931071913
 20
-697.28306608665116
 30
0.0
  0
VERTEX
  5
2E5
100
AcDbEntity
  8
0
370
               0
390
0
  6
Continuous
 62
              30
100
AcDbVertex
100
AcDb2dVertex
 10
906.21360970009118
 20
-698.57390247991043
 30
0.0
  0
VERTEX
  5
2E6
100
AcDbEntity
  8
0
370
               0
390
0
  6
Continuous
 62
              30
100
AcDbVertex
100
AcDb2dVertex
 10
904.66250300698675
 20
-700.15621897189158
 30
0.0
  0
VERTEX
  5
2E7
100
AcDbEntity
  8
0
370
               0
390
0
  6
Continuous
 62
              30
100
AcDbVertex
100
AcDb2dVertex
 10
903.15487341429207
 20
-702.00054000020737
 30
0.0
  0
VERTEX
  5
2E8
100
AcDbEntity
  8
0
370
               0
390
0
  6
Continuous
 62
              30
100
AcDbVertex
100
AcDb2dVertex
 10
901.71880520877403
 20
-704.07250935368893
 30
0.0
  0
VERTEX
  5
2E9
100
AcDbEntity
  8
0
370
               0
390
0
  6
Continuous
 62
              30
100
AcDbVertex
100
AcDb2dVertex
 10
900.38104962395664
 20
-706.33353016359797
 30
0.0
  0
VERTEX
  5
2EA
100
AcDbEntity
  8
0
370
               0
390
0
  6
Continuous
 62
              30
100
AcDbVertex
100
AcDb2dVertex
 10
899.16652651525374
 20
-708.74148389026141
 30
0.0
  0
VERTEX
  5
2EB
100
AcDbEntity
  8
0
370
               0
390
0
  6
Continuous
 62
              30
100
AcDbVertex
100
AcDb2dVertex
 10
898.09786015021473
 20
-711.25151491177485
 30
0.0
  0
VERTEX
  5
2EC
100
AcDbEntity
  8
0
370
               0
390
0
  6
Continuous
 62
              30
100
AcDbVertex
100
AcDb2dVertex
 10
897.19495776122585
 20
-713.81686609936878
 30
0.0
  0
VERTEX
  5
2ED
100
AcDbEntity
  8
0
370
               0
390
0
  6
Continuous
 62
              30
100
AcDbVertex
100
AcDb2dVertex
 10
896.47463871143691
 20
-716.38974981424872
 30
0.0
  0
VERTEX
  5
2EE
100
AcDbEntity
  8
0
370
               0
390
0
  6
Continuous
 62
              30
100
AcDbVertex
100
AcDb2dVertex
 10
895.95032118184963
 20
-718.9222381008899
 30
0.0
  0
VERTEX
  5
2EF
100
AcDbEntity
  8
0
370
               0
390
0
  6
Continuous
 62
              30
100
AcDbVertex
100
AcDb2dVertex
 10
895.63177221599335
 20
-721.36715549416385
 30
0.0
  0
VERTEX
  5
2F0
100
AcDbEntity
  8
0
370
               0
390
0
  6
Continuous
 62
              30
100
AcDbVertex
100
AcDb2dVertex
 10
895.52492577838439
 20
-723.67895780899426
 30
0.0
  0
SEQEND
  5
2F1
100
AcDbEntity
  8
0
370
               0
390
0
  6
Continuous
 62
              30
  0
SPLINE
  5
2F3
100
AcDbEntity
  8
0
370
               0
390
0
  6
Continuous
 62
              30
100
AcDbSpline
210
0.0
220
0.0
230
1.0
 70
               8
 71
               2
 72
              19
 73
              16
 74
               0
 42
0.000001
 43
0.000001
 40
0.0
 40
0.0
 40
0.0
 40
1.0
 40
2.0
 40
3.0
 40
4.0
 40
5.0
 40
6.0
 40
7.0
 40
8.0
 40
8.0
 40
9.0
 40
10.0
 40
11.0
 40
12.0
 40
13.0
 40
13.0
 40
13.0
 10
940.71145583485531
 20
-713.754784788282
 30
0.0
 10
940.7758202764885
 20
-710.92748940189631
 30
0.0
 10
939.30358582274948
 20
-707.39268666582348
 30
0.0
 10
938.09774287982918
 20
-705.77206300804346
 30
0.0
 10
936.53785256839728
 20
-704.5723146819978
 30
0.0
 10
934.69157573030907
 20
-703.86688996322209
 30
0.0
 10
932.65719664748804
 20
-703.67306781224897
 30
0.0
 10
930.53159594452791
 20
-703.95600878600908
 30
0.0
 10
927.84468575133633
 20
-704.83619274877356
 30
0.0
 10
926.35115497362131
 20
-705.71399377960915
 30
0.0
 10
924.46290917862279
 20
-706.82297106960459
 30
0.0
 10
920.23673157559369
 20
-710.52361622579883
 30
0.0
 10
916.02982963380464
 20
-716.26057698489058
 30
0.0
 10
913.10873969106478
 20
-722.72208863690821
 30
0.0
 10
912.00815437933716
 20
-728.17242351153527
 30
0.0
 10
911.9908541123873
 20
-730.33483524636586
 30
0.0
  0
ELLIPSE
  5
2F4
100
AcDbEntity
  8
0
370
               0
390
0
  6
Continuous
 62
              30
100
AcDbEllipse
 10
927.34647239624701
 20
-776.99500070784438
 30
0.0
 11
4.1131729201316602
 21
6.7019128873675982
 31
0.0
210
0.0
220
0.0
230
1.0
 40
0.5768266811604669
 41
0.0
 42
6.2831853071795862
  0
ELLIPSE
  5
2F5
100
AcDbEntity
  8
0
370
               0
390
0
  6
Continuous
 62
              30
100
AcDbEllipse
 10
927.34647239624871
 20
-714.93789900453373
 30
0.0
 11
4.1131729201316602
 21
6.7019128873674845
 31
0.0
210
0.0
220
0.0
230
1.0
 40
0.5768266811604815
 41
0.0
 42
6.2831853071795862
  0
LINE
  5
2F6
100
AcDbEntity
  8
0
370
               0
390
0
  6
Continuous
 62
              30
100
AcDbLine
 10
940.71145583485531
 20
-762.74723350142722
 30
0.0
 11
940.71145583485531
 21
-713.754784788282
 31
0.0
  0
SPLINE
  5
2F7
100
AcDbEntity
  8
0
370
               0
390
0
  6
Continuous
 62
              30
100
AcDbSpline
210
0.0
220
0.0
230
1.0
 70
               8
 71
               2
 72
              21
 73
              18
 74
               0
 42
0.000001
 43
0.000001
 40
0.0
 40
0.0
 40
0.0
 40
1.0
 40
2.0
 40
3.0
 40
4.0
 40
5.0
 40
5.0
 40
6.0
 40
7.0
 40
8.0
 40
9.0
 40
10.0
 40
10.0
 40
11.0
 40
12.0
 40
13.0
 40
14.0
 40
14.0
 40
14.0
 10
911.9908541123873
 20
-779.32728395951108
 30
0.0
 10
911.98168462131844
 20
-780.81499948327064
 30
0.0
 10
912.56583151282211
 20
-784.07912054555527
 30
0.0
 10
913.86609354854636
 20
-786.38811699950656
 30
0.0
 10
915.47501385092073
 20
-788.20045142782055
 30
0.0
 10
918.00701443379239
 20
-789.2400492635511
 30
0.0
 10
919.17100454300453
 20
-789.32517307138687
 30
0.0
 10
920.44494509413744
 20
-789.41318642933857
 30
0.0
 10
922.62313083622803
 20
-788.99675783120074
 30
0.0
 10
925.53717805338874
 20
-787.95409953768512
 30
0.0
 10
929.32083787871215
 20
-785.44248287691562
 30
0.0
 10
932.36427262130564
 20
-782.47978384415364
 30
0.0
 10
933.53130540423854
 20
-781.03514784234494
 30
0.0
 10
934.74069736838419
 20
-779.54010859878963
 30
0.0
 10
937.20597899681025
 20
-775.67960235326564
 30
0.0
 10
939.32582449409983
 20
-770.88435563947951
 30
0.0
 10
940.68497836204915
 20
-765.6091131846847
 30
0.0
 10
940.71145583485486
 20
-762.74723350142722
 30
0.0
  0
LINE
  5
2F8
100
AcDbEntity
  8
0
370
               0
390
0
  6
Continuous
 62
              30
100
AcDbLine
 10
911.99085411238775
 20
-730.3348352463654
 30
0.0
 11
911.99085411238775
 21
-779.32728395951062
 31
0.0
  0
POLYLINE
  5
2F9
100
AcDbEntity
  8
0
370
               0
390
0
  6
Continuous
 62
              30
100
AcDb2dPolyline
 66
               1
 10
0.0
 20
0.0
 30
0.0
 75
               5
  0
VERTEX
  5
2FA
100
AcDbEntity
  8
0
370
               0
390
0
  6
Continuous
 62
              30
100
AcDbVertex
100
AcDb2dVertex
 10
922.27590781122399
 20
-748.89362448446036
 30
0.0
  0
VERTEX
  5
2FB
100
AcDbEntity
  8
0
370
               0
390
0
  6
Continuous
 62
              30
100
AcDbVertex
100
AcDb2dVertex
 10
922.40156689241485
 20
-747.85836452329295
 30
0.0
  0
VERTEX
  5
2FC
100
AcDbEntity
  8
0
370
               0
390
0
  6
Continuous
 62
              30
100
AcDbVertex
100
AcDb2dVertex
 10
922.76737877517735
 20
-746.77000906587182
 30
0.0
  0
VERTEX
  5
2FD
100
AcDbEntity
  8
0
370
               0
390
0
  6
Continuous
 62
              30
100
AcDbVertex
100
AcDb2dVertex
 10
923.34083946839019
 20
-745.72526327075821
 30
0.0
  0
VERTEX
  5
2FE
100
AcDbEntity
  8
0
370
               0
390
0
  6
Continuous
 62
              30
100
AcDbVertex
100
AcDb2dVertex
 10
924.07099447286964
 20
-744.81695738663939
 30
0.0
  0
VERTEX
  5
2FF
100
AcDbEntity
  8
0
370
               0
390
0
  6
Continuous
 62
              30
100
AcDbVertex
100
AcDb2dVertex
 10
924.89296631223533
 20
-744.12579837735393
 30
0.0
  0
VERTEX
  5
300
100
AcDbEntity
  8
0
370
               0
390
0
  6
Continuous
 62
              30
100
AcDbVertex
100
AcDb2dVertex
 10
925.73371918139583
 20
-743.7131987539783
 30
0.0
  0
VERTEX
  5
301
100
AcDbEntity
  8
0
370
               0
390
0
  6
Continuous
 62
              30
100
AcDbVertex
100
AcDb2dVertex
 10
926.51854849834308
 20
-743.61581980371284
 30
0.0
  0
VERTEX
  5
302
100
AcDbEntity
  8
0
370
               0
390
0
  6
Continuous
 62
              30
100
AcDbVertex
100
AcDb2dVertex
 10
927.17771873409947
 20
-743.8423140736295
 30
0.0
  0
VERTEX
  5
303
100
AcDbEntity
  8
0
370
               0
390
0
  6
Continuous
 62
              30
100
AcDbVertex
100
AcDb2dVertex
 10
927.65265972049701
 20
-744.37255655389208
 30
0.0
  0
VERTEX
  5
304
100
AcDbEntity
  8
0
370
               0
390
0
  6
Continuous
 62
              30
100
AcDbVertex
100
AcDb2dVertex
 10
927.90117086665032
 20
-745.15943287319851
 30
0.0
  0
VERTEX
  5
305
100
AcDbEntity
  8
0
370
               0
390
0
  6
Continuous
 62
              30
100
AcDbVertex
100
AcDb2dVertex
 10
927.90117086665032
 20
-746.13302561742876
 30
0.0
  0
VERTEX
  5
306
100
AcDbEntity
  8
0
370
               0
390
0
  6
Continuous
 62
              30
100
AcDbVertex
100
AcDb2dVertex
 10
927.65265972049701
 20
-747.20682679871652
 30
0.0
  0
VERTEX
  5
307
100
AcDbEntity
  8
0
370
               0
390
0
  6
Continuous
 62
              30
100
AcDbVertex
100
AcDb2dVertex
 10
927.17771873409947
 20
-748.28542446980555
 30
0.0
  0
VERTEX
  5
308
100
AcDbEntity
  8
0
370
               0
390
0
  6
Continuous
 62
              30
100
AcDbVertex
100
AcDb2dVertex
 10
926.51854849834308
 20
-749.27298049427145
 30
0.0
  0
VERTEX
  5
309
100
AcDbEntity
  8
0
370
               0
390
0
  6
Continuous
 62
              30
100
AcDbVertex
100
AcDb2dVertex
 10
925.73371918139583
 20
-750.08174618552266
 30
0.0
  0
VERTEX
  5
30A
100
AcDbEntity
  8
0
370
               0
390
0
  6
Continuous
 62
              30
100
AcDbVertex
100
AcDb2dVertex
 10
924.89296631223533
 20
-750.63985916268075
 30
0.0
  0
VERTEX
  5
30B
100
AcDbEntity
  8
0
370
               0
390
0
  6
Continuous
 62
              30
100
AcDbVertex
100
AcDb2dVertex
 10
924.07099447286964
 20
-750.89772863848793
 30
0.0
  0
VERTEX
  5
30C
100
AcDbEntity
  8
0
370
               0
390
0
  6
Continuous
 62
              30
100
AcDbVertex
100
AcDb2dVertex
 10
923.34083946839019
 20
-750.83244177837651
 30
0.0
  0
VERTEX
  5
30D
100
AcDbEntity
  8
0
370
               0
390
0
  6
Continuous
 62
              30
100
AcDbVertex
100
AcDb2dVertex
 10
922.76737877517735
 20
-750.4497996063742
 30
0.0
  0
VERTEX
  5
30E
100
AcDbEntity
  8
0
370
               0
390
0
  6
Continuous
 62
              30
100
AcDbVertex
100
AcDb2dVertex
 10
922.40156689241485
 20
-749.7838015586608
 30
0.0
  0
VERTEX
  5
30F
100
AcDbEntity
  8
0
370
               0
390
0
  6
Continuous
 62
              30
100
AcDbVertex
100
AcDb2dVertex
 10
922.27590781122399
 20
-748.89362448446036
 30
0.0
  0
SEQEND
  5
310
100
AcDbEntity
  8
0
370
               0
390
0
  6
Continuous
 62
              30
  0
LINE
  5
312
100
AcDbEntity
  8
0
370
               0
390
0
  6
Continuous
 62
              30
100
AcDbLine
 10
895.52492577838257
 20
-772.67140652213857
 30
0.0
 11
911.99085411238775
 21
-779.32728395951062
 31
0.0
  0
LINE
  5
313
100
AcDbEntity
  8
0
370
               0
390
0
  6
Continuous
 62
              30
100
AcDbLine
 10
895.52492577838439
 20
-723.67895780899426
 30
0.0
 11
895.52492577838257
 21
-772.67140652213857
 31
0.0
  0
ARC
  5
314
100
AcDbEntity
  8
0
370
               0
390
0
  6
Continuous
 62
              30
100
AcDbCircle
 10
923.24813828951665
 20
-712.2523978182976
 30
0.0
 40
1.7546958834515789
100
AcDbArc
 50
352.0819781503223
 51
42.364667696075806
  0
POLYLINE
  5
315
100
AcDbEntity
  8
0
370
               0
390
0
  6
Continuous
 62
              30
100
AcDb2dPolyline
 66
               1
 10
0.0
 20
0.0
 30
0.0
 75
               5
  0
VERTEX
  5
316
100
AcDbEntity
  8
0
370
               0
390
0
  6
Continuous
 62
              30
100
AcDbVertex
100
AcDb2dVertex
 10
921.74199595463551
 20
-717.42006876862888
 30
0.0
  0
VERTEX
  5
317
100
AcDbEntity
  8
0
370
               0
390
0
  6
Continuous
 62
              30
100
AcDbVertex
100
AcDb2dVertex
 10
922.17217708953467
 20
-717.43124941338965
 30
0.0
  0
VERTEX
  5
318
100
AcDbEntity
  8
0
370
               0
390
0
  6
Continuous
 62
              30
100
AcDbVertex
100
AcDb2dVertex
 10
922.81280821171458
 20
-717.13402926808612
 30
0.0
  0
VERTEX
  5
319
100
AcDbEntity
  8
0
370
               0
390
0
  6
Continuous
 62
              30
100
AcDbVertex
100
AcDb2dVertex
 10
923.47140411325745
 20
-716.51335875742188
 30
0.0
  0
VERTEX
  5
31A
100
AcDbEntity
  8
0
370
               0
390
0
  6
Continuous
 62
              30
100
AcDbVertex
100
AcDb2dVertex
 10
924.07659570906253
 20
-715.63649716192231
 30
0.0
  0
VERTEX
  5
31B
100
AcDbEntity
  8
0
370
               0
390
0
  6
Continuous
 62
              30
100
AcDbVertex
100
AcDb2dVertex
 10
924.56280109920954
 20
-714.59846604136919
 30
0.0
  0
VERTEX
  5
31C
100
AcDbEntity
  8
0
370
               0
390
0
  6
Continuous
 62
              30
100
AcDbVertex
100
AcDb2dVertex
 10
924.87733238542114
 20
-713.51175217438686
 30
0.0
  0
VERTEX
  5
31D
100
AcDbEntity
  8
0
370
               0
390
0
  6
Continuous
 62
              30
100
AcDbVertex
100
AcDb2dVertex
 10
924.98610522238187
 20
-712.4941178705667
 30
0.0
  0
SEQEND
  5
31E
100
AcDbEntity
  8
0
370
               0
390
0
  6
Continuous
 62
              30
  0
POLYLINE
  5
320
100
AcDbEntity
  8
0
370
               0
390
0
  6
Continuous
 62
              30
100
AcDb2dPolyline
 66
               1
 10
0.0
 20
0.0
 30
0.0
 75
               5
  0
VERTEX
  5
321
100
AcDbEntity
  8
0
370
               0
390
0
  6
Continuous
 62
              30
100
AcDbVertex
100
AcDb2dVertex
 10
895.52492577838257
 20
-772.67140652213857
 30
0.0
  0
VERTEX
  5
322
100
AcDbEntity
  8
0
370
               0
390
0
  6
Continuous
 62
              30
100
AcDbVertex
100
AcDb2dVertex
 10
895.63177221599199
 20
-774.80702925549986
 30
0.0
  0
VERTEX
  5
323
100
AcDbEntity
  8
0
370
               0
390
0
  6
Continuous
 62
              30
100
AcDbVertex
100
AcDb2dVertex
 10
895.95032118184827
 20
-776.72668979662194
 30
0.0
  0
VERTEX
  5
324
100
AcDbEntity
  8
0
370
               0
390
0
  6
Continuous
 62
              30
100
AcDbVertex
100
AcDb2dVertex
 10
896.47463871143555
 20
-778.39462850176096
 30
0.0
  0
VERTEX
  5
325
100
AcDbEntity
  8
0
370
               0
390
0
  6
Continuous
 62
              30
100
AcDbVertex
100
AcDb2dVertex
 10
897.19495776122449
 20
-779.7797748287021
 30
0.0
  0
VERTEX
  5
326
100
AcDbEntity
  8
0
370
               0
390
0
  6
Continuous
 62
              30
100
AcDbVertex
100
AcDb2dVertex
 10
898.09786015021382
 20
-780.85632612217114
 30
0.0
  0
VERTEX
  5
327
100
AcDbEntity
  8
0
370
               0
390
0
  6
Continuous
 62
              30
100
AcDbVertex
100
AcDb2dVertex
 10
899.16652651525283
 20
-781.60422826848389
 30
0.0
  0
VERTEX
  5
328
100
AcDbEntity
  8
0
370
               0
390
0
  6
Continuous
 62
              30
100
AcDbVertex
100
AcDb2dVertex
 10
899.50121466066503
 20
-781.75609941654693
 30
0.0
  0
SEQEND
  5
329
100
AcDbEntity
  8
0
370
               0
390
0
  6
Continuous
 62
              30
  0
ARC
  5
32B
100
AcDbEntity
  8
0
370
               0
390
0
  6
Continuous
 62
              30
100
AcDbCircle
 10
923.24813828953165
 20
-774.30949952160518
 30
0.0
 40
1.7546958834353521
100
AcDbArc
 50
352.08197815014358
 51
42.364667697134394
  0
POLYLINE
  5
32C
100
AcDbEntity
  8
0
370
               0
390
0
  6
Continuous
 62
              30
100
AcDb2dPolyline
 66
               1
 10
0.0
 20
0.0
 30
0.0
 75
               5
  0
VERTEX
  5
32D
100
AcDbEntity
  8
0
370
               0
390
0
  6
Continuous
 62
              30
100
AcDbVertex
100
AcDb2dVertex
 10
921.74199595460777
 20
-779.47717047193191
 30
0.0
  0
VERTEX
  5
32E
100
AcDbEntity
  8
0
370
               0
390
0
  6
Continuous
 62
              30
100
AcDbVertex
100
AcDb2dVertex
 10
922.17217708953285
 20
-779.48835111670041
 30
0.0
  0
VERTEX
  5
32F
100
AcDbEntity
  8
0
370
               0
390
0
  6
Continuous
 62
              30
100
AcDbVertex
100
AcDb2dVertex
 10
922.81280821171322
 20
-779.19113097139689
 30
0.0
  0
VERTEX
  5
330
100
AcDbEntity
  8
0
370
               0
390
0
  6
Continuous
 62
              30
100
AcDbVertex
100
AcDb2dVertex
 10
923.47140411325609
 20
-778.57046046073265
 30
0.0
  0
VERTEX
  5
331
100
AcDbEntity
  8
0
370
               0
390
0
  6
Continuous
 62
              30
100
AcDbVertex
100
AcDb2dVertex
 10
924.07659570906117
 20
-777.69359886523262
 30
0.0
  0
VERTEX
  5
332
100
AcDbEntity
  8
0
370
               0
390
0
  6
Continuous
 62
              30
100
AcDbVertex
100
AcDb2dVertex
 10
924.56280109920772
 20
-776.65556774467996
 30
0.0
  0
VERTEX
  5
333
100
AcDbEntity
  8
0
370
               0
390
0
  6
Continuous
 62
              30
100
AcDbVertex
100
AcDb2dVertex
 10
924.87733238541978
 20
-775.56885387769762
 30
0.0
  0
VERTEX
  5
334
100
AcDbEntity
  8
0
370
               0
390
0
  6
Continuous
 62
              30
100
AcDbVertex
100
AcDb2dVertex
 10
924.98610522238005
 20
-774.55121957387746
 30
0.0
  0
SEQEND
  5
335
100
AcDbEntity
  8
0
370
               0
390
0
  6
Continuous
 62
              30
  0
POLYLINE
  5
337
100
AcDbEntity
  8
0
370
               0
390
0
  6
Continuous
 62
              30
100
AcDb2dPolyline
 66
               1
 10
0.0
 20
0.0
 30
0.0
 75
               5
  0
VERTEX
  5
338
100
AcDbEntity
  8
0
370
               0
390
0
  6
Continuous
 62
              30
100
AcDbVertex
100
AcDb2dVertex
 10
745.86323449891643
 20
-633.46089730482026
 30
0.0
  0
VERTEX
  5
339
100
AcDbEntity
  8
0
370
               0
390
0
  6
Continuous
 62
              30
100
AcDbVertex
100
AcDb2dVertex
 10
745.97008093652539
 20
-631.14909498998895
 30
0.0
  0
VERTEX
  5
33A
100
AcDbEntity
  8
0
370
               0
390
0
  6
Continuous
 62
              30
100
AcDbVertex
100
AcDb2dVertex
 10
746.28862990238213
 20
-628.704177596715
 30
0.0
  0
VERTEX
  5
33B
100
AcDbEntity
  8
0
370
               0
390
0
  6
Continuous
 62
              30
100
AcDbVertex
100
AcDb2dVertex
 10
746.81294743196941
 20
-626.17168931007427
 30
0.0
  0
VERTEX
  5
33C
100
AcDbEntity
  8
0
370
               0
390
0
  6
Continuous
 62
              30
100
AcDbVertex
100
AcDb2dVertex
 10
747.53326648175789
 20
-623.59880559519411
 30
0.0
  0
VERTEX
  5
33D
100
AcDbEntity
  8
0
370
               0
390
0
  6
Continuous
 62
              30
100
AcDbVertex
100
AcDb2dVertex
 10
748.43616887074722
 20
-621.0334544076004
 30
0.0
  0
VERTEX
  5
33E
100
AcDbEntity
  8
0
370
               0
390
0
  6
Continuous
 62
              30
100
AcDbVertex
100
AcDb2dVertex
 10
749.50483523578623
 20
-618.52342338608696
 30
0.0
  0
VERTEX
  5
33F
100
AcDbEntity
  8
0
370
               0
390
0
  6
Continuous
 62
              30
100
AcDbVertex
100
AcDb2dVertex
 10
750.71935834448914
 20
-616.11546965942352
 30
0.0
  0
VERTEX
  5
340
100
AcDbEntity
  8
0
370
               0
390
0
  6
Continuous
 62
              30
100
AcDbVertex
100
AcDb2dVertex
 10
752.05711392930652
 20
-613.85444884951471
 30
0.0
  0
VERTEX
  5
341
100
AcDbEntity
  8
0
370
               0
390
0
  6
Continuous
 62
              30
100
AcDbVertex
100
AcDb2dVertex
 10
753.49318213482411
 20
-611.78247949603292
 30
0.0
  0
VERTEX
  5
342
100
AcDbEntity
  8
0
370
               0
390
0
  6
Continuous
 62
              30
100
AcDbVertex
100
AcDb2dVertex
 10
755.00081172751879
 20
-609.93815846771713
 30
0.0
  0
VERTEX
  5
343
100
AcDbEntity
  8
0
370
               0
390
0
  6
Continuous
 62
              30
100
AcDbVertex
100
AcDb2dVertex
 10
756.55191842062322
 20
-608.35584197573576
 30
0.0
  0
VERTEX
  5
344
100
AcDbEntity
  8
0
370
               0
390
0
  6
Continuous
 62
              30
100
AcDbVertex
100
AcDb2dVertex
 10
758.11760803125117
 20
-607.06500558247649
 30
0.0
  0
VERTEX
  5
345
100
AcDbEntity
  8
0
370
               0
390
0
  6
Continuous
 62
              30
100
AcDbVertex
100
AcDb2dVertex
 10
759.6687147243556
 20
-606.08969512758927
 30
0.0
  0
VERTEX
  5
346
100
AcDbEntity
  8
0
370
               0
390
0
  6
Continuous
 62
              30
100
AcDbVertex
100
AcDb2dVertex
 10
761.17634431705028
 20
-605.44807879949076
 30
0.0
  0
VERTEX
  5
347
100
AcDbEntity
  8
0
370
               0
390
0
  6
Continuous
 62
              30
100
AcDbVertex
100
AcDb2dVertex
 10
762.61241252256832
 20
-605.1521086963885
 30
0.0
  0
VERTEX
  5
348
100
AcDbEntity
  8
0
370
               0
390
0
  6
Continuous
 62
              30
100
AcDbVertex
100
AcDb2dVertex
 10
763.95016810738571
 20
-605.20729818130621
 30
0.0
  0
VERTEX
  5
349
100
AcDbEntity
  8
0
370
               0
390
0
  6
Continuous
 62
              30
100
AcDbVertex
100
AcDb2dVertex
 10
765.16469121608861
 20
-605.61261917856291
 30
0.0
  0
VERTEX
  5
34A
100
AcDbEntity
  8
0
370
               0
390
0
  6
Continuous
 62
              30
100
AcDbVertex
100
AcDb2dVertex
 10
766.23335758112762
 20
-606.36052132487589
 30
0.0
  0
VERTEX
  5
34B
100
AcDbEntity
  8
0
370
               0
390
0
  6
Continuous
 62
              30
100
AcDbVertex
100
AcDb2dVertex
 10
767.1362599701165
 20
-607.43707261834493
 30
0.0
  0
VERTEX
  5
34C
100
AcDbEntity
  8
0
370
               0
390
0
  6
Continuous
 62
              30
100
AcDbVertex
100
AcDb2dVertex
 10
767.85657901990544
 20
-608.82221894528561
 30
0.0
  0
VERTEX
  5
34D
100
AcDbEntity
  8
0
370
               0
390
0
  6
Continuous
 62
              30
100
AcDbVertex
100
AcDb2dVertex
 10
768.38089654949272
 20
-610.49015765042509
 30
0.0
  0
VERTEX
  5
34E
100
AcDbEntity
  8
0
370
               0
390
0
  6
Continuous
 62
              30
100
AcDbVertex
100
AcDb2dVertex
 10
768.699445515349
 20
-612.4098181915474
 30
0.0
  0
VERTEX
  5
34F
100
AcDbEntity
  8
0
370
               0
390
0
  6
Continuous
 62
              30
100
AcDbVertex
100
AcDb2dVertex
 10
768.80629195295842
 20
-614.54544092490892
 30
0.0
  0
SEQEND
  5
350
100
AcDbEntity
  8
0
370
               0
390
0
  6
Continuous
 62
              30
  0
LINE
  5
352
100
AcDbEntity
  8
0
370
               0
390
0
  6
Continuous
 62
              30
100
AcDbLine
 10
723.61976189648703
 20
-624.46961394562118
 30
0.0
 11
745.86323449891643
 21
-633.46089730482026
 31
0.0
  0
SPLINE
  5
353
100
AcDbEntity
  8
0
370
               0
390
0
  6
Continuous
 62
              30
100
AcDbSpline
210
0.0
220
0.0
230
1.0
 70
               8
 71
               2
 72
              16
 73
              13
 74
               0
 42
0.000001
 43
0.000001
 40
0.0
 40
0.0
 40
0.0
 40
1.0
 40
2.0
 40
3.0
 40
4.0
 40
5.0
 40
5.0
 40
6.0
 40
7.0
 40
8.0
 40
9.0
 40
10.0
 40
10.0
 40
10.0
 10
747.36276159053114
 20
-598.40011858389266
 30
0.0
 10
746.16803551205385
 20
-597.93022149882336
 30
0.0
 10
743.95193873496601
 20
-597.83384951022344
 30
0.0
 10
740.87116861491904
 20
-598.34073004746801
 30
0.0
 10
736.72286992707495
 20
-600.47235163733512
 30
0.0
 10
733.31846961584006
 20
-603.32919801425714
 30
0.0
 10
732.00177442845597
 20
-604.78240641981984
 30
0.0
 10
730.61327878782458
 20
-606.31202090445709
 30
0.0
 10
727.7523903375145
 20
-610.37983213895291
 30
0.0
 10
725.25917461059589
 20
-615.57225944038692
 30
0.0
 10
724.15517530654915
 20
-619.591566172488
 30
0.0
 10
723.63035134793517
 20
-622.66669219178084
 30
0.0
 10
723.61976189648703
 20
-624.46961394562072
 30
0.0
  0
ELLIPSE
  5
354
100
AcDbEntity
  8
0
370
               0
390
0
  6
Continuous
 62
              30
100
AcDbEllipse
 10
755.97209784635982
 20
-649.62284607139827
 30
0.0
 11
3.8574509073889658
 21
9.2980605007401209
 31
0.0
210
0.0
220
0.0
230
1.0
 40
0.4693136298927224
 41
0.0
 42
6.2831853071795862
  0
LINE
  5
355
100
AcDbEntity
  8
0
370
               0
390
0
  6
Continuous
 62
              30
100
AcDbLine
 10
768.80629195295842
 20
-614.54544092490892
 30
0.0
 11
768.80629195295978
 21
-663.53788963805482
 31
0.0
  0
POLYLINE
  5
356
100
AcDbEntity
  8
0
370
               0
390
0
  6
Continuous
 62
              30
100
AcDb2dPolyline
 66
               1
 10
0.0
 20
0.0
 30
0.0
 75
               5
  0
VERTEX
  5
357
100
AcDbEntity
  8
0
370
               0
390
0
  6
Continuous
 62
              30
100
AcDbVertex
100
AcDb2dVertex
 10
768.80629195295978
 20
-663.53788963805482
 30
0.0
  0
VERTEX
  5
358
100
AcDbEntity
  8
0
370
               0
390
0
  6
Continuous
 62
              30
100
AcDbVertex
100
AcDb2dVertex
 10
768.69944551535036
 20
-665.84969195288568
 30
0.0
  0
VERTEX
  5
359
100
AcDbEntity
  8
0
370
               0
390
0
  6
Continuous
 62
              30
100
AcDbVertex
100
AcDb2dVertex
 10
768.38089654949408
 20
-668.29460934615963
 30
0.0
  0
VERTEX
  5
35A
100
AcDbEntity
  8
0
370
               0
390
0
  6
Continuous
 62
              30
100
AcDbVertex
100
AcDb2dVertex
 10
767.8565790199068
 20
-670.82709763280036
 30
0.0
  0
VERTEX
  5
35B
100
AcDbEntity
  8
0
370
               0
390
0
  6
Continuous
 62
              30
100
AcDbVertex
100
AcDb2dVertex
 10
767.13625997011786
 20
-673.3999813476803
 30
0.0
  0
VERTEX
  5
35C
100
AcDbEntity
  8
0
370
               0
390
0
  6
Continuous
 62
              30
100
AcDbVertex
100
AcDb2dVertex
 10
766.23335758112898
 20
-675.96533253527377
 30
0.0
  0
VERTEX
  5
35D
100
AcDbEntity
  8
0
370
               0
390
0
  6
Continuous
 62
              30
100
AcDbVertex
100
AcDb2dVertex
 10
765.16469121608998
 20
-678.47536355678722
 30
0.0
  0
VERTEX
  5
35E
100
AcDbEntity
  8
0
370
               0
390
0
  6
Continuous
 62
              30
100
AcDbVertex
100
AcDb2dVertex
 10
763.95016810738662
 20
-680.88331728345065
 30
0.0
  0
VERTEX
  5
35F
100
AcDbEntity
  8
0
370
               0
390
0
  6
Continuous
 62
              30
100
AcDbVertex
100
AcDb2dVertex
 10
762.61241252256923
 20
-683.14433809335924
 30
0.0
  0
VERTEX
  5
360
100
AcDbEntity
  8
0
370
               0
390
0
  6
Continuous
 62
              30
100
AcDbVertex
100
AcDb2dVertex
 10
761.17634431705119
 20
-685.2163074468408
 30
0.0
  0
VERTEX
  5
361
100
AcDbEntity
  8
0
370
               0
390
0
  6
Continuous
 62
              30
100
AcDbVertex
100
AcDb2dVertex
 10
759.66871472435605
 20
-687.06062847515614
 30
0.0
  0
VERTEX
  5
362
100
AcDbEntity
  8
0
370
               0
390
0
  6
Continuous
 62
              30
100
AcDbVertex
100
AcDb2dVertex
 10
758.11760803125162
 20
-688.64294496713774
 30
0.0
  0
VERTEX
  5
363
100
AcDbEntity
  8
0
370
               0
390
0
  6
Continuous
 62
              30
100
AcDbVertex
100
AcDb2dVertex
 10
756.55191842062322
 20
-689.93378136039701
 30
0.0
  0
VERTEX
  5
364
100
AcDbEntity
  8
0
370
               0
390
0
  6
Continuous
 62
              30
100
AcDbVertex
100
AcDb2dVertex
 10
755.00081172751879
 20
-690.90909181528377
 30
0.0
  0
VERTEX
  5
365
100
AcDbEntity
  8
0
370
               0
390
0
  6
Continuous
 62
              30
100
AcDbVertex
100
AcDb2dVertex
 10
753.49318213482411
 20
-691.55070814338205
 30
0.0
  0
VERTEX
  5
366
100
AcDbEntity
  8
0
370
               0
390
0
  6
Continuous
 62
              30
100
AcDbVertex
100
AcDb2dVertex
 10
752.05711392930607
 20
-691.84667824648432
 30
0.0
  0
VERTEX
  5
367
100
AcDbEntity
  8
0
370
               0
390
0
  6
Continuous
 62
              30
100
AcDbVertex
100
AcDb2dVertex
 10
750.71935834448868
 20
-691.7914887615666
 30
0.0
  0
VERTEX
  5
368
100
AcDbEntity
  8
0
370
               0
390
0
  6
Continuous
 62
              30
100
AcDbVertex
100
AcDb2dVertex
 10
749.50483523578532
 20
-691.3861677643099
 30
0.0
  0
VERTEX
  5
369
100
AcDbEntity
  8
0
370
               0
390
0
  6
Continuous
 62
              30
100
AcDbVertex
100
AcDb2dVertex
 10
748.43616887074631
 20
-690.63826561799669
 30
0.0
  0
VERTEX
  5
36A
100
AcDbEntity
  8
0
370
               0
390
0
  6
Continuous
 62
              30
100
AcDbVertex
100
AcDb2dVertex
 10
747.53326648175744
 20
-689.56171432452766
 30
0.0
  0
VERTEX
  5
36B
100
AcDbEntity
  8
0
370
               0
390
0
  6
Continuous
 62
              30
100
AcDbVertex
100
AcDb2dVertex
 10
746.8129474319685
 20
-688.17656799758697
 30
0.0
  0
VERTEX
  5
36C
100
AcDbEntity
  8
0
370
               0
390
0
  6
Continuous
 62
              30
100
AcDbVertex
100
AcDb2dVertex
 10
746.28862990238122
 20
-686.50862929244795
 30
0.0
  0
VERTEX
  5
36D
100
AcDbEntity
  8
0
370
               0
390
0
  6
Continuous
 62
              30
100
AcDbVertex
100
AcDb2dVertex
 10
745.97008093652494
 20
-684.58896875132541
 30
0.0
  0
VERTEX
  5
36E
100
AcDbEntity
  8
0
370
               0
390
0
  6
Continuous
 62
              30
100
AcDbVertex
100
AcDb2dVertex
 10
745.86323449891643
 20
-682.45334601796594
 30
0.0
  0
SEQEND
  5
36F
100
AcDbEntity
  8
0
370
               0
390
0
  6
Continuous
 62
              30
  0
LINE
  5
371
100
AcDbEntity
  8
0
370
               0
390
0
  6
Continuous
 62
              30
100
AcDbLine
 10
745.86323449891643
 20
-682.45334601796594
 30
0.0
 11
745.86323449891643
 21
-633.46089730482026
 31
0.0
  0
POLYLINE
  5
372
100
AcDbEntity
  8
0
370
               0
390
0
  6
Continuous
 62
              30
100
AcDb2dPolyline
 66
               1
 10
0.0
 20
0.0
 30
0.0
 75
               5
  0
VERTEX
  5
373
100
AcDbEntity
  8
0
370
               0
390
0
  6
Continuous
 62
              30
100
AcDbVertex
100
AcDb2dVertex
 10
755.32724569870834
 20
-619.12594505302036
 30
0.0
  0
VERTEX
  5
374
100
AcDbEntity
  8
0
370
               0
390
0
  6
Continuous
 62
              30
100
AcDbVertex
100
AcDb2dVertex
 10
755.43601853566815
 20
-618.10831074920793
 30
0.0
  0
VERTEX
  5
375
100
AcDbEntity
  8
0
370
               0
390
0
  6
Continuous
 62
              30
100
AcDbVertex
100
AcDb2dVertex
 10
755.75054982187748
 20
-617.02159688223446
 30
0.0
  0
VERTEX
  5
376
100
AcDbEntity
  8
0
370
               0
390
0
  6
Continuous
 62
              30
100
AcDbVertex
100
AcDb2dVertex
 10
756.23675521202085
 20
-615.98356576168999
 30
0.0
  0
VERTEX
  5
377
100
AcDbEntity
  8
0
370
               0
390
0
  6
Continuous
 62
              30
100
AcDbVertex
100
AcDb2dVertex
 10
756.84194680782139
 20
-615.10670416619746
 30
0.0
  0
VERTEX
  5
378
100
AcDbEntity
  8
0
370
               0
390
0
  6
Continuous
 62
              30
100
AcDbVertex
100
AcDb2dVertex
 10
757.50054270935971
 20
-614.48603365553799
 30
0.0
  0
VERTEX
  5
379
100
AcDbEntity
  8
0
370
               0
390
0
  6
Continuous
 62
              30
100
AcDbVertex
100
AcDb2dVertex
 10
758.14117383153553
 20
-614.1888135102372
 30
0.0
  0
VERTEX
  5
37A
100
AcDbEntity
  8
0
370
               0
390
0
  6
Continuous
 62
              30
100
AcDbVertex
100
AcDb2dVertex
 10
758.69441785184472
 20
-614.24725214488376
 30
0.0
  0
VERTEX
  5
37B
100
AcDbEntity
  8
0
370
               0
390
0
  6
Continuous
 62
              30
100
AcDbVertex
100
AcDb2dVertex
 10
759.10032219622144
 20
-614.6550168266449
 30
0.0
  0
VERTEX
  5
37C
100
AcDbEntity
  8
0
370
               0
390
0
  6
Continuous
 62
              30
100
AcDbVertex
100
AcDb2dVertex
 10
759.31490083069775
 20
-615.36791992513122
 30
0.0
  0
VERTEX
  5
37D
100
AcDbEntity
  8
0
370
               0
390
0
  6
Continuous
 62
              30
100
AcDbVertex
100
AcDb2dVertex
 10
759.31490083069775
 20
-616.30870732778999
 30
0.0
  0
VERTEX
  5
37E
100
AcDbEntity
  8
0
370
               0
390
0
  6
Continuous
 62
              30
100
AcDbVertex
100
AcDb2dVertex
 10
759.10032219622144
 20
-617.37543012172273
 30
0.0
  0
VERTEX
  5
37F
100
AcDbEntity
  8
0
370
               0
390
0
  6
Continuous
 62
              30
100
AcDbVertex
100
AcDb2dVertex
 10
758.69441785184472
 20
-618.45249234029711
 30
0.0
  0
VERTEX
  5
380
100
AcDbEntity
  8
0
370
               0
390
0
  6
Continuous
 62
              30
100
AcDbVertex
100
AcDb2dVertex
 10
758.14117383153553
 20
-619.42317757978844
 30
0.0
  0
VERTEX
  5
381
100
AcDbEntity
  8
0
370
               0
390
0
  6
Continuous
 62
              30
100
AcDbVertex
100
AcDb2dVertex
 10
757.50054270935971
 20
-620.18229703276461
 30
0.0
  0
VERTEX
  5
382
100
AcDbEntity
  8
0
370
               0
390
0
  6
Continuous
 62
              30
100
AcDbVertex
100
AcDb2dVertex
 10
756.84194680782139
 20
-620.64758832754364
 30
0.0
  0
VERTEX
  5
383
100
AcDbEntity
  8
0
370
               0
390
0
  6
Continuous
 62
              30
100
AcDbVertex
100
AcDb2dVertex
 10
756.23675521202085
 20
-620.76862993259783
 30
0.0
  0
VERTEX
  5
384
100
AcDbEntity
  8
0
370
               0
390
0
  6
Continuous
 62
              30
100
AcDbVertex
100
AcDb2dVertex
 10
755.75054982187748
 20
-620.53230511186553
 30
0.0
  0
VERTEX
  5
385
100
AcDbEntity
  8
0
370
               0
390
0
  6
Continuous
 62
              30
100
AcDbVertex
100
AcDb2dVertex
 10
755.43601853566815
 20
-619.96422332663064
 30
0.0
  0
VERTEX
  5
386
100
AcDbEntity
  8
0
370
               0
390
0
  6
Continuous
 62
              30
100
AcDbVertex
100
AcDb2dVertex
 10
755.32724569870834
 20
-619.12594505302036
 30
0.0
  0
SEQEND
  5
387
100
AcDbEntity
  8
0
370
               0
390
0
  6
Continuous
 62
              30
  0
POLYLINE
  5
389
100
AcDbEntity
  8
0
370
               0
390
0
  6
Continuous
 62
              30
100
AcDb2dPolyline
 66
               1
 10
0.0
 20
0.0
 30
0.0
 75
               5
  0
VERTEX
  5
38A
100
AcDbEntity
  8
0
370
               0
390
0
  6
Continuous
 62
              30
100
AcDbVertex
100
AcDb2dVertex
 10
755.32724569871016
 20
-681.18304675633863
 30
0.0
  0
VERTEX
  5
38B
100
AcDbEntity
  8
0
370
               0
390
0
  6
Continuous
 62
              30
100
AcDbVertex
100
AcDb2dVertex
 10
755.43601853566952
 20
-680.16541245252574
 30
0.0
  0
VERTEX
  5
38C
100
AcDbEntity
  8
0
370
               0
390
0
  6
Continuous
 62
              30
100
AcDbVertex
100
AcDb2dVertex
 10
755.7505498218793
 20
-679.0786985855525
 30
0.0
  0
VERTEX
  5
38D
100
AcDbEntity
  8
0
370
               0
390
0
  6
Continuous
 62
              30
100
AcDbVertex
100
AcDb2dVertex
 10
756.23675521202222
 20
-678.04066746500803
 30
0.0
  0
VERTEX
  5
38E
100
AcDbEntity
  8
0
370
               0
390
0
  6
Continuous
 62
              30
100
AcDbVertex
100
AcDb2dVertex
 10
756.84194680782321
 20
-677.16380586951527
 30
0.0
  0
VERTEX
  5
38F
100
AcDbEntity
  8
0
370
               0
390
0
  6
Continuous
 62
              30
100
AcDbVertex
100
AcDb2dVertex
 10
757.50054270936153
 20
-676.54313535885603
 30
0.0
  0
VERTEX
  5
390
100
AcDbEntity
  8
0
370
               0
390
0
  6
Continuous
 62
              30
100
AcDbVertex
100
AcDb2dVertex
 10
758.14117383153689
 20
-676.24591521355524
 30
0.0
  0
VERTEX
  5
391
100
AcDbEntity
  8
0
370
               0
390
0
  6
Continuous
 62
              30
100
AcDbVertex
100
AcDb2dVertex
 10
758.69441785184608
 20
-676.30435384820157
 30
0.0
  0
VERTEX
  5
392
100
AcDbEntity
  8
0
370
               0
390
0
  6
Continuous
 62
              30
100
AcDbVertex
100
AcDb2dVertex
 10
759.10032219622326
 20
-676.71211852996294
 30
0.0
  0
VERTEX
  5
393
100
AcDbEntity
  8
0
370
               0
390
0
  6
Continuous
 62
              30
100
AcDbVertex
100
AcDb2dVertex
 10
759.31490083069957
 20
-677.42502162844903
 30
0.0
  0
VERTEX
  5
394
100
AcDbEntity
  8
0
370
               0
390
0
  6
Continuous
 62
              30
100
AcDbVertex
100
AcDb2dVertex
 10
759.31490083069957
 20
-678.3658090311078
 30
0.0
  0
VERTEX
  5
395
100
AcDbEntity
  8
0
370
               0
390
0
  6
Continuous
 62
              30
100
AcDbVertex
100
AcDb2dVertex
 10
759.10032219622281
 20
-679.43253182504077
 30
0.0
  0
VERTEX
  5
396
100
AcDbEntity
  8
0
370
               0
390
0
  6
Continuous
 62
              30
100
AcDbVertex
100
AcDb2dVertex
 10
758.69441785184608
 20
-680.50959404361492
 30
0.0
  0
VERTEX
  5
397
100
AcDbEntity
  8
0
370
               0
390
0
  6
Continuous
 62
              30
100
AcDbVertex
100
AcDb2dVertex
 10
758.14117383153689
 20
-681.48027928310648
 30
0.0
  0
VERTEX
  5
398
100
AcDbEntity
  8
0
370
               0
390
0
  6
Continuous
 62
              30
100
AcDbVertex
100
AcDb2dVertex
 10
757.50054270936107
 20
-682.23939873608288
 30
0.0
  0
VERTEX
  5
399
100
AcDbEntity
  8
0
370
               0
390
0
  6
Continuous
 62
              30
100
AcDbVertex
100
AcDb2dVertex
 10
756.84194680782321
 20
-682.70469003086191
 30
0.0
  0
VERTEX
  5
39A
100
AcDbEntity
  8
0
370
               0
390
0
  6
Continuous
 62
              30
100
AcDbVertex
100
AcDb2dVertex
 10
756.23675521202222
 20
-682.82573163591587
 30
0.0
  0
VERTEX
  5
39B
100
AcDbEntity
  8
0
370
               0
390
0
  6
Continuous
 62
              30
100
AcDbVertex
100
AcDb2dVertex
 10
755.7505498218793
 20
-682.58940681518379
 30
0.0
  0
VERTEX
  5
39C
100
AcDbEntity
  8
0
370
               0
390
0
  6
Continuous
 62
              30
100
AcDbVertex
100
AcDb2dVertex
 10
755.43601853566952
 20
-682.02132502994846
 30
0.0
  0
VERTEX
  5
39D
100
AcDbEntity
  8
0
370
               0
390
0
  6
Continuous
 62
              30
100
AcDbVertex
100
AcDb2dVertex
 10
755.32724569871016
 20
-681.18304675633863
 30
0.0
  0
SEQEND
  5
39E
100
AcDbEntity
  8
0
370
               0
390
0
  6
Continuous
 62
              30
  0
LINE
  5
3A0
100
AcDbEntity
  8
0
370
               0
390
0
  6
Continuous
 62
              30
100
AcDbLine
 10
723.61976189648749
 20
-673.46206265876663
 30
0.0
 11
745.86323449891643
 21
-682.45334601796594
 31
0.0
  0
LINE
  5
3A1
100
AcDbEntity
  8
0
370
               0
390
0
  6
Continuous
 62
              30
100
AcDbLine
 10
723.61976189648749
 20
-673.46206265876663
 30
0.0
 11
723.61976189648703
 21
-624.46961394562118
 31
0.0
  0
ARC
  5
3A2
100
AcDbEntity
  8
0
370
               0
390
0
  6
Continuous
 62
              30
100
AcDbCircle
 10
740.74922764004668
 20
-640.90265789416571
 30
0.0
 40
15.447767575568417
100
AcDbArc
 50
307.80086077821409
 51
358.59400777383098
  0
SPLINE
  5
3A3
100
AcDbEntity
  8
0
370
               0
390
0
  6
Continuous
 62
              30
100
AcDbSpline
210
0.0
220
0.0
230
1.0
 70
               8
 71
               2
 72
              12
 73
               9
 74
               0
 42
0.000001
 43
0.000001
 40
0.0
 40
0.0
 40
0.0
 40
1.0
 40
2.0
 40
3.0
 40
4.0
 40
5.0
 40
6.0
 40
7.0
 40
7.0
 40
7.0
 10
723.61976189648749
 20
-673.46206265876617
 30
0.0
 10
723.61826284935978
 20
-674.29668729141304
 30
0.0
 10
723.79834827927016
 20
-676.18546047694463
 30
0.0
 10
724.29992768589136
 20
-678.17887803323401
 30
0.0
 10
724.90859367210078
 20
-679.50599037645634
 30
0.0
 10
725.598730754195
 20
-680.67843111232969
 30
0.0
 10
726.7951854391431
 20
-681.93831760271951
 30
0.0
 10
728.02593347731954
 20
-682.72076536182658
 30
0.0
 10
728.59736392491186
 20
-682.95150756241173
 30
0.0
  0
ENDBLK
  5
3A4
100
AcDbEntity
  8
0
390
0
100
AcDbBlockEnd
  0
BLOCK
  5
3A5
100
AcDbEntity
  8
0
390
0
100
AcDbBlockBegin
  2
グループ-4
 70
               0
 10
0.0
 20
0.0
 30
0.0
  3
グループ-4
  1

  0
LINE
  5
3A6
100
AcDbEntity
  8
0
370
               0
390
0
  6
Continuous
 62
              30
100
AcDbLine
 10
-357.0567599129887
 20
-319.71713461044862
 30
0.0
 11
-367.0567599129887
 21
-319.71713461044862
 31
0.0
  0
LINE
  5
3A7
100
AcDbEntity
  8
0
370
               0
390
0
  6
Continuous
 62
              30
100
AcDbLine
 10
-367.0567599129887
 20
-319.71713461044862
 30
0.0
 11
-367.05675991298847
 21
-314.21713461044857
 31
0.0
  0
LINE
  5
3A8
100
AcDbEntity
  8
0
370
               0
390
0
  6
Continuous
 62
              30
100
AcDbLine
 10
-357.05675991298847
 20
-314.21713461044857
 30
0.0
 11
-367.05675991298847
 21
-314.21713461044857
 31
0.0
  0
LINE
  5
3A9
100
AcDbEntity
  8
0
370
               0
390
0
  6
Continuous
 62
              30
100
AcDbLine
 10
-357.0567599129887
 20
-319.71713461044862
 30
0.0
 11
-357.05675991298847
 21
-314.21713461044857
 31
0.0
  0
ARC
  5
3AA
100
AcDbEntity
  8
0
370
               0
390
0
  6
Continuous
 62
              30
100
AcDbCircle
 10
-366.55675991298847
 20
-314.21713461044857
 30
0.0
 40
0.5
100
AcDbArc
 50
90.0
 51
180.0
  0
LINE
  5
3AB
100
AcDbEntity
  8
0
370
               0
390
0
  6
Continuous
 62
              30
100
AcDbLine
 10
-366.55675991298847
 20
-313.71713461044857
 30
0.0
 11
-357.55675991298847
 21
-313.71713461044857
 31
0.0
  0
ARC
  5
3AC
100
AcDbEntity
  8
0
370
               0
390
0
  6
Continuous
 62
              30
100
AcDbCircle
 10
-357.55675991298824
 20
-314.21713461044857
 30
0.0
 40
0.5
100
AcDbArc
 50
0.0
 51
90.000000000026034
  0
LINE
  5
3AD
100
AcDbEntity
  8
0
370
               0
390
0
  6
Continuous
 62
              30
100
AcDbLine
 10
7.9432400870083484
 20
-319.71713461044885
 30
0.0
 11
-2.0567599129916516
 21
-319.71713461044885
 31
0.0
  0
LINE
  5
3AE
100
AcDbEntity
  8
0
370
               0
390
0
  6
Continuous
 62
              30
100
AcDbLine
 10
-2.0567599129916516
 20
-319.71713461044885
 30
0.0
 11
-2.0567599129916516
 21
-314.2171346104488
 31
0.0
  0
LINE
  5
3AF
100
AcDbEntity
  8
0
370
               0
390
0
  6
Continuous
 62
              30
100
AcDbLine
 10
7.9432400870083484
 20
-314.2171346104488
 30
0.0
 11
-2.0567599129916516
 21
-314.2171346104488
 31
0.0
  0
LINE
  5
3B0
100
AcDbEntity
  8
0
370
               0
390
0
  6
Continuous
 62
              30
100
AcDbLine
 10
7.9432400870083484
 20
-319.71713461044885
 30
0.0
 11
7.9432400870083484
 21
-314.2171346104488
 31
0.0
  0
ARC
  5
3B1
100
AcDbEntity
  8
0
370
               0
390
0
  6
Continuous
 62
              30
100
AcDbCircle
 10
-1.556759912991879
 20
-314.2171346104488
 30
0.0
 40
0.5
100
AcDbArc
 50
90.0
 51
180.0
  0
LINE
  5
3B2
100
AcDbEntity
  8
0
370
               0
390
0
  6
Continuous
 62
              30
100
AcDbLine
 10
-1.556759912991879
 20
-313.7171346104488
 30
0.0
 11
7.4432400870083484
 21
-313.7171346104488
 31
0.0
  0
ARC
  5
3B3
100
AcDbEntity
  8
0
370
               0
390
0
  6
Continuous
 62
              30
100
AcDbCircle
 10
7.4432400870083484
 20
-314.2171346104488
 30
0.0
 40
0.5
100
AcDbArc
 50
0.0
 51
90.0
  0
LINE
  5
3B4
100
AcDbEntity
  8
0
370
               0
390
0
  6
Continuous
 62
              30
100
AcDbLine
 10
7.9432400870106221
 20
-809.71713461044874
 30
0.0
 11
7.9432400870083484
 21
-319.71713461044885
 31
0.0
  0
LINE
  5
3B5
100
AcDbEntity
  8
0
370
               0
390
0
  6
Continuous
 62
              30
100
AcDbLine
 10
7.9432400870106221
 20
-809.71713461044874
 30
0.0
 11
-2.0567599129893779
 21
-799.71713461044874
 31
0.0
  0
LINE
  5
3B6
100
AcDbEntity
  8
0
370
               0
390
0
  6
Continuous
 62
              30
100
AcDbLine
 10
-2.0567599129893779
 20
-799.71713461044874
 30
0.0
 11
-2.0567599129916516
 21
-319.71713461044885
 31
0.0
  0
LINE
  5
3B7
100
AcDbEntity
  8
0
370
               0
390
0
  6
Continuous
 62
              30
100
AcDbLine
 10
-357.05675991299006
 20
-799.71713461044874
 30
0.0
 11
-367.05675991299051
 21
-809.71713461044874
 31
0.0
  0
LINE
  5
3B8
100
AcDbEntity
  8
0
370
               0
390
0
  6
Continuous
 62
              30
100
AcDbLine
 10
-367.05675991299051
 20
-809.71713461044874
 30
0.0
 11
-367.0567599129887
 21
-319.71713461044885
 31
0.0
  0
LINE
  5
3B9
100
AcDbEntity
  8
0
370
               0
390
0
  6
Continuous
 62
              30
100
AcDbLine
 10
-357.05675991299006
 20
-799.71713461044874
 30
0.0
 11
-357.0567599129887
 21
-319.71713461044885
 31
0.0
  0
LINE
  5
3BA
100
AcDbEntity
  8
0
370
               0
390
0
  6
Continuous
 62
              30
100
AcDbLine
 10
7.94324008700994
 20
-809.71713461044874
 30
0.0
 11
-367.05675991299006
 21
-809.71713461044874
 31
0.0
  0
LINE
  5
3BB
100
AcDbEntity
  8
0
370
               0
390
0
  6
Continuous
 62
              30
100
AcDbLine
 10
-2.05675991299006
 20
-799.71713461044874
 30
0.0
 11
-357.05675991299006
 21
-799.71713461044874
 31
0.0
  0
ENDBLK
  5
3BC
100
AcDbEntity
  8
0
390
0
100
AcDbBlockEnd
  0
BLOCK
  5
3BD
100
AcDbEntity
  8
寸法
390
0
100
AcDbBlockBegin
  2
*D11
 70
               1
 10
0.0
 20
0.0
 30
0.0
  3
*D11
  1

  0
LINE
  5
3BE
100
AcDbEntity
  8
寸法
370
              -2
390
0
  6
Continuous
 62
               0
100
AcDbLine
 10
-1419.4999999999984
 20
136.00000000000011
 30
0.0
 11
-1530.0
 21
136.00000000000011
 31
0.0
  0
LINE
  5
3BF
100
AcDbEntity
  8
寸法
370
              -2
390
0
  6
Continuous
 62
               0
100
AcDbLine
 10
-1420.0000000000005
 20
-360.00000000000006
 30
0.0
 11
-1530.0
 21
-360.00000000000006
 31
0.0
  0
LINE
  5
3C0
100
AcDbEntity
  8
寸法
370
              -2
390
0
  6
Continuous
 62
               0
100
AcDbLine
 10
-1500.0
 20
136.00000000000011
 30
0.0
 11
-1500.0
 21
-360.00000000000006
 31
0.0
  0
POLYLINE
  5
3C1
100
AcDbEntity
  8
0
370
              -2
390
0
  6
Continuous
 62
               0
100
AcDb2dPolyline
 66
               1
 10
0.0
 20
0.0
 30
0.0
 75
               5
  0
VERTEX
  5
3C2
100
AcDbEntity
  8
0
370
              -2
390
0
  6
Continuous
 62
               0
100
AcDbVertex
100
AcDb2dVertex
 10
-1510.0505969272535
 20
98.490661621093864
 30
0.0
  0
VERTEX
  5
3C3
100
AcDbEntity
  8
0
370
              -2
390
0
  6
Continuous
 62
               0
100
AcDbVertex
100
AcDb2dVertex
 10
-1500.0
 20
136.00000000000011
 30
0.0
  0
VERTEX
  5
3C4
100
AcDbEntity
  8
0
370
              -2
390
0
  6
Continuous
 62
               0
100
AcDbVertex
100
AcDb2dVertex
 10
-1489.9494030727465
 20
98.490661621093864
 30
0.0
  0
SEQEND
  5
3C5
100
AcDbEntity
  8
0
370
              -2
390
0
  6
Continuous
 62
               0
  0
POLYLINE
  5
3C6
100
AcDbEntity
  8
0
370
              -2
390
0
  6
Continuous
 62
               0
100
AcDb2dPolyline
 66
               1
 10
0.0
 20
0.0
 30
0.0
 75
               5
  0
VERTEX
  5
3C7
100
AcDbEntity
  8
0
370
              -2
390
0
  6
Continuous
 62
               0
100
AcDbVertex
100
AcDb2dVertex
 10
-1489.9494030727465
 20
-322.49066162109381
 30
0.0
  0
VERTEX
  5
3C8
100
AcDbEntity
  8
0
370
              -2
390
0
  6
Continuous
 62
               0
100
AcDbVertex
100
AcDb2dVertex
 10
-1500.0
 20
-360.00000000000006
 30
0.0
  0
VERTEX
  5
3C9
100
AcDbEntity
  8
0
370
              -2
390
0
  6
Continuous
 62
               0
100
AcDbVertex
100
AcDb2dVertex
 10
-1510.0505969272535
 20
-322.49066162109381
 30
0.0
  0
SEQEND
  5
3CA
100
AcDbEntity
  8
0
370
              -2
390
0
  6
Continuous
 62
               0
  0
MTEXT
  5
3CB
100
AcDbEntity
  8
寸法
390
0
 62
               0
100
AcDbMText
 10
-1576.8062812500002
 20
-169.14999596277863
 30
0.0
 40
58.63828125000029
 41
0.0
 71
               1
 72
               1
  1
{\fＭＳ ゴシック|b0|i0|c128|p0;\l496}
 11
0.0
 21
1.0
 31
0.0
 73
               1
 44
0.7828267384257842
  0
POINT
  5
3CC
100
AcDbEntity
  8
Defpoints
370
               0
390
0
 62
               0
100
AcDbPoint
 10
-1390.0000000000005
 20
-360.00000000000006
 30
0.0
  0
POINT
  5
3CD
100
AcDbEntity
  8
Defpoints
370
               0
390
0
 62
               0
100
AcDbPoint
 10
-1389.4999999999984
 20
136.00000000000011
 30
0.0
  0
POINT
  5
3CE
100
AcDbEntity
  8
Defpoints
370
               0
390
0
 62
               0
100
AcDbPoint
 10
-1500.0
 20
136.00000000000011
 30
0.0
  0
ENDBLK
  5
3CF
100
AcDbEntity
  8
寸法
390
0
100
AcDbBlockEnd
  0
BLOCK
  5
3D0
100
AcDbEntity
  8
寸法
390
0
100
AcDbBlockBegin
  2
*D12
 70
               1
 10
0.0
 20
0.0
 30
0.0
  3
*D12
  1

  0
LINE
  5
3D1
100
AcDbEntity
  8
寸法
370
              -2
390
0
  6
Continuous
 62
               0
100
AcDbLine
 10
-1390.0000000000005
 20
-390.00000000000006
 30
0.0
 11
-1390.0000000000005
 21
-505.00000000000006
 31
0.0
  0
LINE
  5
3D2
100
AcDbEntity
  8
寸法
370
              -2
390
0
  6
Continuous
 62
               0
100
AcDbLine
 10
-1015.0
 20
-390.00000000000006
 30
0.0
 11
-1015.0
 21
-505.00000000000006
 31
0.0
  0
LINE
  5
3D3
100
AcDbEntity
  8
寸法
370
              -2
390
0
  6
Continuous
 62
               0
100
AcDbLine
 10
-1390.0000000000005
 20
-475.00000000000006
 30
0.0
 11
-1015.0
 21
-475.00000000000006
 31
0.0
  0
POLYLINE
  5
3D4
100
AcDbEntity
  8
0
370
              -2
390
0
  6
Continuous
 62
               0
100
AcDb2dPolyline
 66
               1
 10
0.0
 20
0.0
 30
0.0
 75
               5
  0
VERTEX
  5
3D5
100
AcDbEntity
  8
0
370
              -2
390
0
  6
Continuous
 62
               0
100
AcDbVertex
100
AcDb2dVertex
 10
-1352.4906616210942
 20
-485.05059692725371
 30
0.0
  0
VERTEX
  5
3D6
100
AcDbEntity
  8
0
370
              -2
390
0
  6
Continuous
 62
               0
100
AcDbVertex
100
AcDb2dVertex
 10
-1390.0000000000005
 20
-475.00000000000006
 30
0.0
  0
VERTEX
  5
3D7
100
AcDbEntity
  8
0
370
              -2
390
0
  6
Continuous
 62
               0
100
AcDbVertex
100
AcDb2dVertex
 10
-1352.4906616210942
 20
-464.94940307274641
 30
0.0
  0
SEQEND
  5
3D8
100
AcDbEntity
  8
0
370
              -2
390
0
  6
Continuous
 62
               0
  0
POLYLINE
  5
3D9
100
AcDbEntity
  8
0
370
              -2
390
0
  6
Continuous
 62
               0
100
AcDb2dPolyline
 66
               1
 10
0.0
 20
0.0
 30
0.0
 75
               5
  0
VERTEX
  5
3DA
100
AcDbEntity
  8
0
370
              -2
390
0
  6
Continuous
 62
               0
100
AcDbVertex
100
AcDb2dVertex
 10
-1052.5093383789062
 20
-464.94940307274641
 30
0.0
  0
VERTEX
  5
3DB
100
AcDbEntity
  8
0
370
              -2
390
0
  6
Continuous
 62
               0
100
AcDbVertex
100
AcDb2dVertex
 10
-1015.0
 20
-475.00000000000006
 30
0.0
  0
VERTEX
  5
3DC
100
AcDbEntity
  8
0
370
              -2
390
0
  6
Continuous
 62
               0
100
AcDbVertex
100
AcDb2dVertex
 10
-1052.5093383789062
 20
-485.05059692725371
 30
0.0
  0
SEQEND
  5
3DD
100
AcDbEntity
  8
0
370
              -2
390
0
  6
Continuous
 62
               0
  0
MTEXT
  5
3DE
100
AcDbEntity
  8
寸法
390
0
 62
               0
100
AcDbMText
 10
-1259.649995962779
 20
-398.19371874999973
 30
0.0
 40
58.63828125000029
 41
0.0
 71
               1
 72
               1
  1
{\fＭＳ ゴシック|b0|i0|c128|p0;\l375}
 73
               1
 44
0.7828267384257842
  0
POINT
  5
3DF
100
AcDbEntity
  8
Defpoints
370
               0
390
0
 62
               0
100
AcDbPoint
 10
-1015.0
 20
-360.00000000000006
 30
0.0
  0
POINT
  5
3E0
100
AcDbEntity
  8
Defpoints
370
               0
390
0
 62
               0
100
AcDbPoint
 10
-1390.0000000000005
 20
-360.00000000000006
 30
0.0
  0
POINT
  5
3E1
100
AcDbEntity
  8
Defpoints
370
               0
390
0
 62
               0
100
AcDbPoint
 10
-1390.0000000000005
 20
-475.00000000000006
 30
0.0
  0
ENDBLK
  5
3E2
100
AcDbEntity
  8
寸法
390
0
100
AcDbBlockEnd
  0
BLOCK
  5
3E3
100
AcDbEntity
  8
0
390
0
100
AcDbBlockBegin
  2
グループ-5
 70
               0
 10
0.0
 20
0.0
 30
0.0
  3
グループ-5
  1

  0
LINE
  5
3E4
100
AcDbEntity
  8
0
370
               0
390
0
  6
Continuous
 62
              30
100
AcDbLine
 10
342.26945935042738
 20
-319.71713461044862
 30
0.0
 11
342.26945935042738
 21
-314.21713461044857
 31
0.0
  0
LINE
  5
3E5
100
AcDbEntity
  8
0
370
               0
390
0
  6
Continuous
 62
              30
100
AcDbLine
 10
382.26945935042727
 20
-314.21713461044857
 30
0.0
 11
342.26945935042738
 21
-314.21713461044857
 31
0.0
  0
LINE
  5
3E6
100
AcDbEntity
  8
0
370
               0
390
0
  6
Continuous
 62
              30
100
AcDbLine
 10
382.26945935042727
 20
-319.71713461044862
 30
0.0
 11
382.26945935042727
 21
-314.21713461044857
 31
0.0
  0
LINE
  5
3E7
100
AcDbEntity
  8
0
370
               0
390
0
  6
Continuous
 62
              30
100
AcDbLine
 10
382.26945935042727
 20
-319.71713461044862
 30
0.0
 11
342.26945935042738
 21
-319.71713461044862
 31
0.0
  0
LINE
  5
3E8
100
AcDbEntity
  8
0
370
               0
390
0
  6
Continuous
 62
              30
100
AcDbLine
 10
342.76945935042738
 20
-313.71713461044857
 30
0.0
 11
381.76945935042727
 21
-313.71713461044857
 31
0.0
  0
ARC
  5
3E9
100
AcDbEntity
  8
0
370
               0
390
0
  6
Continuous
 62
              30
100
AcDbCircle
 10
381.76945935042727
 20
-314.21713461044857
 30
0.0
 40
0.5
100
AcDbArc
 50
0.0
 51
90.0
  0
ARC
  5
3EA
100
AcDbEntity
  8
0
370
               0
390
0
  6
Continuous
 62
              30
100
AcDbCircle
 10
342.76945935042738
 20
-314.21713461044857
 30
0.0
 40
0.5
100
AcDbArc
 50
90.0
 51
180.0
  0
LINE
  5
3EB
100
AcDbEntity
  8
0
370
               0
390
0
  6
Continuous
 62
              30
100
AcDbLine
 10
382.26945935042727
 20
-809.71713461044874
 30
0.0
 11
382.26945935042727
 21
-319.71713461044885
 31
0.0
  0
LINE
  5
3EC
100
AcDbEntity
  8
0
370
               0
390
0
  6
Continuous
 62
              30
100
AcDbLine
 10
382.26945935042727
 20
-809.71713461044874
 30
0.0
 11
342.26945935042738
 21
-809.71713461044874
 31
0.0
  0
LINE
  5
3ED
100
AcDbEntity
  8
0
370
               0
390
0
  6
Continuous
 62
              30
100
AcDbLine
 10
342.26945935042738
 20
-809.71713461044874
 30
0.0
 11
342.26945935042738
 21
-319.71713461044885
 31
0.0
  0
CIRCLE
  5
3EE
100
AcDbEntity
  8
0
370
               0
390
0
  6
Continuous
 62
              30
100
AcDbCircle
 10
362.26945935042738
 20
-342.71713461044862
 30
0.0
 40
10.0
  0
CIRCLE
  5
3EF
100
AcDbEntity
  8
0
370
               0
390
0
  6
Continuous
 62
              30
100
AcDbCircle
 10
362.26945935042738
 20
-342.71713461044862
 30
0.0
 40
3.5000000000001137
  0
ENDBLK
  5
3F0
100
AcDbEntity
  8
0
390
0
100
AcDbBlockEnd
  0
BLOCK
  5
3F1
100
AcDbEntity
  8
寸法
390
0
100
AcDbBlockBegin
  2
*D14
 70
               1
 10
0.0
 20
0.0
 30
0.0
  3
*D14
  1

  0
LINE
  5
3F2
100
AcDbEntity
  8
寸法
370
              -2
390
0
  6
Continuous
 62
               0
100
AcDbLine
 10
-176.13670538384292
 20
-1164.1636314337072
 30
0.0
 11
-52.056759912990117
 21
-1343.0184047996706
 31
0.0
  0
POLYLINE
  5
3F3
100
AcDbEntity
  8
0
370
              -2
390
0
  6
Continuous
 62
               0
100
AcDb2dPolyline
 66
               1
 10
0.0
 20
0.0
 30
0.0
 75
               5
  0
VERTEX
  5
3F4
100
AcDbEntity
  8
0
370
              -2
390
0
  6
Continuous
 62
               0
100
AcDbVertex
100
AcDb2dVertex
 10
-162.85519976586883
 20
-1200.6542682154507
 30
0.0
  0
VERTEX
  5
3F5
100
AcDbEntity
  8
0
370
              -2
390
0
  6
Continuous
 62
               0
100
AcDbVertex
100
AcDb2dVertex
 10
-176.13670538384292
 20
-1164.1636314337072
 30
0.0
  0
VERTEX
  5
3F6
100
AcDbEntity
  8
0
370
              -2
390
0
  6
Continuous
 62
               0
100
AcDbVertex
100
AcDb2dVertex
 10
-146.38926572729986
 20
-1189.124697077981
 30
0.0
  0
SEQEND
  5
3F7
100
AcDbEntity
  8
0
370
              -2
390
0
  6
Continuous
 62
               0
  0
LINE
  5
3F8
100
AcDbEntity
  8
寸法
370
              -2
390
0
  6
Continuous
 62
               0
100
AcDbLine
 10
-52.056759912990117
 20
-1343.0184047996706
 30
0.0
 11
130.34323604978857
 21
-1343.0184047996706
 31
0.0
  0
MTEXT
  5
3F9
100
AcDbEntity
  8
寸法
390
0
 62
               0
100
AcDbMText
 10
-22.056759912990117
 20
-1266.2121235496704
 30
0.0
 40
58.63828125000029
 41
0.0
 71
               1
 72
               1
  1
{\fＭＳ ゴシック|b0|i0|c128|p0;\lφ12}
 73
               1
 44
0.7828267384257842
  0
POINT
  5
3FA
100
AcDbEntity
  8
Defpoints
370
               0
390
0
 62
               0
100
AcDbPoint
 10
-182.97681444213737
 20
-1154.3039707868777
 30
0.0
  0
POINT
  5
3FB
100
AcDbEntity
  8
Defpoints
370
               0
390
0
 62
               0
100
AcDbPoint
 10
-176.13670538384292
 20
-1164.1636314337072
 30
0.0
  0
ENDBLK
  5
3FC
100
AcDbEntity
  8
寸法
390
0
100
AcDbBlockEnd
  0
BLOCK
  5
3FD
100
AcDbEntity
  8
寸法
390
0
100
AcDbBlockBegin
  2
*D15
 70
               1
 10
0.0
 20
0.0
 30
0.0
  3
*D15
  1

  0
LINE
  5
3FE
100
AcDbEntity
  8
寸法
370
              -2
390
0
  6
Continuous
 62
               0
100
AcDbLine
 10
-118.43361965391428
 20
-1157.0002935642021
 30
0.0
 11
-77.056759912990074
 21
-1074.7171346104487
 31
0.0
  0
POLYLINE
  5
3FF
100
AcDbEntity
  8
0
370
              -2
390
0
  6
Continuous
 62
               0
100
AcDb2dPolyline
 66
               1
 10
0.0
 20
0.0
 30
0.0
 75
               5
  0
VERTEX
  5
400
100
AcDbEntity
  8
0
370
              -2
390
0
  6
Continuous
 62
               0
100
AcDbVertex
100
AcDb2dVertex
 10
-92.449588944204308
 20
-1128.1421038722922
 30
0.0
  0
VERTEX
  5
401
100
AcDbEntity
  8
0
370
              -2
390
0
  6
Continuous
 62
               0
100
AcDbVertex
100
AcDb2dVertex
 10
-118.43361965391428
 20
-1157.0002935642021
 30
0.0
  0
VERTEX
  5
402
100
AcDbEntity
  8
0
370
              -2
390
0
  6
Continuous
 62
               0
100
AcDbVertex
100
AcDb2dVertex
 10
-110.35988381254542
 20
-1119.0163528289229
 30
0.0
  0
SEQEND
  5
403
100
AcDbEntity
  8
0
370
              -2
390
0
  6
Continuous
 62
               0
  0
LINE
  5
404
100
AcDbEntity
  8
寸法
370
              -2
390
0
  6
Continuous
 62
               0
100
AcDbLine
 10
-77.056759912990074
 20
-1074.7171346104487
 30
0.0
 11
-47.05675991299006
 21
-1074.7171346104487
 31
0.0
  0
POINT
  5
405
100
AcDbEntity
  8
Defpoints
370
               0
390
0
 62
               0
100
AcDbPoint
 10
-120.67990017206543
 20
-1161.4673086563828
 30
0.0
  0
POINT
  5
406
100
AcDbEntity
  8
Defpoints
370
               0
390
0
 62
               0
100
AcDbPoint
 10
-118.43361965391428
 20
-1157.0002935642021
 30
0.0
  0
ENDBLK
  5
407
100
AcDbEntity
  8
寸法
390
0
100
AcDbBlockEnd
  0
BLOCK
  5
408
100
AcDbEntity
  8
0
390
0
100
AcDbBlockBegin
  2
グループ-6
 70
               0
 10
0.0
 20
0.0
 30
0.0
  3
グループ-6
  1

  0
LINE
  5
409
100
AcDbEntity
  8
0
370
               0
390
0
  6
Continuous
 62
              30
100
AcDbLine
 10
-357.05675991298847
 20
-1139.2338011102925
 30
0.0
 11
-357.05675991298847
 21
-1179.2338011102925
 31
0.0
  0
LINE
  5
40A
100
AcDbEntity
  8
0
370
               0
390
0
  6
Continuous
 62
              30
100
AcDbLine
 10
-357.05675991298847
 20
-1179.2338011102925
 30
0.0
 11
-357.55675991298824
 21
-1178.7338011102925
 31
0.0
  0
LINE
  5
40B
100
AcDbEntity
  8
0
370
               0
390
0
  6
Continuous
 62
              30
100
AcDbLine
 10
-357.55675991298824
 20
-1178.7338011102925
 30
0.0
 11
-357.55675991298824
 21
-1139.7338011102925
 31
0.0
  0
LINE
  5
40C
100
AcDbEntity
  8
0
370
               0
390
0
  6
Continuous
 62
              30
100
AcDbLine
 10
-357.55675991298824
 20
-1139.7338011102925
 30
0.0
 11
-357.05675991298847
 21
-1139.2338011102925
 31
0.0
  0
LINE
  5
40D
100
AcDbEntity
  8
0
370
               0
390
0
  6
Continuous
 62
              30
100
AcDbLine
 10
-366.55675991298847
 20
-1178.7338011102925
 30
0.0
 11
-357.55675991298824
 21
-1178.7338011102925
 31
0.0
  0
LINE
  5
40E
100
AcDbEntity
  8
0
370
               0
390
0
  6
Continuous
 62
              30
100
AcDbLine
 10
-366.55675991298847
 20
-1139.7338011102925
 30
0.0
 11
-366.55675991298847
 21
-1178.7338011102925
 31
0.0
  0
LINE
  5
40F
100
AcDbEntity
  8
0
370
               0
390
0
  6
Continuous
 62
              30
100
AcDbLine
 10
-357.55675991298824
 20
-1139.7338011102925
 30
0.0
 11
-366.55675991298847
 21
-1139.7338011102925
 31
0.0
  0
LINE
  5
410
100
AcDbEntity
  8
0
370
               0
390
0
  6
Continuous
 62
              30
100
AcDbLine
 10
-366.55675991298847
 20
-1139.7338011102925
 30
0.0
 11
-367.05675991298847
 21
-1139.2338011102925
 31
0.0
  0
LINE
  5
411
100
AcDbEntity
  8
0
370
               0
390
0
  6
Continuous
 62
              30
100
AcDbLine
 10
-367.05675991298847
 20
-1139.2338011102925
 30
0.0
 11
-357.05675991298847
 21
-1139.2338011102925
 31
0.0
  0
LINE
  5
412
100
AcDbEntity
  8
0
370
               0
390
0
  6
Continuous
 62
              30
100
AcDbLine
 10
-367.05675991298847
 20
-1179.2338011102925
 30
0.0
 11
-367.05675991298847
 21
-1139.2338011102925
 31
0.0
  0
LINE
  5
413
100
AcDbEntity
  8
0
370
               0
390
0
  6
Continuous
 62
              30
100
AcDbLine
 10
-367.05675991298847
 20
-1179.2338011102925
 30
0.0
 11
-366.55675991298847
 21
-1178.7338011102925
 31
0.0
  0
LINE
  5
414
100
AcDbEntity
  8
0
370
               0
390
0
  6
Continuous
 62
              30
100
AcDbLine
 10
-357.05675991298847
 20
-1179.2338011102925
 30
0.0
 11
-367.05675991298847
 21
-1179.2338011102925
 31
0.0
  0
LINE
  5
415
100
AcDbEntity
  8
0
370
               0
390
0
  6
Continuous
 62
              30
100
AcDbLine
 10
7.4432400870083484
 20
-1139.7338011102925
 30
0.0
 11
-1.556759912991879
 21
-1139.7338011102925
 31
0.0
  0
LINE
  5
416
100
AcDbEntity
  8
0
370
               0
390
0
  6
Continuous
 62
              30
100
AcDbLine
 10
-1.556759912991879
 20
-1139.7338011102925
 30
0.0
 11
-2.0567599129916516
 21
-1139.2338011102925
 31
0.0
  0
LINE
  5
417
100
AcDbEntity
  8
0
370
               0
390
0
  6
Continuous
 62
              30
100
AcDbLine
 10
-2.0567599129916516
 20
-1139.2338011102925
 30
0.0
 11
7.9432400870083484
 21
-1139.2338011102925
 31
0.0
  0
LINE
  5
418
100
AcDbEntity
  8
0
370
               0
390
0
  6
Continuous
 62
              30
100
AcDbLine
 10
7.4432400870083484
 20
-1139.7338011102925
 30
0.0
 11
7.9432400870083484
 21
-1139.2338011102925
 31
0.0
  0
LINE
  5
419
100
AcDbEntity
  8
0
370
               0
390
0
  6
Continuous
 62
              30
100
AcDbLine
 10
7.4432400870083484
 20
-1178.7338011102925
 30
0.0
 11
7.4432400870083484
 21
-1139.7338011102925
 31
0.0
  0
LINE
  5
41A
100
AcDbEntity
  8
0
370
               0
390
0
  6
Continuous
 62
              30
100
AcDbLine
 10
-1.556759912991879
 20
-1178.7338011102925
 30
0.0
 11
7.4432400870083484
 21
-1178.7338011102925
 31
0.0
  0
LINE
  5
41B
100
AcDbEntity
  8
0
370
               0
390
0
  6
Continuous
 62
              30
100
AcDbLine
 10
-1.556759912991879
 20
-1139.7338011102925
 30
0.0
 11
-1.556759912991879
 21
-1178.7338011102925
 31
0.0
  0
LINE
  5
41C
100
AcDbEntity
  8
0
370
               0
390
0
  6
Continuous
 62
              30
100
AcDbLine
 10
7.9432400870083484
 20
-1139.2338011102925
 30
0.0
 11
7.9432400870083484
 21
-1179.2338011102925
 31
0.0
  0
LINE
  5
41D
100
AcDbEntity
  8
0
370
               0
390
0
  6
Continuous
 62
              30
100
AcDbLine
 10
7.9432400870083484
 20
-1179.2338011102925
 30
0.0
 11
7.4432400870083484
 21
-1178.7338011102925
 31
0.0
  0
LINE
  5
41E
100
AcDbEntity
  8
0
370
               0
390
0
  6
Continuous
 62
              30
100
AcDbLine
 10
-2.0567599129916516
 20
-1179.2338011102925
 30
0.0
 11
-2.0567599129916516
 21
-1139.2338011102925
 31
0.0
  0
LINE
  5
41F
100
AcDbEntity
  8
0
370
               0
390
0
  6
Continuous
 62
              30
100
AcDbLine
 10
-2.0567599129916516
 20
-1179.2338011102925
 30
0.0
 11
-1.556759912991879
 21
-1178.7338011102925
 31
0.0
  0
LINE
  5
420
100
AcDbEntity
  8
0
370
               0
390
0
  6
Continuous
 62
              30
100
AcDbLine
 10
7.9432400870083484
 20
-1179.2338011102925
 30
0.0
 11
-2.0567599129916516
 21
-1179.2338011102925
 31
0.0
  0
CIRCLE
  5
421
100
AcDbEntity
  8
0
370
               0
390
0
  6
Continuous
 62
              30
100
AcDbCircle
 10
-119.55675991298983
 20
-1159.2338011102925
 30
0.0
 40
2.4999999999997726
  0
CIRCLE
  5
422
100
AcDbEntity
  8
0
370
               0
390
0
  6
Continuous
 62
              30
100
AcDbCircle
 10
-119.55675991298983
 20
-1159.2338011102925
 30
0.0
 40
5.5000000000002274
  0
CIRCLE
  5
423
100
AcDbEntity
  8
0
370
               0
390
0
  6
Continuous
 62
              30
100
AcDbCircle
 10
-119.55675991298983
 20
-1159.2338011102925
 30
0.0
 40
6.0
  0
CIRCLE
  5
424
100
AcDbEntity
  8
0
370
               0
390
0
  6
Continuous
 62
              30
100
AcDbCircle
 10
-239.55675991299006
 20
-1159.2338011102925
 30
0.0
 40
6.0
  0
CIRCLE
  5
425
100
AcDbEntity
  8
0
370
               0
390
0
  6
Continuous
 62
              30
100
AcDbCircle
 10
-239.55675991299006
 20
-1159.2338011102925
 30
0.0
 40
5.4999999999997726
  0
CIRCLE
  5
426
100
AcDbEntity
  8
0
370
               0
390
0
  6
Continuous
 62
              30
100
AcDbCircle
 10
-239.55675991299006
 20
-1159.2338011102925
 30
0.0
 40
2.5000000000002274
  0
LINE
  5
427
100
AcDbEntity
  8
0
370
               0
390
0
  6
Continuous
 62
              30
100
AcDbLine
 10
-2.05675991299006
 20
-1179.2338011102925
 30
0.0
 11
-357.05675991299006
 21
-1179.2338011102925
 31
0.0
  0
CIRCLE
  5
428
100
AcDbEntity
  8
0
370
               0
390
0
  6
Continuous
 62
              30
100
AcDbCircle
 10
-179.55675991299006
 20
-1159.2338011102925
 30
0.0
 40
6.0
  0
CIRCLE
  5
429
100
AcDbEntity
  8
0
370
               0
390
0
  6
Continuous
 62
              30
100
AcDbCircle
 10
-59.55675991299006
 20
-1159.2338011102925
 30
0.0
 40
6.0000000000002274
  0
CIRCLE
  5
42A
100
AcDbEntity
  8
0
370
               0
390
0
  6
Continuous
 62
              30
100
AcDbCircle
 10
-299.55675991298983
 20
-1159.2338011102925
 30
0.0
 40
5.9999999999997726
  0
CIRCLE
  5
42B
100
AcDbEntity
  8
0
370
               0
390
0
  6
Continuous
 62
              30
100
AcDbCircle
 10
-239.55675991299006
 20
-1159.2338011102925
 30
0.0
 40
10.0
  0
CIRCLE
  5
42C
100
AcDbEntity
  8
0
370
               0
390
0
  6
Continuous
 62
              30
100
AcDbCircle
 10
-119.55675991298983
 20
-1159.2338011102925
 30
0.0
 40
10.0
  0
LINE
  5
42D
100
AcDbEntity
  8
0
370
               0
390
0
  6
Continuous
 62
              30
100
AcDbLine
 10
-2.05675991299006
 20
-1139.2338011102925
 30
0.0
 11
-357.05675991299006
 21
-1139.2338011102925
 31
0.0
  0
DIMENSION
  5
42E
100
AcDbEntity
  8
寸法
370
               0
390
0
  6
Continuous
 62
               1
100
AcDbDimension
  2
*D14
 10
-182.97681444213737
 20
-1154.3039707868777
 30
0.0
 11
-22.056759912989719
 21
-1343.0184047996704
 31
0.0
 70
               3
 71
               5
 72
               1
 41
1.0
 42
0.0
  3
HIBINO
100
AcDbDiametricDimension
 15
-176.13670538384292
 25
-1164.1636314337072
 35
0.0
 40
217.68064411848829
1001
ACAD
1000
DSTYLE
1002
{
1070
             172
1070
               0
1070
             289
1070
               0
1070
             342
1005
4B
1070
             340
1005
35
1070
              73
1070
               1
1070
              74
1070
               1
1070
              75
1070
               1
1070
              76
1070
               1
1070
               3
1000

1070
             174
1070
               0
1070
             147
1040
7.5
1002
}
  0
DIMENSION
  5
42F
100
AcDbEntity
  8
寸法
370
               0
390
0
  6
Continuous
 62
               1
100
AcDbDimension
  2
*D15
 10
-120.67990017206543
 20
-1161.4673086563828
 30
0.0
 11
-47.056759912989747
 21
-1074.717134610449
 31
0.0
 70
               3
 71
               5
 72
               1
 41
1.0
 42
0.0
  1
 
  3
HIBINO
100
AcDbDiametricDimension
 15
-118.43361965391428
 25
-1157.0002935642021
 35
0.0
 40
92.100829363414334
1001
ACAD
1000
DSTYLE
1002
{
1070
             172
1070
               0
1070
             289
1070
               0
1070
             342
1005
4B
1070
             340
1005
35
1070
              73
1070
               1
1070
              74
1070
               1
1070
              75
1070
               1
1070
              76
1070
               1
1070
             174
1070
               0
1070
             147
1040
7.5
1002
}
  0
ENDBLK
  5
430
100
AcDbEntity
  8
0
390
0
100
AcDbBlockEnd
  0
BLOCK
  5
431
100
AcDbEntity
  8
寸法
390
0
100
AcDbBlockBegin
  2
*D17
 70
               1
 10
0.0
 20
0.0
 30
0.0
  3
*D17
  1

  0
LINE
  5
432
100
AcDbEntity
  8
寸法
370
              -2
390
0
  6
Continuous
 62
               0
100
AcDbLine
 10
-1419.9999999999984
 20
-689.51666649984372
 30
0.0
 11
-1530.0
 21
-689.51666649984372
 31
0.0
  0
LINE
  5
433
100
AcDbEntity
  8
寸法
370
              -2
390
0
  6
Continuous
 62
               0
100
AcDbLine
 10
-1419.4999999999984
 20
-729.51666649984372
 30
0.0
 11
-1530.0
 21
-729.51666649984372
 31
0.0
  0
LINE
  5
434
100
AcDbEntity
  8
寸法
370
              -2
390
0
  6
Continuous
 62
               0
100
AcDbLine
 10
-1500.0
 20
-729.51666649984372
 30
0.0
 11
-1500.0
 21
-876.19999798138929
 31
0.0
  0
LINE
  5
435
100
AcDbEntity
  8
寸法
370
              -2
390
0
  6
Continuous
 62
               0
100
AcDbLine
 10
-1500.0
 20
-689.51666649984372
 30
0.0
 11
-1500.0
 21
-729.51666649984372
 31
0.0
  0
POLYLINE
  5
436
100
AcDbEntity
  8
0
370
              -2
390
0
  6
Continuous
 62
               0
100
AcDb2dPolyline
 66
               1
 10
0.0
 20
0.0
 30
0.0
 75
               5
  0
VERTEX
  5
437
100
AcDbEntity
  8
0
370
              -2
390
0
  6
Continuous
 62
               0
100
AcDbVertex
100
AcDb2dVertex
 10
-1510.0505969272535
 20
-727.02600487874997
 30
0.0
  0
VERTEX
  5
438
100
AcDbEntity
  8
0
370
              -2
390
0
  6
Continuous
 62
               0
100
AcDbVertex
100
AcDb2dVertex
 10
-1500.0
 20
-689.51666649984372
 30
0.0
  0
VERTEX
  5
439
100
AcDbEntity
  8
0
370
              -2
390
0
  6
Continuous
 62
               0
100
AcDbVertex
100
AcDb2dVertex
 10
-1489.9494030727465
 20
-727.02600487874997
 30
0.0
  0
SEQEND
  5
43A
100
AcDbEntity
  8
0
370
              -2
390
0
  6
Continuous
 62
               0
  0
POLYLINE
  5
43B
100
AcDbEntity
  8
0
370
              -2
390
0
  6
Continuous
 62
               0
100
AcDb2dPolyline
 66
               1
 10
0.0
 20
0.0
 30
0.0
 75
               5
  0
VERTEX
  5
43C
100
AcDbEntity
  8
0
370
              -2
390
0
  6
Continuous
 62
               0
100
AcDbVertex
100
AcDb2dVertex
 10
-1489.9494030727465
 20
-692.00732812093747
 30
0.0
  0
VERTEX
  5
43D
100
AcDbEntity
  8
0
370
              -2
390
0
  6
Continuous
 62
               0
100
AcDbVertex
100
AcDb2dVertex
 10
-1500.0
 20
-729.51666649984372
 30
0.0
  0
VERTEX
  5
43E
100
AcDbEntity
  8
0
370
              -2
390
0
  6
Continuous
 62
               0
100
AcDbVertex
100
AcDb2dVertex
 10
-1510.0505969272535
 20
-692.00732812093747
 30
0.0
  0
SEQEND
  5
43F
100
AcDbEntity
  8
0
370
              -2
390
0
  6
Continuous
 62
               0
  0
MTEXT
  5
440
100
AcDbEntity
  8
寸法
390
0
 62
               0
100
AcDbMText
 10
-1576.8062812500002
 20
-876.19999798138929
 30
0.0
 40
58.63828125000029
 41
0.0
 71
               1
 72
               1
  1
{\fＭＳ ゴシック|b0|i0|c128|p0;\l40}
 11
0.0
 21
1.0
 31
0.0
 73
               1
 44
0.7828267384257842
  0
POINT
  5
441
100
AcDbEntity
  8
Defpoints
370
               0
390
0
 62
               0
100
AcDbPoint
 10
-1389.4999999999984
 20
-729.51666649984372
 30
0.0
  0
POINT
  5
442
100
AcDbEntity
  8
Defpoints
370
               0
390
0
 62
               0
100
AcDbPoint
 10
-1389.9999999999984
 20
-689.51666649984372
 30
0.0
  0
POINT
  5
443
100
AcDbEntity
  8
Defpoints
370
               0
390
0
 62
               0
100
AcDbPoint
 10
-1500.0
 20
-689.51666649984372
 30
0.0
  0
ENDBLK
  5
444
100
AcDbEntity
  8
寸法
390
0
100
AcDbBlockEnd
  0
ENDSEC
  0
SECTION
  2
ENTITIES
  0
LINE
  5
445
100
AcDbEntity
  8
SPEC
370
               0
390
0
  6
Continuous
 62
               0
100
AcDbLine
 10
-2135.0987258989571
 20
2314.3025961657236
 30
0.0
 11
77.401274101042986
 21
2314.3025961657236
 31
0.0
  0
LINE
  5
446
100
AcDbEntity
  8
SPEC
370
               0
390
0
  6
Continuous
 62
               0
100
AcDbLine
 10
-2135.0987258989571
 20
2254.3025961657236
 30
0.0
 11
77.401274101042986
 21
2254.3025961657236
 31
0.0
  0
LINE
  5
447
100
AcDbEntity
  8
SPEC
370
               0
390
0
  6
Continuous
 62
               0
100
AcDbLine
 10
-2135.0987258989571
 20
2314.3025961657236
 30
0.0
 11
-2135.0970816090867
 21
2018.0540068025721
 31
0.0
  0
MTEXT
  5
448
100
AcDbEntity
  8
SPEC
390
0
 62
               0
100
AcDbMText
 10
-2116.3487258989571
 20
2367.5419977282231
 30
0.0
 40
36.648925781250007
 41
0.0
 71
               1
 72
               1
  1
{\fＭＳ ゴシック|b0|i0|c128|p0;\l仕様}
 73
               1
 44
0.7828267384257843
  0
LINE
  5
449
100
AcDbEntity
  8
SPEC
370
               0
390
0
  6
Continuous
 62
               0
100
AcDbLine
 10
-1647.5987258989571
 20
2314.3025961657236
 30
0.0
 11
-1647.5987258989571
 21
2018.0540068025721
 31
0.0
  0
LINE
  5
44A
100
AcDbEntity
  8
SPEC
370
               0
390
0
  6
Continuous
 62
               0
100
AcDbLine
 10
77.401274101042986
 20
2314.3025961657236
 30
0.0
 11
77.402918390913442
 21
2018.0540068025721
 31
0.0
  0
LINE
  5
44B
100
AcDbEntity
  8
SPEC
370
               0
390
0
  6
Continuous
 62
               0
100
AcDbLine
 10
-2135.0987258989571
 20
2194.3025961657236
 30
0.0
 11
77.401274101042986
 21
2194.3025961657236
 31
0.0
  0
LINE
  5
44C
100
AcDbEntity
  8
SPEC
370
               0
390
0
  6
Continuous
 62
               0
100
AcDbLine
 10
-2135.0987258989571
 20
2134.3025961657236
 30
0.0
 11
77.401274101042986
 21
2134.3025961657236
 31
0.0
  0
MTEXT
  5
44D
100
AcDbEntity
  8
SPEC
390
0
 62
               0
100
AcDbMText
 10
-1633.8268568483491
 20
2175.8160607157306
 30
0.0
 40
28.504720052083346
 41
0.0
 71
               1
 72
               1
  1
{\fＭＳ ゴシック|b0|i0|c128|p0;\l図面表記をご参照ください。}
 73
               1
 44
0.7828267384257843
  0
MTEXT
  5
44E
100
AcDbEntity
  8
SPEC
390
0
 62
               0
100
AcDbMText
 10
-1633.784702562084
 20
2238.9895583616708
 30
0.0
 40
28.504720052083346
 41
0.0
 71
               1
 72
               1
  1
{\fＭＳ ゴシック|b0|i0|c128|p0;\l塗装 標準色：黒   ※特注色（RAL指定による）の場合もあり。}
 73
               1
 44
0.7828267384257843
  0
MTEXT
  5
44F
100
AcDbEntity
  8
SPEC
390
0
 62
               0
100
AcDbMText
 10
-2123.1848972307275
 20
2239.7125859563289
 30
0.0
 40
28.504720052083346
 41
0.0
 71
               1
 72
               1
  1
{\fＭＳ ゴシック|b0|i0|c128|p0;\l仕上げ}
 73
               1
 44
0.7828267384257843
  0
MTEXT
  5
450
100
AcDbEntity
  8
SPEC
390
0
 62
               0
100
AcDbMText
 10
-2122.6505685438583
 20
2296.0702518251255
 30
0.0
 40
28.504720052083346
 41
0.0
 71
               1
 72
               1
  1
{\fＭＳ ゴシック|b0|i0|c128|p0;\l形式}
 73
               1
 44
0.7828267384257843
  0
MTEXT
  5
451
100
AcDbEntity
  8
SPEC
390
0
 62
               0
100
AcDbMText
 10
-2122.8125326926652
 20
2178.0609945485767
 30
0.0
 40
28.504720052083346
 41
0.0
 71
               1
 72
               1
  1
{\fＭＳ ゴシック|b0|i0|c128|p0;\l寸法}
 73
               1
 44
0.7828267384257843
  0
MTEXT
  5
452
100
AcDbEntity
  8
SPEC
390
0
 62
               0
100
AcDbMText
 10
-2122.7335368308072
 20
2122.0190261007792
 30
0.0
 40
28.504720052083346
 41
0.0
 71
               1
 72
               1
  1
{\fＭＳ ゴシック|b0|i0|c128|p0;\l重量}
 73
               1
 44
0.7828267384257843
  0
MTEXT
  5
453
100
AcDbEntity
  8
SPEC
390
0
 62
               0
100
AcDbMText
 10
-1637.2900252472341
 20
2294.7383403408567
 30
0.0
 40
28.504720052083346
 41
0.0
 71
               1
 72
               1
  1
{\fＭＳ ゴシック|b0|i0|c128|p0;\l固定設備及び仮設イベント向けD20用天吊り金具}
 73
               1
 44
0.7828267384257843
  0
LINE
  5
454
100
AcDbEntity
  8
SPEC
370
               0
390
0
  6
Continuous
 62
               0
100
AcDbLine
 10
-2135.0987258989571
 20
2078.0525961657236
 30
0.0
 11
77.401274101042986
 21
2078.0525961657236
 31
0.0
  0
MTEXT
  5
455
100
AcDbEntity
  8
SPEC
390
0
 62
               0
100
AcDbMText
 10
-1633.2807282275585
 20
2058.3081669437142
 30
0.0
 40
27.224372509123548
 41
0.0
 71
               1
 72
               1
  1
{\fＭＳ ゴシック|b0|i0|c128|p0;\lスピーカー取付ネジ部カバー。※CUD20Vには取付部スペーサーが付属}
 73
               1
 44
0.7828267384257843
  0
MTEXT
  5
456
100
AcDbEntity
  8
SPEC
390
0
 62
               0
100
AcDbMText
 10
-2121.5064969299856
 20
2064.0471450353625
 30
0.0
 40
28.504720052083346
 41
0.0
 71
               1
 72
               1
  1
{\fＭＳ ゴシック|b0|i0|c128|p0;\l付属品}
 73
               1
 44
0.7828267384257843
  0
LINE
  5
457
100
AcDbEntity
  8
SPEC
370
               0
390
0
  6
Continuous
 62
               0
100
AcDbLine
 10
-2135.0970816090867
 20
2018.0540068025721
 30
0.0
 11
77.402918390913442
 21
2018.0540068025721
 31
0.0
  0
LINE
  5
458
100
AcDbEntity
  8
一般
370
               0
390
0
  6
Continuous
 62
               4
100
AcDbLine
 10
-2373.7331179628609
 20
2466.7112392137565
 30
0.0
 11
326.26688203713854
 21
2466.7112392137565
 31
0.0
  0
LINE
  5
459
100
AcDbEntity
  8
一般
370
               0
390
0
  6
Continuous
 62
               4
100
AcDbLine
 10
326.26688203713854
 20
-1433.2887607862435
 30
0.0
 11
-2373.7331179628609
 21
-1433.2887607862435
 31
0.0
  0
LINE
  5
45A
100
AcDbEntity
  8
一般
370
               0
390
0
  6
Continuous
 62
               4
100
AcDbLine
 10
-2373.7331179628609
 20
-1433.2887607862435
 30
0.0
 11
-2373.7331179628609
 21
2466.7112392137565
 31
0.0
  0
LINE
  5
45B
100
AcDbEntity
  8
一般
370
               0
390
0
  6
Continuous
 62
               4
100
AcDbLine
 10
326.26688203713854
 20
2466.7112392137565
 30
0.0
 11
326.26688203713854
 21
-1433.2887607862435
 31
0.0
  0
LINE
  5
45C
100
AcDbEntity
  8
一般
370
               0
390
0
  6
Continuous
 62
               4
100
AcDbLine
 10
-1023.7331179628612
 20
-1095.7887607862435
 30
0.0
 11
326.26688203713854
 21
-1095.7887607862435
 31
0.0
  0
LINE
  5
45D
100
AcDbEntity
  8
一般
370
               0
390
0
  6
Continuous
 62
               4
100
AcDbLine
 10
-1023.7331179628612
 20
-1433.2887607862435
 30
0.0
 11
-1023.7331179628612
 21
-1095.7887607862435
 31
0.0
  0
MTEXT
  5
45E
100
AcDbEntity
  8
一般
390
0
 62
               2
100
AcDbMText
 10
-1010.2331179628612
 20
-1108.9865435987433
 30
0.0
 40
24.432617187499996
 41
0.0
 71
               1
 72
               1
  1
{\fＭＳ ゴシック|b0|i0|c128|p0;\lNOTE}
 73
               1
 44
0.7828267384257843
  0
LINE
  5
45F
100
AcDbEntity
  8
一般
370
               0
390
0
  6
Continuous
 62
               2
100
AcDbLine
 10
-498.73311796286123
 20
-1433.2887607862435
 30
0.0
 11
-498.73311796286123
 21
-1095.7887607862435
 31
0.0
  0
MTEXT
  5
460
100
AcDbEntity
  8
一般
390
0
 62
               2
100
AcDbMText
 10
-485.23311796286123
 20
-1108.9865435987433
 30
0.0
 40
24.432617187499996
 41
0.0
 71
               1
 72
               1
  1
{\fＭＳ ゴシック|b0|i0|c128|p0;\lTITLE}
 73
               1
 44
0.7828267384257843
  0
LINE
  5
461
100
AcDbEntity
  8
一般
370
               0
390
0
  6
Continuous
 62
               2
100
AcDbLine
 10
-1023.7331179628612
 20
-1283.2887607862435
 30
0.0
 11
326.26688203713854
 21
-1283.2887607862435
 31
0.0
  0
MTEXT
  5
462
100
AcDbEntity
  8
一般
390
0
 62
               2
100
AcDbMText
 10
-297.73311796286123
 20
-1295.6417435987435
 30
0.0
 40
24.432617187499996
 41
0.0
 71
               1
 72
               1
  1
{\fＭＳ ゴシック|b0|i0|c128|p0;\lDRAWN}
 73
               1
 44
0.7828267384257843
  0
MTEXT
  5
463
100
AcDbEntity
  8
一般
390
0
 62
               2
100
AcDbMText
 10
-672.73311796286123
 20
-1295.6417435987435
 30
0.0
 40
24.432617187499996
 41
0.0
 71
               1
 72
               1
  1
{\fＭＳ ゴシック|b0|i0|c128|p0;\lDATE}
 73
               1
 44
0.7828267384257843
  0
MTEXT
  5
464
100
AcDbEntity
  8
一般
390
0
 62
               2
100
AcDbMText
 10
-822.73311796286123
 20
-1295.6417435987435
 30
0.0
 40
24.432617187499996
 41
0.0
 71
               1
 72
               1
  1
{\fＭＳ ゴシック|b0|i0|c128|p0;\lSCALE}
 73
               1
 44
0.7828267384257843
  0
MTEXT
  5
465
100
AcDbEntity
  8
一般
390
0
 62
               2
100
AcDbMText
 10
-485.23311796286123
 20
-1295.6417435987435
 30
0.0
 40
24.432617187499996
 41
0.0
 71
               1
 72
               1
  1
{\fＭＳ ゴシック|b0|i0|c128|p0;\lDESIGN}
 73
               1
 44
0.7828267384257843
  0
MTEXT
  5
466
100
AcDbEntity
  8
一般
390
0
 62
               2
100
AcDbMText
 10
77.266882037138544
 20
-1295.6417435987435
 30
0.0
 40
24.432617187499996
 41
0.0
 71
               1
 72
               1
  1
{\fＭＳ ゴシック|b0|i0|c128|p0;\lDRAWING NO.}
 73
               1
 44
0.7828267384257843
  0
MTEXT
  5
467
100
AcDbEntity
  8
一般
390
0
 62
               2
100
AcDbMText
 10
-110.23311796286123
 20
-1295.6417435987435
 30
0.0
 40
24.432617187499996
 41
0.0
 71
               1
 72
               1
  1
{\fＭＳ ゴシック|b0|i0|c128|p0;\lCHECK}
 73
               1
 44
0.7828267384257843
  0
LINE
  5
468
100
AcDbEntity
  8
一般
370
               0
390
0
  6
Continuous
 62
               2
100
AcDbLine
 10
-808.10811796286123
 20
-1414.5387607862435
 30
0.0
 11
-751.85811796286123
 21
-1358.2887607862435
 31
0.0
  0
MTEXT
  5
469
100
AcDbEntity
  8
一般
390
0
 62
               2
100
AcDbMText
 10
-817.48311796286123
 20
-1350.4902935987432
 30
0.0
 40
24.432617187499996
 41
0.0
 71
               1
 72
               1
  1
{\fＭＳ ゴシック|b0|i0|c128|p0;\l1}
 73
               1
 44
0.7828267384257843
  0
LINE
  5
46A
100
AcDbEntity
  8
一般
370
               0
390
0
  6
Continuous
 62
               2
100
AcDbLine
 10
-836.23311796286123
 20
-1433.2887607862435
 30
0.0
 11
-836.23311796286123
 21
-1283.2887607862435
 31
0.0
  0
LINE
  5
46B
100
AcDbEntity
  8
一般
370
               0
390
0
  6
Continuous
 62
               2
100
AcDbLine
 10
-686.23311796286123
 20
-1433.2887607862435
 30
0.0
 11
-686.23311796286123
 21
-1283.2887607862435
 31
0.0
  0
LINE
  5
46C
100
AcDbEntity
  8
一般
370
               0
390
0
  6
Continuous
 62
               2
100
AcDbLine
 10
-311.23311796286123
 20
-1283.2887607862435
 30
0.0
 11
-311.23311796286123
 21
-1433.2887607862435
 31
0.0
  0
LINE
  5
46D
100
AcDbEntity
  8
一般
370
               0
390
0
  6
Continuous
 62
               2
100
AcDbLine
 10
63.766882037138771
 20
-1283.2887607862435
 30
0.0
 11
63.766882037138771
 21
-1433.2887607862435
 31
0.0
  0
LINE
  5
46E
100
AcDbEntity
  8
一般
370
               0
390
0
  6
Continuous
 62
               2
100
AcDbLine
 10
-123.73311796286123
 20
-1433.2887607862435
 30
0.0
 11
-123.73311796286123
 21
-1283.2887607862435
 31
0.0
  0
MTEXT
  5
46F
100
AcDbEntity
  8
一般
390
0
 62
               2
100
AcDbMText
 10
-653.3850179628613
 20
-1355.901443598744
 30
0.0
 40
24.432617187499996
 41
0.0
 71
               1
 72
               1
  1
{\fＭＳ ゴシック|b0|i0|c128|p0;\l2018.12}
 73
               1
 44
0.7828267384257843
  0
MTEXT
  5
470
100
AcDbEntity
  8
一般
390
0
 62
               2
100
AcDbMText
 10
-761.23311796286123
 20
-1378.6152935987432
 30
0.0
 40
24.432617187499996
 41
0.0
 71
               1
 72
               1
  1
{\fＭＳ ゴシック|b0|i0|c128|p0;\l15}
 73
               1
 44
0.7828267384257843
  0
MTEXT
  5
471
100
AcDbEntity
  8
一般
390
0
 62
               2
100
AcDbMText
 10
-278.645967797342
 20
-1345.901443598744
 30
0.0
 40
24.432617187499996
 41
0.0
 71
               1
 72
               1
  1
{\fＭＳ ゴシック|b0|i0|c128|p0;\lKojima\P Shohei}
 73
               1
 44
0.7828267384257843
  0
MTEXT
  5
472
100
AcDbEntity
  8
一般
390
0
 62
               2
100
AcDbMText
 10
-965.48311796286077
 20
-1354.7835264112434
 30
0.0
 40
48.865234374999993
 41
0.0
 71
               1
 72
               1
  1
{\fＭＳ ゴシック|b0|i0|c128|p0;\lA4}
 73
               1
 44
0.7828267384257843
  0
MTEXT
  5
473
100
AcDbEntity
  8
一般
390
0
 62
               2
100
AcDbMText
 10
-1009.3581179628612
 20
-1298.1479685987435
 30
0.0
 40
24.432617187499996
 41
0.0
 71
               1
 72
               1
  1
{\fＭＳ ゴシック|b0|i0|c128|p0;\lPAPER SIZE}
 73
               1
 44
0.7828267384257843
  0
MTEXT
  5
474
100
AcDbEntity
  8
一般
390
0
 62
               2
100
AcDbMText
 10
-2332.3385891095086
 20
-1476.7300270593041
 30
0.0
 40
52.937337239583329
 41
0.0
 71
               1
 72
               1
  1
{\fＭＳ ゴシック|b0|i0|c128|p0;\lHibino-Intersound Corporation}
 73
               1
 44
0.7828267384257843
  0
MTEXT
  5
475
100
AcDbEntity
  8
一般
390
0
 62
               2
100
AcDbMText
 10
-721.02397275965279
 20
-1471.463703259963
 30
0.0
 40
52.937337239583329
 41
0.0
 71
               1
 72
               1
  1
{\fＭＳ ゴシック|b0|i0|c128|p0;\lヒビノインタ ーサウンド株式会社}
 73
               1
 44
0.7828267384257843
  0
MTEXT
  5
476
100
AcDbEntity
  8
0
390
0
 62
               2
100
AcDbMText
 10
-2172.5523996652391
 20
-1116.9852469482028
 30
0.0
 40
48.865234375000092
 41
0.0
 71
               1
 72
               1
  1
{\fＭＳ ゴシック|b0|i0|c128|p0;\l(単位：mm）}
 73
               1
 44
0.7828267384257843
  0
MTEXT
  5
477
100
AcDbEntity
  8
0
390
0
 62
               2
100
AcDbMText
 10
-397.82026812838103
 20
-1154.3066654737434
 30
0.0
 40
40.721028645833343
 41
0.0
 71
               1
 72
               1
  1
{\fＭＳ ゴシック|b0|i0|c128|p0;\lCODA AUDIO アクセサリー\P CUD20H, CUD20V}
 73
               1
 44
0.7828267384257843
  0
MTEXT
  5
478
100
AcDbEntity
  8
一般
390
0
 62
               2
100
AcDbMText
 10
-2278.5524400374516
 20
-1320.8628641357029
 30
0.0
 40
24.432617187500004
 41
0.0
 71
               1
 72
               1
  1
{\fＭＳ ゴシック|b0|i0|c128|p0;\l仕様および外観は予告なく変更されることがありますので、ご了承ください。}
 73
               1
 44
0.7828267384257843
  0
MTEXT
  5
479
100
AcDbEntity
  8
SPEC
390
0
 62
               0
100
AcDbMText
 10
-1633.0706211907641
 20
2116.7000720622136
 30
0.0
 40
28.504720052083346
 41
0.0
 71
               1
 72
               1
  1
{\fＭＳ ゴシック|b0|i0|c128|p0;\l図面表記をご参照ください。}
 73
               1
 44
0.7828267384257843
  0
MTEXT
  5
47A
100
AcDbEntity
  8
0
390
0
 62
               1
100
AcDbMText
 10
-2049.8869710209988
 20
1649.5342045134025
 30
0.0
 40
58.63828125000029
 41
0.0
 71
               1
 72
               1
  1
{\fＭＳ ゴシック|b0|i0|c128|p0;\lCUD20H}
 73
               1
 44
0.7828267384257842
  0
INSERT
  5
47B
100
AcDbEntity
  8
0
390
0
 62
               1
100
AcDbBlockReference
  2
グループ
 10
-1022.9432400870099
 20
449.71713461044868
 30
0.0
  0
DIMENSION
  5
47C
100
AcDbEntity
  8
寸法
370
               0
390
0
  6
Continuous
 62
               1
100
AcDbDimension
  2
*D2
 10
-1649.8869710209983
 20
1475.4799398346863
 30
0.0
 11
-1657.3869710209983
 21
1304.2299398346865
 31
0.0
 70
             128
 71
               5
 72
               1
 41
1.0
 42
0.0
  3
HIBINO
100
AcDbAlignedDimension
 13
-1500.3869710210006
 23
1132.9799398346865
 33
0.0
 14
-1500.3869710209988
 24
1475.4799398346863
 34
0.0
 50
-90.0
100
AcDbRotatedDimension
1001
ACAD
1000
DSTYLE
1002
{
1070
             271
1070
               0
1070
             279
1070
               2
1070
             340
1005
35
1070
             147
1040
7.5
1002
}
  0
INSERT
  5
47D
100
AcDbEntity
  8
0
390
0
 62
               1
100
AcDbBlockReference
  2
グループ-1
 10
-1022.9432400870099
 20
449.71713461044868
 30
0.0
  0
DIMENSION
  5
47E
100
AcDbEntity
  8
寸法
370
               0
390
0
  6
Continuous
 62
               1
100
AcDbDimension
  2
*D6
 10
-1500.3869710210006
 20
997.02792326340318
 30
0.0
 11
-1137.3869710210001
 21
1004.5279232634032
 31
0.0
 70
             128
 71
               5
 72
               1
 41
1.0
 42
0.0
  3
HIBINO
100
AcDbAlignedDimension
 13
-774.38697102099979
 23
1132.9799398346865
 33
0.0
 14
-1500.3869710210006
 24
1132.9799398346865
 34
0.0
100
AcDbRotatedDimension
1001
ACAD
1000
DSTYLE
1002
{
1070
             279
1070
               2
1070
             340
1005
35
1070
             147
1040
7.5
1002
}
  0
MTEXT
  5
47F
100
AcDbEntity
  8
0
390
0
 62
               1
100
AcDbMText
 10
-984.38697102099991
 20
903.67136561593657
 30
0.0
 40
36.64892578125
 41
0.0
 71
               1
 72
               1
  1
{\fＭＳ ゴシック|b0|i0|c128|p0;\lM6 落下防止用}
 73
               1
 44
0.7828267384257843
  0
INSERT
  5
480
100
AcDbEntity
  8
0
390
0
 62
               1
100
AcDbBlockReference
  2
グループ-2
 10
-1022.9432400870099
 20
449.71713461044868
 30
0.0
  0
DIMENSION
  5
481
100
AcDbEntity
  8
寸法
370
               0
390
0
  6
Continuous
 62
               1
100
AcDbDimension
  2
*D8
 10
-1639.3869710209999
 20
831.92792326340304
 30
0.0
 11
-1646.8869710209999
 21
752.94640643826187
 31
0.0
 70
             128
 71
               5
 72
               1
 41
1.0
 42
0.0
  3
HIBINO
100
AcDbAlignedDimension
 13
-1500.3869710209988
 23
791.92792326340304
 33
0.0
 14
-1500.3869710209988
 24
831.92792326340304
 34
0.0
 50
-90.0
100
AcDbRotatedDimension
1001
ACAD
1000
DSTYLE
1002
{
1070
             279
1070
               2
1070
             340
1005
35
1070
             174
1070
               0
1070
             147
1040
7.5
1002
}
  0
MTEXT
  5
482
100
AcDbEntity
  8
0
390
0
 62
               1
100
AcDbMText
 10
-2029.3869710209999
 20
276.08622108468626
 30
0.0
 40
58.63828125000029
 41
0.0
 71
               1
 72
               1
  1
{\fＭＳ ゴシック|b0|i0|c128|p0;\lCUD20V}
 73
               1
 44
0.7828267384257842
  0
INSERT
  5
483
100
AcDbEntity
  8
0
390
0
 62
               1
100
AcDbBlockReference
  2
グループ-3
 10
-1022.9432400870099
 20
449.71713461044868
 30
0.0
  0
INSERT
  5
484
100
AcDbEntity
  8
0
390
0
 62
               1
100
AcDbBlockReference
  2
グループ-4
 10
-1022.9432400870099
 20
449.71713461044868
 30
0.0
  0
DIMENSION
  5
485
100
AcDbEntity
  8
寸法
370
               0
390
0
  6
Continuous
 62
               1
100
AcDbDimension
  2
*D11
 10
-1500.0
 20
136.00000000000011
 30
0.0
 11
-1500.0
 21
-111.99999999999994
 31
0.0
 71
               5
 72
               1
 41
1.0
 42
0.0
  3
HIBINO
100
AcDbAlignedDimension
 13
-1390.0000000000005
 23
-360.00000000000006
 33
0.0
 14
-1389.4999999999984
 24
136.00000000000011
 34
0.0
 50
-90.0
100
AcDbRotatedDimension
1001
ACAD
1000
DSTYLE
1002
{
1070
             279
1070
               2
1070
             340
1005
35
1070
             147
1040
7.5
1002
}
  0
DIMENSION
  5
486
100
AcDbEntity
  8
寸法
370
               0
390
0
  6
Continuous
 62
               1
100
AcDbDimension
  2
*D12
 10
-1390.0000000000005
 20
-475.00000000000006
 30
0.0
 11
-1202.5000000000002
 21
-475.00000000000006
 31
0.0
 71
               5
 72
               1
 41
1.0
 42
0.0
  3
HIBINO
100
AcDbAlignedDimension
 13
-1015.0
 23
-360.00000000000006
 33
0.0
 14
-1390.0000000000005
 24
-360.00000000000006
 34
0.0
100
AcDbRotatedDimension
1001
ACAD
1000
DSTYLE
1002
{
1070
             279
1070
               2
1070
             340
1005
35
1070
             147
1040
7.5
1002
}
  0
INSERT
  5
487
100
AcDbEntity
  8
0
390
0
 62
               1
100
AcDbBlockReference
  2
グループ-5
 10
-1022.9432400870099
 20
449.71713461044868
 30
0.0
  0
INSERT
  5
488
100
AcDbEntity
  8
0
390
0
 62
               1
100
AcDbBlockReference
  2
グループ-6
 10
-1022.9432400870099
 20
449.71713461044868
 30
0.0
  0
DIMENSION
  5
489
100
AcDbEntity
  8
寸法
370
               0
390
0
  6
Continuous
 62
               1
100
AcDbDimension
  2
*D17
 10
-1500.0
 20
-689.51666649984372
 30
0.0
 11
-1507.5
 21
-800.0
 31
0.0
 70
             128
 71
               5
 72
               1
 41
1.0
 42
0.0
  3
HIBINO
100
AcDbAlignedDimension
 13
-1389.4999999999984
 23
-729.51666649984372
 33
0.0
 14
-1389.9999999999984
 24
-689.51666649984372
 34
0.0
 50
-90.0
100
AcDbRotatedDimension
1001
ACAD
1000
DSTYLE
1002
{
1070
             279
1070
               2
1070
             340
1005
35
1070
             174
1070
               0
1070
             147
1040
7.5
1002
}
  0
MTEXT
  5
48A
100
AcDbEntity
  8
0
390
0
 62
               1
100
AcDbMText
 10
-1054.7812600930531
 20
-604.30857421874998
 30
0.0
 40
36.64892578125
 41
0.0
 71
               1
 72
               1
  1
{\fＭＳ ゴシック|b0|i0|c128|p0;\lM6 落下防止用}
 73
               1
 44
0.7828267384257843
  0
CIRCLE
  5
48B
100
AcDbEntity
  8
0
370
               0
390
0
  6
Continuous
 62
               1
100
AcDbCircle
 10
-284.69387518463816
 20
-175.43913770025239
 30
0.0
 40
123.61504815807129
  0
LINE
  5
48C
100
AcDbEntity
  8
0
370
               0
390
0
  6
Continuous
 62
               1
100
AcDbLine
 10
-238.9887426523411
 20
-60.583920181293081
 30
0.0
 11
-190.21183200718383
 21
-11.807009536135809
 31
0.0
  0
MTEXT
  5
48D
100
AcDbEntity
  8
0
390
0
 62
               1
100
AcDbMText
 10
-222.10291399391201
 20
33.140057359021512
 30
0.0
 40
32.576822916666664
 41
522.10291399391201
 71
               1
 72
               1
  1
{\fＭＳ ゴシック|b0|i0|c128|p0;\l参考：※付属品スペーサー\P　}
 73
               1
 44
0.7828267384257843
  0
MTEXT
  5
48E
100
AcDbEntity
  8
0
390
0
 62
               1
100
AcDbMText
 10
-1930.4829621230704
 20
596.77959652502921
 30
0.0
 40
36.64892578125
 41
0.0
 71
               1
 72
               1
  1
{\fＭＳ ゴシック|b0|i0|c128|p0;\l重量：約1.4kg}
 73
               1
 44
0.7828267384257843
  0
MTEXT
  5
48F
100
AcDbEntity
  8
0
390
0
 62
               1
100
AcDbMText
 10
-1950.0
 20
-829.30857421874998
 30
0.0
 40
36.64892578125
 41
0.0
 71
               1
 72
               1
  1
{\fＭＳ ゴシック|b0|i0|c128|p0;\l重量：約1.5kg\P\fＭＳ ゴシック|b0|i0|c128|p0;\H0.8889x;\l(スペーサー含む）}
 73
               1
 44
0.7828267384257843
  0
ENDSEC
  0
SECTION
  2
OBJECTS
  0
DICTIONARY
  5
19
100
AcDbDictionary
280
               0
281
               1
  3
ACAD_GROUP
350
1A
  3
ACAD_MLINESTYLE
350
1B
  3
ACAD_LAYOUT
350
1E
  3
ACAD_PLOTSETTINGS
350
22
  3
ACAD_PLOTSTYLENAME
350
1F
  3
ACAD_WIPEOUT_VARS
350
23
  0
DICTIONARY
  5
1A
102
{ACAD_REACTORS
330
19
102
}
100
AcDbDictionary
280
               0
281
               1
  0
DICTIONARY
  5
1B
102
{ACAD_REACTORS
330
19
102
}
100
AcDbDictionary
280
               0
281
               1
  3
Standard
350
1C
  0
MLINESTYLE
  5
1C
102
{ACAD_REACTORS
330
1B
102
}
100
AcDbMlineStyle
  2
Standard
 70
               0
  3

 62
               0
 51
90.0
 52
90.0
 71
               2
 49
0.5
 62
             256
  6
ByLayer
 49
-0.5
 62
             256
  6
ByLayer
  0
ACDBDICTIONARYWDFLT
  5
1F
102
{ACAD_REACTORS
330
19
102
}
100
AcDbDictionary
281
               1
  3
Normal
350
1D
100
AcDbDictionaryWithDefault
340
1D
  0
ACDBPLACEHOLDER
  5
1D
102
{ACAD_REACTORS
330
1F
102
}
  0
LAYOUT
  5
20
102
{ACAD_REACTORS
330
1E
102
}
100
AcDbPlotSettings
  1

  2

  4

  6

 40
0.0
 41
0.0
 42
0.0
 43
0.0
 44
0.0
 45
0.0
 46
0.0
 47
0.0
 48
0.0
 49
0.0
140
0.0
141
0.0
142
1.0
143
1.0
 70
            1024
 72
               0
 73
               0
 74
               0
  7
D20用_CUD20H_CUD20V.ctb
 75
               0
147
1.0
148
0.0
149
0.0
100
AcDbLayout
  1
Model
 70
               0
 71
               0
 10
0.0
 20
0.0
 11
0.0
 21
0.0
 12
0.0
 22
0.0
 32
0.0
 14
0.0
 24
0.0
 34
0.0
 15
0.0
 25
0.0
 35
0.0
146
0.0
 13
0.0
 23
0.0
 33
0.0
 16
0.0
 26
0.0
 36
0.0
 17
0.0
 27
0.0
 37
0.0
 76
               0
330
A
331
0
345
0
346
0
  0
LAYOUT
  5
21
102
{ACAD_REACTORS
330
1E
102
}
100
AcDbPlotSettings
  1

  2

  4

  6

 40
0.0
 41
0.0
 42
0.0
 43
0.0
 44
0.0
 45
0.0
 46
0.0
 47
0.0
 48
0.0
 49
0.0
140
0.0
141
0.0
142
1.0
143
1.0
 70
               0
 72
               0
 73
               0
 74
               0
  7

 75
               0
147
1.0
148
0.0
149
0.0
100
AcDbLayout
  1
Layout1
 70
               0
 71
               0
 10
0.0
 20
0.0
 11
0.0
 21
0.0
 12
0.0
 22
0.0
 32
0.0
 14
0.0
 24
0.0
 34
0.0
 15
0.0
 25
0.0
 35
0.0
146
0.0
 13
0.0
 23
0.0
 33
0.0
 16
0.0
 26
0.0
 36
0.0
 17
0.0
 27
0.0
 37
0.0
 76
               0
330
B
331
0
345
0
346
0
  0
DICTIONARY
  5
1E
102
{ACAD_REACTORS
330
19
102
}
100
AcDbDictionary
280
               0
281
               1
  3
Layout1
350
21
  3
Model
350
20
  0
DICTIONARY
  5
22
102
{ACAD_REACTORS
330
19
102
}
100
AcDbDictionary
280
               0
281
               1
  0
WIPEOUTVARIABLES
  5
23
100
AcDbWipeoutVariables
 70
               0
  0
ENDSEC
  0
EOF
