  0
SECTION
  2
HEADER
  9
$ACADVER
  1
AC1015
  9
$ACADMAINTVER
 70
               6
  9
$DWGCODEPAGE
  3
ANSI_932
  9
$INSBASE
 10
0.0
 20
0.0
 30
0.0
  9
$EXTMIN
 10
3406.8280253591865
 20
-1594.1359342287747
 30
-22.250399999999999
  9
$EXTMAX
 10
6106.8280253591856
 20
2411.873502617203
 30
22.250399999999999
  9
$LIMMIN
 10
0.0
 20
0.0
  9
$LIMMAX
 10
0.0
 20
0.0
  9
$ORTHOMODE
 70
               0
  9
$REGENMODE
 70
               1
  9
$FILLMODE
 70
               1
  9
$QTEXTMODE
 70
               0
  9
$MIRRTEXT
 70
               1
  9
$LTSCALE
 40
76.199999999999989
  9
$ATTMODE
 70
               1
  9
$TEXTSIZE
 40
0.2
  9
$TRACEWID
 40
1.0
  9
$TEXTSTYLE
  7
Standard
  9
$CLAYER
  8
Layer1
  9
$CELTYPE
  6
Continuous
  9
$CECOLOR
 62
             256
  9
$CELTSCALE
 40
1.0
  9
$DISPSILH
 70
               0
  9
$DIMSCALE
 40
1.0
  9
$DIMASZ
 40
37.50933837890625
  9
$DIMEXO
 40
29.999999999999996
  9
$DIMDLI
 40
4.9999999999999991
  9
$DIMRND
 40
0.0
  9
$DIMDLE
 40
0.0
  9
$DIMEXE
 40
29.999999999999996
  9
$DIMTP
 40
0.0
  9
$DIMTM
 40
0.0
  9
$DIMTXT
 40
48.865234375000092
  9
$DIMCEN
 40
0.0
  9
$DIMTSZ
 40
0.0
  9
$DIMTOL
 70
               0
  9
$DIMLIM
 70
               0
  9
$DIMTIH
 70
               0
  9
$DIMTOH
 70
               0
  9
$DIMSE1
 70
               0
  9
$DIMSE2
 70
               0
  9
$DIMTAD
 70
               1
  9
$DIMZIN
 70
              11
  9
$DIMBLK
  1
VW_EMPTYARROW
  9
$DIMASO
 70
               1
  9
$DIMSHO
 70
               1
  9
$DIMPOST
  1
<>
  9
$DIMAPOST
  1
[]
  9
$DIMALT
 70
               0
  9
$DIMALTD
 70
               2
  9
$DIMALTF
 40
1.0
  9
$DIMLFAC
 40
1.0
  9
$DIMTOFL
 70
               1
  9
$DIMTVP
 40
0.0
  9
$DIMTIX
 70
               1
  9
$DIMSOXD
 70
               0
  9
$DIMSAH
 70
               0
  9
$DIMBLK1
  1

  9
$DIMBLK2
  1

  9
$DIMSTYLE
  2
HIBINO
  9
$DIMCLRD
 70
               0
  9
$DIMCLRE
 70
               0
  9
$DIMCLRT
 70
               0
  9
$DIMTFAC
 40
1.0
  9
$DIMGAP
 40
0.4999999999999999
  9
$DIMJUST
 70
               0
  9
$DIMSD1
 70
               0
  9
$DIMSD2
 70
               0
  9
$DIMTOLJ
 70
               1
  9
$DIMTZIN
 70
              11
  9
$DIMALTZ
 70
              11
  9
$DIMALTTZ
 70
              11
  9
$DIMUPT
 70
               0
  9
$DIMDEC
 70
               2
  9
$DIMTDEC
 70
               2
  9
$DIMALTU
 70
               2
  9
$DIMALTTD
 70
               2
  9
$DIMTXSTY
  7
ＭＳ ゴシック
  9
$DIMAUNIT
 70
               0
  9
$DIMADEC
 70
               0
  9
$DIMALTRND
 40
0.0
  9
$DIMAZIN
 70
               0
  9
$DIMDSEP
 70
              46
  9
$DIMATFIT
 70
               0
  9
$DIMFRAC
 70
               2
  9
$DIMLDRBLK
  1

  9
$DIMLUNIT
 70
               2
  9
$DIMLWD
 70
              -2
  9
$DIMLWE
 70
              -2
  9
$DIMTMOVE
 70
               0
  9
$LUNITS
 70
               2
  9
$LUPREC
 70
               4
  9
$SKETCHINC
 40
0.1
  9
$FILLETRAD
 40
0.0
  9
$AUNITS
 70
               0
  9
$AUPREC
 70
               0
  9
$MENU
  1
acad
  9
$ELEVATION
 40
0.0
  9
$PELEVATION
 40
0.0
  9
$THICKNESS
 40
0.0
  9
$LIMCHECK
 70
               0
  9
$CHAMFERA
 40
0.0
  9
$CHAMFERB
 40
0.0
  9
$CHAMFERC
 40
0.0
  9
$CHAMFERD
 40
0.0
  9
$SKPOLY
 70
               0
  9
$TDCREATE
 40
2458499.627893519
  9
$TDUCREATE
 40
0.000000000
  9
$TDUPDATE
 40
2458499.627893519
  9
$TDUUPDATE
 40
0.000000000
  9
$TDINDWG
 40
0.0000000000
  9
$TDUSRTIMER
 40
0.0000000000
  9
$USRTIMER
 70
               1
  9
$ANGBASE
 50
0.0
  9
$ANGDIR
 70
               0
  9
$PDMODE
 70
               1
  9
$PDSIZE
 40
-2.0
  9
$PLINEWID
 40
0.0
  9
$SPLFRAME
 70
               0
  9
$SPLINETYPE
 70
               6
  9
$SPLINESEGS
 70
               8
  9
$HANDSEED
  5
49F
  9
$SURFTAB1
 70
               6
  9
$SURFTAB2
 70
               6
  9
$SURFTYPE
 70
               6
  9
$SURFU
 70
               6
  9
$SURFV
 70
               6
  9
$UCSBASE
  2

  9
$UCSNAME
  2

  9
$UCSORG
 10
0.0
 20
0.0
 30
0.0
  9
$UCSXDIR
 10
1.0
 20
0.0
 30
0.0
  9
$UCSYDIR
 10
0.0
 20
1.0
 30
0.0
  9
$UCSORTHOREF
  2

  9
$UCSORTHOVIEW
 70
               0
  9
$UCSORGTOP
 10
0.0
 20
0.0
 30
0.0
  9
$UCSORGBOTTOM
 10
0.0
 20
0.0
 30
0.0
  9
$UCSORGLEFT
 10
0.0
 20
0.0
 30
0.0
  9
$UCSORGRIGHT
 10
0.0
 20
0.0
 30
0.0
  9
$UCSORGFRONT
 10
0.0
 20
0.0
 30
0.0
  9
$UCSORGBACK
 10
0.0
 20
0.0
 30
0.0
  9
$PUCSBASE
  2

  9
$PUCSNAME
  2

  9
$PUCSORG
 10
0.0
 20
0.0
 30
0.0
  9
$PUCSXDIR
 10
1.0
 20
0.0
 30
0.0
  9
$PUCSYDIR
 10
0.0
 20
1.0
 30
0.0
  9
$PUCSORTHOREF
  2

  9
$PUCSORTHOVIEW
 70
               0
  9
$PUCSORGTOP
 10
0.0
 20
0.0
 30
0.0
  9
$PUCSORGBOTTOM
 10
0.0
 20
0.0
 30
0.0
  9
$PUCSORGLEFT
 10
0.0
 20
0.0
 30
0.0
  9
$PUCSORGRIGHT
 10
0.0
 20
0.0
 30
0.0
  9
$PUCSORGFRONT
 10
0.0
 20
0.0
 30
0.0
  9
$PUCSORGBACK
 10
0.0
 20
0.0
 30
0.0
  9
$USERI1
 70
               0
  9
$USERI2
 70
               0
  9
$USERI3
 70
               0
  9
$USERI4
 70
               0
  9
$USERI5
 70
               0
  9
$USERR1
 40
0.0
  9
$USERR2
 40
0.0
  9
$USERR3
 40
0.0
  9
$USERR4
 40
0.0
  9
$USERR5
 40
0.0
  9
$WORLDVIEW
 70
               1
  9
$SHADEDGE
 70
               3
  9
$SHADEDIF
 70
              70
  9
$TILEMODE
 70
               1
  9
$MAXACTVP
 70
              64
  9
$PINSBASE
 10
0.0
 20
0.0
 30
0.0
  9
$PLIMCHECK
 70
               0
  9
$PEXTMIN
 10
1.0000000000000000E+20
 20
1.0000000000000000E+20
 30
1.0000000000000000E+20
  9
$PEXTMAX
 10
-1.0000000000000000E+20
 20
-1.0000000000000000E+20
 30
-1.0000000000000000E+20
  9
$PLIMMIN
 10
0.0
 20
0.0
  9
$PLIMMAX
 10
12.0
 20
9.0
  9
$UNITMODE
 70
               0
  9
$VISRETAIN
 70
               0
  9
$PLINEGEN
 70
               1
  9
$PSLTSCALE
 70
               0
  9
$TREEDEPTH
 70
            3020
  9
$CMLSTYLE
  2
Standard
  9
$CMLJUST
 70
               0
  9
$CMLSCALE
 40
1.0
  9
$PROXYGRAPHICS
 70
               0
  9
$MEASUREMENT
 70
               1
  9
$CELWEIGHT
370
               0
  9
$ENDCAPS
280
               0
  9
$JOINSTYLE
280
               0
  9
$LWDISPLAY
290
               0
  9
$INSUNITS
 70
               4
  9
$HYPERLINKBASE
  1

  9
$STYLESHEET
  1

  9
$XEDIT
290
               1
  9
$CEPSNTYPE
380
               0
  9
$PSTYLEMODE
290
               1
  9
$FINGERPRINTGUID
  2

  9
$VERSIONGUID
  2

  9
$EXTNAMES
290
               1
  9
$PSVPSCALE
 40
0.0
  0
ENDSEC
  0
SECTION
  2
CLASSES
  0
CLASS
  1
LWPOLYLINE
  2
AcDbPolyline
  3
AutoCAD 2000
 90
        0
280
               0
281
               1
  0
CLASS
  1
IMAGE
  2
AcDbRasterImage
  3
ISM
 90
      127
280
               0
281
               1
  0
CLASS
  1
OLE2FRAME
  2
AcDbOle2Frame
  3
AutoCAD 2000
 90
        0
280
               0
281
               1
  0
CLASS
  1
HATCH
  2
AcDbHatch
  3
AutoCAD 2000
 90
        0
280
               0
281
               1
  0
CLASS
  1
DICTIONARYVAR
  2
AcDbDictionaryVar
  3
AutoCAD 2000
 90
        0
280
               0
281
               0
  0
CLASS
  1
RASTERVARIABLES
  2
AcDbRasterVariables
  3
ISM
 90
        0
280
               0
281
               0
  0
CLASS
  1
IMAGEDEF
  2
AcDbRasterImageDef
  3
ISM
 90
        0
280
               0
281
               0
  0
CLASS
  1
IMAGEDEF_REACTOR
  2
AcDbRasterImageDefReactor
  3
ISM
 90
        1
280
               0
281
               0
  0
CLASS
  1
IDBUFFER
  2
AcDbIdBuffer
  3
AutoCAD 2000
 90
        0
280
               0
281
               0
  0
CLASS
  1
SPATIAL_FILTER
  2
AcDbSpatialFilter
  3
AutoCAD 2000
 90
        0
280
               0
281
               0
  0
CLASS
  1
XRECORD
  2
AcDbXrecord
  3
AutoCAD 2000
 90
        0
280
               0
281
               0
  0
CLASS
  1
SORTENTSTABLE
  2
AcDbSortentsTable
  3
AutoCAD 2000
 90
        0
280
               0
281
               0
  0
CLASS
  1
LAYER_INDEX
  2
AcDbLayerIndex
  3
AutoCAD 2000
 90
        0
280
               0
281
               0
  0
CLASS
  1
SPATIAL_INDEX
  2
AcDbSpatialIndex
  3
AutoCAD 2000
 90
        0
280
               0
281
               0
  0
CLASS
  1
OBJECT_PTR
  2
CAseDLPNTableRecord
  3
"ASE-LPNTableRecord"
 90
        1
280
               0
281
               0
  0
CLASS
  1
LAYOUT
  2
AcDbLayout
  3
AutoCAD 2000
 90
        0
280
               0
281
               0
  0
CLASS
  1
PLOTSETTINGS
  2
AcDbPlotSettings
  3
AutoCAD 2000
 90
        0
280
               0
281
               0
  0
CLASS
  1
ACDBDICTIONARYWDFLT
  2
AcDbDictionaryWithDefault
  3
AutoCAD 2000
 90
        0
280
               0
281
               0
  0
CLASS
  1
ACDBPLACEHOLDER
  2
AcDbPlaceHolder
  3
AutoCAD 2000
 90
        0
280
               0
281
               0
  0
CLASS
  1
VBA_PROJECT
  2
AcDbVbaProject
  3
acadvba
 90
        0
280
               0
281
               0
  0
CLASS
  1
WIPEOUT
  2
AcDbWipeout
  3
WipeOut|AutoCAD Express Tool|expresstools@autodesk.com
 90
      127
280
               0
281
               1
  0
CLASS
  1
WIPEOUTVARIABLES
  2
AcDbWipeoutVariables
  3
WipeOut|AutoCAD Express Tool|expresstools@autodesk.com
 90
        0
280
               0
281
               0
  0
CLASS
  1
RTEXT
  2
RText
  3
RText|AutoCAD Express Tool|expresstools@autodesk.com
 90
        0
280
               0
281
               1
  0
CLASS
  1
ARCALIGNEDTEXT
  2
AcDbArcAlignedText
  3
ATEXT|AutoCAD Express Tool|expresstools@autodesk.com
 90
        0
280
               0
281
               1
  0
ENDSEC
  0
SECTION
  2
TABLES
  0
TABLE
  2
VPORT
  5
7
100
AcDbSymbolTable
 70
               1
  0
VPORT
  5
15
100
AcDbSymbolTableRecord
100
AcDbViewportTableRecord
  2
*ACTIVE
 70
               0
 10
0.0
 20
0.0
 11
1.0
 21
1.0
 12
4756.8280253591856
 22
408.86878419421419
 13
0.0
 23
0.0
 14
1.0
 24
1.0
 15
0.0
 25
0.0
 16
0.0
 26
0.0
 36
1.0
 17
0.0
 27
0.0
 37
0.0
 40
4006.0094368459777
 41
0.688564
 42
50.0
 43
0.0
 44
0.0
 50
0.0
 51
0.0
 71
               0
 72
            2000
 73
               1
 74
               1
 75
               0
 76
               0
 77
               0
 78
               0
281
               0
 65
               0
110
0.0
120
0.0
130
0.0
111
1.0
121
0.0
131
0.0
112
0.0
122
1.0
132
0.0
345
0
346
0
 79
               0
146
0.0
  0
ENDTAB
  0
TABLE
  2
LTYPE
  5
4
100
AcDbSymbolTable
 70
              13
  0
LTYPE
  5
11
100
AcDbSymbolTableRecord
100
AcDbLinetypeTableRecord
  2
ByBlock
 70
              64
  3

 72
              65
 73
               0
 40
0.0
  0
LTYPE
  5
12
100
AcDbSymbolTableRecord
100
AcDbLinetypeTableRecord
  2
ByLayer
 70
              64
  3

 72
              65
 73
               0
 40
0.0
  0
LTYPE
  5
13
100
AcDbSymbolTableRecord
100
AcDbLinetypeTableRecord
  2
Continuous
 70
              64
  3
Solid line
 72
              65
 73
               0
 40
0.0
  0
LTYPE
  5
2D
100
AcDbSymbolTableRecord
100
AcDbLinetypeTableRecord
  2
STYLE_01
 70
               0
  3

 72
              65
 73
               4
 40
0.2666666666666667
 49
0.1666666666666667
 74
               0
 49
-0.0333333333333333
 74
               0
 49
0.0333333333333333
 74
               0
 49
-0.0333333333333333
 74
               0
  0
LTYPE
  5
2E
100
AcDbSymbolTableRecord
100
AcDbLinetypeTableRecord
  2
STYLE_02
 70
               0
  3

 72
              65
 73
               2
 40
0.694427490234375
 49
0.4860687255859375
 74
               0
 49
-0.2083587646484375
 74
               0
  0
LTYPE
  5
2F
100
AcDbSymbolTableRecord
100
AcDbLinetypeTableRecord
  2
STYLE_03
 70
               0
  3

 72
              65
 73
               2
 40
1.25
 49
1.0416412353515625
 74
               0
 49
-0.2083587646484375
 74
               0
  0
LTYPE
  5
30
100
AcDbSymbolTableRecord
100
AcDbLinetypeTableRecord
  2
STYLE_04
 70
               0
  3

 72
              65
 73
               2
 40
1.5277099609375
 49
1.319427490234375
 74
               0
 49
-0.208282470703125
 74
               0
  0
LTYPE
  5
31
100
AcDbSymbolTableRecord
100
AcDbLinetypeTableRecord
  2
STYLE_05
 70
               0
  3

 72
              65
 73
               2
 40
0.208282470703125
 49
0.069427490234375
 74
               0
 49
-0.13885498046875
 74
               0
  0
LTYPE
  5
32
100
AcDbSymbolTableRecord
100
AcDbLinetypeTableRecord
  2
STYLE_06
 70
               0
  3

 72
              65
 73
               4
 40
1.0416412353515625
 49
0.625
 74
               0
 49
-0.208282470703125
 74
               0
 49
0.069427490234375
 74
               0
 49
-0.1389312744140625
 74
               0
  0
LTYPE
  5
33
100
AcDbSymbolTableRecord
100
AcDbLinetypeTableRecord
  2
STYLE_07
 70
               0
  3

 72
              65
 73
               6
 40
1.875
 49
0.625
 74
               0
 49
-0.208282470703125
 74
               0
 49
0.625
 74
               0
 49
-0.2083587646484375
 74
               0
 49
0.069427490234375
 74
               0
 49
-0.1389312744140625
 74
               0
  0
LTYPE
  5
34
100
AcDbSymbolTableRecord
100
AcDbLinetypeTableRecord
  2
STYLE_08
 70
               0
  3

 72
              65
 73
               6
 40
1.25
 49
0.625
 74
               0
 49
-0.208282470703125
 74
               0
 49
0.069427490234375
 74
               0
 49
-0.1389312744140625
 74
               0
 49
0.069427490234375
 74
               0
 49
-0.1389312744140625
 74
               0
  0
LTYPE
  5
35
100
AcDbSymbolTableRecord
100
AcDbLinetypeTableRecord
  2
STYLE_09
 70
               0
  3

 72
              65
 73
               4
 40
5.0
 49
3.75
 74
               0
 49
-0.2777862548828125
 74
               0
 49
0.694427490234375
 74
               0
 49
-0.2777862548828125
 74
               0
  0
LTYPE
  5
36
100
AcDbSymbolTableRecord
100
AcDbLinetypeTableRecord
  2
STYLE_10
 70
               0
  3

 72
              65
 73
               6
 40
5.9375
 49
3.75
 74
               0
 49
-0.2777862548828125
 74
               0
 49
0.694427490234375
 74
               0
 49
-0.2777862548828125
 74
               0
 49
0.625
 74
               0
 49
-0.3125
 74
               0
  0
ENDTAB
  0
TABLE
  2
LAYER
  5
2
100
AcDbSymbolTable
 70
              16
  0
LAYER
  5
14
100
AcDbSymbolTableRecord
100
AcDbLayerTableRecord
  2
0
 70
               0
 62
               7
  6
Continuous
290
               1
370
               0
390
1D
  0
LAYER
  5
37
100
AcDbSymbolTableRecord
100
AcDbLayerTableRecord
  2
DATA
 70
               0
 62
               7
  6
Continuous
290
               1
370
               0
390
1D
  0
LAYER
  5
38
100
AcDbSymbolTableRecord
100
AcDbLayerTableRecord
  2
一般
 70
               0
 62
               7
  6
Continuous
290
               1
370
               0
390
1D
  0
LAYER
  5
39
100
AcDbSymbolTableRecord
100
AcDbLayerTableRecord
  2
寸法
 70
               0
 62
               7
  6
Continuous
290
               1
370
               0
390
1D
  0
LAYER
  5
3A
100
AcDbSymbolTableRecord
100
AcDbLayerTableRecord
  2
HIBINO-BASE
 70
               0
 62
               7
  6
Continuous
290
               1
370
               0
390
1D
  0
LAYER
  5
3B
100
AcDbSymbolTableRecord
100
AcDbLayerTableRecord
  2
SPEC
 70
               0
 62
               7
  6
Continuous
290
               1
370
               0
390
1D
  0
LAYER
  5
3C
100
AcDbSymbolTableRecord
100
AcDbLayerTableRecord
  2
DIMNSIONS
 70
               0
 62
               7
  6
Continuous
290
               1
370
               0
390
1D
  0
LAYER
  5
3D
100
AcDbSymbolTableRecord
100
AcDbLayerTableRecord
  2
Layer1
 70
               0
 62
               3
  6
Continuous
290
               1
370
               0
390
1D
  0
LAYER
  5
3E
100
AcDbSymbolTableRecord
100
AcDbLayerTableRecord
  2
2D
 70
               0
 62
              82
  6
Continuous
290
               1
370
               0
390
1D
  0
LAYER
  5
3F
100
AcDbSymbolTableRecord
100
AcDbLayerTableRecord
  2
FORMAT
 70
               0
 62
               7
  6
Continuous
290
               1
370
               0
390
1D
  0
LAYER
  5
40
100
AcDbSymbolTableRecord
100
AcDbLayerTableRecord
  2
Defpoints
 70
               0
 62
               7
  6
Continuous
290
               0
370
               0
390
1D
  0
LAYER
  5
41
100
AcDbSymbolTableRecord
100
AcDbLayerTableRecord
  2
5in
 70
               0
 62
               7
  6
Continuous
290
               1
370
               0
390
1D
  0
LAYER
  5
42
100
AcDbSymbolTableRecord
100
AcDbLayerTableRecord
  2
AM_0
 70
               0
 62
               7
  6
Continuous
290
               1
370
               0
390
1D
  0
LAYER
  5
43
100
AcDbSymbolTableRecord
100
AcDbLayerTableRecord
  2
rupor
 70
               0
 62
               7
  6
Continuous
290
               1
370
               0
390
1D
  0
LAYER
  5
44
100
AcDbSymbolTableRecord
100
AcDbLayerTableRecord
  2
speakon
 70
               0
 62
               7
  6
Continuous
290
               1
370
               0
390
1D
  0
LAYER
  5
45
100
AcDbSymbolTableRecord
100
AcDbLayerTableRecord
  2
grill
 70
               0
 62
               7
  6
Continuous
290
               1
370
               0
390
1D
  0
ENDTAB
  0
TABLE
  2
STYLE
  5
3
100
AcDbSymbolTable
 70
               2
  0
STYLE
  5
17
100
AcDbSymbolTableRecord
100
AcDbTextStyleTableRecord
  2
Standard
 70
               0
 40
0.0
 41
1.0
 50
0.0
 71
               0
 42
0.0
  3
txt
  4
BIGFONT.SHX
  0
STYLE
  5
2C
100
AcDbSymbolTableRecord
100
AcDbTextStyleTableRecord
  2
ＭＳ ゴシック
 70
               0
 40
0.0
 41
1.0
 50
0.0
 71
               0
 42
0.0
  3

  4
ＭＳ ゴシック
1001
ACAD
1000
ＭＳ ゴシック
1071
        0
  0
ENDTAB
  0
TABLE
  2
VIEW
  5
5
100
AcDbSymbolTable
 70
               0
  0
ENDTAB
  0
TABLE
  2
UCS
  5
6
100
AcDbSymbolTable
 70
               0
  0
ENDTAB
  0
TABLE
  2
APPID
  5
8
100
AcDbSymbolTable
 70
               1
  0
APPID
  5
16
100
AcDbSymbolTableRecord
100
AcDbRegAppTableRecord
  2
ACAD
 70
               0
  0
ENDTAB
  0
TABLE
  2
DIMSTYLE
  5
9
100
AcDbSymbolTable
 70
               2
100
AcDbDimStyleTable
 71
               0
  0
DIMSTYLE
105
18
100
AcDbSymbolTableRecord
100
AcDbDimStyleTableRecord
  2
Standard
 70
               0
  3

  4

 40
1.0
 41
0.18
 42
0.0625
 43
0.38
 44
0.18
 45
0.0
 46
0.0
 47
0.0
 48
0.0
 71
               0
 72
               0
 73
               1
 74
               1
 75
               0
 76
               0
 77
               0
 78
               0
 79
               0
140
0.18
141
0.09
142
0.0
143
25.399999999999999
144
1.0
145
0.0
146
1.0
147
0.09
148
0.0
170
               0
171
               2
172
               0
173
               0
174
               0
175
               0
176
               0
177
               0
178
               0
179
               0
271
               4
272
               4
273
               2
274
               2
275
               0
276
               0
277
               2
278
              46
279
               0
280
               0
281
               0
282
               0
283
               1
284
               0
285
               0
286
               0
288
               0
289
               3
340
17
341
0
342
0
343
0
344
0
371
              -2
372
              -2
  0
DIMSTYLE
105
4F
100
AcDbSymbolTableRecord
100
AcDbDimStyleTableRecord
  2
HIBINO
 70
               0
  3
<>
  4
[]
 40
1.0
 41
37.50933837890625
 42
29.999999999999996
 43
4.9999999999999991
 44
29.999999999999996
 45
0.0
 46
0.0
 47
0.0
 48
0.0
 71
               0
 72
               0
 73
               0
 74
               0
 75
               0
 76
               0
 77
               1
 78
              11
 79
               0
140
48.865234375000092
141
0.0
142
0.0
143
1.0
144
1.0
145
0.0
146
1.0
147
0.4999999999999999
148
0.0
170
               0
171
               2
172
               1
173
               0
174
               1
175
               0
176
               0
177
               0
178
               0
179
               0
271
               2
272
               2
273
               2
274
               2
275
               0
276
               2
277
               2
278
              46
279
               0
280
               0
281
               0
282
               0
283
               1
284
              11
285
              11
286
              11
288
               0
289
               0
340
2C
341
46
342
46
343
0
344
0
371
              -2
372
              -2
  0
ENDTAB
  0
TABLE
  2
BLOCK_RECORD
  5
1
100
AcDbSymbolTable
 70
               9
  0
BLOCK_RECORD
  5
A
100
AcDbSymbolTableRecord
100
AcDbBlockTableRecord
  2
*MODEL_SPACE
340
20
  0
BLOCK_RECORD
  5
B
100
AcDbSymbolTableRecord
100
AcDbBlockTableRecord
  2
*PAPER_SPACE
340
21
  0
BLOCK_RECORD
  5
46
100
AcDbSymbolTableRecord
100
AcDbBlockTableRecord
  2
VW_EMPTYARROW
340
0
  0
BLOCK_RECORD
  5
24
100
AcDbSymbolTableRecord
100
AcDbBlockTableRecord
  2
グループ
340
0
102
{BLKREFS
331
494
102
}
  0
BLOCK_RECORD
  5
25
100
AcDbSymbolTableRecord
100
AcDbBlockTableRecord
  2
グループ-1
340
0
102
{BLKREFS
331
495
102
}
  0
BLOCK_RECORD
  5
26
100
AcDbSymbolTableRecord
100
AcDbBlockTableRecord
  2
*D3
340
0
  0
BLOCK_RECORD
  5
27
100
AcDbSymbolTableRecord
100
AcDbBlockTableRecord
  2
*D4
340
0
  0
BLOCK_RECORD
  5
28
100
AcDbSymbolTableRecord
100
AcDbBlockTableRecord
  2
*D5
340
0
  0
BLOCK_RECORD
  5
29
100
AcDbSymbolTableRecord
100
AcDbBlockTableRecord
  2
*D6
340
0
  0
BLOCK_RECORD
  5
2A
100
AcDbSymbolTableRecord
100
AcDbBlockTableRecord
  2
*D7
340
0
  0
BLOCK_RECORD
  5
2B
100
AcDbSymbolTableRecord
100
AcDbBlockTableRecord
  2
Callout
340
0
102
{BLKREFS
331
49E
102
}
  0
ENDTAB
  0
ENDSEC
  0
SECTION
  2
BLOCKS
  0
BLOCK
  5
D
100
AcDbEntity
  8
0
390
0
100
AcDbBlockBegin
  2
*MODEL_SPACE
 70
               0
 10
0.0
 20
0.0
 30
0.0
  3
*MODEL_SPACE
  1

  0
ENDBLK
  5
E
100
AcDbEntity
  8
0
390
0
100
AcDbBlockEnd
  0
BLOCK
  5
F
100
AcDbEntity
 67
               1
  8
0
390
0
100
AcDbBlockBegin
  2
*PAPER_SPACE
 70
               0
 10
0.0
 20
0.0
 30
0.0
  3
*PAPER_SPACE
  1

  0
ENDBLK
  5
10
100
AcDbEntity
 67
               1
  8
0
390
0
100
AcDbBlockEnd
  0
BLOCK
  5
47
100
AcDbEntity
  8
0
370
              -2
390
0
  6
ByBlock
 62
               0
100
AcDbBlockBegin
  2
VW_EMPTYARROW
 70
               0
 10
0.0
 20
0.0
 30
0.0
  3
VW_EMPTYARROW
  1

  0
LINE
  5
48
100
AcDbEntity
  8
0
370
              -2
390
0
  6
ByBlock
 62
               0
100
AcDbLine
 10
0.0
 20
0.0
 30
0.0
 11
-1.0
 21
0.0
 31
0.0
  0
POLYLINE
  5
49
100
AcDbEntity
  8
Layer1
370
              -2
390
0
  6
Continuous
 62
               0
100
AcDb2dPolyline
 66
               1
 10
0.0
 20
0.0
 30
0.0
 75
               5
  0
VERTEX
  5
4A
100
AcDbEntity
  8
Layer1
370
              -2
390
0
  6
Continuous
 62
               0
100
AcDbVertex
100
AcDb2dVertex
 10
-0.99993896484375
 20
0.2679328381102957
 30
0.0
  0
VERTEX
  5
4B
100
AcDbEntity
  8
Layer1
370
              -2
390
0
  6
Continuous
 62
               0
100
AcDbVertex
100
AcDb2dVertex
 10
0.0
 20
0.0
 30
0.0
  0
VERTEX
  5
4C
100
AcDbEntity
  8
Layer1
370
              -2
390
0
  6
Continuous
 62
               0
100
AcDbVertex
100
AcDb2dVertex
 10
-0.9999389648437499
 20
-0.2679328381102959
 30
0.0
  0
SEQEND
  5
4D
100
AcDbEntity
  8
Layer1
370
              -2
390
0
  6
Continuous
 62
               0
  0
ENDBLK
  5
4E
100
AcDbEntity
  8
0
390
0
100
AcDbBlockEnd
  0
BLOCK
  5
50
100
AcDbEntity
  8
Layer1
390
0
100
AcDbBlockBegin
  2
グループ
 70
               0
 10
0.0
 20
0.0
 30
0.0
  3
グループ
  1

  0
ARC
  5
51
100
AcDbEntity
  8
0
370
               0
390
0
  6
Continuous
 62
              30
100
AcDbCircle
 10
-234.62755246060169
 20
-1215.3793980139026
 30
0.0
 40
595.50000000000739
100
AcDbArc
 50
79.95633626699717
 51
100.04366373300277
  0
LINE
  5
52
100
AcDbEntity
  8
0
370
               0
390
0
  6
Continuous
 62
              30
100
AcDbLine
 10
-119.62755246060169
 20
-799.35553111977868
 30
0.0
 11
-234.62755246060169
 21
-879.87939801389541
 31
0.0
  0
LINE
  5
53
100
AcDbEntity
  8
0
370
               0
390
0
  6
Continuous
 62
              30
100
AcDbLine
 10
-349.62755246060169
 20
-775.47946288892138
 30
0.0
 11
-349.62755246060169
 21
-642.29847004647434
 31
0.0
  0
LINE
  5
54
100
AcDbEntity
  8
0
370
               0
390
0
  6
Continuous
 62
              30
100
AcDbLine
 10
-234.62755246060169
 20
-879.87939801389541
 30
0.0
 11
-314.50142522740316
 21
-850.80768583121369
 31
0.0
  0
LINE
  5
55
100
AcDbEntity
  8
0
370
               0
390
0
  6
Continuous
 62
              30
100
AcDbLine
 10
-314.50142522740316
 20
-850.80768583121369
 30
0.0
 11
-349.62755246060169
 21
-775.47946288892138
 31
0.0
  0
ARC
  5
56
100
AcDbEntity
  8
0
370
               0
390
0
  6
Continuous
 62
              30
100
AcDbCircle
 10
-336.12755246060078
 20
-642.29847004647434
 30
0.0
 40
13.50000000000019
100
AcDbArc
 50
100.04366373300265
 51
180.0
  0
LINE
  5
57
100
AcDbEntity
  8
0
370
               0
390
0
  6
Continuous
 62
              30
100
AcDbLine
 10
-119.62755246060169
 20
-642.29847004647456
 30
0.0
 11
-119.62755246060169
 21
-799.35553111977868
 31
0.0
  0
ARC
  5
58
100
AcDbEntity
  8
0
370
               0
390
0
  6
Continuous
 62
              30
100
AcDbCircle
 10
-133.12755246060169
 20
-642.29847004647456
 30
0.0
 40
13.5
100
AcDbArc
 50
0.0
 51
79.956336266997369
  0
CIRCLE
  5
59
100
AcDbEntity
  8
0
370
               0
390
0
  6
Continuous
 62
              30
100
AcDbCircle
 10
-234.62755246060169
 20
-766.87939801389416
 30
0.0
 40
53.5
  0
CIRCLE
  5
5A
100
AcDbEntity
  8
0
370
               0
390
0
  6
Continuous
 62
              30
100
AcDbCircle
 10
-234.62755246060169
 20
-766.87939801389416
 30
0.0
 40
21.0
  0
CIRCLE
  5
5B
100
AcDbEntity
  8
0
370
               0
390
0
  6
Continuous
 62
              30
100
AcDbCircle
 10
-234.62755246060169
 20
-806.87939801389598
 30
0.0
 40
4.0
  0
CIRCLE
  5
5C
100
AcDbEntity
  8
0
370
               0
390
0
  6
Continuous
 62
              30
100
AcDbCircle
 10
-274.62755246060169
 20
-766.87939801389552
 30
0.0
 40
4.0
  0
CIRCLE
  5
5D
100
AcDbEntity
  8
0
370
               0
390
0
  6
Continuous
 62
              30
100
AcDbCircle
 10
-234.62755246060169
 20
-726.87939801389518
 30
0.0
 40
4.0
  0
CIRCLE
  5
5E
100
AcDbEntity
  8
0
370
               0
390
0
  6
Continuous
 62
              30
100
AcDbCircle
 10
-194.62755246060169
 20
-766.87939801389552
 30
0.0
 40
4.0
  0
ENDBLK
  5
5F
100
AcDbEntity
  8
Layer1
390
0
100
AcDbBlockEnd
  0
BLOCK
  5
60
100
AcDbEntity
  8
Layer1
390
0
100
AcDbBlockBegin
  2
グループ-1
 70
               0
 10
0.0
 20
0.0
 30
0.0
  3
グループ-1
  1

  0
LINE
  5
61
100
AcDbEntity
  8
0
370
               0
390
0
  6
Continuous
 62
              30
100
AcDbLine
 10
-349.62755246060351
 20
312.00454713204533
 30
0.0
 11
-349.62755246060351
 21
445.18553997449226
 31
0.0
  0
LINE
  5
62
100
AcDbEntity
  8
0
370
               0
390
0
  6
Continuous
 62
              30
100
AcDbLine
 10
-119.62755246060351
 20
469.06160820534967
 30
0.0
 11
-119.62755246060351
 21
312.00454713204545
 31
0.0
  0
ARC
  5
63
100
AcDbEntity
  8
0
370
               0
390
0
  6
Continuous
 62
              30
100
AcDbCircle
 10
-234.62755246060351
 20
885.08547509947346
 30
0.0
 40
595.50000000000739
100
AcDbArc
 50
259.95633626699743
 51
280.04366373300269
  0
ARC
  5
64
100
AcDbEntity
  8
0
370
               0
390
0
  6
Continuous
 62
              30
100
AcDbCircle
 10
-336.12755246060351
 20
312.00454713204533
 30
0.0
 40
13.5
100
AcDbArc
 50
180.0
 51
259.95633626699725
  0
CIRCLE
  5
65
100
AcDbEntity
  8
0
370
               0
390
0
  6
Continuous
 62
              30
100
AcDbCircle
 10
-234.62755246060351
 20
396.58547509946607
 30
0.0
 40
4.2000000000007276
  0
ARC
  5
66
100
AcDbEntity
  8
0
370
               0
390
0
  6
Continuous
 62
              30
100
AcDbCircle
 10
-133.12755246060442
 20
312.00454713204545
 30
0.0
 40
13.50000000000019
100
AcDbArc
 50
280.04366373300263
 51
0.0
  0
LINE
  5
67
100
AcDbEntity
  8
0
370
               0
390
0
  6
Continuous
 62
              30
100
AcDbLine
 10
-234.62755246060351
 20
549.58547509946618
 30
0.0
 11
-119.62755246060351
 21
469.06160820534967
 31
0.0
  0
LINE
  5
68
100
AcDbEntity
  8
0
370
               0
390
0
  6
Continuous
 62
              30
100
AcDbLine
 10
-314.50142522740589
 20
520.51376291678446
 30
0.0
 11
-234.62755246060351
 21
549.58547509946618
 31
0.0
  0
LINE
  5
69
100
AcDbEntity
  8
0
370
               0
390
0
  6
Continuous
 62
              30
100
AcDbLine
 10
-349.62755246060351
 20
445.18553997449226
 30
0.0
 11
-314.50142522740589
 21
520.51376291678446
 31
0.0
  0
CIRCLE
  5
6A
100
AcDbEntity
  8
0
370
               0
390
0
  6
Continuous
 62
              30
100
AcDbCircle
 10
-234.62755246060351
 20
476.58547509946595
 30
0.0
 40
4.2000000000007276
  0
ENDBLK
  5
6B
100
AcDbEntity
  8
Layer1
390
0
100
AcDbBlockEnd
  0
BLOCK
  5
6C
100
AcDbEntity
  8
寸法
390
0
100
AcDbBlockBegin
  2
*D3
 70
               1
 10
0.0
 20
0.0
 30
0.0
  3
*D3
  1

  0
LINE
  5
6D
100
AcDbEntity
  8
寸法
370
              -2
390
0
  6
Continuous
 62
               0
100
AcDbLine
 10
4377.9903507744339
 20
417.1085547157536
 30
0.0
 11
4270.0
 21
417.1085547157536
 31
0.0
  0
LINE
  5
6E
100
AcDbEntity
  8
寸法
370
              -2
390
0
  6
Continuous
 62
               0
100
AcDbLine
 10
4377.9903507744357
 20
-53.891445284246629
 30
0.0
 11
4270.0
 21
-53.891445284246629
 31
0.0
  0
LINE
  5
6F
100
AcDbEntity
  8
寸法
370
              -2
390
0
  6
Continuous
 62
               0
100
AcDbLine
 10
4300.0
 20
417.1085547157536
 30
0.0
 11
4300.0
 21
-53.891445284246629
 31
0.0
  0
POLYLINE
  5
70
100
AcDbEntity
  8
Layer1
370
              -2
390
0
  6
Continuous
 62
               0
100
AcDb2dPolyline
 66
               1
 10
0.0
 20
0.0
 30
0.0
 75
               5
  0
VERTEX
  5
71
100
AcDbEntity
  8
Layer1
370
              -2
390
0
  6
Continuous
 62
               0
100
AcDbVertex
100
AcDb2dVertex
 10
4289.9494030727465
 20
379.59921633684735
 30
0.0
  0
VERTEX
  5
72
100
AcDbEntity
  8
Layer1
370
              -2
390
0
  6
Continuous
 62
               0
100
AcDbVertex
100
AcDb2dVertex
 10
4300.0
 20
417.1085547157536
 30
0.0
  0
VERTEX
  5
73
100
AcDbEntity
  8
Layer1
370
              -2
390
0
  6
Continuous
 62
               0
100
AcDbVertex
100
AcDb2dVertex
 10
4310.0505969272535
 20
379.59921633684735
 30
0.0
  0
SEQEND
  5
74
100
AcDbEntity
  8
Layer1
370
              -2
390
0
  6
Continuous
 62
               0
  0
POLYLINE
  5
75
100
AcDbEntity
  8
Layer1
370
              -2
390
0
  6
Continuous
 62
               0
100
AcDb2dPolyline
 66
               1
 10
0.0
 20
0.0
 30
0.0
 75
               5
  0
VERTEX
  5
76
100
AcDbEntity
  8
Layer1
370
              -2
390
0
  6
Continuous
 62
               0
100
AcDbVertex
100
AcDb2dVertex
 10
4310.0505969272535
 20
-16.382106905340379
 30
0.0
  0
VERTEX
  5
77
100
AcDbEntity
  8
Layer1
370
              -2
390
0
  6
Continuous
 62
               0
100
AcDbVertex
100
AcDb2dVertex
 10
4300.0
 20
-53.891445284246629
 30
0.0
  0
VERTEX
  5
78
100
AcDbEntity
  8
Layer1
370
              -2
390
0
  6
Continuous
 62
               0
100
AcDbVertex
100
AcDb2dVertex
 10
4289.9494030727465
 20
-16.382106905340379
 30
0.0
  0
SEQEND
  5
79
100
AcDbEntity
  8
Layer1
370
              -2
390
0
  6
Continuous
 62
               0
  0
WIPEOUT
  5
7A
100
AcDbEntity
  8
寸法
370
              -2
390
0
  6
Continuous
 62
               0
 92
        0
100
AcDbWipeout
 90
        0
 10
4229.0
 20
4490.1135052211421
 30
0.0
 11
95.25
 21
0.0
 31
0.0
 12
0.0
 22
95.25
 32
0.0
 13
1.0
 23
1.0
340
0
 70
               7
280
               1
281
              50
282
              50
283
               0
360
0
 71
               2
 91
        5
 14
0.1666666666666666
 24
46.303028926206217
 14
0.1666666666666666
 24
45.303028926206217
 14
-0.5
 24
45.303028926206217
 14
-0.5
 24
46.303028926206217
 14
0.1666666666666666
 24
46.303028926206217
  0
MTEXT
  5
7B
100
AcDbEntity
  8
寸法
390
0
 62
               0
100
AcDbMText
 10
4234.7447656249997
 20
127.375
 30
0.0
 40
48.865234375000092
 41
0.0
 71
               1
 72
               1
  1
{\fＭＳ ゴシック|b0|i0|c128|p0;\l471}
 11
0.0
 21
1.0
 31
0.0
 73
               1
 44
0.7828267384257843
  0
POINT
  5
7C
100
AcDbEntity
  8
Defpoints
370
               0
390
0
 62
               0
100
AcDbPoint
 10
4407.9903507744357
 20
-53.891445284246629
 30
0.0
  0
POINT
  5
7D
100
AcDbEntity
  8
Defpoints
370
               0
390
0
 62
               0
100
AcDbPoint
 10
4407.9903507744339
 20
417.1085547157536
 30
0.0
  0
POINT
  5
7E
100
AcDbEntity
  8
Defpoints
370
               0
390
0
 62
               0
100
AcDbPoint
 10
4300.0
 20
417.1085547157536
 30
0.0
  0
ENDBLK
  5
7F
100
AcDbEntity
  8
寸法
390
0
100
AcDbBlockEnd
  0
BLOCK
  5
80
100
AcDbEntity
  8
寸法
390
0
100
AcDbBlockBegin
  2
*D4
 70
               1
 10
0.0
 20
0.0
 30
0.0
  3
*D4
  1

  0
LINE
  5
81
100
AcDbEntity
  8
寸法
370
              -2
390
0
  6
Continuous
 62
               0
100
AcDbLine
 10
4407.9903507744357
 20
-83.891445284246629
 30
0.0
 11
4407.9903507744357
 21
-180.0
 31
0.0
  0
LINE
  5
82
100
AcDbEntity
  8
寸法
370
              -2
390
0
  6
Continuous
 62
               0
100
AcDbLine
 10
4637.9903507744357
 20
-83.891445284245037
 30
0.0
 11
4637.9903507744357
 21
-180.0
 31
0.0
  0
LINE
  5
83
100
AcDbEntity
  8
寸法
370
              -2
390
0
  6
Continuous
 62
               0
100
AcDbLine
 10
4407.9903507744357
 20
-150.0
 30
0.0
 11
4637.9903507744357
 21
-150.0
 31
0.0
  0
POLYLINE
  5
84
100
AcDbEntity
  8
Layer1
370
              -2
390
0
  6
Continuous
 62
               0
100
AcDb2dPolyline
 66
               1
 10
0.0
 20
0.0
 30
0.0
 75
               5
  0
VERTEX
  5
85
100
AcDbEntity
  8
Layer1
370
              -2
390
0
  6
Continuous
 62
               0
100
AcDbVertex
100
AcDb2dVertex
 10
4445.4996891533419
 20
-160.05059692725365
 30
0.0
  0
VERTEX
  5
86
100
AcDbEntity
  8
Layer1
370
              -2
390
0
  6
Continuous
 62
               0
100
AcDbVertex
100
AcDb2dVertex
 10
4407.9903507744357
 20
-150.0
 30
0.0
  0
VERTEX
  5
87
100
AcDbEntity
  8
Layer1
370
              -2
390
0
  6
Continuous
 62
               0
100
AcDbVertex
100
AcDb2dVertex
 10
4445.4996891533419
 20
-139.94940307274635
 30
0.0
  0
SEQEND
  5
88
100
AcDbEntity
  8
Layer1
370
              -2
390
0
  6
Continuous
 62
               0
  0
POLYLINE
  5
89
100
AcDbEntity
  8
Layer1
370
              -2
390
0
  6
Continuous
 62
               0
100
AcDb2dPolyline
 66
               1
 10
0.0
 20
0.0
 30
0.0
 75
               5
  0
VERTEX
  5
8A
100
AcDbEntity
  8
Layer1
370
              -2
390
0
  6
Continuous
 62
               0
100
AcDbVertex
100
AcDb2dVertex
 10
4600.4810123955294
 20
-139.94940307274635
 30
0.0
  0
VERTEX
  5
8B
100
AcDbEntity
  8
Layer1
370
              -2
390
0
  6
Continuous
 62
               0
100
AcDbVertex
100
AcDb2dVertex
 10
4637.9903507744357
 20
-150.0
 30
0.0
  0
VERTEX
  5
8C
100
AcDbEntity
  8
Layer1
370
              -2
390
0
  6
Continuous
 62
               0
100
AcDbVertex
100
AcDb2dVertex
 10
4600.4810123955294
 20
-160.05059692725365
 30
0.0
  0
SEQEND
  5
8D
100
AcDbEntity
  8
Layer1
370
              -2
390
0
  6
Continuous
 62
               0
  0
WIPEOUT
  5
8E
100
AcDbEntity
  8
寸法
370
              -2
390
0
  6
Continuous
 62
               0
 92
        0
100
AcDbWipeout
 90
        0
 10
4477.375
 20
4220.2385052211421
 30
0.0
 11
95.25
 21
0.0
 31
0.0
 12
0.0
 22
95.25
 32
0.0
 13
1.0
 23
1.0
340
0
 70
               7
280
               1
281
              50
282
              50
283
               0
360
0
 71
               2
 91
        5
 14
-0.5
 24
46.303028926206217
 14
0.5
 24
46.303028926206217
 14
0.5
 24
45.636362259539553
 14
-0.5
 24
45.636362259539553
 14
-0.5
 24
46.303028926206217
  0
MTEXT
  5
8F
100
AcDbEntity
  8
寸法
390
0
 62
               0
100
AcDbMText
 10
4477.375
 20
-84.7447656249999
 30
0.0
 40
48.865234375000092
 41
0.0
 71
               1
 72
               1
  1
{\fＭＳ ゴシック|b0|i0|c128|p0;\l230}
 73
               1
 44
0.7828267384257843
  0
POINT
  5
90
100
AcDbEntity
  8
Defpoints
370
               0
390
0
 62
               0
100
AcDbPoint
 10
4637.9903507744357
 20
-53.891445284245037
 30
0.0
  0
POINT
  5
91
100
AcDbEntity
  8
Defpoints
370
               0
390
0
 62
               0
100
AcDbPoint
 10
4407.9903507744357
 20
-53.891445284246629
 30
0.0
  0
POINT
  5
92
100
AcDbEntity
  8
Defpoints
370
               0
390
0
 62
               0
100
AcDbPoint
 10
4407.9903507744357
 20
-150.0
 30
0.0
  0
ENDBLK
  5
93
100
AcDbEntity
  8
寸法
390
0
100
AcDbBlockEnd
  0
BLOCK
  5
94
100
AcDbEntity
  8
寸法
390
0
100
AcDbBlockBegin
  2
*D5
 70
               1
 10
0.0
 20
0.0
 30
0.0
  3
*D5
  1

  0
LINE
  5
95
100
AcDbEntity
  8
寸法
370
              -2
390
0
  6
Continuous
 62
               0
100
AcDbLine
 10
4495.0
 20
-225.00339101721966
 30
0.0
 11
4270.0
 21
-225.00339101721966
 31
0.0
  0
LINE
  5
96
100
AcDbEntity
  8
寸法
370
              -2
390
0
  6
Continuous
 62
               0
100
AcDbLine
 10
4492.9903507744357
 20
-485.00000000000023
 30
0.0
 11
4270.0
 21
-485.00000000000023
 31
0.0
  0
LINE
  5
97
100
AcDbEntity
  8
寸法
370
              -2
390
0
  6
Continuous
 62
               0
100
AcDbLine
 10
4300.0
 20
-225.00339101721966
 30
0.0
 11
4300.0
 21
-485.00000000000023
 31
0.0
  0
POLYLINE
  5
98
100
AcDbEntity
  8
Layer1
370
              -2
390
0
  6
Continuous
 62
               0
100
AcDb2dPolyline
 66
               1
 10
0.0
 20
0.0
 30
0.0
 75
               5
  0
VERTEX
  5
99
100
AcDbEntity
  8
Layer1
370
              -2
390
0
  6
Continuous
 62
               0
100
AcDbVertex
100
AcDb2dVertex
 10
4289.9494030727465
 20
-262.51272939612591
 30
0.0
  0
VERTEX
  5
9A
100
AcDbEntity
  8
Layer1
370
              -2
390
0
  6
Continuous
 62
               0
100
AcDbVertex
100
AcDb2dVertex
 10
4300.0
 20
-225.00339101721966
 30
0.0
  0
VERTEX
  5
9B
100
AcDbEntity
  8
Layer1
370
              -2
390
0
  6
Continuous
 62
               0
100
AcDbVertex
100
AcDb2dVertex
 10
4310.0505969272535
 20
-262.51272939612591
 30
0.0
  0
SEQEND
  5
9C
100
AcDbEntity
  8
Layer1
370
              -2
390
0
  6
Continuous
 62
               0
  0
POLYLINE
  5
9D
100
AcDbEntity
  8
Layer1
370
              -2
390
0
  6
Continuous
 62
               0
100
AcDb2dPolyline
 66
               1
 10
0.0
 20
0.0
 30
0.0
 75
               5
  0
VERTEX
  5
9E
100
AcDbEntity
  8
Layer1
370
              -2
390
0
  6
Continuous
 62
               0
100
AcDbVertex
100
AcDb2dVertex
 10
4310.0505969272535
 20
-447.49066162109398
 30
0.0
  0
VERTEX
  5
9F
100
AcDbEntity
  8
Layer1
370
              -2
390
0
  6
Continuous
 62
               0
100
AcDbVertex
100
AcDb2dVertex
 10
4300.0
 20
-485.00000000000023
 30
0.0
  0
VERTEX
  5
A0
100
AcDbEntity
  8
Layer1
370
              -2
390
0
  6
Continuous
 62
               0
100
AcDbVertex
100
AcDb2dVertex
 10
4289.9494030727465
 20
-447.49066162109398
 30
0.0
  0
SEQEND
  5
A1
100
AcDbEntity
  8
Layer1
370
              -2
390
0
  6
Continuous
 62
               0
  0
WIPEOUT
  5
A2
100
AcDbEntity
  8
寸法
370
              -2
390
0
  6
Continuous
 62
               0
 92
        0
100
AcDbWipeout
 90
        0
 10
4229.0
 20
3960.1118097125322
 30
0.0
 11
95.25
 21
0.0
 31
0.0
 12
0.0
 22
95.25
 32
0.0
 13
1.0
 23
1.0
340
0
 70
               7
280
               1
281
              50
282
              50
283
               0
360
0
 71
               2
 91
        5
 14
0.1666666666666666
 24
46.303028926206217
 14
0.1666666666666666
 24
45.303028926206217
 14
-0.5
 24
45.303028926206217
 14
-0.5
 24
46.303028926206217
 14
0.1666666666666666
 24
46.303028926206217
  0
MTEXT
  5
A3
100
AcDbEntity
  8
寸法
390
0
 62
               0
100
AcDbMText
 10
4234.7447656249997
 20
-402.62669550860994
 30
0.0
 40
48.865234375000092
 41
0.0
 71
               1
 72
               1
  1
{\fＭＳ ゴシック|b0|i0|c128|p0;\l260}
 11
0.0
 21
1.0
 31
0.0
 73
               1
 44
0.7828267384257843
  0
POINT
  5
A4
100
AcDbEntity
  8
Defpoints
370
               0
390
0
 62
               0
100
AcDbPoint
 10
4522.9903507744357
 20
-485.00000000000023
 30
0.0
  0
POINT
  5
A5
100
AcDbEntity
  8
Defpoints
370
               0
390
0
 62
               0
100
AcDbPoint
 10
4525.0
 20
-225.00339101721966
 30
0.0
  0
POINT
  5
A6
100
AcDbEntity
  8
Defpoints
370
               0
390
0
 62
               0
100
AcDbPoint
 10
4300.0
 20
-225.00339101721966
 30
0.0
  0
ENDBLK
  5
A7
100
AcDbEntity
  8
寸法
390
0
100
AcDbBlockEnd
  0
BLOCK
  5
A8
100
AcDbEntity
  8
寸法
390
0
100
AcDbBlockBegin
  2
*D6
 70
               1
 10
0.0
 20
0.0
 30
0.0
  3
*D6
  1

  0
ARC
  5
A9
100
AcDbEntity
  8
寸法
370
              -2
390
0
  6
Continuous
 62
               0
100
AcDbCircle
 10
4522.9903507744339
 20
944.46487311336136
 30
0.0
 40
410.68674125606117
100
AcDbArc
 50
270.0
 51
325.00000000000006
  0
POLYLINE
  5
AA
100
AcDbEntity
  8
Layer1
370
              -2
390
0
  6
Continuous
 62
               0
100
AcDb2dPolyline
 66
               1
 10
0.0
 20
0.0
 30
0.0
 75
               5
  0
VERTEX
  5
AB
100
AcDbEntity
  8
Layer1
370
              -2
390
0
  6
Continuous
 62
               0
100
AcDbVertex
100
AcDb2dVertex
 10
4829.6577947801779
 20
683.94356996281215
 30
0.0
  0
VERTEX
  5
AC
100
AcDbEntity
  8
Layer1
370
              -2
390
0
  6
Continuous
 62
               0
100
AcDbVertex
100
AcDb2dVertex
 10
4859.405234436721
 20
708.90463560708577
 30
0.0
  0
VERTEX
  5
AD
100
AcDbEntity
  8
Layer1
370
              -2
390
0
  6
Continuous
 62
               0
100
AcDbVertex
100
AcDb2dVertex
 10
4846.1237288187467
 20
672.41399882534233
 30
0.0
  0
SEQEND
  5
AE
100
AcDbEntity
  8
Layer1
370
              -2
390
0
  6
Continuous
 62
               0
  0
POLYLINE
  5
AF
100
AcDbEntity
  8
Layer1
370
              -2
390
0
  6
Continuous
 62
               0
100
AcDb2dPolyline
 66
               1
 10
0.0
 20
0.0
 30
0.0
 75
               5
  0
VERTEX
  5
B0
100
AcDbEntity
  8
Layer1
370
              -2
390
0
  6
Continuous
 62
               0
100
AcDbVertex
100
AcDb2dVertex
 10
4560.4996891533401
 20
523.72753493004655
 30
0.0
  0
VERTEX
  5
B1
100
AcDbEntity
  8
Layer1
370
              -2
390
0
  6
Continuous
 62
               0
100
AcDbVertex
100
AcDb2dVertex
 10
4522.9903507744339
 20
533.7781318573002
 30
0.0
  0
VERTEX
  5
B2
100
AcDbEntity
  8
Layer1
370
              -2
390
0
  6
Continuous
 62
               0
100
AcDbVertex
100
AcDb2dVertex
 10
4560.4996891533401
 20
543.82872878455385
 30
0.0
  0
SEQEND
  5
B3
100
AcDbEntity
  8
Layer1
370
              -2
390
0
  6
Continuous
 62
               0
  0
WIPEOUT
  5
B4
100
AcDbEntity
  8
寸法
370
              -2
390
0
  6
Continuous
 62
               0
 92
        0
100
AcDbWipeout
 90
        0
 10
4649.1243840234356
 20
4911.1697897977156
 30
0.0
 11
127.0
 21
0.0
 31
0.0
 12
0.0
 22
127.0
 32
0.0
 13
1.0
 23
1.0
340
0
 70
               7
280
               1
281
              50
282
              50
283
               0
360
0
 71
               2
 91
        5
 14
-0.5
 24
34.852271694654661
 14
0.5
 24
34.852271694654661
 14
0.5
 24
34.352271694654654
 14
-0.5
 24
34.352271694654654
 14
-0.5
 24
34.852271694654661
  0
MTEXT
  5
B5
100
AcDbEntity
  8
寸法
390
0
 62
               0
100
AcDbMText
 10
4649.1243840234356
 20
606.18651895157382
 30
0.0
 40
48.865234375000092
 41
0.0
 71
               1
 72
               1
  1
{\fＭＳ ゴシック|b0|i0|c128|p0;\l55°}
 73
               1
 44
0.7828267384257843
  0
POINT
  5
B6
100
AcDbEntity
  8
Defpoints
370
               0
390
0
 62
               0
100
AcDbPoint
 10
4522.9903507744339
 20
500.0
 30
0.0
  0
POINT
  5
B7
100
AcDbEntity
  8
Defpoints
370
               0
390
0
 62
               0
100
AcDbPoint
 10
4907.8260721982979
 20
675.0
 30
0.0
  0
POINT
  5
B8
100
AcDbEntity
  8
Defpoints
370
               0
390
0
 62
               0
100
AcDbPoint
 10
4522.9903507744339
 20
944.46487311336136
 30
0.0
  0
ENDBLK
  5
B9
100
AcDbEntity
  8
寸法
390
0
100
AcDbBlockEnd
  0
BLOCK
  5
BA
100
AcDbEntity
  8
寸法
390
0
100
AcDbBlockBegin
  2
*D7
 70
               1
 10
0.0
 20
0.0
 30
0.0
  3
*D7
  1

  0
ARC
  5
BB
100
AcDbEntity
  8
寸法
370
              -2
390
0
  6
Continuous
 62
               0
100
AcDbCircle
 10
4522.9903507744339
 20
1091.5521363741686
 30
0.0
 40
559.41601299878721
100
AcDbArc
 50
245.19762124542538
 51
270.0
  0
POLYLINE
  5
BC
100
AcDbEntity
  8
Layer1
370
              -2
390
0
  6
Continuous
 62
               0
100
AcDb2dPolyline
 66
               1
 10
0.0
 20
0.0
 30
0.0
 75
               5
  0
VERTEX
  5
BD
100
AcDbEntity
  8
Layer1
370
              -2
390
0
  6
Continuous
 62
               0
100
AcDbVertex
100
AcDb2dVertex
 10
4485.4810123955276
 20
542.18672030263497
 30
0.0
  0
VERTEX
  5
BE
100
AcDbEntity
  8
Layer1
370
              -2
390
0
  6
Continuous
 62
               0
100
AcDbVertex
100
AcDb2dVertex
 10
4522.9903507744339
 20
532.13612337538132
 30
0.0
  0
VERTEX
  5
BF
100
AcDbEntity
  8
Layer1
370
              -2
390
0
  6
Continuous
 62
               0
100
AcDbVertex
100
AcDb2dVertex
 10
4485.4810123955276
 20
522.08552644812767
 30
0.0
  0
SEQEND
  5
C0
100
AcDbEntity
  8
Layer1
370
              -2
390
0
  6
Continuous
 62
               0
  0
POLYLINE
  5
C1
100
AcDbEntity
  8
Layer1
370
              -2
390
0
  6
Continuous
 62
               0
100
AcDb2dPolyline
 66
               1
 10
0.0
 20
0.0
 30
0.0
 75
               5
  0
VERTEX
  5
C2
100
AcDbEntity
  8
Layer1
370
              -2
390
0
  6
Continuous
 62
               0
100
AcDbVertex
100
AcDb2dVertex
 10
4318.0684955954175
 20
558.77555534971236
 30
0.0
  0
VERTEX
  5
C3
100
AcDbEntity
  8
Layer1
370
              -2
390
0
  6
Continuous
 62
               0
100
AcDbVertex
100
AcDb2dVertex
 10
4288.3210559388745
 20
583.73662099398598
 30
0.0
  0
VERTEX
  5
C4
100
AcDbEntity
  8
Layer1
370
              -2
390
0
  6
Continuous
 62
               0
100
AcDbVertex
100
AcDb2dVertex
 10
4326.5636272011216
 20
576.99342386878561
 30
0.0
  0
SEQEND
  5
C5
100
AcDbEntity
  8
Layer1
370
              -2
390
0
  6
Continuous
 62
               0
  0
WIPEOUT
  5
C6
100
AcDbEntity
  8
寸法
370
              -2
390
0
  6
Continuous
 62
               0
 92
        0
100
AcDbWipeout
 90
        0
 10
4335.5978591395733
 20
4877.0161910745619
 30
0.0
 11
127.0
 21
0.0
 31
0.0
 12
0.0
 22
127.0
 32
0.0
 13
1.0
 23
1.0
340
0
 70
               7
280
               1
281
              50
282
              50
283
               0
360
0
 71
               2
 91
        5
 14
-0.5
 24
34.852271694654668
 14
0.5
 24
34.852271694654668
 14
0.5
 24
34.352271694654668
 14
-0.5
 24
34.352271694654668
 14
-0.5
 24
34.852271694654668
  0
MTEXT
  5
C7
100
AcDbEntity
  8
寸法
390
0
 62
               0
100
AcDbMText
 10
4335.5978591395733
 20
572.03292022841947
 30
0.0
 40
48.865234375000092
 41
0.0
 71
               1
 72
               1
  1
{\fＭＳ ゴシック|b0|i0|c128|p0;\l25°}
 73
               1
 44
0.7828267384257843
  0
POINT
  5
C8
100
AcDbEntity
  8
Defpoints
370
               0
390
0
 62
               0
100
AcDbPoint
 10
4522.9903507744339
 20
500.0
 30
0.0
  0
POINT
  5
C9
100
AcDbEntity
  8
Defpoints
370
               0
390
0
 62
               0
100
AcDbPoint
 10
4272.7308488281951
 20
550.0
 30
0.0
  0
POINT
  5
CA
100
AcDbEntity
  8
Defpoints
370
               0
390
0
 62
               0
100
AcDbPoint
 10
4522.9903507744339
 20
1091.5521363741686
 30
0.0
  0
ENDBLK
  5
CB
100
AcDbEntity
  8
寸法
390
0
100
AcDbBlockEnd
  0
BLOCK
  5
CC
100
AcDbEntity
  8
Layer1
390
0
100
AcDbBlockBegin
  2
Callout
 70
               2
 10
0.0
 20
0.0
 30
0.0
  3
Callout
  1

  0
MTEXT
  5
CD
100
AcDbEntity
  8
Layer1
390
0
 62
               1
100
AcDbMText
 10
12.273912573236931
 20
-51.114170403373087
 30
0.0
 40
36.64892578125
 41
675.24900000000002
 71
               1
 72
               1
  1
{\fＭＳ ゴシック|b0|i0|c128|p0;\lG308Proのこの位置のネジ径は左右ともに8mmです。}
 11
-0.1439492223867134
 21
-0.9895850753594966
 31
0.0
 73
               1
 44
0.7828267384257843
  0
LINE
  5
CE
100
AcDbEntity
  8
Layer1
370
               0
390
0
  6
Continuous
 62
               1
100
AcDbLine
 10
-6.8555817161672401
 20
-47.128989213996022
 30
0.0
 11
0.0
 21
0.0
 31
0.0
  0
LINE
  5
CF
100
AcDbEntity
  8
Layer1
370
               0
390
0
  6
Continuous
 62
               1
100
AcDbLine
 10
0.0
 20
0.0
 30
0.0
 11
381.38060535830357
 21
0.0
 31
0.0
  0
POLYLINE
  5
D0
100
AcDbEntity
  8
Layer1
370
               0
390
0
  6
Continuous
 62
               1
100
AcDb2dPolyline
 66
               1
 10
0.0
 20
0.0
 30
0.0
 75
               5
  0
VERTEX
  5
D1
100
AcDbEntity
  8
Layer1
370
               0
390
0
  6
Continuous
 62
               1
100
AcDbVertex
100
AcDb2dVertex
 10
333.75560535830357
 20
12.76108028953222
 30
0.0
  0
VERTEX
  5
D2
100
AcDbEntity
  8
Layer1
370
               0
390
0
  6
Continuous
 62
               1
100
AcDbVertex
100
AcDb2dVertex
 10
381.38060535830357
 20
0.0
 30
0.0
  0
VERTEX
  5
D3
100
AcDbEntity
  8
Layer1
370
               0
390
0
  6
Continuous
 62
               1
100
AcDbVertex
100
AcDb2dVertex
 10
333.75560535830357
 20
-12.761080289532231
 30
0.0
  0
SEQEND
  5
D4
100
AcDbEntity
  8
Layer1
370
               0
390
0
  6
Continuous
 62
               1
  0
ENDBLK
  5
D5
100
AcDbEntity
  8
Layer1
390
0
100
AcDbBlockEnd
  0
ENDSEC
  0
SECTION
  2
ENTITIES
  0
LINE
  5
D6
100
AcDbEntity
  8
一般
370
               0
390
0
  6
Continuous
 62
               3
100
AcDbLine
 10
3406.8280253591865
 20
2411.873502617203
 30
0.0
 11
6106.8280253591856
 21
2411.873502617203
 31
0.0
  0
LINE
  5
D7
100
AcDbEntity
  8
一般
370
               0
390
0
  6
Continuous
 62
               3
100
AcDbLine
 10
6106.8280253591856
 20
-1488.126497382797
 30
0.0
 11
3406.8280253591865
 21
-1488.126497382797
 31
0.0
  0
LINE
  5
D8
100
AcDbEntity
  8
一般
370
               0
390
0
  6
Continuous
 62
               3
100
AcDbLine
 10
3406.8280253591865
 20
-1488.126497382797
 30
0.0
 11
3406.8280253591865
 21
2411.873502617203
 31
0.0
  0
LINE
  5
D9
100
AcDbEntity
  8
一般
370
               0
390
0
  6
Continuous
 62
               3
100
AcDbLine
 10
6106.8280253591856
 20
2411.873502617203
 30
0.0
 11
6106.8280253591856
 21
-1488.126497382797
 31
0.0
  0
LINE
  5
DA
100
AcDbEntity
  8
一般
370
               0
390
0
  6
Continuous
 62
               3
100
AcDbLine
 10
4756.8280253591856
 20
-1150.626497382797
 30
0.0
 11
6106.8280253591856
 21
-1150.626497382797
 31
0.0
  0
LINE
  5
DB
100
AcDbEntity
  8
一般
370
               0
390
0
  6
Continuous
 62
               3
100
AcDbLine
 10
4756.8280253591856
 20
-1488.126497382797
 30
0.0
 11
4756.8280253591856
 21
-1150.626497382797
 31
0.0
  0
MTEXT
  5
DC
100
AcDbEntity
  8
一般
390
0
 62
               1
100
AcDbMText
 10
4770.3280253591856
 20
-1163.824280195297
 30
0.0
 40
24.432617187499996
 41
0.0
 71
               1
 72
               1
  1
{\fＭＳ ゴシック|b0|i0|c128|p0;\lNOTE}
 73
               1
 44
0.7828267384257843
  0
LINE
  5
DD
100
AcDbEntity
  8
一般
370
               0
390
0
  6
Continuous
 62
               1
100
AcDbLine
 10
5281.8280253591856
 20
-1488.126497382797
 30
0.0
 11
5281.8280253591856
 21
-1150.626497382797
 31
0.0
  0
MTEXT
  5
DE
100
AcDbEntity
  8
一般
390
0
 62
               1
100
AcDbMText
 10
5295.3280253591856
 20
-1163.824280195297
 30
0.0
 40
24.432617187499996
 41
0.0
 71
               1
 72
               1
  1
{\fＭＳ ゴシック|b0|i0|c128|p0;\lTITLE}
 73
               1
 44
0.7828267384257843
  0
LINE
  5
DF
100
AcDbEntity
  8
一般
370
               0
390
0
  6
Continuous
 62
               1
100
AcDbLine
 10
4756.8280253591856
 20
-1338.126497382797
 30
0.0
 11
6106.8280253591856
 21
-1338.126497382797
 31
0.0
  0
MTEXT
  5
E0
100
AcDbEntity
  8
一般
390
0
 62
               1
100
AcDbMText
 10
5482.8280253591856
 20
-1350.4794801952971
 30
0.0
 40
24.432617187499996
 41
0.0
 71
               1
 72
               1
  1
{\fＭＳ ゴシック|b0|i0|c128|p0;\lDRAWN}
 73
               1
 44
0.7828267384257843
  0
MTEXT
  5
E1
100
AcDbEntity
  8
一般
390
0
 62
               1
100
AcDbMText
 10
5107.8280253591856
 20
-1350.4794801952971
 30
0.0
 40
24.432617187499996
 41
0.0
 71
               1
 72
               1
  1
{\fＭＳ ゴシック|b0|i0|c128|p0;\lDATE}
 73
               1
 44
0.7828267384257843
  0
MTEXT
  5
E2
100
AcDbEntity
  8
一般
390
0
 62
               1
100
AcDbMText
 10
4957.8280253591856
 20
-1350.4794801952971
 30
0.0
 40
24.432617187499996
 41
0.0
 71
               1
 72
               1
  1
{\fＭＳ ゴシック|b0|i0|c128|p0;\lSCALE}
 73
               1
 44
0.7828267384257843
  0
MTEXT
  5
E3
100
AcDbEntity
  8
一般
390
0
 62
               1
100
AcDbMText
 10
5295.3280253591856
 20
-1350.4794801952971
 30
0.0
 40
24.432617187499996
 41
0.0
 71
               1
 72
               1
  1
{\fＭＳ ゴシック|b0|i0|c128|p0;\lDESIGN}
 73
               1
 44
0.7828267384257843
  0
MTEXT
  5
E4
100
AcDbEntity
  8
一般
390
0
 62
               1
100
AcDbMText
 10
5857.8280253591856
 20
-1350.4794801952971
 30
0.0
 40
24.432617187499996
 41
0.0
 71
               1
 72
               1
  1
{\fＭＳ ゴシック|b0|i0|c128|p0;\lDRAWING NO.}
 73
               1
 44
0.7828267384257843
  0
MTEXT
  5
E5
100
AcDbEntity
  8
一般
390
0
 62
               1
100
AcDbMText
 10
5670.3280253591856
 20
-1350.4794801952971
 30
0.0
 40
24.432617187499996
 41
0.0
 71
               1
 72
               1
  1
{\fＭＳ ゴシック|b0|i0|c128|p0;\lCHECK}
 73
               1
 44
0.7828267384257843
  0
LINE
  5
E6
100
AcDbEntity
  8
一般
370
               0
390
0
  6
Continuous
 62
               1
100
AcDbLine
 10
4972.4530253591856
 20
-1469.376497382797
 30
0.0
 11
5028.7030253591856
 21
-1413.126497382797
 31
0.0
  0
MTEXT
  5
E7
100
AcDbEntity
  8
一般
390
0
 62
               1
100
AcDbMText
 10
4963.0780253591856
 20
-1405.3280301952968
 30
0.0
 40
24.432617187499996
 41
0.0
 71
               1
 72
               1
  1
{\fＭＳ ゴシック|b0|i0|c128|p0;\l1}
 73
               1
 44
0.7828267384257843
  0
LINE
  5
E8
100
AcDbEntity
  8
一般
370
               0
390
0
  6
Continuous
 62
               1
100
AcDbLine
 10
4944.3280253591856
 20
-1488.126497382797
 30
0.0
 11
4944.3280253591856
 21
-1338.126497382797
 31
0.0
  0
LINE
  5
E9
100
AcDbEntity
  8
一般
370
               0
390
0
  6
Continuous
 62
               1
100
AcDbLine
 10
5094.3280253591856
 20
-1488.126497382797
 30
0.0
 11
5094.3280253591856
 21
-1338.126497382797
 31
0.0
  0
LINE
  5
EA
100
AcDbEntity
  8
一般
370
               0
390
0
  6
Continuous
 62
               1
100
AcDbLine
 10
5469.3280253591856
 20
-1338.126497382797
 30
0.0
 11
5469.3280253591856
 21
-1488.126497382797
 31
0.0
  0
LINE
  5
EB
100
AcDbEntity
  8
一般
370
               0
390
0
  6
Continuous
 62
               1
100
AcDbLine
 10
5844.3280253591856
 20
-1338.126497382797
 30
0.0
 11
5844.3280253591856
 21
-1488.126497382797
 31
0.0
  0
LINE
  5
EC
100
AcDbEntity
  8
一般
370
               0
390
0
  6
Continuous
 62
               1
100
AcDbLine
 10
5656.8280253591856
 20
-1488.126497382797
 30
0.0
 11
5656.8280253591856
 21
-1338.126497382797
 31
0.0
  0
MTEXT
  5
ED
100
AcDbEntity
  8
一般
390
0
 62
               1
100
AcDbMText
 10
5127.1761253591858
 20
-1410.7391801952976
 30
0.0
 40
24.432617187499996
 41
0.0
 71
               1
 72
               1
  1
{\fＭＳ ゴシック|b0|i0|c128|p0;\l2019.01}
 73
               1
 44
0.7828267384257843
  0
MTEXT
  5
EE
100
AcDbEntity
  8
一般
390
0
 62
               1
100
AcDbMText
 10
5019.3280253591856
 20
-1433.4530301952968
 30
0.0
 40
24.432617187499996
 41
0.0
 71
               1
 72
               1
  1
{\fＭＳ ゴシック|b0|i0|c128|p0;\l15}
 73
               1
 44
0.7828267384257843
  0
MTEXT
  5
EF
100
AcDbEntity
  8
一般
390
0
 62
               1
100
AcDbMText
 10
5501.9151755247058
 20
-1400.7391801952976
 30
0.0
 40
24.432617187499996
 41
0.0
 71
               1
 72
               1
  1
{\fＭＳ ゴシック|b0|i0|c128|p0;\lKojima\P Shohei}
 73
               1
 44
0.7828267384257843
  0
MTEXT
  5
F0
100
AcDbEntity
  8
一般
390
0
 62
               1
100
AcDbMText
 10
4815.0780253591865
 20
-1409.6212630077971
 30
0.0
 40
48.865234374999993
 41
0.0
 71
               1
 72
               1
  1
{\fＭＳ ゴシック|b0|i0|c128|p0;\lA4}
 73
               1
 44
0.7828267384257843
  0
MTEXT
  5
F1
100
AcDbEntity
  8
一般
390
0
 62
               1
100
AcDbMText
 10
4771.2030253591856
 20
-1352.9857051952972
 30
0.0
 40
24.432617187499996
 41
0.0
 71
               1
 72
               1
  1
{\fＭＳ ゴシック|b0|i0|c128|p0;\lPAPER SIZE}
 73
               1
 44
0.7828267384257843
  0
MTEXT
  5
F2
100
AcDbEntity
  8
一般
390
0
 62
               1
100
AcDbMText
 10
3448.2225542125389
 20
-1531.5677636558576
 30
0.0
 40
52.937337239583329
 41
0.0
 71
               1
 72
               1
  1
{\fＭＳ ゴシック|b0|i0|c128|p0;\lHibino-Intersound Corporation}
 73
               1
 44
0.7828267384257843
  0
MTEXT
  5
F3
100
AcDbEntity
  8
一般
390
0
 62
               1
100
AcDbMText
 10
5059.5371705623947
 20
-1526.3014398565165
 30
0.0
 40
52.937337239583329
 41
0.0
 71
               1
 72
               1
  1
{\fＭＳ ゴシック|b0|i0|c128|p0;\lヒビノインタ ーサウンド株式会社}
 73
               1
 44
0.7828267384257843
  0
MTEXT
  5
F4
100
AcDbEntity
  8
0
390
0
 62
               1
100
AcDbMText
 10
3713.5475062531264
 20
-1059.9955783268115
 30
0.0
 40
48.865234375000092
 41
0.0
 71
               1
 72
               1
  1
{\fＭＳ ゴシック|b0|i0|c128|p0;\l(単位：mm）}
 73
               1
 44
0.7828267384257843
  0
MTEXT
  5
F5
100
AcDbEntity
  8
0
390
0
 62
               1
100
AcDbMText
 10
5382.7408751936664
 20
-1209.144402070297
 30
0.0
 40
40.721028645833343
 41
590.90278868393318
 71
               1
 72
               1
  1
{\fＭＳ ゴシック|b0|i0|c128|p0;\lCODA AUDIO \P      G308Pro-L/R}
 73
               1
 44
0.7828267384257843
  0
MTEXT
  5
F6
100
AcDbEntity
  8
一般
390
0
 62
               1
100
AcDbMText
 10
3552.8390867924063
 20
-1405.0065288476449
 30
0.0
 40
24.432617187500004
 41
0.0
 71
               1
 72
               1
  1
{\fＭＳ ゴシック|b0|i0|c128|p0;\l仕様および外観は予告なく変更されることがありますので、ご了承ください。}
 73
               1
 44
0.7828267384257843
  0
MTEXT
  5
F7
100
AcDbEntity
  8
一般
390
0
 62
               1
100
AcDbMText
 10
3663.1436638775995
 20
2310.1532892435134
 30
0.0
 40
36.64892578125
 41
0.0
 71
               1
 72
               1
  1
{\fＭＳ ゴシック|b0|i0|c128|p0;\l仕様}
 73
               1
 44
0.7828267384257843
  0
LINE
  5
F8
100
AcDbEntity
  8
一般
370
               0
390
0
  6
Continuous
 62
               1
100
AcDbLine
 10
3644.3936638775995
 20
2252.6053134622634
 30
0.0
 11
5856.8936638775995
 21
2252.6053134622634
 31
0.0
  0
LINE
  5
F9
100
AcDbEntity
  8
一般
370
               0
390
0
  6
Continuous
 62
               1
100
AcDbLine
 10
3644.3936638775995
 20
2196.3553134622634
 30
0.0
 11
5856.8936638775995
 21
2196.3553134622634
 31
0.0
  0
LINE
  5
FA
100
AcDbEntity
  8
一般
370
               0
390
0
  6
Continuous
 62
               1
100
AcDbLine
 10
3644.3936638775995
 20
2083.8553134622634
 30
0.0
 11
5856.8936638775995
 21
2083.8553134622634
 31
0.0
  0
LINE
  5
FB
100
AcDbEntity
  8
一般
370
               0
390
0
  6
Continuous
 62
               1
100
AcDbLine
 10
4131.8936638775995
 20
2140.1053134622634
 30
0.0
 11
5856.8936638775995
 21
2140.1053134622634
 31
0.0
  0
LINE
  5
FC
100
AcDbEntity
  8
一般
370
               0
390
0
  6
Continuous
 62
               1
100
AcDbLine
 10
3644.3936638775995
 20
2252.6053134622634
 30
0.0
 11
3644.3936638775995
 21
1240.1053134622634
 31
0.0
  0
LINE
  5
FD
100
AcDbEntity
  8
一般
370
               0
390
0
  6
Continuous
 62
               1
100
AcDbLine
 10
4131.8936638775995
 20
2252.6053134622634
 30
0.0
 11
4131.8936638775995
 21
1240.1053134622634
 31
0.0
  0
LINE
  5
FE
100
AcDbEntity
  8
一般
370
               0
390
0
  6
Continuous
 62
               1
100
AcDbLine
 10
5856.8936638775995
 20
2252.6053134622634
 30
0.0
 11
5856.8936638775995
 21
1240.1053134622634
 31
0.0
  0
LINE
  5
FF
100
AcDbEntity
  8
一般
370
               0
390
0
  6
Continuous
 62
               1
100
AcDbLine
 10
3644.3936638775995
 20
2027.6053134622634
 30
0.0
 11
5856.8936638775995
 21
2027.6053134622634
 31
0.0
  0
LINE
  5
100
100
AcDbEntity
  8
一般
370
               0
390
0
  6
Continuous
 62
               1
100
AcDbLine
 10
3644.3936638775995
 20
1971.3553134622634
 30
0.0
 11
5856.8936638775995
 21
1971.3553134622634
 31
0.0
  0
LINE
  5
101
100
AcDbEntity
  8
一般
370
               0
390
0
  6
Continuous
 62
               1
100
AcDbLine
 10
3644.3936638775995
 20
1915.1053134622634
 30
0.0
 11
5856.8936638775995
 21
1915.1053134622634
 31
0.0
  0
LINE
  5
102
100
AcDbEntity
  8
一般
370
               0
390
0
  6
Continuous
 62
               1
100
AcDbLine
 10
3644.3936638775995
 20
1858.8553134622634
 30
0.0
 11
5856.8936638775995
 21
1858.8553134622634
 31
0.0
  0
LINE
  5
103
100
AcDbEntity
  8
一般
370
               0
390
0
  6
Continuous
 62
               1
100
AcDbLine
 10
4131.8936638775995
 20
1802.6053134622634
 30
0.0
 11
5856.8936638775995
 21
1802.6053134622634
 31
0.0
  0
LINE
  5
104
100
AcDbEntity
  8
一般
370
               0
390
0
  6
Continuous
 62
               1
100
AcDbLine
 10
4131.8936638775995
 20
1746.3553134622634
 30
0.0
 11
5856.8936638775995
 21
1746.3553134622634
 31
0.0
  0
LINE
  5
105
100
AcDbEntity
  8
一般
370
               0
390
0
  6
Continuous
 62
               1
100
AcDbLine
 10
4131.8936638775995
 20
1690.1053134622634
 30
0.0
 11
5856.8936638775995
 21
1690.1053134622634
 31
0.0
  0
LINE
  5
106
100
AcDbEntity
  8
一般
370
               0
390
0
  6
Continuous
 62
               1
100
AcDbLine
 10
3644.3936638775995
 20
1633.8553134622634
 30
0.0
 11
5856.8936638775995
 21
1633.8553134622634
 31
0.0
  0
LINE
  5
107
100
AcDbEntity
  8
一般
370
               0
390
0
  6
Continuous
 62
               1
100
AcDbLine
 10
3644.3936638775995
 20
1577.6053134622634
 30
0.0
 11
5856.8936638775995
 21
1577.6053134622634
 31
0.0
  0
LINE
  5
108
100
AcDbEntity
  8
一般
370
               0
390
0
  6
Continuous
 62
               1
100
AcDbLine
 10
3644.3936638775995
 20
1521.3553134622634
 30
0.0
 11
5856.8936638775995
 21
1521.3553134622634
 31
0.0
  0
MTEXT
  5
109
100
AcDbEntity
  8
一般
390
0
 62
               1
100
AcDbMText
 10
3655.6402616169935
 20
1507.8226318553493
 30
0.0
 40
28.504720052083332
 41
0.0
 71
               1
 72
               1
  1
{\fＭＳ ゴシック|b0|i0|c128|p0;\lエンクロージャー}
 73
               1
 44
0.7828267384257843
  0
MTEXT
  5
10A
100
AcDbEntity
  8
一般
390
0
 62
               1
100
AcDbMText
 10
4145.8451966442326
 20
1393.3997198265843
 30
0.0
 40
28.504720052083332
 41
0.0
 71
               1
 72
               1
  1
{\fＭＳ ゴシック|b0|i0|c128|p0;\l230(W)×471(H)×260(D)mm(突起部含まず）}
 73
               1
 44
0.7828267384257843
  0
MTEXT
  5
10B
100
AcDbEntity
  8
一般
390
0
 62
               1
100
AcDbMText
 10
4145.1933345702619
 20
1451.5705135511598
 30
0.0
 40
28.504720052083332
 41
0.0
 71
               1
 72
               1
  1
{\fＭＳ ゴシック|b0|i0|c128|p0;\lポリウレア樹脂塗装　黒}
 73
               1
 44
0.7828267384257843
  0
MTEXT
  5
10C
100
AcDbEntity
  8
一般
390
0
 62
               1
100
AcDbMText
 10
3657.7440237075989
 20
1453.2059869106897
 30
0.0
 40
28.504720052083332
 41
0.0
 71
               1
 72
               1
  1
{\fＭＳ ゴシック|b0|i0|c128|p0;\l仕上げ}
 73
               1
 44
0.7828267384257843
  0
MTEXT
  5
10D
100
AcDbEntity
  8
一般
390
0
 62
               1
100
AcDbMText
 10
3657.3196971830585
 20
1621.2402806878613
 30
0.0
 40
28.504720052083332
 41
0.0
 71
               1
 72
               1
  1
{\fＭＳ ゴシック|b0|i0|c128|p0;\l入力コネクタ ー}
 73
               1
 44
0.7828267384257843
  0
MTEXT
  5
10E
100
AcDbEntity
  8
一般
390
0
 62
               1
100
AcDbMText
 10
4145.5038553573759
 20
1618.9964625715879
 30
0.0
 40
28.504720052083332
 41
0.0
 71
               1
 72
               1
  1
{\fＭＳ ゴシック|b0|i0|c128|p0;\l2×Neutrik NL4MP}
 73
               1
 44
0.7828267384257843
  0
MTEXT
  5
10F
100
AcDbEntity
  8
一般
390
0
 62
               1
100
AcDbMText
 10
3657.654939986689
 20
1564.0090963744983
 30
0.0
 40
28.504720052083332
 41
0.0
 71
               1
 72
               1
  1
{\fＭＳ ゴシック|b0|i0|c128|p0;\l公称インピーダンス}
 73
               1
 44
0.7828267384257843
  0
MTEXT
  5
110
100
AcDbEntity
  8
一般
390
0
 62
               1
100
AcDbMText
 10
4145.1971682587773
 20
1563.6221135393362
 30
0.0
 40
28.504720052083332
 41
0.0
 71
               1
 72
               1
  1
{\fＭＳ ゴシック|b0|i0|c128|p0;\l8Ω}
 73
               1
 44
0.7828267384257843
  0
MTEXT
  5
111
100
AcDbEntity
  8
一般
390
0
 62
               1
100
AcDbMText
 10
3657.0862219205319
 20
2183.5305662764604
 30
0.0
 40
28.504720052083332
 41
0.0
 71
               1
 72
               1
  1
{\fＭＳ ゴシック|b0|i0|c128|p0;\l形式}
 73
               1
 44
0.7828267384257843
  0
MTEXT
  5
112
100
AcDbEntity
  8
一般
390
0
 62
               1
100
AcDbMText
 10
4145.4114990592843
 20
2181.1531259971534
 30
0.0
 40
28.504720052083332
 41
0.0
 71
               1
 72
               1
  1
{\fＭＳ ゴシック|b0|i0|c128|p0;\l2-Way フルレンジ・スピーカーシステム}
 73
               1
 44
0.7828267384257843
  0
MTEXT
  5
113
100
AcDbEntity
  8
一般
390
0
 62
               1
100
AcDbMText
 10
3657.5466016398677
 20
2070.2927300268029
 30
0.0
 40
28.504720052083332
 41
0.0
 71
               1
 72
               1
  1
{\fＭＳ ゴシック|b0|i0|c128|p0;\l周波数特性}
 73
               1
 44
0.7828267384257843
  0
MTEXT
  5
114
100
AcDbEntity
  8
一般
390
0
 62
               1
100
AcDbMText
 10
3656.9071207901015
 20
2013.8075992759013
 30
0.0
 40
28.504720052083332
 41
0.0
 71
               1
 72
               1
  1
{\fＭＳ ゴシック|b0|i0|c128|p0;\l許容入力(AES/ピーク）}
 73
               1
 44
0.7828267384257843
  0
MTEXT
  5
115
100
AcDbEntity
  8
一般
390
0
 62
               1
100
AcDbMText
 10
3657.3996150583171
 20
1959.0318436654734
 30
0.0
 40
28.504720052083332
 41
0.0
 71
               1
 72
               1
  1
{\fＭＳ ゴシック|b0|i0|c128|p0;\l感度}
 73
               1
 44
0.7828267384257843
  0
MTEXT
  5
116
100
AcDbEntity
  8
一般
390
0
 62
               1
100
AcDbMText
 10
3657.9438166375803
 20
1902.5986599790976
 30
0.0
 40
28.504720052083332
 41
0.0
 71
               1
 72
               1
  1
{\fＭＳ ゴシック|b0|i0|c128|p0;\l最大音圧}
 73
               1
 44
0.7828267384257843
  0
MTEXT
  5
117
100
AcDbEntity
  8
一般
390
0
 62
               1
100
AcDbMText
 10
3655.0327576406817
 20
1845.9273768294001
 30
0.0
 40
28.504720052083332
 41
0.0
 71
               1
 72
               1
  1
{\fＭＳ ゴシック|b0|i0|c128|p0;\lカバレージ角}
 73
               1
 44
0.7828267384257843
  0
MTEXT
  5
118
100
AcDbEntity
  8
一般
390
0
 62
               1
100
AcDbMText
 10
3646.2987778505694
 20
1792.5898983363663
 30
0.0
 40
28.504720052083332
 41
0.0
 71
               1
 72
               1
  1
{\fＭＳ ゴシック|b0|i0|c128|p0;\lドライバー構成}
 73
               1
 44
0.7828267384257843
  0
MTEXT
  5
119
100
AcDbEntity
  8
一般
390
0
 62
               1
100
AcDbMText
 10
3655.7254240043794
 20
1676.0980844675341
 30
0.0
 40
28.504720052083332
 41
0.0
 71
               1
 72
               1
  1
{\fＭＳ ゴシック|b0|i0|c128|p0;\lクロスオーバー}
 73
               1
 44
0.7828267384257843
  0
MTEXT
  5
11A
100
AcDbEntity
  8
一般
390
0
 62
               1
100
AcDbMText
 10
3656.4086928855368
 20
1395.3447357956984
 30
0.0
 40
28.504720052083332
 41
0.0
 71
               1
 72
               1
  1
{\fＭＳ ゴシック|b0|i0|c128|p0;\l寸法}
 73
               1
 44
0.7828267384257843
  0
MTEXT
  5
11B
100
AcDbEntity
  8
一般
390
0
 62
               1
100
AcDbMText
 10
4144.9655465832557
 20
1340.3597315792772
 30
0.0
 40
28.504720052083332
 41
0.0
 71
               1
 72
               1
  1
{\fＭＳ ゴシック|b0|i0|c128|p0;\l約9.6kg}
 73
               1
 44
0.7828267384257843
  0
MTEXT
  5
11C
100
AcDbEntity
  8
一般
390
0
 62
               1
100
AcDbMText
 10
3657.0533169880946
 20
1339.6612414588426
 30
0.0
 40
28.504720052083332
 41
0.0
 71
               1
 72
               1
  1
{\fＭＳ ゴシック|b0|i0|c128|p0;\l重量}
 73
               1
 44
0.7828267384257843
  0
MTEXT
  5
11D
100
AcDbEntity
  8
一般
390
0
 62
               1
100
AcDbMText
 10
4145.5303262237521
 20
2068.0469315697992
 30
0.0
 40
28.504720052083332
 41
0.0
 71
               1
 72
               1
  1
{\fＭＳ ゴシック|b0|i0|c128|p0;\l70Hz～30kHz(-3dB)}
 73
               1
 44
0.7828267384257843
  0
MTEXT
  5
11E
100
AcDbEntity
  8
一般
390
0
 62
               1
100
AcDbMText
 10
4144.9225434962145
 20
2012.3474179505629
 30
0.0
 40
28.504720052083332
 41
0.0
 71
               1
 72
               1
  1
{\fＭＳ ゴシック|b0|i0|c128|p0;\l220W/880W}
 73
               1
 44
0.7828267384257843
  0
MTEXT
  5
11F
100
AcDbEntity
  8
一般
390
0
 62
               1
100
AcDbMText
 10
4145.3521381167147
 20
1956.5295516224937
 30
0.0
 40
28.504720052083332
 41
0.0
 71
               1
 72
               1
  1
{\fＭＳ ゴシック|b0|i0|c128|p0;\l94.5dB}
 73
               1
 44
0.7828267384257843
  0
MTEXT
  5
120
100
AcDbEntity
  8
一般
390
0
 62
               1
100
AcDbMText
 10
4143.5479647020293
 20
1900.5195822562464
 30
0.0
 40
28.504720052083332
 41
0.0
 71
               1
 72
               1
  1
{\fＭＳ ゴシック|b0|i0|c128|p0;\l124dB}
 73
               1
 44
0.7828267384257843
  0
MTEXT
  5
121
100
AcDbEntity
  8
一般
390
0
 62
               1
100
AcDbMText
 10
4145.6162576246497
 20
1842.9377557758262
 30
0.0
 40
28.504720052083332
 41
0.0
 71
               1
 72
               1
  1
{\fＭＳ ゴシック|b0|i0|c128|p0;\l90°円錐}
 73
               1
 44
0.7828267384257843
  0
MTEXT
  5
122
100
AcDbEntity
  8
一般
390
0
 62
               1
100
AcDbMText
 10
4145.2306042443852
 20
1789.8508258640927
 30
0.0
 40
28.504720052083332
 41
0.0
 71
               1
 72
               1
  1
{\fＭＳ ゴシック|b0|i0|c128|p0;\l低域：1×8インチユニット、2インチボイスコイル}
 73
               1
 44
0.7828267384257843
  0
MTEXT
  5
123
100
AcDbEntity
  8
一般
390
0
 62
               1
100
AcDbMText
 10
4145.0501594702791
 20
1734.0017835034146
 30
0.0
 40
28.504720052083332
 41
0.0
 71
               1
 72
               1
  1
{\fＭＳ ゴシック|b0|i0|c128|p0;\l高域：1インチコンプレッションドライバー、1.5インチボイスコイル }
 73
               1
 44
0.7828267384257843
  0
MTEXT
  5
124
100
AcDbEntity
  8
一般
390
0
 62
               1
100
AcDbMText
 10
4145.0302099456067
 20
1676.0420312633191
 30
0.0
 40
28.504720052083332
 41
0.0
 71
               1
 72
               1
  1
{\fＭＳ ゴシック|b0|i0|c128|p0;\l1.9kHz}
 73
               1
 44
0.7828267384257843
  0
MTEXT
  5
125
100
AcDbEntity
  8
一般
390
0
 62
               1
100
AcDbMText
 10
4144.5466492996356
 20
1508.7070058388485
 30
0.0
 40
28.504720052083332
 41
0.0
 71
               1
 72
               1
  1
{\fＭＳ ゴシック|b0|i0|c128|p0;\l合板}
 73
               1
 44
0.7828267384257843
  0
LINE
  5
126
100
AcDbEntity
  8
一般
370
               0
390
0
  6
Continuous
 62
               1
100
AcDbLine
 10
3644.3936638775995
 20
1465.1053134622634
 30
0.0
 11
5856.8936638775995
 21
1465.1053134622634
 31
0.0
  0
LINE
  5
127
100
AcDbEntity
  8
一般
370
               0
390
0
  6
Continuous
 62
               1
100
AcDbLine
 10
3644.3936638775995
 20
1408.8553134622634
 30
0.0
 11
5856.8936638775995
 21
1408.8553134622634
 31
0.0
  0
LINE
  5
128
100
AcDbEntity
  8
一般
370
               0
390
0
  6
Continuous
 62
               1
100
AcDbLine
 10
3644.3936638775995
 20
1352.6053134622634
 30
0.0
 11
5856.8936638775995
 21
1352.6053134622634
 31
0.0
  0
MTEXT
  5
129
100
AcDbEntity
  8
一般
390
0
 62
               1
100
AcDbMText
 10
4446.5077270378079
 20
2235.7969167318543
 30
0.0
 40
28.504720052083332
 41
0.0
 71
               1
 72
               1
  1
{\fＭＳ ゴシック|b0|i0|c128|p0;\lG308Pro-L}
 73
               1
 44
0.7828267384257843
  0
LINE
  5
12A
100
AcDbEntity
  8
一般
370
               0
390
0
  6
Continuous
 62
               1
100
AcDbLine
 10
3644.3936638775995
 20
1296.3553134622634
 30
0.0
 11
5856.8936638775995
 21
1296.3553134622634
 31
0.0
  0
MTEXT
  5
12B
100
AcDbEntity
  8
一般
390
0
 62
               1
100
AcDbMText
 10
5096.5077270378079
 20
2237.5970408460857
 30
0.0
 40
28.504720052083332
 41
0.0
 71
               1
 72
               1
  1
{\fＭＳ ゴシック|b0|i0|c128|p0;\lG308Pro-R}
 73
               1
 44
0.7828267384257843
  0
LINE
  5
12C
100
AcDbEntity
  8
一般
370
               0
390
0
  6
Continuous
 62
               1
100
AcDbLine
 10
4981.8936638775995
 20
2083.8553134622634
 30
0.0
 11
4981.8936638775995
 21
2140.1053134622634
 31
0.0
  0
LINE
  5
12D
100
AcDbEntity
  8
一般
370
               0
390
0
  6
Continuous
 62
               1
100
AcDbLine
 10
4981.8936638775995
 20
2196.3553134622634
 30
0.0
 11
4981.8936638775995
 21
2252.6053134622634
 31
0.0
  0
MTEXT
  5
12E
100
AcDbEntity
  8
一般
390
0
 62
               1
100
AcDbMText
 10
4145.3077888006228
 20
2126.9645014806001
 30
0.0
 40
28.504720052083332
 41
0.0
 71
               1
 72
               1
  1
{\fＭＳ ゴシック|b0|i0|c128|p0;\lL仕様}
 73
               1
 44
0.7828267384257843
  0
MTEXT
  5
12F
100
AcDbEntity
  8
一般
390
0
 62
               1
100
AcDbMText
 10
4995.2213776014914
 20
2126.3029121527129
 30
0.0
 40
28.504720052083332
 41
0.0
 71
               1
 72
               1
  1
{\fＭＳ ゴシック|b0|i0|c128|p0;\lR仕様}
 73
               1
 44
0.7828267384257843
  0
LINE
  5
130
100
AcDbEntity
  8
一般
370
               0
390
0
  6
Continuous
 62
               1
100
AcDbLine
 10
4131.8936638775995
 20
1690.1053134622634
 30
0.0
 11
3644.3936638775995
 21
1690.1053134622634
 31
0.0
  0
LINE
  5
131
100
AcDbEntity
  8
一般
370
               0
390
0
  6
Continuous
 62
               1
100
AcDbLine
 10
4131.8936638775995
 20
1802.6053134622634
 30
0.0
 11
3644.3936638775995
 21
1802.6053134622634
 31
0.0
  0
MTEXT
  5
132
100
AcDbEntity
  8
一般
390
0
 62
               1
100
AcDbMText
 10
5091.1195779678201
 20
-609.7937120457151
 30
0.0
 40
40.721028645833343
 41
0.0
 71
               1
 72
               1
  1
{\fＭＳ ゴシック|b0|i0|c128|p0;\l寸法図はG308Pro-R(右側仕様）}
 73
               1
 44
0.7828267384257843
  0
LINE
  5
133
100
AcDbEntity
  8
一般
370
               0
390
0
  6
Continuous
 62
               1
100
AcDbLine
 10
5046.7946791508457
 20
-670.64468653773667
 30
0.0
 11
5751.3780124841787
 21
-670.64468653773667
 31
0.0
  0
LINE
  5
134
100
AcDbEntity
  8
一般
370
               0
390
0
  6
Continuous
 62
               1
100
AcDbLine
 10
3644.3936638775995
 20
1240.1053134622634
 30
0.0
 11
5856.8936638775995
 21
1240.1053134622634
 31
0.0
  0
MTEXT
  5
135
100
AcDbEntity
  8
一般
390
0
 62
               1
100
AcDbMText
 10
3657.6436638775995
 20
1280.0042001810134
 30
0.0
 40
28.504720052083332
 41
0.0
 71
               1
 72
               1
  1
{\fＭＳ ゴシック|b0|i0|c128|p0;\lその他}
 73
               1
 44
0.7828267384257843
  0
MTEXT
  5
136
100
AcDbEntity
  8
一般
390
0
 62
               1
100
AcDbMText
 10
4144.6436638775995
 20
1278.3542001810133
 30
0.0
 40
28.504720052083332
 41
0.0
 71
               1
 72
               1
  1
{\fＭＳ ゴシック|b0|i0|c128|p0;\lHuman EQスイッチ, 35mmφスピーカースタ ンド用フランジアダプタ （スタ ンド差し込み穴）}
 73
               1
 44
0.7828267384257843
  0
LINE
  5
137
100
AcDbEntity
  8
0
370
               0
390
0
  6
Continuous
 62
              30
100
AcDbLine
 10
4104.8194688963786
 20
-41.891445284245719
 30
0.0
 11
4104.8194688963786
 21
405.10855471575451
 31
0.0
  0
LINE
  5
138
100
AcDbEntity
  8
0
370
               0
390
0
  6
Continuous
 62
              30
100
AcDbLine
 10
4104.8194688963786
 20
-41.891445284245719
 30
0.0
 11
4104.8194688963786
 21
405.10855471575451
 31
0.0
  0
LINE
  5
139
100
AcDbEntity
  8
0
370
               0
390
0
  6
Continuous
 62
              30
100
AcDbLine
 10
4024.2956020022611
 20
405.10855471575496
 30
0.0
 11
4024.2956020022611
 21
-41.891445284245037
 31
0.0
  0
LINE
  5
13A
100
AcDbEntity
  8
0
370
               0
390
0
  6
Continuous
 62
              30
100
AcDbLine
 10
3866.8194688963777
 20
-41.891445284245037
 30
0.0
 11
3866.8194688963777
 21
405.10855471575496
 31
0.0
  0
LINE
  5
13B
100
AcDbEntity
  8
0
370
               0
390
0
  6
Continuous
 62
              30
100
AcDbLine
 10
4024.2956020022611
 20
405.10855471575496
 30
0.0
 11
4024.2956020022611
 21
-41.891445284245037
 31
0.0
  0
LINE
  5
13C
100
AcDbEntity
  8
0
370
               0
390
0
  6
Continuous
 62
              30
100
AcDbLine
 10
3888.8194688963777
 20
405.10855471575496
 30
0.0
 11
3888.8194688963777
 21
-41.891445284245037
 31
0.0
  0
LINE
  5
13D
100
AcDbEntity
  8
0
370
               0
390
0
  6
Continuous
 62
              30
100
AcDbLine
 10
3866.7984807622697
 20
371.10855471575405
 30
0.0
 11
3866.7984807622697
 21
168.10855471575428
 31
0.0
  0
LINE
  5
13E
100
AcDbEntity
  8
0
370
               0
390
0
  6
Continuous
 62
              30
100
AcDbLine
 10
3867.2385409289573
 20
-53.891445284245037
 30
0.0
 11
4024.2956020022611
 21
-53.891445284245037
 31
0.0
  0
LINE
  5
13F
100
AcDbEntity
  8
0
370
               0
390
0
  6
Continuous
 62
              30
100
AcDbLine
 10
4024.2956020022611
 20
-41.891445284245037
 30
0.0
 11
3888.8194688963777
 21
-41.891445284245037
 31
0.0
  0
LINE
  5
140
100
AcDbEntity
  8
0
370
               0
390
0
  6
Continuous
 62
              30
100
AcDbLine
 10
3888.8194688963777
 20
-41.891445284245037
 30
0.0
 11
4024.2956020022611
 21
-41.891445284245037
 31
0.0
  0
LINE
  5
141
100
AcDbEntity
  8
0
370
               0
390
0
  6
Continuous
 62
              30
100
AcDbLine
 10
3867.2385409289573
 20
-41.891445284245037
 30
0.0
 11
3888.8194688963777
 21
-41.891445284245037
 31
0.0
  0
LINE
  5
142
100
AcDbEntity
  8
0
370
               0
390
0
  6
Continuous
 62
              30
100
AcDbLine
 10
3888.8194688963777
 20
-46.89144528424481
 30
0.0
 11
3867.2385409289573
 21
-46.89144528424481
 31
0.0
  0
LINE
  5
143
100
AcDbEntity
  8
0
370
               0
390
0
  6
Continuous
 62
              30
100
AcDbLine
 10
3866.8194688963777
 20
-41.891445284245037
 30
0.0
 11
3888.8194688963777
 21
-41.891445284245037
 31
0.0
  0
LINE
  5
144
100
AcDbEntity
  8
0
370
               0
390
0
  6
Continuous
 62
              30
100
AcDbLine
 10
3848.8194688963786
 20
-41.891445284245719
 30
0.0
 11
3857.8841271562933
 21
-41.891445284245037
 31
0.0
  0
LINE
  5
145
100
AcDbEntity
  8
0
370
               0
390
0
  6
Continuous
 62
              30
100
AcDbLine
 10
3844.8194688963786
 20
-53.891445284245719
 30
0.0
 11
3853.9454266204348
 21
-53.891445284245037
 31
0.0
  0
LINE
  5
146
100
AcDbEntity
  8
0
370
               0
390
0
  6
Continuous
 62
              30
100
AcDbLine
 10
3853.9454266204348
 20
-46.891445284245037
 30
0.0
 11
3844.8194688963786
 21
-46.891445284245719
 31
0.0
  0
LINE
  5
147
100
AcDbEntity
  8
0
370
               0
390
0
  6
Continuous
 62
              30
100
AcDbLine
 10
3848.8194688963786
 20
-41.891445284245719
 30
0.0
 11
3848.8194688963786
 21
-46.891445284245719
 31
0.0
  0
LINE
  5
148
100
AcDbEntity
  8
0
370
               0
390
0
  6
Continuous
 62
              30
100
AcDbLine
 10
3844.8194688963786
 20
-46.891445284245719
 30
0.0
 11
3844.8194688963786
 21
-53.891445284245719
 31
0.0
  0
LINE
  5
149
100
AcDbEntity
  8
0
370
               0
390
0
  6
Continuous
 62
              30
100
AcDbLine
 10
3857.8841271562933
 20
-41.891445284245037
 30
0.0
 11
3866.8194688963777
 21
-41.891445284245037
 31
0.0
  0
LINE
  5
14A
100
AcDbEntity
  8
0
370
               0
390
0
  6
Continuous
 62
              30
100
AcDbLine
 10
3857.8841271562933
 20
-41.891445284245037
 30
0.0
 11
3857.8841271562933
 21
-46.891445284245037
 31
0.0
  0
LINE
  5
14B
100
AcDbEntity
  8
0
370
               0
390
0
  6
Continuous
 62
              30
100
AcDbLine
 10
3867.2385409289573
 20
-46.89144528424481
 30
0.0
 11
3867.2385409289573
 21
-41.891445284245037
 31
0.0
  0
LINE
  5
14C
100
AcDbEntity
  8
0
370
               0
390
0
  6
Continuous
 62
              30
100
AcDbLine
 10
3853.9454266204348
 20
-53.891445284245037
 30
0.0
 11
3867.2385409289573
 21
-53.891445284245037
 31
0.0
  0
LINE
  5
14D
100
AcDbEntity
  8
0
370
               0
390
0
  6
Continuous
 62
              30
100
AcDbLine
 10
3867.2385409289573
 20
-46.89144528424481
 30
0.0
 11
3853.9454266204348
 21
-46.891445284245037
 31
0.0
  0
LINE
  5
14E
100
AcDbEntity
  8
0
370
               0
390
0
  6
Continuous
 62
              30
100
AcDbLine
 10
3853.9454266204348
 20
-46.891445284245037
 30
0.0
 11
3853.9454266204348
 21
-53.891445284245037
 31
0.0
  0
LINE
  5
14F
100
AcDbEntity
  8
0
370
               0
390
0
  6
Continuous
 62
              30
100
AcDbLine
 10
3867.2385409289573
 20
-46.89144528424481
 30
0.0
 11
3867.2385409289573
 21
-53.891445284245037
 31
0.0
  0
CIRCLE
  5
150
100
AcDbEntity
  8
0
370
               0
390
0
  6
Continuous
 62
              30
100
AcDbCircle
 10
3875.8194688963777
 20
-5.89144528424481
 30
0.0
 40
2.5
  0
LINE
  5
151
100
AcDbEntity
  8
0
370
               0
390
0
  6
Continuous
 62
              30
100
AcDbLine
 10
3888.8194688963777
 20
-41.891445284245037
 30
0.0
 11
3888.8194688963777
 21
-46.89144528424481
 31
0.0
  0
LINE
  5
152
100
AcDbEntity
  8
0
370
               0
390
0
  6
Continuous
 62
              30
100
AcDbLine
 10
4024.2956020022611
 20
-53.891445284245037
 30
0.0
 11
4104.8194688963786
 21
-53.891445284245719
 31
0.0
  0
LINE
  5
153
100
AcDbEntity
  8
0
370
               0
390
0
  6
Continuous
 62
              30
100
AcDbLine
 10
4104.8194688963786
 20
-41.891445284245719
 30
0.0
 11
4024.2956020022611
 21
-41.891445284245037
 31
0.0
  0
LINE
  5
154
100
AcDbEntity
  8
0
370
               0
390
0
  6
Continuous
 62
              30
100
AcDbLine
 10
4024.2956020022611
 20
-41.891445284245037
 30
0.0
 11
4104.8194688963786
 21
-41.891445284245719
 31
0.0
  0
LINE
  5
155
100
AcDbEntity
  8
0
370
               0
390
0
  6
Continuous
 62
              30
100
AcDbLine
 10
4024.2956020022611
 20
-53.891445284245037
 30
0.0
 11
4024.2956020022611
 21
-41.891445284245037
 31
0.0
  0
LINE
  5
156
100
AcDbEntity
  8
0
370
               0
390
0
  6
Continuous
 62
              30
100
AcDbLine
 10
4104.8194688963786
 20
-41.891445284245719
 30
0.0
 11
4104.8194688963786
 21
-53.891445284245719
 31
0.0
  0
CIRCLE
  5
157
100
AcDbEntity
  8
0
370
               0
390
0
  6
Continuous
 62
              30
100
AcDbCircle
 10
3875.8194688963777
 20
181.60855471575496
 30
0.0
 40
2.5
  0
ARC
  5
158
100
AcDbEntity
  8
0
370
               0
390
0
  6
Continuous
 62
              30
100
AcDbCircle
 10
3867.7984807622697
 20
168.10855471575428
 30
0.0
 40
1.0
100
AcDbArc
 50
180.0
 51
191.75945166047336
  0
CIRCLE
  5
159
100
AcDbEntity
  8
0
370
               0
390
0
  6
Continuous
 62
              30
100
AcDbCircle
 10
3955.8194688963777
 20
181.60855471575496
 30
0.0
 40
4.1999999999998181
  0
LINE
  5
15A
100
AcDbEntity
  8
0
370
               0
390
0
  6
Continuous
 62
              30
100
AcDbLine
 10
3888.8194688963777
 20
405.10855471575496
 30
0.0
 11
4024.2956020022611
 21
405.10855471575496
 31
0.0
  0
LINE
  5
15B
100
AcDbEntity
  8
0
370
               0
390
0
  6
Continuous
 62
              30
100
AcDbLine
 10
4024.2956020022611
 20
417.10855471575519
 30
0.0
 11
3867.2385409289573
 21
417.10855471575519
 31
0.0
  0
LINE
  5
15C
100
AcDbEntity
  8
0
370
               0
390
0
  6
Continuous
 62
              30
100
AcDbLine
 10
3888.8194688963777
 20
405.10855471575496
 30
0.0
 11
4024.2956020022611
 21
405.10855471575496
 31
0.0
  0
LINE
  5
15D
100
AcDbEntity
  8
0
370
               0
390
0
  6
Continuous
 62
              30
100
AcDbLine
 10
3888.8194688963777
 20
405.10855471575496
 30
0.0
 11
3867.2385409289573
 21
405.10855471575496
 31
0.0
  0
LINE
  5
15E
100
AcDbEntity
  8
0
370
               0
390
0
  6
Continuous
 62
              30
100
AcDbLine
 10
3867.2385409289573
 20
410.10855471575519
 30
0.0
 11
3888.8194688963777
 21
410.10855471575519
 31
0.0
  0
LINE
  5
15F
100
AcDbEntity
  8
0
370
               0
390
0
  6
Continuous
 62
              30
100
AcDbLine
 10
3866.8194688963777
 20
405.10855471575496
 30
0.0
 11
3888.8194688963777
 21
405.10855471575496
 31
0.0
  0
LINE
  5
160
100
AcDbEntity
  8
0
370
               0
390
0
  6
Continuous
 62
              30
100
AcDbLine
 10
3857.8841271562933
 20
405.10855471575496
 30
0.0
 11
3848.8194688963786
 21
405.10855471575451
 31
0.0
  0
LINE
  5
161
100
AcDbEntity
  8
0
370
               0
390
0
  6
Continuous
 62
              30
100
AcDbLine
 10
3853.9454266204348
 20
417.10855471575519
 30
0.0
 11
3844.8194688963786
 21
417.10855471575451
 31
0.0
  0
LINE
  5
162
100
AcDbEntity
  8
0
370
               0
390
0
  6
Continuous
 62
              30
100
AcDbLine
 10
3844.8194688963786
 20
410.10855471575428
 30
0.0
 11
3853.9454266204348
 21
410.10855471575519
 31
0.0
  0
LINE
  5
163
100
AcDbEntity
  8
0
370
               0
390
0
  6
Continuous
 62
              30
100
AcDbLine
 10
3848.8194688963786
 20
410.10855471575428
 30
0.0
 11
3848.8194688963786
 21
405.10855471575451
 31
0.0
  0
LINE
  5
164
100
AcDbEntity
  8
0
370
               0
390
0
  6
Continuous
 62
              30
100
AcDbLine
 10
3844.8194688963786
 20
417.10855471575451
 30
0.0
 11
3844.8194688963786
 21
410.10855471575428
 31
0.0
  0
LINE
  5
165
100
AcDbEntity
  8
0
370
               0
390
0
  6
Continuous
 62
              30
100
AcDbLine
 10
3857.8841271562933
 20
410.10855471575519
 30
0.0
 11
3857.8841271562933
 21
405.10855471575496
 31
0.0
  0
LINE
  5
166
100
AcDbEntity
  8
0
370
               0
390
0
  6
Continuous
 62
              30
100
AcDbLine
 10
3867.2385409289573
 20
405.10855471575496
 30
0.0
 11
3867.2385409289573
 21
410.10855471575519
 31
0.0
  0
LINE
  5
167
100
AcDbEntity
  8
0
370
               0
390
0
  6
Continuous
 62
              30
100
AcDbLine
 10
3866.8194688963777
 20
405.10855471575496
 30
0.0
 11
3857.8841271562933
 21
405.10855471575496
 31
0.0
  0
ARC
  5
168
100
AcDbEntity
  8
0
370
               0
390
0
  6
Continuous
 62
              30
100
AcDbCircle
 10
3867.7984807622697
 20
371.10855471575405
 30
0.0
 40
1.0000000000003655
100
AcDbArc
 50
168.24054833950115
 51
180.0
  0
CIRCLE
  5
169
100
AcDbEntity
  8
0
370
               0
390
0
  6
Continuous
 62
              30
100
AcDbCircle
 10
3875.8194688963777
 20
369.10855471575519
 30
0.0
 40
2.5
  0
LINE
  5
16A
100
AcDbEntity
  8
0
370
               0
390
0
  6
Continuous
 62
              30
100
AcDbLine
 10
3867.2385409289573
 20
417.10855471575519
 30
0.0
 11
3853.9454266204348
 21
417.10855471575519
 31
0.0
  0
LINE
  5
16B
100
AcDbEntity
  8
0
370
               0
390
0
  6
Continuous
 62
              30
100
AcDbLine
 10
3853.9454266204348
 20
410.10855471575519
 30
0.0
 11
3867.2385409289573
 21
410.10855471575519
 31
0.0
  0
LINE
  5
16C
100
AcDbEntity
  8
0
370
               0
390
0
  6
Continuous
 62
              30
100
AcDbLine
 10
3853.9454266204348
 20
410.10855471575519
 30
0.0
 11
3853.9454266204348
 21
417.10855471575519
 31
0.0
  0
LINE
  5
16D
100
AcDbEntity
  8
0
370
               0
390
0
  6
Continuous
 62
              30
100
AcDbLine
 10
3867.2385409289573
 20
417.10855471575519
 30
0.0
 11
3867.2385409289573
 21
410.10855471575519
 31
0.0
  0
LINE
  5
16E
100
AcDbEntity
  8
0
370
               0
390
0
  6
Continuous
 62
              30
100
AcDbLine
 10
3888.8194688963777
 20
410.10855471575519
 30
0.0
 11
3888.8194688963777
 21
405.10855471575496
 31
0.0
  0
LINE
  5
16F
100
AcDbEntity
  8
0
370
               0
390
0
  6
Continuous
 62
              30
100
AcDbLine
 10
4024.2956020022611
 20
405.10855471575496
 30
0.0
 11
4104.8194688963786
 21
405.10855471575451
 31
0.0
  0
LINE
  5
170
100
AcDbEntity
  8
0
370
               0
390
0
  6
Continuous
 62
              30
100
AcDbLine
 10
4104.8194688963786
 20
417.10855471575451
 30
0.0
 11
4024.2956020022611
 21
417.10855471575519
 31
0.0
  0
LINE
  5
171
100
AcDbEntity
  8
0
370
               0
390
0
  6
Continuous
 62
              30
100
AcDbLine
 10
4104.8194688963786
 20
405.10855471575451
 30
0.0
 11
4024.2956020022611
 21
405.10855471575496
 31
0.0
  0
LINE
  5
172
100
AcDbEntity
  8
0
370
               0
390
0
  6
Continuous
 62
              30
100
AcDbLine
 10
4024.2956020022611
 20
405.10855471575496
 30
0.0
 11
4024.2956020022611
 21
417.10855471575519
 31
0.0
  0
LINE
  5
173
100
AcDbEntity
  8
0
370
               0
390
0
  6
Continuous
 62
              30
100
AcDbLine
 10
4104.8194688963786
 20
405.10855471575451
 30
0.0
 11
4104.8194688963786
 21
417.10855471575451
 31
0.0
  0
CIRCLE
  5
174
100
AcDbEntity
  8
0
370
               0
390
0
  6
Continuous
 62
              30
100
AcDbCircle
 10
4522.9903507744339
 20
291.60855471575428
 30
0.0
 40
102.5
  0
CIRCLE
  5
175
100
AcDbEntity
  8
0
370
               0
390
0
  6
Continuous
 62
              30
100
AcDbCircle
 10
4522.9903507744339
 20
291.60855471575428
 30
0.0
 40
101.29619674574769
  0
LINE
  5
176
100
AcDbEntity
  8
0
370
               0
390
0
  6
Continuous
 62
              30
100
AcDbLine
 10
4637.9903507744339
 20
405.10855471575496
 30
0.0
 11
4637.9903507744357
 21
-41.891445284245037
 31
0.0
  0
LINE
  5
177
100
AcDbEntity
  8
0
370
               0
390
0
  6
Continuous
 62
              30
100
AcDbLine
 10
4633.9903507744357
 20
-41.891445284245037
 30
0.0
 11
4633.9903507744339
 21
405.10855471575496
 31
0.0
  0
LINE
  5
178
100
AcDbEntity
  8
0
370
               0
390
0
  6
Continuous
 62
              30
100
AcDbLine
 10
4625.9903507744357
 20
-41.891445284245037
 30
0.0
 11
4625.9903507744339
 21
405.10855471575496
 31
0.0
  0
LINE
  5
179
100
AcDbEntity
  8
0
370
               0
390
0
  6
Continuous
 62
              30
100
AcDbLine
 10
4407.9903507744357
 20
-41.891445284246629
 30
0.0
 11
4407.9903507744339
 21
405.1085547157536
 31
0.0
  0
LINE
  5
17A
100
AcDbEntity
  8
0
370
               0
390
0
  6
Continuous
 62
              30
100
AcDbLine
 10
4411.9903507744339
 20
405.1085547157536
 30
0.0
 11
4411.9903507744357
 21
-41.891445284246629
 31
0.0
  0
LINE
  5
17B
100
AcDbEntity
  8
0
370
               0
390
0
  6
Continuous
 62
              30
100
AcDbLine
 10
4419.9903507744339
 20
405.10855471575383
 30
0.0
 11
4419.9903507744357
 21
-41.891445284246629
 31
0.0
  0
LINE
  5
17C
100
AcDbEntity
  8
0
370
               0
390
0
  6
Continuous
 62
              30
100
AcDbLine
 10
4625.9903507744339
 20
376.10855471575519
 30
0.0
 11
4625.9903507744339
 21
269.60855471575496
 31
0.0
  0
LINE
  5
17D
100
AcDbEntity
  8
0
370
               0
390
0
  6
Continuous
 62
              30
100
AcDbLine
 10
4419.9903507744339
 20
269.6085547157536
 30
0.0
 11
4419.9903507744339
 21
376.1085547157536
 31
0.0
  0
LINE
  5
17E
100
AcDbEntity
  8
0
370
               0
390
0
  6
Continuous
 62
              30
100
AcDbLine
 10
4419.8335638328563
 20
-41.891445284246629
 30
0.0
 11
4626.1471377160169
 21
-41.891445284245037
 31
0.0
  0
LINE
  5
17F
100
AcDbEntity
  8
0
370
               0
390
0
  6
Continuous
 62
              30
100
AcDbLine
 10
4419.1359693311379
 20
-53.891445284246629
 30
0.0
 11
4626.8447322177353
 21
-53.891445284245037
 31
0.0
  0
LINE
  5
180
100
AcDbEntity
  8
0
370
               0
390
0
  6
Continuous
 62
              30
100
AcDbLine
 10
4626.8447322177353
 20
-46.891445284245037
 30
0.0
 11
4419.1359693311379
 21
-46.891445284246402
 31
0.0
  0
ARC
  5
181
100
AcDbEntity
  8
0
370
               0
390
0
  6
Continuous
 62
              30
100
AcDbCircle
 10
4522.9903507744357
 20
72.608554715754281
 30
0.0
 40
103.49999999999936
100
AcDbArc
 50
5.634137599439855
 51
174.36586240056022
  0
ARC
  5
182
100
AcDbEntity
  8
0
370
               0
390
0
  6
Continuous
 62
              30
100
AcDbCircle
 10
4522.9903507744357
 20
72.608554715754281
 30
0.0
 40
103.5
100
AcDbArc
 50
270.0
 51
354.36586240056016
  0
CIRCLE
  5
183
100
AcDbEntity
  8
0
370
               0
390
0
  6
Continuous
 62
              30
100
AcDbCircle
 10
4522.9903507744357
 20
72.608554715754281
 30
0.0
 40
91.0
  0
ARC
  5
184
100
AcDbEntity
  8
0
370
               0
390
0
  6
Continuous
 62
              30
100
AcDbCircle
 10
4522.9903507744357
 20
72.608554715754281
 30
0.0
 40
103.50000000000027
100
AcDbArc
 50
185.63413759943981
 51
270.0
  0
LINE
  5
185
100
AcDbEntity
  8
0
370
               0
390
0
  6
Continuous
 62
              30
100
AcDbLine
 10
4419.9903507744357
 20
-41.891445284246629
 30
0.0
 11
4419.9903507744357
 21
51.447353999303459
 31
0.0
  0
LINE
  5
186
100
AcDbEntity
  8
0
370
               0
390
0
  6
Continuous
 62
              30
100
AcDbLine
 10
4411.9995985054375
 20
-41.891445284246629
 30
0.0
 11
4419.8335638328563
 21
-41.891445284246629
 31
0.0
  0
LINE
  5
187
100
AcDbEntity
  8
0
370
               0
390
0
  6
Continuous
 62
              30
100
AcDbLine
 10
4407.9903507744357
 20
-53.891445284246629
 30
0.0
 11
4419.1359693311379
 21
-53.891445284246629
 31
0.0
  0
LINE
  5
188
100
AcDbEntity
  8
0
370
               0
390
0
  6
Continuous
 62
              30
100
AcDbLine
 10
4419.1359693311379
 20
-46.891445284246402
 30
0.0
 11
4407.9903507744357
 21
-46.891445284246629
 31
0.0
  0
LINE
  5
189
100
AcDbEntity
  8
0
370
               0
390
0
  6
Continuous
 62
              30
100
AcDbLine
 10
4407.9903507744357
 20
-41.891445284246629
 30
0.0
 11
4411.9903507744357
 21
-41.891445284246629
 31
0.0
  0
LINE
  5
18A
100
AcDbEntity
  8
0
370
               0
390
0
  6
Continuous
 62
              30
100
AcDbLine
 10
4407.9903507744357
 20
-46.891445284246629
 30
0.0
 11
4407.9903507744357
 21
-41.891445284246629
 31
0.0
  0
LINE
  5
18B
100
AcDbEntity
  8
0
370
               0
390
0
  6
Continuous
 62
              30
100
AcDbLine
 10
4411.9903507744357
 20
-41.891445284246629
 30
0.0
 11
4411.9903507744357
 21
-46.891445284246402
 31
0.0
  0
LINE
  5
18C
100
AcDbEntity
  8
0
370
               0
390
0
  6
Continuous
 62
              30
100
AcDbLine
 10
4407.9903507744357
 20
-46.891445284246629
 30
0.0
 11
4407.9903507744357
 21
-53.891445284246629
 31
0.0
  0
LINE
  5
18D
100
AcDbEntity
  8
0
370
               0
390
0
  6
Continuous
 62
              30
100
AcDbLine
 10
4407.9903507744357
 20
-41.891445284246629
 30
0.0
 11
4411.9903507744357
 21
-41.891445284246629
 31
0.0
  0
LINE
  5
18E
100
AcDbEntity
  8
0
370
               0
390
0
  6
Continuous
 62
              30
100
AcDbLine
 10
4411.9903507744357
 20
-41.891445284246629
 30
0.0
 11
4411.9995985054375
 21
-41.891445284246629
 31
0.0
  0
LINE
  5
18F
100
AcDbEntity
  8
0
370
               0
390
0
  6
Continuous
 62
              30
100
AcDbLine
 10
4419.8335638328563
 20
-46.891445284246402
 30
0.0
 11
4419.8335638328563
 21
-41.891445284246629
 31
0.0
  0
LINE
  5
190
100
AcDbEntity
  8
0
370
               0
390
0
  6
Continuous
 62
              30
100
AcDbLine
 10
4419.1359693311379
 20
-46.891445284246402
 30
0.0
 11
4419.1359693311379
 21
-53.891445284246629
 31
0.0
  0
CIRCLE
  5
191
100
AcDbEntity
  8
0
370
               0
390
0
  6
Continuous
 62
              30
100
AcDbCircle
 10
4522.9903507744339
 20
291.60855471575428
 30
0.0
 40
58.379323684961491
  0
CIRCLE
  5
192
100
AcDbEntity
  8
0
370
               0
390
0
  6
Continuous
 62
              30
100
AcDbCircle
 10
4522.9903507744339
 20
291.60855471575428
 30
0.0
 40
74.620877899928018
  0
LINE
  5
193
100
AcDbEntity
  8
0
370
               0
390
0
  6
Continuous
 62
              30
100
AcDbLine
 10
4419.9903507744357
 20
71.769755432203738
 30
0.0
 11
4419.9903507744339
 21
269.6085547157536
 31
0.0
  0
CIRCLE
  5
194
100
AcDbEntity
  8
0
370
               0
390
0
  6
Continuous
 62
              30
100
AcDbCircle
 10
4522.9903507744339
 20
291.60855471575428
 30
0.0
 40
30.084734344643948
  0
CIRCLE
  5
195
100
AcDbEntity
  8
0
370
               0
390
0
  6
Continuous
 62
              30
100
AcDbCircle
 10
4522.9903507744339
 20
291.60855471575428
 30
0.0
 40
15.910782291390206
  0
CIRCLE
  5
196
100
AcDbEntity
  8
0
370
               0
390
0
  6
Continuous
 62
              30
100
AcDbCircle
 10
4522.9903507744339
 20
291.60855471575428
 30
0.0
 40
12.75
  0
CIRCLE
  5
197
100
AcDbEntity
  8
0
370
               0
390
0
  6
Continuous
 62
              30
100
AcDbCircle
 10
4522.9903507744339
 20
291.60855471575428
 30
0.0
 40
12.5
  0
LINE
  5
198
100
AcDbEntity
  8
0
370
               0
390
0
  6
Continuous
 62
              30
100
AcDbLine
 10
4625.9903507744357
 20
51.447353999304141
 30
0.0
 11
4625.9903507744357
 21
-41.891445284245037
 31
0.0
  0
LINE
  5
199
100
AcDbEntity
  8
0
370
               0
390
0
  6
Continuous
 62
              30
100
AcDbLine
 10
4633.9903507744357
 20
-41.891445284245037
 30
0.0
 11
4637.9903507744357
 21
-41.891445284245037
 31
0.0
  0
LINE
  5
19A
100
AcDbEntity
  8
0
370
               0
390
0
  6
Continuous
 62
              30
100
AcDbLine
 10
4637.9903507744357
 20
-41.891445284245037
 30
0.0
 11
4637.9903507744357
 21
-46.89144528424481
 31
0.0
  0
LINE
  5
19B
100
AcDbEntity
  8
0
370
               0
390
0
  6
Continuous
 62
              30
100
AcDbLine
 10
4626.1471377160169
 20
-41.891445284245037
 30
0.0
 11
4633.9811030434348
 21
-41.891445284245037
 31
0.0
  0
LINE
  5
19C
100
AcDbEntity
  8
0
370
               0
390
0
  6
Continuous
 62
              30
100
AcDbLine
 10
4633.9903507744357
 20
-46.89144528424481
 30
0.0
 11
4633.9903507744357
 21
-41.891445284245037
 31
0.0
  0
LINE
  5
19D
100
AcDbEntity
  8
0
370
               0
390
0
  6
Continuous
 62
              30
100
AcDbLine
 10
4626.8447322177353
 20
-53.891445284245037
 30
0.0
 11
4637.9903507744357
 21
-53.891445284245037
 31
0.0
  0
LINE
  5
19E
100
AcDbEntity
  8
0
370
               0
390
0
  6
Continuous
 62
              30
100
AcDbLine
 10
4637.9903507744357
 20
-46.89144528424481
 30
0.0
 11
4626.8447322177353
 21
-46.891445284245037
 31
0.0
  0
LINE
  5
19F
100
AcDbEntity
  8
0
370
               0
390
0
  6
Continuous
 62
              30
100
AcDbLine
 10
4637.9903507744357
 20
-46.89144528424481
 30
0.0
 11
4637.9903507744357
 21
-53.891445284245037
 31
0.0
  0
LINE
  5
1A0
100
AcDbEntity
  8
0
370
               0
390
0
  6
Continuous
 62
              30
100
AcDbLine
 10
4626.1471377160169
 20
-41.891445284245037
 30
0.0
 11
4626.1471377160169
 21
-46.891445284245037
 31
0.0
  0
LINE
  5
1A1
100
AcDbEntity
  8
0
370
               0
390
0
  6
Continuous
 62
              30
100
AcDbLine
 10
4626.8447322177353
 20
-46.891445284245037
 30
0.0
 11
4626.8447322177353
 21
-53.891445284245037
 31
0.0
  0
LINE
  5
1A2
100
AcDbEntity
  8
0
370
               0
390
0
  6
Continuous
 62
              30
100
AcDbLine
 10
4633.9903507744357
 20
-41.891445284245037
 30
0.0
 11
4637.9903507744357
 21
-41.891445284245037
 31
0.0
  0
LINE
  5
1A3
100
AcDbEntity
  8
0
370
               0
390
0
  6
Continuous
 62
              30
100
AcDbLine
 10
4633.9811030434348
 20
-41.891445284245037
 30
0.0
 11
4633.9903507744357
 21
-41.891445284245037
 31
0.0
  0
LINE
  5
1A4
100
AcDbEntity
  8
0
370
               0
390
0
  6
Continuous
 62
              30
100
AcDbLine
 10
4625.9903507744339
 20
269.60855471575496
 30
0.0
 11
4625.9903507744357
 21
71.769755432206011
 31
0.0
  0
LINE
  5
1A5
100
AcDbEntity
  8
0
370
               0
390
0
  6
Continuous
 62
              30
100
AcDbLine
 10
4626.1471377160133
 20
405.10855471575496
 30
0.0
 11
4419.8335638328526
 21
405.10855471575383
 31
0.0
  0
LINE
  5
1A6
100
AcDbEntity
  8
0
370
               0
390
0
  6
Continuous
 62
              30
100
AcDbLine
 10
4419.1359693311342
 20
410.1085547157536
 30
0.0
 11
4626.8447322177317
 21
410.10855471575519
 31
0.0
  0
LINE
  5
1A7
100
AcDbEntity
  8
0
370
               0
390
0
  6
Continuous
 62
              30
100
AcDbLine
 10
4626.8447322177317
 20
417.10855471575519
 30
0.0
 11
4419.1359693311342
 21
417.10855471575383
 31
0.0
  0
LINE
  5
1A8
100
AcDbEntity
  8
0
370
               0
390
0
  6
Continuous
 62
              30
100
AcDbLine
 10
4407.9903507744339
 20
405.1085547157536
 30
0.0
 11
4407.9903507744339
 21
410.1085547157536
 31
0.0
  0
LINE
  5
1A9
100
AcDbEntity
  8
0
370
               0
390
0
  6
Continuous
 62
              30
100
AcDbLine
 10
4411.9903507744339
 20
410.1085547157536
 30
0.0
 11
4411.9903507744339
 21
405.1085547157536
 31
0.0
  0
LINE
  5
1AA
100
AcDbEntity
  8
0
370
               0
390
0
  6
Continuous
 62
              30
100
AcDbLine
 10
4419.8335638328526
 20
405.10855471575383
 30
0.0
 11
4419.8335638328526
 21
410.1085547157536
 31
0.0
  0
LINE
  5
1AB
100
AcDbEntity
  8
0
370
               0
390
0
  6
Continuous
 62
              30
100
AcDbLine
 10
4419.8335638328526
 20
405.10855471575383
 30
0.0
 11
4411.9995985054347
 21
405.1085547157536
 31
0.0
  0
LINE
  5
1AC
100
AcDbEntity
  8
0
370
               0
390
0
  6
Continuous
 62
              30
100
AcDbLine
 10
4411.9903507744339
 20
405.1085547157536
 30
0.0
 11
4407.9903507744339
 21
405.1085547157536
 31
0.0
  0
LINE
  5
1AD
100
AcDbEntity
  8
0
370
               0
390
0
  6
Continuous
 62
              30
100
AcDbLine
 10
4407.9903507744339
 20
405.1085547157536
 30
0.0
 11
4411.9903507744339
 21
405.1085547157536
 31
0.0
  0
LINE
  5
1AE
100
AcDbEntity
  8
0
370
               0
390
0
  6
Continuous
 62
              30
100
AcDbLine
 10
4411.9995985054347
 20
405.1085547157536
 30
0.0
 11
4411.9903507744339
 21
405.1085547157536
 31
0.0
  0
LINE
  5
1AF
100
AcDbEntity
  8
0
370
               0
390
0
  6
Continuous
 62
              30
100
AcDbLine
 10
4407.9903507744339
 20
410.1085547157536
 30
0.0
 11
4419.1359693311342
 21
410.1085547157536
 31
0.0
  0
LINE
  5
1B0
100
AcDbEntity
  8
0
370
               0
390
0
  6
Continuous
 62
              30
100
AcDbLine
 10
4419.1359693311342
 20
417.10855471575383
 30
0.0
 11
4407.9903507744339
 21
417.1085547157536
 31
0.0
  0
LINE
  5
1B1
100
AcDbEntity
  8
0
370
               0
390
0
  6
Continuous
 62
              30
100
AcDbLine
 10
4407.9903507744339
 20
410.1085547157536
 30
0.0
 11
4407.9903507744339
 21
417.1085547157536
 31
0.0
  0
LINE
  5
1B2
100
AcDbEntity
  8
0
370
               0
390
0
  6
Continuous
 62
              30
100
AcDbLine
 10
4419.1359693311342
 20
410.1085547157536
 30
0.0
 11
4419.1359693311342
 21
417.10855471575383
 31
0.0
  0
LINE
  5
1B3
100
AcDbEntity
  8
0
370
               0
390
0
  6
Continuous
 62
              30
100
AcDbLine
 10
4637.9903507744339
 20
410.10855471575519
 30
0.0
 11
4637.9903507744339
 21
405.10855471575496
 31
0.0
  0
LINE
  5
1B4
100
AcDbEntity
  8
0
370
               0
390
0
  6
Continuous
 62
              30
100
AcDbLine
 10
4633.9903507744339
 20
405.10855471575496
 30
0.0
 11
4633.9903507744339
 21
410.10855471575519
 31
0.0
  0
LINE
  5
1B5
100
AcDbEntity
  8
0
370
               0
390
0
  6
Continuous
 62
              30
100
AcDbLine
 10
4626.1471377160133
 20
410.10855471575519
 30
0.0
 11
4626.1471377160133
 21
405.10855471575496
 31
0.0
  0
LINE
  5
1B6
100
AcDbEntity
  8
0
370
               0
390
0
  6
Continuous
 62
              30
100
AcDbLine
 10
4637.9903507744339
 20
405.10855471575496
 30
0.0
 11
4633.9903507744339
 21
405.10855471575496
 31
0.0
  0
LINE
  5
1B7
100
AcDbEntity
  8
0
370
               0
390
0
  6
Continuous
 62
              30
100
AcDbLine
 10
4633.9811030434321
 20
405.10855471575496
 30
0.0
 11
4626.1471377160133
 21
405.10855471575496
 31
0.0
  0
LINE
  5
1B8
100
AcDbEntity
  8
0
370
               0
390
0
  6
Continuous
 62
              30
100
AcDbLine
 10
4633.9903507744339
 20
405.10855471575496
 30
0.0
 11
4637.9903507744339
 21
405.10855471575496
 31
0.0
  0
LINE
  5
1B9
100
AcDbEntity
  8
0
370
               0
390
0
  6
Continuous
 62
              30
100
AcDbLine
 10
4633.9811030434321
 20
405.10855471575496
 30
0.0
 11
4633.9903507744339
 21
405.10855471575496
 31
0.0
  0
LINE
  5
1BA
100
AcDbEntity
  8
0
370
               0
390
0
  6
Continuous
 62
              30
100
AcDbLine
 10
4626.8447322177317
 20
410.10855471575519
 30
0.0
 11
4637.9903507744339
 21
410.10855471575519
 31
0.0
  0
LINE
  5
1BB
100
AcDbEntity
  8
0
370
               0
390
0
  6
Continuous
 62
              30
100
AcDbLine
 10
4637.9903507744339
 20
417.10855471575519
 30
0.0
 11
4626.8447322177317
 21
417.10855471575519
 31
0.0
  0
LINE
  5
1BC
100
AcDbEntity
  8
0
370
               0
390
0
  6
Continuous
 62
              30
100
AcDbLine
 10
4637.9903507744339
 20
417.10855471575519
 30
0.0
 11
4637.9903507744339
 21
410.10855471575519
 31
0.0
  0
LINE
  5
1BD
100
AcDbEntity
  8
0
370
               0
390
0
  6
Continuous
 62
              30
100
AcDbLine
 10
4626.8447322177317
 20
410.10855471575519
 30
0.0
 11
4626.8447322177317
 21
417.10855471575519
 31
0.0
  0
CIRCLE
  5
1BE
100
AcDbEntity
  8
0
370
               0
390
0
 62
               1
100
AcDbCircle
 10
4522.9903507744357
 20
72.608554715754167
 30
0.0
 40
38.0
  0
CIRCLE
  5
1BF
100
AcDbEntity
  8
0
370
               0
390
0
 62
               1
100
AcDbCircle
 10
4522.9903507744357
 20
72.608554715754167
 30
0.0
 40
91.0
  0
CIRCLE
  5
1C0
100
AcDbEntity
  8
0
370
               0
390
0
 62
               1
100
AcDbCircle
 10
4522.9903507744357
 20
72.608554715754167
 30
0.0
 40
90.0
  0
LINE
  5
1C1
100
AcDbEntity
  8
0
370
               0
390
0
 62
               1
100
AcDbLine
 10
4456.8758667334932
 20
6.4940706748126331
 30
0.0
 11
4453.978089254626
 21
7.2705278101199156
 31
0.0
  0
LINE
  5
1C2
100
AcDbEntity
  8
0
370
               0
390
0
 62
               1
100
AcDbLine
 10
4455.5310035252414
 20
1.4749728523853491
 30
0.0
 11
4457.6523238688005
 21
3.5962931959453499
 31
0.0
  0
CIRCLE
  5
1C3
100
AcDbEntity
  8
0
370
               0
390
0
 62
               1
100
AcDbCircle
 10
4454.7545463899341
 20
4.3727503312526323
 30
0.0
 40
5.0
  0
LINE
  5
1C4
100
AcDbEntity
  8
0
370
               0
390
0
 62
               1
100
AcDbLine
 10
4453.978089254626
 20
7.2705278101199156
 30
0.0
 11
4451.8567689110669
 21
5.1492074665603695
 31
0.0
  0
LINE
  5
1C5
100
AcDbEntity
  8
0
370
               0
390
0
 62
               1
100
AcDbLine
 10
4452.6332260463741
 20
2.2514299876930863
 30
0.0
 11
4455.5310035252414
 21
1.4749728523853491
 31
0.0
  0
LINE
  5
1C6
100
AcDbEntity
  8
0
370
               0
390
0
 62
               1
100
AcDbLine
 10
4451.8567689110669
 20
5.1492074665603695
 30
0.0
 11
4452.6332260463741
 21
2.2514299876930863
 31
0.0
  0
LINE
  5
1C7
100
AcDbEntity
  8
0
370
               0
390
0
 62
               1
100
AcDbLine
 10
4457.6523238688005
 20
3.5962931959453499
 30
0.0
 11
4456.8758667334932
 21
6.4940706748126331
 31
0.0
  0
LINE
  5
1C8
100
AcDbEntity
  8
0
370
               0
390
0
 62
               1
100
AcDbLine
 10
4457.6523238688005
 20
141.62081623556389
 30
0.0
 11
4455.5310035252414
 21
143.74213657912344
 31
0.0
  0
LINE
  5
1C9
100
AcDbEntity
  8
0
370
               0
390
0
 62
               1
100
AcDbLine
 10
4453.978089254626
 20
137.94658162138887
 30
0.0
 11
4456.8758667334932
 21
138.72303875669661
 31
0.0
  0
CIRCLE
  5
1CA
100
AcDbEntity
  8
0
370
               0
390
0
 62
               1
100
AcDbCircle
 10
4454.7545463899341
 20
140.84435910025616
 30
0.0
 40
5.0
  0
LINE
  5
1CB
100
AcDbEntity
  8
0
370
               0
390
0
 62
               1
100
AcDbLine
 10
4451.8567689110669
 20
140.06790196494842
 30
0.0
 11
4453.978089254626
 21
137.94658162138887
 31
0.0
  0
LINE
  5
1CC
100
AcDbEntity
  8
0
370
               0
390
0
 62
               1
100
AcDbLine
 10
4452.6332260463741
 20
142.9656794438157
 30
0.0
 11
4451.8567689110669
 21
140.06790196494842
 31
0.0
  0
LINE
  5
1CD
100
AcDbEntity
  8
0
370
               0
390
0
 62
               1
100
AcDbLine
 10
4455.5310035252414
 20
143.74213657912344
 30
0.0
 11
4452.6332260463741
 21
142.9656794438157
 31
0.0
  0
LINE
  5
1CE
100
AcDbEntity
  8
0
370
               0
390
0
 62
               1
100
AcDbLine
 10
4456.8758667334932
 20
138.72303875669661
 30
0.0
 11
4457.6523238688005
 21
141.62081623556389
 31
0.0
  0
LINE
  5
1CF
100
AcDbEntity
  8
0
370
               0
390
0
 62
               1
100
AcDbLine
 10
4588.3283776800699
 20
3.5962931959453499
 30
0.0
 11
4590.449698023629
 21
1.4749728523853491
 31
0.0
  0
LINE
  5
1D0
100
AcDbEntity
  8
0
370
               0
390
0
 62
               1
100
AcDbLine
 10
4589.1048348153772
 20
6.4940706748121784
 30
0.0
 11
4588.3283776800699
 21
3.5962931959453499
 31
0.0
  0
LINE
  5
1D1
100
AcDbEntity
  8
0
370
               0
390
0
 62
               1
100
AcDbLine
 10
4592.0026122942445
 20
7.2705278101199156
 30
0.0
 11
4589.1048348153772
 21
6.4940706748121784
 31
0.0
  0
LINE
  5
1D2
100
AcDbEntity
  8
0
370
               0
390
0
 62
               1
100
AcDbLine
 10
4594.1239326378045
 20
5.1492074665603695
 30
0.0
 11
4592.0026122942445
 21
7.2705278101199156
 31
0.0
  0
LINE
  5
1D3
100
AcDbEntity
  8
0
370
               0
390
0
 62
               1
100
AcDbLine
 10
4593.3474755024963
 20
2.2514299876930863
 30
0.0
 11
4594.1239326378045
 21
5.1492074665603695
 31
0.0
  0
LINE
  5
1D4
100
AcDbEntity
  8
0
370
               0
390
0
 62
               1
100
AcDbLine
 10
4590.449698023629
 20
1.4749728523853491
 30
0.0
 11
4593.3474755024963
 21
2.2514299876930863
 31
0.0
  0
CIRCLE
  5
1D5
100
AcDbEntity
  8
0
370
               0
390
0
 62
               1
100
AcDbCircle
 10
4591.2261551589372
 20
4.3727503312526323
 30
0.0
 40
5.0
  0
LINE
  5
1D6
100
AcDbEntity
  8
0
370
               0
390
0
 62
               1
100
AcDbLine
 10
4592.0026122942445
 20
137.94658162138887
 30
0.0
 11
4594.1239326378045
 21
140.06790196494842
 31
0.0
  0
LINE
  5
1D7
100
AcDbEntity
  8
0
370
               0
390
0
 62
               1
100
AcDbLine
 10
4589.1048348153772
 20
138.72303875669661
 30
0.0
 11
4592.0026122942445
 21
137.94658162138887
 31
0.0
  0
LINE
  5
1D8
100
AcDbEntity
  8
0
370
               0
390
0
 62
               1
100
AcDbLine
 10
4588.3283776800699
 20
141.62081623556389
 30
0.0
 11
4589.1048348153772
 21
138.72303875669661
 31
0.0
  0
LINE
  5
1D9
100
AcDbEntity
  8
0
370
               0
390
0
 62
               1
100
AcDbLine
 10
4590.449698023629
 20
143.74213657912298
 30
0.0
 11
4588.3283776800699
 21
141.62081623556389
 31
0.0
  0
LINE
  5
1DA
100
AcDbEntity
  8
0
370
               0
390
0
 62
               1
100
AcDbLine
 10
4593.3474755024963
 20
142.9656794438157
 30
0.0
 11
4590.449698023629
 21
143.74213657912298
 31
0.0
  0
LINE
  5
1DB
100
AcDbEntity
  8
0
370
               0
390
0
 62
               1
100
AcDbLine
 10
4594.1239326378045
 20
140.06790196494842
 30
0.0
 11
4593.3474755024963
 21
142.9656794438157
 31
0.0
  0
CIRCLE
  5
1DC
100
AcDbEntity
  8
0
370
               0
390
0
 62
               1
100
AcDbCircle
 10
4591.2261551589372
 20
140.84435910025616
 30
0.0
 40
5.0
  0
CIRCLE
  5
1DD
100
AcDbEntity
  8
0
370
               0
390
0
 62
               1
100
AcDbCircle
 10
4522.9903507744357
 20
72.608554715754167
 30
0.0
 40
102.0
  0
POLYLINE
  5
1DE
100
AcDbEntity
  8
0
370
               0
390
0
 62
               1
100
AcDb2dPolyline
 66
               1
 10
0.0
 20
0.0
 30
0.0
 75
               5
  0
VERTEX
  5
1DF
100
AcDbEntity
  8
0
370
               0
390
0
 62
               1
100
AcDbVertex
100
AcDb2dVertex
 10
4419.9903507744339
 20
235.14156330474589
 30
0.0
  0
VERTEX
  5
1E0
100
AcDbEntity
  8
0
370
               0
390
0
 62
               1
100
AcDbVertex
100
AcDb2dVertex
 10
4473.0233593634266
 20
182.10855471575496
 30
0.0
  0
VERTEX
  5
1E1
100
AcDbEntity
  8
0
370
               0
390
0
 62
               1
100
AcDbVertex
100
AcDb2dVertex
 10
4419.9903507744339
 20
129.07554612676404
 30
0.0
  0
SEQEND
  5
1E2
100
AcDbEntity
  8
0
370
               0
390
0
 62
               1
  0
POLYLINE
  5
1E4
100
AcDbEntity
  8
0
370
               0
390
0
 62
               1
100
AcDb2dPolyline
 66
               1
 10
0.0
 20
0.0
 30
0.0
 75
               5
  0
VERTEX
  5
1E5
100
AcDbEntity
  8
0
370
               0
390
0
 62
               1
100
AcDbVertex
100
AcDb2dVertex
 10
4625.9903507744339
 20
235.14156330474589
 30
0.0
  0
VERTEX
  5
1E6
100
AcDbEntity
  8
0
370
               0
390
0
 62
               1
100
AcDbVertex
100
AcDb2dVertex
 10
4572.9573421854429
 20
182.10855471575496
 30
0.0
  0
VERTEX
  5
1E7
100
AcDbEntity
  8
0
370
               0
390
0
 62
               1
100
AcDbVertex
100
AcDb2dVertex
 10
4625.9903507744339
 20
129.07554612676404
 30
0.0
  0
SEQEND
  5
1E8
100
AcDbEntity
  8
0
370
               0
390
0
 62
               1
  0
LINE
  5
1EA
100
AcDbEntity
  8
0
370
               0
390
0
  6
Continuous
 62
              30
100
AcDbLine
 10
4866.1087439680132
 20
111.10855509414773
 30
0.0
 11
4866.1087439680132
 21
13.108555094147448
 31
0.0
  0
LINE
  5
1EB
100
AcDbEntity
  8
0
370
               0
390
0
  6
Continuous
 62
              30
100
AcDbLine
 10
4855.1640993815918
 20
13.108555094147562
 30
0.0
 11
4855.1640993815918
 21
111.10855509414796
 31
0.0
  0
LINE
  5
1EC
100
AcDbEntity
  8
0
370
               0
390
0
  6
Continuous
 62
              30
100
AcDbLine
 10
5530.2540604910582
 20
-41.891445179937762
 30
0.0
 11
5530.2540604910619
 21
405.10856475913681
 31
0.0
  0
LINE
  5
1ED
100
AcDbEntity
  8
0
370
               0
390
0
  6
Continuous
 62
              30
100
AcDbLine
 10
5495.1279257378346
 20
405.10856475913704
 30
0.0
 11
5495.127925737831
 21
-41.891445179937477
 31
0.0
  0
LINE
  5
1EE
100
AcDbEntity
  8
0
370
               0
390
0
  6
Continuous
 62
              30
100
AcDbLine
 10
5415.2540658554772
 20
-41.891445179936909
 30
0.0
 11
5415.2540658554799
 21
405.10856475913772
 31
0.0
  0
LINE
  5
1EF
100
AcDbEntity
  8
0
370
               0
390
0
  6
Continuous
 62
              30
100
AcDbLine
 10
5300.2540563187367
 20
405.1085647591384
 30
0.0
 11
5300.2540563187331
 21
-41.891445179936113
 31
0.0
  0
LINE
  5
1F0
100
AcDbEntity
  8
0
370
               0
390
0
  6
Continuous
 62
              30
100
AcDbLine
 10
5465.7798300120839
 20
13.108555094147448
 30
0.0
 11
5465.7798300120858
 21
111.10855509414773
 31
0.0
  0
LINE
  5
1F1
100
AcDbEntity
  8
0
370
               0
390
0
  6
Continuous
 62
              30
100
AcDbLine
 10
5415.2540658554799
 20
405.10856475913772
 30
0.0
 11
5415.2540658554772
 21
-41.891445179936909
 31
0.0
  0
LINE
  5
1F2
100
AcDbEntity
  8
0
370
               0
390
0
  6
Continuous
 62
              30
100
AcDbLine
 10
5495.127925737831
 20
-41.891445179937477
 30
0.0
 11
5495.1279257378346
 21
405.10856475913704
 31
0.0
  0
LINE
  5
1F3
100
AcDbEntity
  8
0
370
               0
390
0
  6
Continuous
 62
              30
100
AcDbLine
 10
5470.2260918753191
 20
111.10855509414773
 30
0.0
 11
5470.2260918753191
 21
13.108555094147448
 31
0.0
  0
LINE
  5
1F4
100
AcDbEntity
  8
0
370
               0
390
0
  6
Continuous
 62
              30
100
AcDbLine
 10
5440.1559280101692
 20
13.108555094147562
 30
0.0
 11
5440.1559280101701
 21
111.10855509414796
 31
0.0
  0
LINE
  5
1F5
100
AcDbEntity
  8
0
370
               0
390
0
  6
Continuous
 62
              30
100
AcDbLine
 10
5300.2540563187367
 20
405.1085647591384
 30
0.0
 11
5300.2540563187331
 21
-41.891445179936113
 31
0.0
  0
LINE
  5
1F6
100
AcDbEntity
  8
0
370
               0
390
0
  6
Continuous
 62
              30
100
AcDbLine
 10
5530.2540604910582
 20
-41.891445179937762
 30
0.0
 11
5530.2540604910619
 21
405.10856475913681
 31
0.0
  0
LINE
  5
1F7
100
AcDbEntity
  8
0
370
               0
390
0
  6
Continuous
 62
              30
100
AcDbLine
 10
4950.5004969628108
 20
-41.891445179937762
 30
0.0
 11
4950.5004969628108
 21
405.10856475913681
 31
0.0
  0
LINE
  5
1F8
100
AcDbEntity
  8
0
370
               0
390
0
  6
Continuous
 62
              30
100
AcDbLine
 10
4875.1722735555422
 20
405.10856475913704
 30
0.0
 11
4875.1722735555422
 21
-41.891445179937477
 31
0.0
  0
LINE
  5
1F9
100
AcDbEntity
  8
0
370
               0
390
0
  6
Continuous
 62
              30
100
AcDbLine
 10
4846.1005551011813
 20
-41.891445179936909
 30
0.0
 11
4846.1005551011813
 21
405.10856475913772
 31
0.0
  0
LINE
  5
1FA
100
AcDbEntity
  8
0
370
               0
390
0
  6
Continuous
 62
              30
100
AcDbLine
 10
5095.0865249379185
 20
409.10855509414739
 30
0.0
 11
5095.0865249379194
 21
-45.891444905852666
 31
0.0
  0
LINE
  5
1FB
100
AcDbEntity
  8
0
370
               0
390
0
  6
Continuous
 62
              30
100
AcDbLine
 10
5083.7611896209301
 20
409.10855509414739
 30
0.0
 11
5083.7611896209301
 21
-45.891444905852723
 31
0.0
  0
LINE
  5
1FC
100
AcDbEntity
  8
0
370
               0
390
0
  6
Continuous
 62
              30
100
AcDbLine
 10
5063.1005590052855
 20
409.10854306304611
 30
0.0
 11
5063.1005590052855
 21
-45.891445835588797
 31
0.0
  0
LINE
  5
1FD
100
AcDbEntity
  8
0
370
               0
390
0
  6
Continuous
 62
              30
100
AcDbLine
 10
4875.1722735555422
 20
-41.891445179937477
 30
0.0
 11
4875.1722735555422
 21
405.10856475913704
 31
0.0
  0
LINE
  5
1FE
100
AcDbEntity
  8
0
370
               0
390
0
  6
Continuous
 62
              30
100
AcDbLine
 10
4846.1005551011813
 20
405.10856475913772
 30
0.0
 11
4846.1005551011813
 21
-41.891445179936909
 31
0.0
  0
LINE
  5
1FF
100
AcDbEntity
  8
0
370
               0
390
0
  6
Continuous
 62
              30
100
AcDbLine
 10
5062.1005588413727
 20
-41.891445179937762
 30
0.0
 11
5062.1005588413727
 21
405.10856475913681
 31
0.0
  0
LINE
  5
200
100
AcDbEntity
  8
0
370
               0
390
0
  6
Continuous
 62
              30
100
AcDbLine
 10
4950.5004969628108
 20
-41.891445179937762
 30
0.0
 11
4950.5004969628108
 21
405.10856475913681
 31
0.0
  0
LINE
  5
201
100
AcDbEntity
  8
0
370
               0
390
0
  6
Continuous
 62
              30
100
AcDbLine
 10
5104.1007414046398
 20
13.483555094148016
 30
0.0
 11
5104.1007414046389
 21
409.10855509414807
 31
0.0
  0
LINE
  5
202
100
AcDbEntity
  8
0
370
               0
390
0
  6
Continuous
 62
              30
100
AcDbLine
 10
5062.1005588413727
 20
-41.891445179937762
 30
0.0
 11
4950.5004969628108
 21
-41.891445179937762
 31
0.0
  0
LINE
  5
203
100
AcDbEntity
  8
0
370
               0
390
0
  6
Continuous
 62
              30
100
AcDbLine
 10
4950.5004969628108
 20
-53.89144528424589
 30
0.0
 11
5083.6814863927193
 21
-53.89144490585295
 31
0.0
  0
LINE
  5
204
100
AcDbEntity
  8
0
370
               0
390
0
  6
Continuous
 62
              30
100
AcDbLine
 10
4950.5004969628108
 20
-41.891445179937762
 30
0.0
 11
5062.1005588413727
 21
-41.891445179937762
 31
0.0
  0
LINE
  5
205
100
AcDbEntity
  8
0
370
               0
390
0
  6
Continuous
 62
              30
100
AcDbLine
 10
4950.5004969628108
 20
-41.891445179937762
 30
0.0
 11
4875.1722735555422
 21
-41.891445179937477
 31
0.0
  0
LINE
  5
206
100
AcDbEntity
  8
0
370
               0
390
0
  6
Continuous
 62
              30
100
AcDbLine
 10
4875.1722735555422
 20
-53.891445284245606
 30
0.0
 11
4950.5004969628108
 21
-53.89144528424589
 31
0.0
  0
LINE
  5
207
100
AcDbEntity
  8
0
370
               0
390
0
  6
Continuous
 62
              30
100
AcDbLine
 10
4875.1722735555422
 20
-41.891445179937477
 30
0.0
 11
4950.5004969628108
 21
-41.891445179937762
 31
0.0
  0
LINE
  5
208
100
AcDbEntity
  8
0
370
               0
390
0
  6
Continuous
 62
              30
100
AcDbLine
 10
4875.1722735555422
 20
-41.891445179937477
 30
0.0
 11
4846.1005551011813
 21
-41.891445179936909
 31
0.0
  0
LINE
  5
209
100
AcDbEntity
  8
0
370
               0
390
0
  6
Continuous
 62
              30
100
AcDbLine
 10
4846.1005551011813
 20
-53.891445284245037
 30
0.0
 11
4875.1722735555422
 21
-53.891445284245606
 31
0.0
  0
LINE
  5
20A
100
AcDbEntity
  8
0
370
               0
390
0
  6
Continuous
 62
              30
100
AcDbLine
 10
4846.1005551011813
 20
-41.891445179936909
 30
0.0
 11
4875.1722735555422
 21
-41.891445179937477
 31
0.0
  0
LINE
  5
20B
100
AcDbEntity
  8
0
370
               0
390
0
  6
Continuous
 62
              30
100
AcDbLine
 10
4846.1005551011813
 20
-41.891445179936909
 30
0.0
 11
4846.1005551011813
 21
-53.891445284245037
 31
0.0
  0
LINE
  5
20C
100
AcDbEntity
  8
0
370
               0
390
0
  6
Continuous
 62
              30
100
AcDbLine
 10
4875.1722735555422
 20
-41.891445179937477
 30
0.0
 11
4875.1722735555422
 21
-53.891445284245606
 31
0.0
  0
LINE
  5
20D
100
AcDbEntity
  8
0
370
               0
390
0
  6
Continuous
 62
              30
100
AcDbLine
 10
4866.1087439680132
 20
13.108555094147448
 30
0.0
 11
4855.1640993815918
 21
13.108555094147562
 31
0.0
  0
LINE
  5
20E
100
AcDbEntity
  8
0
370
               0
390
0
  6
Continuous
 62
              30
100
AcDbLine
 10
4864.0566231080593
 20
7.1085550941473343
 30
0.0
 11
4857.2162202415457
 21
7.108555094147448
 31
0.0
  0
POLYLINE
  5
20F
100
AcDbEntity
  8
0
370
               0
390
0
  6
Continuous
 62
              30
100
AcDb2dPolyline
 66
               1
 10
0.0
 20
0.0
 30
0.0
 75
               5
  0
VERTEX
  5
210
100
AcDbEntity
  8
0
370
               0
390
0
  6
Continuous
 62
              30
100
AcDbVertex
100
AcDb2dVertex
 10
4857.2162253053439
 20
7.1085554012080934
 30
0.0
  0
VERTEX
  5
211
100
AcDbEntity
  8
0
370
               0
390
0
  6
Continuous
 62
              30
100
AcDbVertex
100
AcDb2dVertex
 10
4856.8158758075488
 20
7.2238456853650064
 30
0.0
  0
VERTEX
  5
212
100
AcDbEntity
  8
0
370
               0
390
0
  6
Continuous
 62
              30
100
AcDbVertex
100
AcDb2dVertex
 10
4856.4309043081057
 20
7.5652759917996377
 30
0.0
  0
VERTEX
  5
213
100
AcDbEntity
  8
0
370
               0
390
0
  6
Continuous
 62
              30
100
AcDbVertex
100
AcDb2dVertex
 10
4856.0761225612414
 20
8.1197407492421121
 30
0.0
  0
VERTEX
  5
214
100
AcDbEntity
  8
0
370
               0
390
0
  6
Continuous
 62
              30
100
AcDbVertex
100
AcDb2dVertex
 10
4855.765150228287
 20
8.8659163960240335
 30
0.0
  0
VERTEX
  5
215
100
AcDbEntity
  8
0
370
               0
390
0
  6
Continuous
 62
              30
100
AcDbVertex
100
AcDb2dVertex
 10
4855.50993804052
 20
9.775133098008439
 30
0.0
  0
VERTEX
  5
216
100
AcDbEntity
  8
0
370
               0
390
0
  6
Continuous
 62
              30
100
AcDbVertex
100
AcDb2dVertex
 10
4855.3203058631671
 20
10.812455082776353
 30
0.0
  0
VERTEX
  5
217
100
AcDbEntity
  8
0
370
               0
390
0
  6
Continuous
 62
              30
100
AcDbVertex
100
AcDb2dVertex
 10
4855.2035254628909
 20
11.938014293553636
 30
0.0
  0
VERTEX
  5
218
100
AcDbEntity
  8
0
370
               0
390
0
  6
Continuous
 62
              30
100
AcDbVertex
100
AcDb2dVertex
 10
4855.1640969903719
 20
13.108552659394547
 30
0.0
  0
SEQEND
  5
219
100
AcDbEntity
  8
0
370
               0
390
0
  6
Continuous
 62
              30
  0
POLYLINE
  5
21B
100
AcDbEntity
  8
0
370
               0
390
0
  6
Continuous
 62
              30
100
AcDb2dPolyline
 66
               1
 10
0.0
 20
0.0
 30
0.0
 75
               5
  0
VERTEX
  5
21C
100
AcDbEntity
  8
0
370
               0
390
0
  6
Continuous
 62
              30
100
AcDbVertex
100
AcDb2dVertex
 10
4866.1087465675128
 20
13.10855265939432
 30
0.0
  0
VERTEX
  5
21D
100
AcDbEntity
  8
0
370
               0
390
0
  6
Continuous
 62
              30
100
AcDbVertex
100
AcDb2dVertex
 10
4866.0693180949938
 20
11.938014293553408
 30
0.0
  0
VERTEX
  5
21E
100
AcDbEntity
  8
0
370
               0
390
0
  6
Continuous
 62
              30
100
AcDbVertex
100
AcDb2dVertex
 10
4865.9525376947176
 20
10.812455082776125
 30
0.0
  0
VERTEX
  5
21F
100
AcDbEntity
  8
0
370
               0
390
0
  6
Continuous
 62
              30
100
AcDbVertex
100
AcDb2dVertex
 10
4865.7629055173647
 20
9.7751330980082116
 30
0.0
  0
VERTEX
  5
220
100
AcDbEntity
  8
0
370
               0
390
0
  6
Continuous
 62
              30
100
AcDbVertex
100
AcDb2dVertex
 10
4865.5076933295977
 20
8.8659163960238061
 30
0.0
  0
VERTEX
  5
221
100
AcDbEntity
  8
0
370
               0
390
0
  6
Continuous
 62
              30
100
AcDbVertex
100
AcDb2dVertex
 10
4865.1967209966433
 20
8.1197407492418847
 30
0.0
  0
VERTEX
  5
222
100
AcDbEntity
  8
0
370
               0
390
0
  6
Continuous
 62
              30
100
AcDbVertex
100
AcDb2dVertex
 10
4864.841939249779
 20
7.565275991799524
 30
0.0
  0
VERTEX
  5
223
100
AcDbEntity
  8
0
370
               0
390
0
  6
Continuous
 62
              30
100
AcDbVertex
100
AcDb2dVertex
 10
4864.4569677503359
 20
7.2238456853648927
 30
0.0
  0
VERTEX
  5
224
100
AcDbEntity
  8
0
370
               0
390
0
  6
Continuous
 62
              30
100
AcDbVertex
100
AcDb2dVertex
 10
4864.0566182525408
 20
7.1085554012080934
 30
0.0
  0
SEQEND
  5
225
100
AcDbEntity
  8
0
370
               0
390
0
  6
Continuous
 62
              30
  0
LINE
  5
227
100
AcDbEntity
  8
0
370
               0
390
0
  6
Continuous
 62
              30
100
AcDbLine
 10
4950.5004969628108
 20
-41.891445179937762
 30
0.0
 11
4950.5004969628108
 21
-53.89144528424589
 31
0.0
  0
LINE
  5
228
100
AcDbEntity
  8
0
370
               0
390
0
  6
Continuous
 62
              30
100
AcDbLine
 10
5083.6814863927193
 20
-53.89144490585295
 30
0.0
 11
5096.9746007012418
 21
-53.891444905852779
 31
0.0
  0
LINE
  5
229
100
AcDbEntity
  8
0
370
               0
390
0
  6
Continuous
 62
              30
100
AcDbLine
 10
5096.9746007012418
 20
-46.891444905852779
 30
0.0
 11
5083.6814863927193
 21
-46.891444905852893
 31
0.0
  0
LINE
  5
22A
100
AcDbEntity
  8
0
370
               0
390
0
  6
Continuous
 62
              30
100
AcDbLine
 10
5095.0865249379194
 20
-45.891444905852666
 30
0.0
 11
5083.7611896209301
 21
-45.891444905852723
 31
0.0
  0
LINE
  5
22B
100
AcDbEntity
  8
0
370
               0
390
0
  6
Continuous
 62
              30
100
AcDbLine
 10
5083.6814863927193
 20
-46.891444905852893
 30
0.0
 11
5083.6814863927193
 21
-53.89144490585295
 31
0.0
  0
LINE
  5
22C
100
AcDbEntity
  8
0
370
               0
390
0
  6
Continuous
 62
              30
100
AcDbLine
 10
5083.6814863927193
 20
-46.891444905852893
 30
0.0
 11
5062.1005588413727
 21
-46.891444136856478
 31
0.0
  0
LINE
  5
22D
100
AcDbEntity
  8
0
370
               0
390
0
  6
Continuous
 62
              30
100
AcDbLine
 10
5083.7611896209301
 20
-45.891444905852723
 30
0.0
 11
5063.1005590052855
 21
-45.891445835588797
 31
0.0
  0
LINE
  5
22E
100
AcDbEntity
  8
0
370
               0
390
0
  6
Continuous
 62
              30
100
AcDbLine
 10
5062.1005588413727
 20
-41.891445179937705
 30
0.0
 11
5063.1005590052855
 21
-41.891445179937705
 31
0.0
  0
LINE
  5
22F
100
AcDbEntity
  8
0
370
               0
390
0
  6
Continuous
 62
              30
100
AcDbLine
 10
5062.1005588413727
 20
-46.891444136856478
 30
0.0
 11
5062.1005588413727
 21
-41.891445179937762
 31
0.0
  0
LINE
  5
230
100
AcDbEntity
  8
0
370
               0
390
0
  6
Continuous
 62
              30
100
AcDbLine
 10
5062.1005588413727
 20
-41.891445179937705
 30
0.0
 11
5063.1005590052855
 21
-41.891445179937705
 31
0.0
  0
LINE
  5
231
100
AcDbEntity
  8
0
370
               0
390
0
  6
Continuous
 62
              30
100
AcDbLine
 10
5093.035900333668
 20
-46.891444136856364
 30
0.0
 11
5093.035900333668
 21
-45.89144583558874
 31
0.0
  0
LINE
  5
232
100
AcDbEntity
  8
0
370
               0
390
0
  6
Continuous
 62
              30
100
AcDbLine
 10
5083.6814877779734
 20
-45.891445835588797
 30
0.0
 11
5083.6814863927193
 21
-46.891444905852893
 31
0.0
  0
CIRCLE
  5
233
100
AcDbEntity
  8
0
370
               0
390
0
  6
Continuous
 62
              30
100
AcDbCircle
 10
5075.1005584252989
 20
-5.8914449058527794
 30
0.0
 40
3.0
  0
CIRCLE
  5
234
100
AcDbEntity
  8
0
370
               0
390
0
  6
Continuous
 62
              30
100
AcDbCircle
 10
5075.100558425298
 20
-5.8914449058527794
 30
0.0
 40
1.6500000000005457
  0
LINE
  5
235
100
AcDbEntity
  8
0
370
               0
390
0
  6
Continuous
 62
              30
100
AcDbLine
 10
5103.7770293482845
 20
-26.516444905852609
 30
0.0
 11
5103.7770293482845
 21
13.483555094147448
 31
0.0
  0
LINE
  5
236
100
AcDbEntity
  8
0
370
               0
390
0
  6
Continuous
 62
              30
100
AcDbLine
 10
5096.9746007012418
 20
-46.891444905852779
 30
0.0
 11
5096.9746007012418
 21
-53.891444905852779
 31
0.0
  0
LINE
  5
237
100
AcDbEntity
  8
0
370
               0
390
0
  6
Continuous
 62
              30
100
AcDbLine
 10
5106.100558425298
 20
-53.89144490585204
 30
0.0
 11
5106.1005584252971
 21
-46.89144490585204
 31
0.0
  0
LINE
  5
238
100
AcDbEntity
  8
0
370
               0
390
0
  6
Continuous
 62
              30
100
AcDbLine
 10
5096.9746007012418
 20
-53.891444905852779
 30
0.0
 11
5106.100558425298
 21
-53.89144490585204
 31
0.0
  0
LINE
  5
239
100
AcDbEntity
  8
0
370
               0
390
0
  6
Continuous
 62
              30
100
AcDbLine
 10
5106.1005584252971
 20
-46.89144490585204
 30
0.0
 11
5096.9746007012418
 21
-46.891444905852779
 31
0.0
  0
LINE
  5
23A
100
AcDbEntity
  8
0
370
               0
390
0
  6
Continuous
 62
              30
100
AcDbLine
 10
5095.0865249379194
 20
-45.891444905852666
 30
0.0
 11
5104.1007414046398
 21
-45.89144490585187
 31
0.0
  0
LINE
  5
23B
100
AcDbEntity
  8
0
370
               0
390
0
  6
Continuous
 62
              30
100
AcDbLine
 10
5104.1007414046398
 20
-26.516444905851927
 30
0.0
 11
5103.7770293482845
 21
-26.516444905852609
 31
0.0
  0
LINE
  5
23C
100
AcDbEntity
  8
0
370
               0
390
0
  6
Continuous
 62
              30
100
AcDbLine
 10
5102.1005598099482
 20
-46.891444136855625
 30
0.0
 11
5102.1005598099482
 21
-45.891445835588002
 31
0.0
  0
LINE
  5
23D
100
AcDbEntity
  8
0
370
               0
390
0
  6
Continuous
 62
              30
100
AcDbLine
 10
5104.1007414046398
 20
-45.89144490585187
 30
0.0
 11
5104.1007414046398
 21
-26.516444905851927
 31
0.0
  0
LINE
  5
23E
100
AcDbEntity
  8
0
370
               0
390
0
  6
Continuous
 62
              30
100
AcDbLine
 10
5103.7770293482845
 20
13.483555094147448
 30
0.0
 11
5104.1007414046398
 21
13.483555094148016
 31
0.0
  0
LINE
  5
23F
100
AcDbEntity
  8
0
370
               0
390
0
  6
Continuous
 62
              30
100
AcDbLine
 10
5415.2540658554772
 20
-53.891445284245037
 30
0.0
 11
5495.127925737831
 21
-53.891445284245606
 31
0.0
  0
LINE
  5
240
100
AcDbEntity
  8
0
370
               0
390
0
  6
Continuous
 62
              30
100
AcDbLine
 10
5495.127925737831
 20
-41.891445179937477
 30
0.0
 11
5415.2540658554772
 21
-41.891445179936909
 31
0.0
  0
LINE
  5
241
100
AcDbEntity
  8
0
370
               0
390
0
  6
Continuous
 62
              30
100
AcDbLine
 10
5415.2540658554772
 20
-41.891445179936909
 30
0.0
 11
5495.127925737831
 21
-41.891445179937477
 31
0.0
  0
LINE
  5
242
100
AcDbEntity
  8
0
370
               0
390
0
  6
Continuous
 62
              30
100
AcDbLine
 10
5300.2540563187331
 20
-53.891445284244242
 30
0.0
 11
5415.2540658554772
 21
-53.891445284245037
 31
0.0
  0
LINE
  5
243
100
AcDbEntity
  8
0
370
               0
390
0
  6
Continuous
 62
              30
100
AcDbLine
 10
5415.2540658554772
 20
-41.891445179936909
 30
0.0
 11
5300.2540563187331
 21
-41.891445179936113
 31
0.0
  0
LINE
  5
244
100
AcDbEntity
  8
0
370
               0
390
0
  6
Continuous
 62
              30
100
AcDbLine
 10
5300.2540563187331
 20
-41.891445179936113
 30
0.0
 11
5415.2540658554772
 21
-41.891445179936909
 31
0.0
  0
LINE
  5
245
100
AcDbEntity
  8
0
370
               0
390
0
  6
Continuous
 62
              30
100
AcDbLine
 10
5300.2540563187331
 20
-53.891445284244242
 30
0.0
 11
5300.2540563187331
 21
-41.891445179936113
 31
0.0
  0
LINE
  5
246
100
AcDbEntity
  8
0
370
               0
390
0
  6
Continuous
 62
              30
100
AcDbLine
 10
5415.2540658554772
 20
-41.891445179936909
 30
0.0
 11
5415.2540658554772
 21
-53.891445284245037
 31
0.0
  0
ARC
  5
247
100
AcDbEntity
  8
0
370
               0
390
0
  6
Continuous
 62
              30
100
AcDbCircle
 10
5441.0647556693357
 20
90.216658177513636
 30
0.0
 40
1.7141797561958041
100
AcDbArc
 50
358.47530831684952
 51
79.049771158204251
  0
ARC
  5
248
100
AcDbEntity
  8
0
370
               0
390
0
  6
Continuous
 62
              30
100
AcDbCircle
 10
5441.0647634866018
 20
90.125430970071193
 30
0.0
 40
1.7141721087217097
100
AcDbArc
 50
280.9500121621478
 51
1.5249083628116293
  0
ARC
  5
249
100
AcDbEntity
  8
0
370
               0
390
0
  6
Continuous
 62
              30
100
AcDbCircle
 10
5441.0060295490102
 20
36.716687864199059
 30
0.0
 40
1.714165808780161
100
AcDbArc
 50
358.47491313586499
 51
79.050166339193311
  0
ARC
  5
24A
100
AcDbEntity
  8
0
370
               0
390
0
  6
Continuous
 62
              30
100
AcDbCircle
 10
5441.0060431118809
 20
36.625433148024911
 30
0.0
 40
1.7141525405899101
100
AcDbArc
 50
280.94945771665346
 51
1.5254628083232546
  0
ARC
  5
24B
100
AcDbEntity
  8
0
370
               0
390
0
  6
Continuous
 62
              30
100
AcDbCircle
 10
5441.6573264240769
 20
90.258547927477139
 30
0.0
 40
1.6363603762566412
100
AcDbArc
 50
356.93479179204803
 51
156.5661990114921
  0
ARC
  5
24C
100
AcDbEntity
  8
0
370
               0
390
0
  6
Continuous
 62
              30
100
AcDbCircle
 10
5441.6603005051393
 20
90.070916536730692
 30
0.0
 40
1.6341158708012342
100
AcDbArc
 50
202.98598414524122
 51
3.513025051203869
  0
ARC
  5
24D
100
AcDbEntity
  8
0
370
               0
390
0
  6
Continuous
 62
              30
100
AcDbCircle
 10
5441.5988672537878
 20
36.759631767404187
 30
0.0
 40
1.6361666662303682
100
AcDbArc
 50
356.89705888147984
 51
151.87234887536374
  0
ARC
  5
24E
100
AcDbEntity
  8
0
370
               0
390
0
  6
Continuous
 62
              30
100
AcDbCircle
 10
5441.6026766713867
 20
36.568863818634497
 30
0.0
 40
1.6331594641360108
100
AcDbArc
 50
207.64296996497896
 51
3.5878796680399039
  0
POLYLINE
  5
24F
100
AcDbEntity
  8
0
370
               0
390
0
  6
Continuous
 62
              30
100
AcDb2dPolyline
 66
               1
 10
0.0
 20
0.0
 30
0.0
 75
               5
  0
VERTEX
  5
250
100
AcDbEntity
  8
0
370
               0
390
0
  6
Continuous
 62
              30
100
AcDbVertex
100
AcDb2dVertex
 10
5440.155932768319
 20
29.349194134118363
 30
0.0
  0
VERTEX
  5
251
100
AcDbEntity
  8
0
370
               0
390
0
  6
Continuous
 62
              30
100
AcDbVertex
100
AcDb2dVertex
 10
5440.7494460186699
 20
30.608565772416398
 30
0.0
  0
VERTEX
  5
252
100
AcDbEntity
  8
0
370
               0
390
0
  6
Continuous
 62
              30
100
AcDbVertex
100
AcDb2dVertex
 10
5441.876838072274
 20
32.322013045193955
 30
0.0
  0
VERTEX
  5
253
100
AcDbEntity
  8
0
370
               0
390
0
  6
Continuous
 62
              30
100
AcDbVertex
100
AcDb2dVertex
 10
5443.266728981469
 20
33.801094854714677
 30
0.0
  0
VERTEX
  5
254
100
AcDbEntity
  8
0
370
               0
390
0
  6
Continuous
 62
              30
100
AcDbVertex
100
AcDb2dVertex
 10
5444.876859053109
 20
35.000869298817918
 30
0.0
  0
VERTEX
  5
255
100
AcDbEntity
  8
0
370
               0
390
0
  6
Continuous
 62
              30
100
AcDbVertex
100
AcDb2dVertex
 10
5446.6582928738335
 20
35.884873236062219
 30
0.0
  0
VERTEX
  5
256
100
AcDbEntity
  8
0
370
               0
390
0
  6
Continuous
 62
              30
100
AcDbVertex
100
AcDb2dVertex
 10
5448.5569094261864
 20
36.426254773976495
 30
0.0
  0
VERTEX
  5
257
100
AcDbEntity
  8
0
370
               0
390
0
  6
Continuous
 62
              30
100
AcDbVertex
100
AcDb2dVertex
 10
5450.5150114140251
 20
36.608563030602625
 30
0.0
  0
VERTEX
  5
258
100
AcDbEntity
  8
0
370
               0
390
0
  6
Continuous
 62
              30
100
AcDbVertex
100
AcDb2dVertex
 10
5452.4731134018639
 20
36.426254773976495
 30
0.0
  0
VERTEX
  5
259
100
AcDbEntity
  8
0
370
               0
390
0
  6
Continuous
 62
              30
100
AcDbVertex
100
AcDb2dVertex
 10
5454.3717299542168
 20
35.884873236062219
 30
0.0
  0
VERTEX
  5
25A
100
AcDbEntity
  8
0
370
               0
390
0
  6
Continuous
 62
              30
100
AcDbVertex
100
AcDb2dVertex
 10
5456.1531637749413
 20
35.000869298817804
 30
0.0
  0
VERTEX
  5
25B
100
AcDbEntity
  8
0
370
               0
390
0
  6
Continuous
 62
              30
100
AcDbVertex
100
AcDb2dVertex
 10
5457.7632938465822
 20
33.801094854714563
 30
0.0
  0
VERTEX
  5
25C
100
AcDbEntity
  8
0
370
               0
390
0
  6
Continuous
 62
              30
100
AcDbVertex
100
AcDb2dVertex
 10
5459.1531549534548
 20
32.322013045193842
 30
0.0
  0
VERTEX
  5
25D
100
AcDbEntity
  8
0
370
               0
390
0
  6
Continuous
 62
              30
100
AcDbVertex
100
AcDb2dVertex
 10
5460.2805768093813
 20
30.608565772416284
 30
0.0
  0
VERTEX
  5
25E
100
AcDbEntity
  8
0
370
               0
390
0
  6
Continuous
 62
              30
100
AcDbVertex
100
AcDb2dVertex
 10
5461.1112867436159
 20
28.712802792432001
 30
0.0
  0
VERTEX
  5
25F
100
AcDbEntity
  8
0
370
               0
390
0
  6
Continuous
 62
              30
100
AcDbVertex
100
AcDb2dVertex
 10
5461.6200123867739
 20
26.692339444997003
 30
0.0
  0
VERTEX
  5
260
100
AcDbEntity
  8
0
370
               0
390
0
  6
Continuous
 62
              30
100
AcDbVertex
100
AcDb2dVertex
 10
5461.7913161358583
 20
24.608561063649347
 30
0.0
  0
SEQEND
  5
261
100
AcDbEntity
  8
0
370
               0
390
0
  6
Continuous
 62
              30
  0
POLYLINE
  5
263
100
AcDbEntity
  8
0
370
               0
390
0
  6
Continuous
 62
              30
100
AcDb2dPolyline
 66
               1
 10
0.0
 20
0.0
 30
0.0
 75
               5
  0
VERTEX
  5
264
100
AcDbEntity
  8
0
370
               0
390
0
  6
Continuous
 62
              30
100
AcDbVertex
100
AcDb2dVertex
 10
5461.7913161358583
 20
24.608561063649347
 30
0.0
  0
VERTEX
  5
265
100
AcDbEntity
  8
0
370
               0
390
0
  6
Continuous
 62
              30
100
AcDbVertex
100
AcDb2dVertex
 10
5461.6200123867739
 20
22.524782682301691
 30
0.0
  0
VERTEX
  5
266
100
AcDbEntity
  8
0
370
               0
390
0
  6
Continuous
 62
              30
100
AcDbVertex
100
AcDb2dVertex
 10
5461.1112867436159
 20
20.504319334866693
 30
0.0
  0
VERTEX
  5
267
100
AcDbEntity
  8
0
370
               0
390
0
  6
Continuous
 62
              30
100
AcDbVertex
100
AcDb2dVertex
 10
5460.2805768093813
 20
18.608563805463007
 30
0.0
  0
VERTEX
  5
268
100
AcDbEntity
  8
0
370
               0
390
0
  6
Continuous
 62
              30
100
AcDbVertex
100
AcDb2dVertex
 10
5459.1531549534548
 20
16.895109082104852
 30
0.0
  0
VERTEX
  5
269
100
AcDbEntity
  8
0
370
               0
390
0
  6
Continuous
 62
              30
100
AcDbVertex
100
AcDb2dVertex
 10
5457.7632938465822
 20
15.416027272584131
 30
0.0
  0
VERTEX
  5
26A
100
AcDbEntity
  8
0
370
               0
390
0
  6
Continuous
 62
              30
100
AcDbVertex
100
AcDb2dVertex
 10
5456.1531637749413
 20
14.216260279061487
 30
0.0
  0
VERTEX
  5
26B
100
AcDbEntity
  8
0
370
               0
390
0
  6
Continuous
 62
              30
100
AcDbVertex
100
AcDb2dVertex
 10
5454.3717299542168
 20
13.332248891236475
 30
0.0
  0
VERTEX
  5
26C
100
AcDbEntity
  8
0
370
               0
390
0
  6
Continuous
 62
              30
100
AcDbVertex
100
AcDb2dVertex
 10
5452.4731134018639
 20
12.790867353322199
 30
0.0
  0
VERTEX
  5
26D
100
AcDbEntity
  8
0
370
               0
390
0
  6
Continuous
 62
              30
100
AcDbVertex
100
AcDb2dVertex
 10
5450.5150114140251
 20
12.608566547276666
 30
0.0
  0
VERTEX
  5
26E
100
AcDbEntity
  8
0
370
               0
390
0
  6
Continuous
 62
              30
100
AcDbVertex
100
AcDb2dVertex
 10
5448.5569094261864
 20
12.790867353322199
 30
0.0
  0
VERTEX
  5
26F
100
AcDbEntity
  8
0
370
               0
390
0
  6
Continuous
 62
              30
100
AcDbVertex
100
AcDb2dVertex
 10
5446.6582928738335
 20
13.332248891236475
 30
0.0
  0
VERTEX
  5
270
100
AcDbEntity
  8
0
370
               0
390
0
  6
Continuous
 62
              30
100
AcDbVertex
100
AcDb2dVertex
 10
5444.876859053109
 20
14.216260279061601
 30
0.0
  0
VERTEX
  5
271
100
AcDbEntity
  8
0
370
               0
390
0
  6
Continuous
 62
              30
100
AcDbVertex
100
AcDb2dVertex
 10
5443.266728981469
 20
15.416027272584245
 30
0.0
  0
VERTEX
  5
272
100
AcDbEntity
  8
0
370
               0
390
0
  6
Continuous
 62
              30
100
AcDbVertex
100
AcDb2dVertex
 10
5441.876838072274
 20
16.895109082104966
 30
0.0
  0
VERTEX
  5
273
100
AcDbEntity
  8
0
370
               0
390
0
  6
Continuous
 62
              30
100
AcDbVertex
100
AcDb2dVertex
 10
5440.7494460186699
 20
18.60856380546312
 30
0.0
  0
VERTEX
  5
274
100
AcDbEntity
  8
0
370
               0
390
0
  6
Continuous
 62
              30
100
AcDbVertex
100
AcDb2dVertex
 10
5440.155932768319
 20
19.867935443761155
 30
0.0
  0
SEQEND
  5
275
100
AcDbEntity
  8
0
370
               0
390
0
  6
Continuous
 62
              30
  0
POLYLINE
  5
277
100
AcDbEntity
  8
0
370
               0
390
0
  6
Continuous
 62
              30
100
AcDb2dPolyline
 66
               1
 10
0.0
 20
0.0
 30
0.0
 75
               5
  0
VERTEX
  5
278
100
AcDbEntity
  8
0
370
               0
390
0
  6
Continuous
 62
              30
100
AcDbVertex
100
AcDb2dVertex
 10
5440.1559327683199
 20
82.701110506894395
 30
0.0
  0
VERTEX
  5
279
100
AcDbEntity
  8
0
370
               0
390
0
  6
Continuous
 62
              30
100
AcDbVertex
100
AcDb2dVertex
 10
5440.8081565937746
 20
84.1085400828145
 30
0.0
  0
VERTEX
  5
27A
100
AcDbEntity
  8
0
370
               0
390
0
  6
Continuous
 62
              30
100
AcDbVertex
100
AcDb2dVertex
 10
5441.9355784497011
 20
85.821994806172654
 30
0.0
  0
VERTEX
  5
27B
100
AcDbEntity
  8
0
370
               0
390
0
  6
Continuous
 62
              30
100
AcDbVertex
100
AcDb2dVertex
 10
5443.325469358896
 20
87.301084066273972
 30
0.0
  0
VERTEX
  5
27C
100
AcDbEntity
  8
0
370
               0
390
0
  6
Continuous
 62
              30
100
AcDbVertex
100
AcDb2dVertex
 10
5444.9355696282137
 20
88.50085105979656
 30
0.0
  0
VERTEX
  5
27D
100
AcDbEntity
  8
0
370
               0
390
0
  6
Continuous
 62
              30
100
AcDbVertex
100
AcDb2dVertex
 10
5446.7170034489382
 20
89.384862447621572
 30
0.0
  0
VERTEX
  5
27E
100
AcDbEntity
  8
0
370
               0
390
0
  6
Continuous
 62
              30
100
AcDbVertex
100
AcDb2dVertex
 10
5448.6156200012911
 20
89.926236534955251
 30
0.0
  0
VERTEX
  5
27F
100
AcDbEntity
  8
0
370
               0
390
0
  6
Continuous
 62
              30
100
AcDbVertex
100
AcDb2dVertex
 10
5450.5737517914522
 20
90.108552242161977
 30
0.0
  0
VERTEX
  5
280
100
AcDbEntity
  8
0
370
               0
390
0
  6
Continuous
 62
              30
100
AcDbVertex
100
AcDb2dVertex
 10
5452.5318537792909
 20
89.926236534955251
 30
0.0
  0
VERTEX
  5
281
100
AcDbEntity
  8
0
370
               0
390
0
  6
Continuous
 62
              30
100
AcDbVertex
100
AcDb2dVertex
 10
5454.4304703316438
 20
89.384862447621572
 30
0.0
  0
VERTEX
  5
282
100
AcDbEntity
  8
0
370
               0
390
0
  6
Continuous
 62
              30
100
AcDbVertex
100
AcDb2dVertex
 10
5456.2119041523683
 20
88.50085105979656
 30
0.0
  0
VERTEX
  5
283
100
AcDbEntity
  8
0
370
               0
390
0
  6
Continuous
 62
              30
100
AcDbVertex
100
AcDb2dVertex
 10
5457.822004421686
 20
87.301084066273859
 30
0.0
  0
VERTEX
  5
284
100
AcDbEntity
  8
0
370
               0
390
0
  6
Continuous
 62
              30
100
AcDbVertex
100
AcDb2dVertex
 10
5459.2118953308809
 20
85.82199480617254
 30
0.0
  0
VERTEX
  5
285
100
AcDbEntity
  8
0
370
               0
390
0
  6
Continuous
 62
              30
100
AcDbVertex
100
AcDb2dVertex
 10
5460.3393171868074
 20
84.108540082814386
 30
0.0
  0
VERTEX
  5
286
100
AcDbEntity
  8
0
370
               0
390
0
  6
Continuous
 62
              30
100
AcDbVertex
100
AcDb2dVertex
 10
5461.1699973187197
 20
82.2127845534107
 30
0.0
  0
VERTEX
  5
287
100
AcDbEntity
  8
0
370
               0
390
0
  6
Continuous
 62
              30
100
AcDbVertex
100
AcDb2dVertex
 10
5461.6787229618776
 20
80.192321205975702
 30
0.0
  0
VERTEX
  5
288
100
AcDbEntity
  8
0
370
               0
390
0
  6
Continuous
 62
              30
100
AcDbVertex
100
AcDb2dVertex
 10
5461.8500565132845
 20
78.108542824628046
 30
0.0
  0
SEQEND
  5
289
100
AcDbEntity
  8
0
370
               0
390
0
  6
Continuous
 62
              30
  0
POLYLINE
  5
28B
100
AcDbEntity
  8
0
370
               0
390
0
  6
Continuous
 62
              30
100
AcDb2dPolyline
 66
               1
 10
0.0
 20
0.0
 30
0.0
 75
               5
  0
VERTEX
  5
28C
100
AcDbEntity
  8
0
370
               0
390
0
  6
Continuous
 62
              30
100
AcDbVertex
100
AcDb2dVertex
 10
5461.8500565132845
 20
78.108542824628046
 30
0.0
  0
VERTEX
  5
28D
100
AcDbEntity
  8
0
370
               0
390
0
  6
Continuous
 62
              30
100
AcDbVertex
100
AcDb2dVertex
 10
5461.6787229618776
 20
76.02476444328039
 30
0.0
  0
VERTEX
  5
28E
100
AcDbEntity
  8
0
370
               0
390
0
  6
Continuous
 62
              30
100
AcDbVertex
100
AcDb2dVertex
 10
5461.1699973187197
 20
74.004301095845392
 30
0.0
  0
VERTEX
  5
28F
100
AcDbEntity
  8
0
370
               0
390
0
  6
Continuous
 62
              30
100
AcDbVertex
100
AcDb2dVertex
 10
5460.3393171868074
 20
72.108545566441705
 30
0.0
  0
VERTEX
  5
290
100
AcDbEntity
  8
0
370
               0
390
0
  6
Continuous
 62
              30
100
AcDbVertex
100
AcDb2dVertex
 10
5459.2118953308809
 20
70.395090843083551
 30
0.0
  0
VERTEX
  5
291
100
AcDbEntity
  8
0
370
               0
390
0
  6
Continuous
 62
              30
100
AcDbVertex
100
AcDb2dVertex
 10
5457.822004421686
 20
68.916016484143427
 30
0.0
  0
VERTEX
  5
292
100
AcDbEntity
  8
0
370
               0
390
0
  6
Continuous
 62
              30
100
AcDbVertex
100
AcDb2dVertex
 10
5456.2119041523683
 20
67.716234589459589
 30
0.0
  0
VERTEX
  5
293
100
AcDbEntity
  8
0
370
               0
390
0
  6
Continuous
 62
              30
100
AcDbVertex
100
AcDb2dVertex
 10
5454.4304703316438
 20
66.83223810279577
 30
0.0
  0
VERTEX
  5
294
100
AcDbEntity
  8
0
370
               0
390
0
  6
Continuous
 62
              30
100
AcDbVertex
100
AcDb2dVertex
 10
5452.5318537792909
 20
66.290849114300897
 30
0.0
  0
VERTEX
  5
295
100
AcDbEntity
  8
0
370
               0
390
0
  6
Continuous
 62
              30
100
AcDbVertex
100
AcDb2dVertex
 10
5450.5737517914522
 20
66.108548308255365
 30
0.0
  0
VERTEX
  5
296
100
AcDbEntity
  8
0
370
               0
390
0
  6
Continuous
 62
              30
100
AcDbVertex
100
AcDb2dVertex
 10
5448.6156200012911
 20
66.290849114300897
 30
0.0
  0
VERTEX
  5
297
100
AcDbEntity
  8
0
370
               0
390
0
  6
Continuous
 62
              30
100
AcDbVertex
100
AcDb2dVertex
 10
5446.7170034489382
 20
66.83223810279577
 30
0.0
  0
VERTEX
  5
298
100
AcDbEntity
  8
0
370
               0
390
0
  6
Continuous
 62
              30
100
AcDbVertex
100
AcDb2dVertex
 10
5444.9355696282137
 20
67.716234589459702
 30
0.0
  0
VERTEX
  5
299
100
AcDbEntity
  8
0
370
               0
390
0
  6
Continuous
 62
              30
100
AcDbVertex
100
AcDb2dVertex
 10
5443.325469358896
 20
68.91601648414354
 30
0.0
  0
VERTEX
  5
29A
100
AcDbEntity
  8
0
370
               0
390
0
  6
Continuous
 62
              30
100
AcDbVertex
100
AcDb2dVertex
 10
5441.9355784497011
 20
70.395090843083665
 30
0.0
  0
VERTEX
  5
29B
100
AcDbEntity
  8
0
370
               0
390
0
  6
Continuous
 62
              30
100
AcDbVertex
100
AcDb2dVertex
 10
5440.8081565937746
 20
72.108545566441819
 30
0.0
  0
VERTEX
  5
29C
100
AcDbEntity
  8
0
370
               0
390
0
  6
Continuous
 62
              30
100
AcDbVertex
100
AcDb2dVertex
 10
5440.1559327683199
 20
73.515975142361924
 30
0.0
  0
SEQEND
  5
29D
100
AcDbEntity
  8
0
370
               0
390
0
  6
Continuous
 62
              30
  0
LINE
  5
29F
100
AcDbEntity
  8
0
370
               0
390
0
  6
Continuous
 62
              30
100
AcDbLine
 10
5450.5737517914522
 20
40.568554068448236
 30
0.0
 11
5440.1559327683199
 21
40.56855406844835
 31
0.0
  0
LINE
  5
2A0
100
AcDbEntity
  8
0
370
               0
390
0
  6
Continuous
 62
              30
100
AcDbLine
 10
5440.1559327683199
 20
60.068556333424851
 30
0.0
 11
5450.5737517914522
 21
60.068556333424738
 31
0.0
  0
ARC
  5
2A1
100
AcDbEntity
  8
0
370
               0
390
0
  6
Continuous
 62
              30
100
AcDbCircle
 10
5445.9808176406332
 20
12.933089883101218
 30
0.0
 40
5.8275270022170567
100
AcDbArc
 50
178.27460324774509
 51
268.16374655406332
  0
LINE
  5
2A2
100
AcDbEntity
  8
0
370
               0
390
0
  6
Continuous
 62
              30
100
AcDbLine
 10
5440.2583037457216
 20
91.108539367558706
 30
0.0
 11
5442.5224457821596
 21
91.108539367558706
 31
0.0
  0
LINE
  5
2A3
100
AcDbEntity
  8
0
370
               0
390
0
  6
Continuous
 62
              30
100
AcDbLine
 10
5441.347817047571
 20
80.608540440442368
 30
0.0
 11
5442.6203458823293
 21
80.608546756373073
 31
0.0
  0
LINE
  5
2A4
100
AcDbEntity
  8
0
370
               0
390
0
  6
Continuous
 62
              30
100
AcDbLine
 10
5442.6203458823293
 20
75.608546756372732
 30
0.0
 11
5441.347817047571
 21
75.60854520881395
 31
0.0
  0
LINE
  5
2A5
100
AcDbEntity
  8
0
370
               0
390
0
  6
Continuous
 62
              30
100
AcDbLine
 10
5440.1995633682945
 20
37.608550155999467
 30
0.0
 11
5442.4637352070549
 21
37.608550155999467
 31
0.0
  0
LINE
  5
2A6
100
AcDbEntity
  8
0
370
               0
390
0
  6
Continuous
 62
              30
100
AcDbLine
 10
5441.3478170475701
 20
27.108543778302476
 30
0.0
 11
5442.6203458823284
 21
27.1085467563733
 31
0.0
  0
LINE
  5
2A7
100
AcDbEntity
  8
0
370
               0
390
0
  6
Continuous
 62
              30
100
AcDbLine
 10
5442.6203458823284
 20
22.108546756372732
 30
0.0
 11
5441.3478170475701
 21
22.108548546674058
 31
0.0
  0
LINE
  5
2A8
100
AcDbEntity
  8
0
370
               0
390
0
  6
Continuous
 62
              30
100
AcDbLine
 10
5441.3478170475701
 20
27.108543778302476
 30
0.0
 11
5441.3478170475701
 21
22.108548546674058
 31
0.0
  0
LINE
  5
2A9
100
AcDbEntity
  8
0
370
               0
390
0
  6
Continuous
 62
              30
100
AcDbLine
 10
5441.347817047571
 20
80.608540440442368
 30
0.0
 11
5441.347817047571
 21
75.60854520881395
 31
0.0
  0
LINE
  5
2AA
100
AcDbEntity
  8
0
370
               0
390
0
  6
Continuous
 62
              30
100
AcDbLine
 10
5450.060704811548
 20
60.068556333424738
 30
0.0
 11
5450.0607048115471
 21
40.568554068448236
 31
0.0
  0
LINE
  5
2AB
100
AcDbEntity
  8
0
370
               0
390
0
  6
Continuous
 62
              30
100
AcDbLine
 10
5450.5737517914522
 20
60.068556333424738
 30
0.0
 11
5450.5737517914522
 21
40.568554068448236
 31
0.0
  0
ARC
  5
2AC
100
AcDbEntity
  8
0
370
               0
390
0
  6
Continuous
 62
              30
100
AcDbCircle
 10
5459.9549356733341
 20
12.93308988310099
 30
0.0
 40
5.827527002217523
100
AcDbArc
 50
271.83625344587409
 51
1.7253967522546534
  0
LINE
  5
2AD
100
AcDbEntity
  8
0
370
               0
390
0
  6
Continuous
 62
              30
100
AcDbLine
 10
5470.2260918753191
 20
13.108555094147448
 30
0.0
 11
5465.7798300120839
 21
13.108555094147448
 31
0.0
  0
ARC
  5
2AE
100
AcDbEntity
  8
0
370
               0
390
0
  6
Continuous
 62
              30
100
AcDbCircle
 10
5464.4012037549992
 20
12.93308988310099
 30
0.0
 40
5.8275270022176935
100
AcDbArc
 50
271.83625344587404
 51
1.7253967522546534
  0
POLYLINE
  5
2AF
100
AcDbEntity
  8
0
370
               0
390
0
  6
Continuous
 62
              30
100
AcDb2dPolyline
 66
               1
 10
0.0
 20
0.0
 30
0.0
 75
               5
  0
VERTEX
  5
2B0
100
AcDbEntity
  8
0
370
               0
390
0
  6
Continuous
 62
              30
100
AcDbVertex
100
AcDb2dVertex
 10
5448.1605981430748
 20
24.608546162488153
 30
0.0
  0
VERTEX
  5
2B1
100
AcDbEntity
  8
0
370
               0
390
0
  6
Continuous
 62
              30
100
AcDbVertex
100
AcDb2dVertex
 10
5448.3350907406548
 20
23.615130449177911
 30
0.0
  0
VERTEX
  5
2B2
100
AcDbEntity
  8
0
370
               0
390
0
  6
Continuous
 62
              30
100
AcDbVertex
100
AcDb2dVertex
 10
5448.8350246987084
 20
22.755884791257074
 30
0.0
  0
VERTEX
  5
2B3
100
AcDbEntity
  8
0
370
               0
390
0
  6
Continuous
 62
              30
100
AcDbVertex
100
AcDb2dVertex
 10
5449.5928977570275
 20
22.146844530942133
 30
0.0
  0
VERTEX
  5
2B4
100
AcDbEntity
  8
0
370
               0
390
0
  6
Continuous
 62
              30
100
AcDbVertex
100
AcDb2dVertex
 10
5450.5063091358879
 20
21.87027897918432
 30
0.0
  0
VERTEX
  5
2B5
100
AcDbEntity
  8
0
370
               0
390
0
  6
Continuous
 62
              30
100
AcDbVertex
100
AcDb2dVertex
 10
5451.4519368252495
 20
21.963522995354822
 30
0.0
  0
VERTEX
  5
2B6
100
AcDbEntity
  8
0
370
               0
390
0
  6
Continuous
 62
              30
100
AcDbVertex
100
AcDb2dVertex
 10
5452.3020480713585
 20
22.41399999940603
 30
0.0
  0
VERTEX
  5
2B7
100
AcDbEntity
  8
0
370
               0
390
0
  6
Continuous
 62
              30
100
AcDbVertex
100
AcDb2dVertex
 10
5452.9418443283776
 20
23.160861099602869
 30
0.0
  0
VERTEX
  5
2B8
100
AcDbEntity
  8
0
370
               0
390
0
  6
Continuous
 62
              30
100
AcDbVertex
100
AcDb2dVertex
 10
5453.2848988613823
 20
24.103232885243585
 30
0.0
  0
VERTEX
  5
2B9
100
AcDbEntity
  8
0
370
               0
390
0
  6
Continuous
 62
              30
100
AcDbVertex
100
AcDb2dVertex
 10
5453.2848988613823
 20
25.113859439732721
 30
0.0
  0
VERTEX
  5
2BA
100
AcDbEntity
  8
0
370
               0
390
0
  6
Continuous
 62
              30
100
AcDbVertex
100
AcDb2dVertex
 10
5452.9418443283776
 20
26.056238675954035
 30
0.0
  0
VERTEX
  5
2BB
100
AcDbEntity
  8
0
370
               0
390
0
  6
Continuous
 62
              30
100
AcDbVertex
100
AcDb2dVertex
 10
5452.3020480713585
 20
26.803092325570276
 30
0.0
  0
VERTEX
  5
2BC
100
AcDbEntity
  8
0
370
               0
390
0
  6
Continuous
 62
              30
100
AcDbVertex
100
AcDb2dVertex
 10
5451.4519368252495
 20
27.253569329621484
 30
0.0
  0
VERTEX
  5
2BD
100
AcDbEntity
  8
0
370
               0
390
0
  6
Continuous
 62
              30
100
AcDbVertex
100
AcDb2dVertex
 10
5450.5063091358879
 20
27.346813345791986
 30
0.0
  0
VERTEX
  5
2BE
100
AcDbEntity
  8
0
370
               0
390
0
  6
Continuous
 62
              30
100
AcDbVertex
100
AcDb2dVertex
 10
5449.5928977570275
 20
27.070247794034174
 30
0.0
  0
VERTEX
  5
2BF
100
AcDbEntity
  8
0
370
               0
390
0
  6
Continuous
 62
              30
100
AcDbVertex
100
AcDb2dVertex
 10
5448.8350246987084
 20
26.461207533719232
 30
0.0
  0
VERTEX
  5
2C0
100
AcDbEntity
  8
0
370
               0
390
0
  6
Continuous
 62
              30
100
AcDbVertex
100
AcDb2dVertex
 10
5448.3350907406548
 20
25.601961875798395
 30
0.0
  0
VERTEX
  5
2C1
100
AcDbEntity
  8
0
370
               0
390
0
  6
Continuous
 62
              30
100
AcDbVertex
100
AcDb2dVertex
 10
5448.1605981430748
 20
24.608546162488153
 30
0.0
  0
SEQEND
  5
2C2
100
AcDbEntity
  8
0
370
               0
390
0
  6
Continuous
 62
              30
  0
POLYLINE
  5
2C4
100
AcDbEntity
  8
0
370
               0
390
0
  6
Continuous
 62
              30
100
AcDb2dPolyline
 66
               1
 10
0.0
 20
0.0
 30
0.0
 75
               5
  0
VERTEX
  5
2C5
100
AcDbEntity
  8
0
370
               0
390
0
  6
Continuous
 62
              30
100
AcDbVertex
100
AcDb2dVertex
 10
5445.1066051563957
 20
24.608546162488153
 30
0.0
  0
VERTEX
  5
2C6
100
AcDbEntity
  8
0
370
               0
390
0
  6
Continuous
 62
              30
100
AcDbVertex
100
AcDb2dVertex
 10
5445.2837203583458
 20
26.100688839795282
 30
0.0
  0
VERTEX
  5
2C7
100
AcDbEntity
  8
0
370
               0
390
0
  6
Continuous
 62
              30
100
AcDbVertex
100
AcDb2dVertex
 10
5445.8040093025902
 20
27.499065960290125
 30
0.0
  0
VERTEX
  5
2C8
100
AcDbEntity
  8
0
370
               0
390
0
  6
Continuous
 62
              30
100
AcDbVertex
100
AcDb2dVertex
 10
5446.6347192368248
 20
28.715827728154352
 30
0.0
  0
VERTEX
  5
2C9
100
AcDbEntity
  8
0
370
               0
390
0
  6
Continuous
 62
              30
100
AcDbVertex
100
AcDb2dVertex
 10
5447.7236662945488
 20
29.674516285302332
 30
0.0
  0
VERTEX
  5
2CA
100
AcDbEntity
  8
0
370
               0
390
0
  6
Continuous
 62
              30
100
AcDbVertex
100
AcDb2dVertex
 10
5449.0024541458824
 20
30.314886237027338
 30
0.0
  0
VERTEX
  5
2CB
100
AcDbEntity
  8
0
370
               0
390
0
  6
Continuous
 62
              30
100
AcDbVertex
100
AcDb2dVertex
 10
5450.3907357296684
 20
30.596704448105982
 30
0.0
  0
VERTEX
  5
2CC
100
AcDbEntity
  8
0
370
               0
390
0
  6
Continuous
 62
              30
100
AcDbVertex
100
AcDb2dVertex
 10
5451.8012200436333
 20
30.502268339039972
 30
0.0
  0
VERTEX
  5
2CD
100
AcDbEntity
  8
0
370
               0
390
0
  6
Continuous
 62
              30
100
AcDbVertex
100
AcDb2dVertex
 10
5453.1453643879631
 20
30.037508571984461
 30
0.0
  0
VERTEX
  5
2CE
100
AcDbEntity
  8
0
370
               0
390
0
  6
Continuous
 62
              30
100
AcDbVertex
100
AcDb2dVertex
 10
5454.3386493763664
 20
29.231623972298792
 30
0.0
  0
VERTEX
  5
2CF
100
AcDbEntity
  8
0
370
               0
390
0
  6
Continuous
 62
              30
100
AcDbVertex
100
AcDb2dVertex
 10
5455.3061221680382
 20
28.135256136300256
 30
0.0
  0
VERTEX
  5
2D0
100
AcDbEntity
  8
0
370
               0
390
0
  6
Continuous
 62
              30
100
AcDbVertex
100
AcDb2dVertex
 10
5455.9869860253075
 20
26.817293132188013
 30
0.0
  0
VERTEX
  5
2D1
100
AcDbEntity
  8
0
370
               0
390
0
  6
Continuous
 62
              30
100
AcDbVertex
100
AcDb2dVertex
 10
5456.3384448132256
 20
25.360548163296869
 30
0.0
  0
VERTEX
  5
2D2
100
AcDbEntity
  8
0
370
               0
390
0
  6
Continuous
 62
              30
100
AcDbVertex
100
AcDb2dVertex
 10
5456.3384448132256
 20
23.856544161679437
 30
0.0
  0
VERTEX
  5
2D3
100
AcDbEntity
  8
0
370
               0
390
0
  6
Continuous
 62
              30
100
AcDbVertex
100
AcDb2dVertex
 10
5455.9869860253075
 20
22.399799192788294
 30
0.0
  0
VERTEX
  5
2D4
100
AcDbEntity
  8
0
370
               0
390
0
  6
Continuous
 62
              30
100
AcDbVertex
100
AcDb2dVertex
 10
5455.3061221680382
 20
21.08183618867605
 30
0.0
  0
VERTEX
  5
2D5
100
AcDbEntity
  8
0
370
               0
390
0
  6
Continuous
 62
              30
100
AcDbVertex
100
AcDb2dVertex
 10
5454.3386493763664
 20
19.985468352677515
 30
0.0
  0
VERTEX
  5
2D6
100
AcDbEntity
  8
0
370
               0
390
0
  6
Continuous
 62
              30
100
AcDbVertex
100
AcDb2dVertex
 10
5453.1453643879631
 20
19.179583752991846
 30
0.0
  0
VERTEX
  5
2D7
100
AcDbEntity
  8
0
370
               0
390
0
  6
Continuous
 62
              30
100
AcDbVertex
100
AcDb2dVertex
 10
5451.8012200436333
 20
18.714823985936334
 30
0.0
  0
VERTEX
  5
2D8
100
AcDbEntity
  8
0
370
               0
390
0
  6
Continuous
 62
              30
100
AcDbVertex
100
AcDb2dVertex
 10
5450.3907357296684
 20
18.620387876870325
 30
0.0
  0
VERTEX
  5
2D9
100
AcDbEntity
  8
0
370
               0
390
0
  6
Continuous
 62
              30
100
AcDbVertex
100
AcDb2dVertex
 10
5449.0024541458824
 20
18.902206087948969
 30
0.0
  0
VERTEX
  5
2DA
100
AcDbEntity
  8
0
370
               0
390
0
  6
Continuous
 62
              30
100
AcDbVertex
100
AcDb2dVertex
 10
5447.7236662945488
 20
19.542576039673975
 30
0.0
  0
VERTEX
  5
2DB
100
AcDbEntity
  8
0
370
               0
390
0
  6
Continuous
 62
              30
100
AcDbVertex
100
AcDb2dVertex
 10
5446.6347192368248
 20
20.501264596821954
 30
0.0
  0
VERTEX
  5
2DC
100
AcDbEntity
  8
0
370
               0
390
0
  6
Continuous
 62
              30
100
AcDbVertex
100
AcDb2dVertex
 10
5445.8040093025902
 20
21.718026364686182
 30
0.0
  0
VERTEX
  5
2DD
100
AcDbEntity
  8
0
370
               0
390
0
  6
Continuous
 62
              30
100
AcDbVertex
100
AcDb2dVertex
 10
5445.2837203583458
 20
23.116410935761621
 30
0.0
  0
VERTEX
  5
2DE
100
AcDbEntity
  8
0
370
               0
390
0
  6
Continuous
 62
              30
100
AcDbVertex
100
AcDb2dVertex
 10
5445.1066051563957
 20
24.608546162488153
 30
0.0
  0
SEQEND
  5
2DF
100
AcDbEntity
  8
0
370
               0
390
0
  6
Continuous
 62
              30
  0
LINE
  5
2E1
100
AcDbEntity
  8
0
370
               0
390
0
  6
Continuous
 62
              30
100
AcDbLine
 10
5460.1416681847322
 20
23.10854312265127
 30
0.0
 11
5460.1416681847322
 21
26.108549202325037
 31
0.0
  0
ARC
  5
2E2
100
AcDbEntity
  8
0
370
               0
390
0
  6
Continuous
 62
              30
100
AcDbCircle
 10
5449.9895040298024
 20
23.310008837197017
 30
0.0
 40
10.701724162661248
100
AcDbArc
 50
271.44033978881669
 51
291.44686042267949
  0
LINE
  5
2E3
100
AcDbEntity
  8
0
370
               0
390
0
  6
Continuous
 62
              30
100
AcDbLine
 10
5464.5879361506022
 20
7.1085550941473343
 30
0.0
 11
5445.7940837348842
 21
7.108555094147448
 31
0.0
  0
ARC
  5
2E4
100
AcDbEntity
  8
0
370
               0
390
0
  6
Continuous
 62
              30
100
AcDbCircle
 10
5450.7638567297963
 20
24.059950931839182
 30
0.0
 40
8.3740510852210264
100
AcDbArc
 50
193.47550714398108
 51
353.47632208110838
  0
ARC
  5
2E5
100
AcDbEntity
  8
0
370
               0
390
0
  6
Continuous
 62
              30
100
AcDbCircle
 10
5443.667990859497
 20
24.081595908724523
 30
0.0
 40
8.5279425804675011
100
AcDbArc
 50
295.38980017963399
 51
320.07546200852016
  0
ARC
  5
2E6
100
AcDbEntity
  8
0
370
               0
390
0
  6
Continuous
 62
              30
100
AcDbCircle
 10
5450.089703724143
 20
23.428148695654215
 30
0.0
 40
10.569640049039103
100
AcDbArc
 50
238.18634856113971
 51
269.84280284109303
  0
LINE
  5
2E7
100
AcDbEntity
  8
0
370
               0
390
0
  6
Continuous
 62
              30
100
AcDbLine
 10
5444.4410894951561
 20
18.608548904301927
 30
0.0
 11
5450.7447575173119
 21
18.608548904301813
 31
0.0
  0
LINE
  5
2E8
100
AcDbEntity
  8
0
370
               0
390
0
  6
Continuous
 62
              30
100
AcDbLine
 10
5450.0607077928589
 20
12.858546756372391
 30
0.0
 11
5450.7447575173119
 21
12.858548427464655
 31
0.0
  0
ARC
  5
2E9
100
AcDbEntity
  8
0
370
               0
390
0
  6
Continuous
 62
              30
100
AcDbCircle
 10
5458.8601797153524
 20
12.716686377846543
 30
0.0
 40
1.7141698161364523
100
AcDbArc
 50
358.47483486403496
 51
79.049043384243305
  0
ARC
  5
2EA
100
AcDbEntity
  8
0
370
               0
390
0
  6
Continuous
 62
              30
100
AcDbCircle
 10
5458.8601797153524
 20
12.625437656800898
 30
0.0
 40
1.7141698161373289
100
AcDbArc
 50
280.9509566157567
 51
1.5251651359612313
  0
POLYLINE
  5
2EB
100
AcDbEntity
  8
0
370
               0
390
0
  6
Continuous
 62
              30
100
AcDb2dPolyline
 66
               1
 10
0.0
 20
0.0
 30
0.0
 75
               5
  0
VERTEX
  5
2EC
100
AcDbEntity
  8
0
370
               0
390
0
  6
Continuous
 62
              30
100
AcDbVertex
100
AcDb2dVertex
 10
5461.0867892346132
 20
12.671062017323663
 30
0.0
  0
VERTEX
  5
2ED
100
AcDbEntity
  8
0
370
               0
390
0
  6
Continuous
 62
              30
100
AcDbVertex
100
AcDb2dVertex
 10
5460.9616194805849
 20
12.001366580369165
 30
0.0
  0
VERTEX
  5
2EE
100
AcDbEntity
  8
0
370
               0
390
0
  6
Continuous
 62
              30
100
AcDbVertex
100
AcDb2dVertex
 10
5460.6051241001833
 20
11.433624888302973
 30
0.0
  0
VERTEX
  5
2EF
100
AcDbEntity
  8
0
370
               0
390
0
  6
Continuous
 62
              30
100
AcDbVertex
100
AcDb2dVertex
 10
5460.0716327271211
 20
11.054271126629999
 30
0.0
  0
VERTEX
  5
2F0
100
AcDbEntity
  8
0
370
               0
390
0
  6
Continuous
 62
              30
100
AcDbVertex
100
AcDb2dVertex
 10
5459.4423268875826
 20
10.921062196137598
 30
0.0
  0
VERTEX
  5
2F1
100
AcDbEntity
  8
0
370
               0
390
0
  6
Continuous
 62
              30
100
AcDbVertex
100
AcDb2dVertex
 10
5458.813021048044
 20
11.054271126629999
 30
0.0
  0
VERTEX
  5
2F2
100
AcDbEntity
  8
0
370
               0
390
0
  6
Continuous
 62
              30
100
AcDbVertex
100
AcDb2dVertex
 10
5458.2794998726595
 20
11.433624888302973
 30
0.0
  0
VERTEX
  5
2F3
100
AcDbEntity
  8
0
370
               0
390
0
  6
Continuous
 62
              30
100
AcDbVertex
100
AcDb2dVertex
 10
5457.9230342945802
 20
12.001366580369165
 30
0.0
  0
VERTEX
  5
2F4
100
AcDbEntity
  8
0
370
               0
390
0
  6
Continuous
 62
              30
100
AcDbVertex
100
AcDb2dVertex
 10
5457.7978645405519
 20
12.671062017323663
 30
0.0
  0
VERTEX
  5
2F5
100
AcDbEntity
  8
0
370
               0
390
0
  6
Continuous
 62
              30
100
AcDbVertex
100
AcDb2dVertex
 10
5457.9230342945802
 20
13.340757454278162
 30
0.0
  0
VERTEX
  5
2F6
100
AcDbEntity
  8
0
370
               0
390
0
  6
Continuous
 62
              30
100
AcDbVertex
100
AcDb2dVertex
 10
5458.2794998726595
 20
13.908499146344354
 30
0.0
  0
VERTEX
  5
2F7
100
AcDbEntity
  8
0
370
               0
390
0
  6
Continuous
 62
              30
100
AcDbVertex
100
AcDb2dVertex
 10
5458.813021048044
 20
14.287852908017328
 30
0.0
  0
VERTEX
  5
2F8
100
AcDbEntity
  8
0
370
               0
390
0
  6
Continuous
 62
              30
100
AcDbVertex
100
AcDb2dVertex
 10
5459.4423268875826
 20
14.421061838509729
 30
0.0
  0
VERTEX
  5
2F9
100
AcDbEntity
  8
0
370
               0
390
0
  6
Continuous
 62
              30
100
AcDbVertex
100
AcDb2dVertex
 10
5460.0716327271211
 20
14.287852908017328
 30
0.0
  0
VERTEX
  5
2FA
100
AcDbEntity
  8
0
370
               0
390
0
  6
Continuous
 62
              30
100
AcDbVertex
100
AcDb2dVertex
 10
5460.6051241001833
 20
13.908499146344354
 30
0.0
  0
VERTEX
  5
2FB
100
AcDbEntity
  8
0
370
               0
390
0
  6
Continuous
 62
              30
100
AcDbVertex
100
AcDb2dVertex
 10
5460.9616194805849
 20
13.340757454278162
 30
0.0
  0
VERTEX
  5
2FC
100
AcDbEntity
  8
0
370
               0
390
0
  6
Continuous
 62
              30
100
AcDbVertex
100
AcDb2dVertex
 10
5461.0867892346132
 20
12.671062017323663
 30
0.0
  0
SEQEND
  5
2FD
100
AcDbEntity
  8
0
370
               0
390
0
  6
Continuous
 62
              30
  0
LINE
  5
2FF
100
AcDbEntity
  8
0
370
               0
390
0
  6
Continuous
 62
              30
100
AcDbLine
 10
5456.2038575253227
 20
23.10854312265127
 30
0.0
 11
5459.0836928537492
 21
23.108546756373073
 31
0.0
  0
LINE
  5
300
100
AcDbEntity
  8
0
370
               0
390
0
  6
Continuous
 62
              30
100
AcDbLine
 10
5460.2359627327669
 20
11.60854961955755
 30
0.0
 11
5458.1356440624941
 21
11.60854961955755
 31
0.0
  0
LINE
  5
301
100
AcDbEntity
  8
0
370
               0
390
0
  6
Continuous
 62
              30
100
AcDbLine
 10
5460.1416681847322
 20
23.10854312265127
 30
0.0
 11
5459.0836928537492
 21
23.108546756373073
 31
0.0
  0
ARC
  5
302
100
AcDbEntity
  8
0
370
               0
390
0
  6
Continuous
 62
              30
100
AcDbCircle
 10
5449.9890158583476
 20
25.904644440137361
 30
0.0
 40
10.704204511732922
100
AcDbArc
 50
68.552976850897991
 51
88.557380198851263
  0
ARC
  5
303
100
AcDbEntity
  8
0
370
               0
390
0
  6
Continuous
 62
              30
100
AcDbCircle
 10
5450.7641071947191
 20
25.161264904499774
 30
0.0
 40
8.3733347425914495
100
AcDbArc
 50
6.495839595808774
 51
166.55233117910112
  0
ARC
  5
304
100
AcDbEntity
  8
0
370
               0
390
0
  6
Continuous
 62
              30
100
AcDbCircle
 10
5443.6681331252576
 20
25.135680270136902
 30
0.0
 40
8.5277154849683612
100
AcDbArc
 50
39.924204117406184
 51
64.610533694430217
  0
ARC
  5
305
100
AcDbEntity
  8
0
370
               0
390
0
  6
Continuous
 62
              30
100
AcDbCircle
 10
5450.088324573685
 20
25.793774277530986
 30
0.0
 40
10.564805723463492
100
AcDbArc
 50
90.149789560325814
 51
121.82529915654547
  0
LINE
  5
306
100
AcDbEntity
  8
0
370
               0
390
0
  6
Continuous
 62
              30
100
AcDbLine
 10
5450.7447575173119
 20
30.608543420674494
 30
0.0
 11
5444.4410894951561
 21
30.608543420674607
 31
0.0
  0
LINE
  5
307
100
AcDbEntity
  8
0
370
               0
390
0
  6
Continuous
 62
              30
100
AcDbLine
 10
5450.7447575173119
 20
36.358543897511652
 30
0.0
 11
5450.0607077928589
 21
36.358546756372505
 31
0.0
  0
LINE
  5
308
100
AcDbEntity
  8
0
370
               0
390
0
  6
Continuous
 62
              30
100
AcDbLine
 10
5459.0836928537492
 20
26.108546756372732
 30
0.0
 11
5456.2038575253227
 21
26.108549202325037
 31
0.0
  0
LINE
  5
309
100
AcDbEntity
  8
0
370
               0
390
0
  6
Continuous
 62
              30
100
AcDbLine
 10
5459.0836928537492
 20
26.108546756372732
 30
0.0
 11
5460.1416681847322
 21
26.108549202325037
 31
0.0
  0
POLYLINE
  5
30A
100
AcDbEntity
  8
0
370
               0
390
0
  6
Continuous
 62
              30
100
AcDb2dPolyline
 66
               1
 10
0.0
 20
0.0
 30
0.0
 75
               5
  0
VERTEX
  5
30B
100
AcDbEntity
  8
0
370
               0
390
0
  6
Continuous
 62
              30
100
AcDbVertex
100
AcDb2dVertex
 10
5445.1066051563967
 20
78.108542824628159
 30
0.0
  0
VERTEX
  5
30C
100
AcDbEntity
  8
0
370
               0
390
0
  6
Continuous
 62
              30
100
AcDbVertex
100
AcDb2dVertex
 10
5445.2837203583467
 20
79.600685501935288
 30
0.0
  0
VERTEX
  5
30D
100
AcDbEntity
  8
0
370
               0
390
0
  6
Continuous
 62
              30
100
AcDbVertex
100
AcDb2dVertex
 10
5445.8040093025911
 20
80.999070073010728
 30
0.0
  0
VERTEX
  5
30E
100
AcDbEntity
  8
0
370
               0
390
0
  6
Continuous
 62
              30
100
AcDbVertex
100
AcDb2dVertex
 10
5446.6347192368257
 20
82.215824390294244
 30
0.0
  0
VERTEX
  5
30F
100
AcDbEntity
  8
0
370
               0
390
0
  6
Continuous
 62
              30
100
AcDbVertex
100
AcDb2dVertex
 10
5447.7236662945497
 20
83.174520398022821
 30
0.0
  0
VERTEX
  5
310
100
AcDbEntity
  8
0
370
               0
390
0
  6
Continuous
 62
              30
100
AcDbVertex
100
AcDb2dVertex
 10
5449.0024541458833
 20
83.81488289916723
 30
0.0
  0
VERTEX
  5
311
100
AcDbEntity
  8
0
370
               0
390
0
  6
Continuous
 62
              30
100
AcDbVertex
100
AcDb2dVertex
 10
5450.3907357296694
 20
84.096708560826471
 30
0.0
  0
VERTEX
  5
312
100
AcDbEntity
  8
0
370
               0
390
0
  6
Continuous
 62
              30
100
AcDbVertex
100
AcDb2dVertex
 10
5451.8012200436342
 20
84.002265001179865
 30
0.0
  0
VERTEX
  5
313
100
AcDbEntity
  8
0
370
               0
390
0
  6
Continuous
 62
              30
100
AcDbVertex
100
AcDb2dVertex
 10
5453.145364387964
 20
83.53751268470495
 30
0.0
  0
VERTEX
  5
314
100
AcDbEntity
  8
0
370
               0
390
0
  6
Continuous
 62
              30
100
AcDbVertex
100
AcDb2dVertex
 10
5454.3386493763674
 20
82.731628085019281
 30
0.0
  0
VERTEX
  5
315
100
AcDbEntity
  8
0
370
               0
390
0
  6
Continuous
 62
              30
100
AcDbVertex
100
AcDb2dVertex
 10
5455.3061221680391
 20
81.635260249020746
 30
0.0
  0
VERTEX
  5
316
100
AcDbEntity
  8
0
370
               0
390
0
  6
Continuous
 62
              30
100
AcDbVertex
100
AcDb2dVertex
 10
5455.9869860253084
 20
80.317297244908502
 30
0.0
  0
VERTEX
  5
317
100
AcDbEntity
  8
0
370
               0
390
0
  6
Continuous
 62
              30
100
AcDbVertex
100
AcDb2dVertex
 10
5456.3384448132265
 20
78.860544825436762
 30
0.0
  0
VERTEX
  5
318
100
AcDbEntity
  8
0
370
               0
390
0
  6
Continuous
 62
              30
100
AcDbVertex
100
AcDb2dVertex
 10
5456.3384448132265
 20
77.35654082381933
 30
0.0
  0
VERTEX
  5
319
100
AcDbEntity
  8
0
370
               0
390
0
  6
Continuous
 62
              30
100
AcDbVertex
100
AcDb2dVertex
 10
5455.9869860253084
 20
75.899803305508783
 30
0.0
  0
VERTEX
  5
31A
100
AcDbEntity
  8
0
370
               0
390
0
  6
Continuous
 62
              30
100
AcDbVertex
100
AcDb2dVertex
 10
5455.3061221680391
 20
74.581840301396539
 30
0.0
  0
VERTEX
  5
31B
100
AcDbEntity
  8
0
370
               0
390
0
  6
Continuous
 62
              30
100
AcDbVertex
100
AcDb2dVertex
 10
5454.3386493763674
 20
73.485472465398004
 30
0.0
  0
VERTEX
  5
31C
100
AcDbEntity
  8
0
370
               0
390
0
  6
Continuous
 62
              30
100
AcDbVertex
100
AcDb2dVertex
 10
5453.145364387964
 20
72.679587865712335
 30
0.0
  0
VERTEX
  5
31D
100
AcDbEntity
  8
0
370
               0
390
0
  6
Continuous
 62
              30
100
AcDbVertex
100
AcDb2dVertex
 10
5451.8012200436342
 20
72.214820648076227
 30
0.0
  0
VERTEX
  5
31E
100
AcDbEntity
  8
0
370
               0
390
0
  6
Continuous
 62
              30
100
AcDbVertex
100
AcDb2dVertex
 10
5450.3907357296694
 20
72.120391989590814
 30
0.0
  0
VERTEX
  5
31F
100
AcDbEntity
  8
0
370
               0
390
0
  6
Continuous
 62
              30
100
AcDbVertex
100
AcDb2dVertex
 10
5449.0024541458833
 20
72.402202750088861
 30
0.0
  0
VERTEX
  5
320
100
AcDbEntity
  8
0
370
               0
390
0
  6
Continuous
 62
              30
100
AcDbVertex
100
AcDb2dVertex
 10
5447.7236662945497
 20
73.042580152394464
 30
0.0
  0
VERTEX
  5
321
100
AcDbEntity
  8
0
370
               0
390
0
  6
Continuous
 62
              30
100
AcDbVertex
100
AcDb2dVertex
 10
5446.6347192368257
 20
74.001261258961847
 30
0.0
  0
VERTEX
  5
322
100
AcDbEntity
  8
0
370
               0
390
0
  6
Continuous
 62
              30
100
AcDbVertex
100
AcDb2dVertex
 10
5445.8040093025911
 20
75.218030477406785
 30
0.0
  0
VERTEX
  5
323
100
AcDbEntity
  8
0
370
               0
390
0
  6
Continuous
 62
              30
100
AcDbVertex
100
AcDb2dVertex
 10
5445.2837203583467
 20
76.616400147321031
 30
0.0
  0
VERTEX
  5
324
100
AcDbEntity
  8
0
370
               0
390
0
  6
Continuous
 62
              30
100
AcDbVertex
100
AcDb2dVertex
 10
5445.1066051563967
 20
78.108542824628159
 30
0.0
  0
SEQEND
  5
325
100
AcDbEntity
  8
0
370
               0
390
0
  6
Continuous
 62
              30
  0
ARC
  5
327
100
AcDbEntity
  8
0
370
               0
390
0
  6
Continuous
 62
              30
100
AcDbCircle
 10
5450.763856164579
 20
77.559949810827163
 30
0.0
 40
8.3740510521560481
100
AcDbArc
 50
193.4755227954025
 51
353.47635809814557
  0
ARC
  5
328
100
AcDbEntity
  8
0
370
               0
390
0
  6
Continuous
 62
              30
100
AcDbCircle
 10
5450.0466896867338
 20
76.819499837757405
 30
0.0
 40
10.711268805213791
100
AcDbArc
 50
271.4472156013253
 51
293.01825186290301
  0
ARC
  5
329
100
AcDbEntity
  8
0
370
               0
390
0
  6
Continuous
 62
              30
100
AcDbCircle
 10
5443.667990859497
 20
77.581592570865325
 30
0.0
 40
8.5279425804682205
100
AcDbArc
 50
295.38980017963178
 51
320.0754620085209
  0
ARC
  5
32A
100
AcDbEntity
  8
0
370
               0
390
0
  6
Continuous
 62
              30
100
AcDbCircle
 10
5450.0764257403298
 20
76.867830984702721
 30
0.0
 40
10.50929765362627
100
AcDbArc
 50
242.39948696933413
 51
269.91429082751262
  0
LINE
  5
32B
100
AcDbEntity
  8
0
370
               0
390
0
  6
Continuous
 62
              30
100
AcDbLine
 10
5444.441089495157
 20
72.108545566441819
 30
0.0
 11
5450.7447575173128
 21
72.108545566441705
 31
0.0
  0
LINE
  5
32C
100
AcDbEntity
  8
0
370
               0
390
0
  6
Continuous
 62
              30
100
AcDbLine
 10
5450.0607077928598
 20
66.358546756372391
 30
0.0
 11
5450.7447575173128
 21
66.358545089604547
 31
0.0
  0
ARC
  5
32D
100
AcDbEntity
  8
0
370
               0
390
0
  6
Continuous
 62
              30
100
AcDbCircle
 10
5458.9189415078627
 20
66.216679719896945
 30
0.0
 40
1.714148716925801
100
AcDbArc
 50
358.47442884959173
 51
79.050650625483911
  0
ARC
  5
32E
100
AcDbEntity
  8
0
370
               0
390
0
  6
Continuous
 62
              30
100
AcDbCircle
 10
5458.9189336905956
 20
66.125414113541012
 30
0.0
 40
1.714156364325951
100
AcDbArc
 50
280.94956606010692
 51
1.5253544648267621
  0
POLYLINE
  5
32F
100
AcDbEntity
  8
0
370
               0
390
0
  6
Continuous
 62
              30
100
AcDb2dPolyline
 66
               1
 10
0.0
 20
0.0
 30
0.0
 75
               5
  0
VERTEX
  5
330
100
AcDbEntity
  8
0
370
               0
390
0
  6
Continuous
 62
              30
100
AcDbVertex
100
AcDb2dVertex
 10
5461.1455296120394
 20
66.171043778302362
 30
0.0
  0
VERTEX
  5
331
100
AcDbEntity
  8
0
370
               0
390
0
  6
Continuous
 62
              30
100
AcDbVertex
100
AcDb2dVertex
 10
5461.0203300556886
 20
65.501355791928461
 30
0.0
  0
VERTEX
  5
332
100
AcDbEntity
  8
0
370
               0
390
0
  6
Continuous
 62
              30
100
AcDbVertex
100
AcDb2dVertex
 10
5460.6638644776094
 20
64.933606649281671
 30
0.0
  0
VERTEX
  5
333
100
AcDbEntity
  8
0
370
               0
390
0
  6
Continuous
 62
              30
100
AcDbVertex
100
AcDb2dVertex
 10
5460.1303731045473
 20
64.554252887608698
 30
0.0
  0
VERTEX
  5
334
100
AcDbEntity
  8
0
370
               0
390
0
  6
Continuous
 62
              30
100
AcDbVertex
100
AcDb2dVertex
 10
5459.5010672650087
 20
64.421051407696893
 30
0.0
  0
VERTEX
  5
335
100
AcDbEntity
  8
0
370
               0
390
0
  6
Continuous
 62
              30
100
AcDbVertex
100
AcDb2dVertex
 10
5458.8717316231478
 20
64.554252887608698
 30
0.0
  0
VERTEX
  5
336
100
AcDbEntity
  8
0
370
               0
390
0
  6
Continuous
 62
              30
100
AcDbVertex
100
AcDb2dVertex
 10
5458.3382402500856
 20
64.933606649281671
 30
0.0
  0
VERTEX
  5
337
100
AcDbEntity
  8
0
370
               0
390
0
  6
Continuous
 62
              30
100
AcDbVertex
100
AcDb2dVertex
 10
5457.9817746720064
 20
65.501355791928461
 30
0.0
  0
VERTEX
  5
338
100
AcDbEntity
  8
0
370
               0
390
0
  6
Continuous
 62
              30
100
AcDbVertex
100
AcDb2dVertex
 10
5457.8566049179781
 20
66.171043778302362
 30
0.0
  0
VERTEX
  5
339
100
AcDbEntity
  8
0
370
               0
390
0
  6
Continuous
 62
              30
100
AcDbVertex
100
AcDb2dVertex
 10
5457.9817746720064
 20
66.840746665837457
 30
0.0
  0
VERTEX
  5
33A
100
AcDbEntity
  8
0
370
               0
390
0
  6
Continuous
 62
              30
100
AcDbVertex
100
AcDb2dVertex
 10
5458.3382402500856
 20
67.408480907323053
 30
0.0
  0
VERTEX
  5
33B
100
AcDbEntity
  8
0
370
               0
390
0
  6
Continuous
 62
              30
100
AcDbVertex
100
AcDb2dVertex
 10
5458.8717316231478
 20
67.787834668996027
 30
0.0
  0
VERTEX
  5
33C
100
AcDbEntity
  8
0
370
               0
390
0
  6
Continuous
 62
              30
100
AcDbVertex
100
AcDb2dVertex
 10
5459.5010672650087
 20
67.921051050069025
 30
0.0
  0
VERTEX
  5
33D
100
AcDbEntity
  8
0
370
               0
390
0
  6
Continuous
 62
              30
100
AcDbVertex
100
AcDb2dVertex
 10
5460.1303731045473
 20
67.787834668996027
 30
0.0
  0
VERTEX
  5
33E
100
AcDbEntity
  8
0
370
               0
390
0
  6
Continuous
 62
              30
100
AcDbVertex
100
AcDb2dVertex
 10
5460.6638644776094
 20
67.408480907323053
 30
0.0
  0
VERTEX
  5
33F
100
AcDbEntity
  8
0
370
               0
390
0
  6
Continuous
 62
              30
100
AcDbVertex
100
AcDb2dVertex
 10
5461.0203300556886
 20
66.840746665837457
 30
0.0
  0
VERTEX
  5
340
100
AcDbEntity
  8
0
370
               0
390
0
  6
Continuous
 62
              30
100
AcDbVertex
100
AcDb2dVertex
 10
5461.1455296120394
 20
66.171043778302362
 30
0.0
  0
SEQEND
  5
341
100
AcDbEntity
  8
0
370
               0
390
0
  6
Continuous
 62
              30
  0
LINE
  5
343
100
AcDbEntity
  8
0
370
               0
390
0
  6
Continuous
 62
              30
100
AcDbLine
 10
5460.294703110193
 20
65.108546281697443
 30
0.0
 11
5458.1943844399202
 21
65.108546281697443
 31
0.0
  0
ARC
  5
344
100
AcDbEntity
  8
0
370
               0
390
0
  6
Continuous
 62
              30
100
AcDbCircle
 10
5450.0469594386095
 20
79.398830021500032
 30
0.0
 40
10.710018181893366
100
AcDbArc
 50
66.980473604679347
 51
88.55405893108049
  0
ARC
  5
345
100
AcDbEntity
  8
0
370
               0
390
0
  6
Continuous
 62
              30
100
AcDbCircle
 10
5450.7641079505038
 20
78.661266951606706
 30
0.0
 40
8.3733342253441805
100
AcDbArc
 50
6.4958542243964494
 51
166.55236821896253
  0
POLYLINE
  5
346
100
AcDbEntity
  8
0
370
               0
390
0
  6
Continuous
 62
              30
100
AcDb2dPolyline
 66
               1
 10
0.0
 20
0.0
 30
0.0
 75
               5
  0
VERTEX
  5
347
100
AcDbEntity
  8
0
370
               0
390
0
  6
Continuous
 62
              30
100
AcDbVertex
100
AcDb2dVertex
 10
5448.1605981430757
 20
78.108542824628046
 30
0.0
  0
VERTEX
  5
348
100
AcDbEntity
  8
0
370
               0
390
0
  6
Continuous
 62
              30
100
AcDbVertex
100
AcDb2dVertex
 10
5448.3350907406557
 20
77.115127111317804
 30
0.0
  0
VERTEX
  5
349
100
AcDbEntity
  8
0
370
               0
390
0
  6
Continuous
 62
              30
100
AcDbVertex
100
AcDb2dVertex
 10
5448.8350246987093
 20
76.255881453396967
 30
0.0
  0
VERTEX
  5
34A
100
AcDbEntity
  8
0
370
               0
390
0
  6
Continuous
 62
              30
100
AcDbVertex
100
AcDb2dVertex
 10
5449.5928977570284
 20
75.646841193082025
 30
0.0
  0
VERTEX
  5
34B
100
AcDbEntity
  8
0
370
               0
390
0
  6
Continuous
 62
              30
100
AcDbVertex
100
AcDb2dVertex
 10
5450.5063091358888
 20
75.370275641324213
 30
0.0
  0
VERTEX
  5
34C
100
AcDbEntity
  8
0
370
               0
390
0
  6
Continuous
 62
              30
100
AcDbVertex
100
AcDb2dVertex
 10
5451.4519368252504
 20
75.463527108075311
 30
0.0
  0
VERTEX
  5
34D
100
AcDbEntity
  8
0
370
               0
390
0
  6
Continuous
 62
              30
100
AcDbVertex
100
AcDb2dVertex
 10
5452.3020480713594
 20
75.91400411212652
 30
0.0
  0
VERTEX
  5
34E
100
AcDbEntity
  8
0
370
               0
390
0
  6
Continuous
 62
              30
100
AcDbVertex
100
AcDb2dVertex
 10
5452.9418443283785
 20
76.660865212323358
 30
0.0
  0
VERTEX
  5
34F
100
AcDbEntity
  8
0
370
               0
390
0
  6
Continuous
 62
              30
100
AcDbVertex
100
AcDb2dVertex
 10
5453.2848988613832
 20
77.603229547383478
 30
0.0
  0
VERTEX
  5
350
100
AcDbEntity
  8
0
370
               0
390
0
  6
Continuous
 62
              30
100
AcDbVertex
100
AcDb2dVertex
 10
5453.2848988613832
 20
78.613856101872614
 30
0.0
  0
VERTEX
  5
351
100
AcDbEntity
  8
0
370
               0
390
0
  6
Continuous
 62
              30
100
AcDbVertex
100
AcDb2dVertex
 10
5452.9418443283785
 20
79.556235338093927
 30
0.0
  0
VERTEX
  5
352
100
AcDbEntity
  8
0
370
               0
390
0
  6
Continuous
 62
              30
100
AcDbVertex
100
AcDb2dVertex
 10
5452.3020480713594
 20
80.303096438290765
 30
0.0
  0
VERTEX
  5
353
100
AcDbEntity
  8
0
370
               0
390
0
  6
Continuous
 62
              30
100
AcDbVertex
100
AcDb2dVertex
 10
5451.4519368252504
 20
80.753573442341974
 30
0.0
  0
VERTEX
  5
354
100
AcDbEntity
  8
0
370
               0
390
0
  6
Continuous
 62
              30
100
AcDbVertex
100
AcDb2dVertex
 10
5450.5063091358888
 20
80.846810007931879
 30
0.0
  0
VERTEX
  5
355
100
AcDbEntity
  8
0
370
               0
390
0
  6
Continuous
 62
              30
100
AcDbVertex
100
AcDb2dVertex
 10
5449.5928977570284
 20
80.570244456174066
 30
0.0
  0
VERTEX
  5
356
100
AcDbEntity
  8
0
370
               0
390
0
  6
Continuous
 62
              30
100
AcDbVertex
100
AcDb2dVertex
 10
5448.8350246987093
 20
79.961204195859125
 30
0.0
  0
VERTEX
  5
357
100
AcDbEntity
  8
0
370
               0
390
0
  6
Continuous
 62
              30
100
AcDbVertex
100
AcDb2dVertex
 10
5448.3350907406557
 20
79.101958537938287
 30
0.0
  0
VERTEX
  5
358
100
AcDbEntity
  8
0
370
               0
390
0
  6
Continuous
 62
              30
100
AcDbVertex
100
AcDb2dVertex
 10
5448.1605981430757
 20
78.108542824628046
 30
0.0
  0
SEQEND
  5
359
100
AcDbEntity
  8
0
370
               0
390
0
  6
Continuous
 62
              30
  0
ARC
  5
35B
100
AcDbEntity
  8
0
370
               0
390
0
  6
Continuous
 62
              30
100
AcDbCircle
 10
5443.6682753734694
 20
78.635860763482526
 30
0.0
 40
8.5274884177728065
100
AcDbArc
 50
39.923870266737936
 51
64.610867545131327
  0
ARC
  5
35C
100
AcDbEntity
  8
0
370
               0
390
0
  6
Continuous
 62
              30
100
AcDbCircle
 10
5450.0764158240154
 20
79.349178863791337
 30
0.0
 40
10.509373439474288
100
AcDbArc
 50
90.085654491833921
 51
117.60023601880455
  0
LINE
  5
35D
100
AcDbEntity
  8
0
370
               0
390
0
  6
Continuous
 62
              30
100
AcDbLine
 10
5450.7447575173128
 20
84.108540082814386
 30
0.0
 11
5444.441089495157
 21
84.1085400828145
 31
0.0
  0
LINE
  5
35E
100
AcDbEntity
  8
0
370
               0
390
0
  6
Continuous
 62
              30
100
AcDbLine
 10
5450.7447575173128
 20
89.858540559651601
 30
0.0
 11
5450.0607077928598
 21
89.858546756372334
 31
0.0
  0
LINE
  5
35F
100
AcDbEntity
  8
0
370
               0
390
0
  6
Continuous
 62
              30
100
AcDbLine
 10
5459.0836928537492
 20
79.608546756372732
 30
0.0
 11
5456.2038575253237
 21
79.608553315045526
 31
0.0
  0
LINE
  5
360
100
AcDbEntity
  8
0
370
               0
390
0
  6
Continuous
 62
              30
100
AcDbLine
 10
5456.2038575253237
 20
76.608547235371759
 30
0.0
 11
5459.083692853751
 21
76.608546756373073
 31
0.0
  0
LINE
  5
361
100
AcDbEntity
  8
0
370
               0
390
0
  6
Continuous
 62
              30
100
AcDbLine
 10
5459.0836928537492
 20
79.608546756372732
 30
0.0
 11
5460.1416681847322
 21
79.608553315045526
 31
0.0
  0
LINE
  5
362
100
AcDbEntity
  8
0
370
               0
390
0
  6
Continuous
 62
              30
100
AcDbLine
 10
5460.1416681847322
 20
76.608547235371759
 30
0.0
 11
5460.1416681847322
 21
79.608553315045526
 31
0.0
  0
LINE
  5
363
100
AcDbEntity
  8
0
370
               0
390
0
  6
Continuous
 62
              30
100
AcDbLine
 10
5460.1416681847322
 20
76.608547235371759
 30
0.0
 11
5459.083692853751
 21
76.608546756373073
 31
0.0
  0
LINE
  5
364
100
AcDbEntity
  8
0
370
               0
390
0
  6
Continuous
 62
              30
100
AcDbLine
 10
5530.2540604910582
 20
-41.891445179937762
 30
0.0
 11
5530.2540604910582
 21
-53.89144528424589
 31
0.0
  0
LINE
  5
365
100
AcDbEntity
  8
0
370
               0
390
0
  6
Continuous
 62
              30
100
AcDbLine
 10
5495.127925737831
 20
-41.891445179937477
 30
0.0
 11
5495.127925737831
 21
-53.891445284245606
 31
0.0
  0
LINE
  5
366
100
AcDbEntity
  8
0
370
               0
390
0
  6
Continuous
 62
              30
100
AcDbLine
 10
5495.127925737831
 20
-53.891445284245606
 30
0.0
 11
5530.2540604910582
 21
-53.89144528424589
 31
0.0
  0
LINE
  5
367
100
AcDbEntity
  8
0
370
               0
390
0
  6
Continuous
 62
              30
100
AcDbLine
 10
5530.2540604910582
 20
-41.891445179937762
 30
0.0
 11
5495.127925737831
 21
-41.891445179937477
 31
0.0
  0
LINE
  5
368
100
AcDbEntity
  8
0
370
               0
390
0
  6
Continuous
 62
              30
100
AcDbLine
 10
5495.127925737831
 20
-41.891445179937477
 30
0.0
 11
5530.2540604910582
 21
-41.891445179937762
 31
0.0
  0
LINE
  5
369
100
AcDbEntity
  8
0
370
               0
390
0
  6
Continuous
 62
              30
100
AcDbLine
 10
4950.5004969628108
 20
405.10856475913681
 30
0.0
 11
5062.1005588413727
 21
405.10856475913681
 31
0.0
  0
LINE
  5
36A
100
AcDbEntity
  8
0
370
               0
390
0
  6
Continuous
 62
              30
100
AcDbLine
 10
5083.6814863927184
 20
417.10855509414739
 30
0.0
 11
4950.5004969628108
 21
417.10855927550949
 31
0.0
  0
CIRCLE
  5
36B
100
AcDbEntity
  8
0
370
               0
390
0
  6
Continuous
 62
              30
100
AcDbCircle
 10
4995.100558425298
 20
181.60855509414705
 30
0.0
 40
4.1999999999998181
  0
LINE
  5
36C
100
AcDbEntity
  8
0
370
               0
390
0
  6
Continuous
 62
              30
100
AcDbLine
 10
4950.5004969628108
 20
405.10856475913681
 30
0.0
 11
5062.1005588413727
 21
405.10856475913681
 31
0.0
  0
CIRCLE
  5
36D
100
AcDbEntity
  8
0
370
               0
390
0
  6
Continuous
 62
              30
100
AcDbCircle
 10
4995.100558425298
 20
181.60855509414705
 30
0.0
 40
7.1999999999852662
  0
LINE
  5
36E
100
AcDbEntity
  8
0
370
               0
390
0
  6
Continuous
 62
              30
100
AcDbLine
 10
4858.3251973872748
 20
199.50855509414782
 30
0.0
 11
4858.3251973872748
 21
164.70855509414787
 31
0.0
  0
LINE
  5
36F
100
AcDbEntity
  8
0
370
               0
390
0
  6
Continuous
 62
              30
100
AcDbLine
 10
4855.5061195249173
 20
164.70855509414787
 30
0.0
 11
4855.5061195249173
 21
199.50855509414782
 31
0.0
  0
LINE
  5
370
100
AcDbEntity
  8
0
370
               0
390
0
  6
Continuous
 62
              30
100
AcDbLine
 10
4865.7667238246877
 20
199.50855509414782
 30
0.0
 11
4865.7667238246877
 21
164.70855509414764
 31
0.0
  0
POLYLINE
  5
371
100
AcDbEntity
  8
0
370
               0
390
0
  6
Continuous
 62
              30
100
AcDb2dPolyline
 66
               1
 10
0.0
 20
0.0
 30
0.0
 75
               5
  0
VERTEX
  5
372
100
AcDbEntity
  8
0
370
               0
390
0
  6
Continuous
 62
              30
100
AcDbVertex
100
AcDb2dVertex
 10
4863.0305540950549
 20
146.10856142127727
 30
0.0
  0
VERTEX
  5
373
100
AcDbEntity
  8
0
370
               0
390
0
  6
Continuous
 62
              30
100
AcDbVertex
100
AcDb2dVertex
 10
4862.970532217766
 20
144.55091323936199
 30
0.0
  0
VERTEX
  5
374
100
AcDbEntity
  8
0
370
               0
390
0
  6
Continuous
 62
              30
100
AcDbVertex
100
AcDb2dVertex
 10
4862.7934617192996
 20
143.07136204326366
 30
0.0
  0
VERTEX
  5
375
100
AcDbEntity
  8
0
370
               0
390
0
  6
Continuous
 62
              30
100
AcDbVertex
100
AcDb2dVertex
 10
4862.5082236917269
 20
141.74413051688884
 30
0.0
  0
VERTEX
  5
376
100
AcDbEntity
  8
0
370
               0
390
0
  6
Continuous
 62
              30
100
AcDbVertex
100
AcDb2dVertex
 10
4862.1291381509554
 20
140.63573744380687
 30
0.0
  0
VERTEX
  5
377
100
AcDbEntity
  8
0
370
               0
390
0
  6
Continuous
 62
              30
100
AcDbVertex
100
AcDb2dVertex
 10
4861.6751891763461
 20
139.801779056432
 30
0.0
  0
VERTEX
  5
378
100
AcDbEntity
  8
0
370
               0
390
0
  6
Continuous
 62
              30
100
AcDbVertex
100
AcDb2dVertex
 10
4861.1691606433642
 20
139.28405311191295
 30
0.0
  0
VERTEX
  5
379
100
AcDbEntity
  8
0
370
               0
390
0
  6
Continuous
 62
              30
100
AcDbVertex
100
AcDb2dVertex
 10
4860.6364143283618
 20
139.10856213653301
 30
0.0
  0
VERTEX
  5
37A
100
AcDbEntity
  8
0
370
               0
390
0
  6
Continuous
 62
              30
100
AcDbVertex
100
AcDb2dVertex
 10
4860.1036680133593
 20
139.28405311191295
 30
0.0
  0
VERTEX
  5
37B
100
AcDbEntity
  8
0
370
               0
390
0
  6
Continuous
 62
              30
100
AcDbVertex
100
AcDb2dVertex
 10
4859.5976394803774
 20
139.801779056432
 30
0.0
  0
VERTEX
  5
37C
100
AcDbEntity
  8
0
370
               0
390
0
  6
Continuous
 62
              30
100
AcDbVertex
100
AcDb2dVertex
 10
4859.1436905057681
 20
140.63573744380687
 30
0.0
  0
VERTEX
  5
37D
100
AcDbEntity
  8
0
370
               0
390
0
  6
Continuous
 62
              30
100
AcDbVertex
100
AcDb2dVertex
 10
4858.7646049649966
 20
141.74413051688884
 30
0.0
  0
VERTEX
  5
37E
100
AcDbEntity
  8
0
370
               0
390
0
  6
Continuous
 62
              30
100
AcDbVertex
100
AcDb2dVertex
 10
4858.4793669374239
 20
143.07136204326366
 30
0.0
  0
VERTEX
  5
37F
100
AcDbEntity
  8
0
370
               0
390
0
  6
Continuous
 62
              30
100
AcDbVertex
100
AcDb2dVertex
 10
4858.3022964389575
 20
144.55091323936199
 30
0.0
  0
VERTEX
  5
380
100
AcDbEntity
  8
0
370
               0
390
0
  6
Continuous
 62
              30
100
AcDbVertex
100
AcDb2dVertex
 10
4858.2422745616686
 20
146.10856142127727
 30
0.0
  0
VERTEX
  5
381
100
AcDbEntity
  8
0
370
               0
390
0
  6
Continuous
 62
              30
100
AcDbVertex
100
AcDb2dVertex
 10
4858.3022964389575
 20
147.66619470203136
 30
0.0
  0
VERTEX
  5
382
100
AcDbEntity
  8
0
370
               0
390
0
  6
Continuous
 62
              30
100
AcDbVertex
100
AcDb2dVertex
 10
4858.4793669374239
 20
149.14574589812969
 30
0.0
  0
VERTEX
  5
383
100
AcDbEntity
  8
0
370
               0
390
0
  6
Continuous
 62
              30
100
AcDbVertex
100
AcDb2dVertex
 10
4858.7646049649966
 20
150.47297742450451
 30
0.0
  0
VERTEX
  5
384
100
AcDbEntity
  8
0
370
               0
390
0
  6
Continuous
 62
              30
100
AcDbVertex
100
AcDb2dVertex
 10
4859.1436905057681
 20
151.58137049758648
 30
0.0
  0
VERTEX
  5
385
100
AcDbEntity
  8
0
370
               0
390
0
  6
Continuous
 62
              30
100
AcDbVertex
100
AcDb2dVertex
 10
4859.5976394803774
 20
152.41534378612255
 30
0.0
  0
VERTEX
  5
386
100
AcDbEntity
  8
0
370
               0
390
0
  6
Continuous
 62
              30
100
AcDbVertex
100
AcDb2dVertex
 10
4860.1036680133593
 20
152.9330548294804
 30
0.0
  0
VERTEX
  5
387
100
AcDbEntity
  8
0
370
               0
390
0
  6
Continuous
 62
              30
100
AcDbVertex
100
AcDb2dVertex
 10
4860.6364143283618
 20
153.10856070602154
 30
0.0
  0
VERTEX
  5
388
100
AcDbEntity
  8
0
370
               0
390
0
  6
Continuous
 62
              30
100
AcDbVertex
100
AcDb2dVertex
 10
4861.1691606433642
 20
152.9330548294804
 30
0.0
  0
VERTEX
  5
389
100
AcDbEntity
  8
0
370
               0
390
0
  6
Continuous
 62
              30
100
AcDbVertex
100
AcDb2dVertex
 10
4861.6751891763461
 20
152.41534378612255
 30
0.0
  0
VERTEX
  5
38A
100
AcDbEntity
  8
0
370
               0
390
0
  6
Continuous
 62
              30
100
AcDbVertex
100
AcDb2dVertex
 10
4862.1291381509554
 20
151.58137049758648
 30
0.0
  0
VERTEX
  5
38B
100
AcDbEntity
  8
0
370
               0
390
0
  6
Continuous
 62
              30
100
AcDbVertex
100
AcDb2dVertex
 10
4862.5082236917269
 20
150.47297742450451
 30
0.0
  0
VERTEX
  5
38C
100
AcDbEntity
  8
0
370
               0
390
0
  6
Continuous
 62
              30
100
AcDbVertex
100
AcDb2dVertex
 10
4862.7934617192996
 20
149.14574589812969
 30
0.0
  0
VERTEX
  5
38D
100
AcDbEntity
  8
0
370
               0
390
0
  6
Continuous
 62
              30
100
AcDbVertex
100
AcDb2dVertex
 10
4862.970532217766
 20
147.66619470203136
 30
0.0
  0
VERTEX
  5
38E
100
AcDbEntity
  8
0
370
               0
390
0
  6
Continuous
 62
              30
100
AcDbVertex
100
AcDb2dVertex
 10
4863.0305540950549
 20
146.10856142127727
 30
0.0
  0
SEQEND
  5
38F
100
AcDbEntity
  8
0
370
               0
390
0
  6
Continuous
 62
              30
  0
LINE
  5
391
100
AcDbEntity
  8
0
370
               0
390
0
  6
Continuous
 62
              30
100
AcDbLine
 10
4855.1640993815918
 20
111.10855509414796
 30
0.0
 11
4866.1087439680132
 21
111.10855509414773
 31
0.0
  0
LINE
  5
392
100
AcDbEntity
  8
0
370
               0
390
0
  6
Continuous
 62
              30
100
AcDbLine
 10
4857.2162202415457
 20
117.10855509414773
 30
0.0
 11
4864.0566231080593
 21
117.10855509414773
 31
0.0
  0
POLYLINE
  5
393
100
AcDbEntity
  8
0
370
               0
390
0
  6
Continuous
 62
              30
100
AcDb2dPolyline
 66
               1
 10
0.0
 20
0.0
 30
0.0
 75
               5
  0
VERTEX
  5
394
100
AcDbEntity
  8
0
370
               0
390
0
  6
Continuous
 62
              30
100
AcDbVertex
100
AcDb2dVertex
 10
4855.1640969903719
 20
111.10855009639477
 30
0.0
  0
VERTEX
  5
395
100
AcDbEntity
  8
0
370
               0
390
0
  6
Continuous
 62
              30
100
AcDbVertex
100
AcDb2dVertex
 10
4855.2035254628909
 20
112.27909591281627
 30
0.0
  0
VERTEX
  5
396
100
AcDbEntity
  8
0
370
               0
390
0
  6
Continuous
 62
              30
100
AcDbVertex
100
AcDb2dVertex
 10
4855.3203058631671
 20
113.40465512359356
 30
0.0
  0
VERTEX
  5
397
100
AcDbEntity
  8
0
370
               0
390
0
  6
Continuous
 62
              30
100
AcDbVertex
100
AcDb2dVertex
 10
4855.50993804052
 20
114.44196965778087
 30
0.0
  0
VERTEX
  5
398
100
AcDbEntity
  8
0
370
               0
390
0
  6
Continuous
 62
              30
100
AcDbVertex
100
AcDb2dVertex
 10
4855.765150228287
 20
115.35119381034588
 30
0.0
  0
VERTEX
  5
399
100
AcDbEntity
  8
0
370
               0
390
0
  6
Continuous
 62
              30
100
AcDbVertex
100
AcDb2dVertex
 10
4856.0761225612414
 20
116.0973694571278
 30
0.0
  0
VERTEX
  5
39A
100
AcDbEntity
  8
0
370
               0
390
0
  6
Continuous
 62
              30
100
AcDbVertex
100
AcDb2dVertex
 10
4856.4309043081057
 20
116.65182676398967
 30
0.0
  0
VERTEX
  5
39B
100
AcDbEntity
  8
0
370
               0
390
0
  6
Continuous
 62
              30
100
AcDbVertex
100
AcDb2dVertex
 10
4856.8158758075488
 20
116.9932719715855
 30
0.0
  0
VERTEX
  5
39C
100
AcDbEntity
  8
0
370
               0
390
0
  6
Continuous
 62
              30
100
AcDbVertex
100
AcDb2dVertex
 10
4857.2162253053439
 20
117.1085622557423
 30
0.0
  0
SEQEND
  5
39D
100
AcDbEntity
  8
0
370
               0
390
0
  6
Continuous
 62
              30
  0
POLYLINE
  5
39F
100
AcDbEntity
  8
0
370
               0
390
0
  6
Continuous
 62
              30
100
AcDb2dPolyline
 66
               1
 10
0.0
 20
0.0
 30
0.0
 75
               5
  0
VERTEX
  5
3A0
100
AcDbEntity
  8
0
370
               0
390
0
  6
Continuous
 62
              30
100
AcDbVertex
100
AcDb2dVertex
 10
4864.0566182525408
 20
117.1085622557423
 30
0.0
  0
VERTEX
  5
3A1
100
AcDbEntity
  8
0
370
               0
390
0
  6
Continuous
 62
              30
100
AcDbVertex
100
AcDb2dVertex
 10
4864.4569677503359
 20
116.9932719715855
 30
0.0
  0
VERTEX
  5
3A2
100
AcDbEntity
  8
0
370
               0
390
0
  6
Continuous
 62
              30
100
AcDbVertex
100
AcDb2dVertex
 10
4864.841939249779
 20
116.65182676398945
 30
0.0
  0
VERTEX
  5
3A3
100
AcDbEntity
  8
0
370
               0
390
0
  6
Continuous
 62
              30
100
AcDbVertex
100
AcDb2dVertex
 10
4865.1967209966433
 20
116.09736945712757
 30
0.0
  0
VERTEX
  5
3A4
100
AcDbEntity
  8
0
370
               0
390
0
  6
Continuous
 62
              30
100
AcDbVertex
100
AcDb2dVertex
 10
4865.5076933295977
 20
115.35119381034565
 30
0.0
  0
VERTEX
  5
3A5
100
AcDbEntity
  8
0
370
               0
390
0
  6
Continuous
 62
              30
100
AcDbVertex
100
AcDb2dVertex
 10
4865.7629055173647
 20
114.44196965778065
 30
0.0
  0
VERTEX
  5
3A6
100
AcDbEntity
  8
0
370
               0
390
0
  6
Continuous
 62
              30
100
AcDbVertex
100
AcDb2dVertex
 10
4865.9525376947176
 20
113.40465512359333
 30
0.0
  0
VERTEX
  5
3A7
100
AcDbEntity
  8
0
370
               0
390
0
  6
Continuous
 62
              30
100
AcDbVertex
100
AcDb2dVertex
 10
4866.0693180949938
 20
112.27909591281605
 30
0.0
  0
VERTEX
  5
3A8
100
AcDbEntity
  8
0
370
               0
390
0
  6
Continuous
 62
              30
100
AcDbVertex
100
AcDb2dVertex
 10
4866.1087465675128
 20
111.10855009639454
 30
0.0
  0
SEQEND
  5
3A9
100
AcDbEntity
  8
0
370
               0
390
0
  6
Continuous
 62
              30
  0
LINE
  5
3AB
100
AcDbEntity
  8
0
370
               0
390
0
  6
Continuous
 62
              30
100
AcDbLine
 10
4864.8774714520414
 20
162.10855509414773
 30
0.0
 11
4856.3953718975645
 21
162.10855509414773
 31
0.0
  0
POLYLINE
  5
3AC
100
AcDbEntity
  8
0
370
               0
390
0
  6
Continuous
 62
              30
100
AcDb2dPolyline
 66
               1
 10
0.0
 20
0.0
 30
0.0
 75
               5
  0
VERTEX
  5
3AD
100
AcDbEntity
  8
0
370
               0
390
0
  6
Continuous
 62
              30
100
AcDbVertex
100
AcDb2dVertex
 10
4856.3953650386584
 20
162.10854914272045
 30
0.0
  0
VERTEX
  5
3AE
100
AcDbEntity
  8
0
370
               0
390
0
  6
Continuous
 62
              30
100
AcDbVertex
100
AcDb2dVertex
 10
4856.2218857200396
 20
162.15851273620342
 30
0.0
  0
VERTEX
  5
3AF
100
AcDbEntity
  8
0
370
               0
390
0
  6
Continuous
 62
              30
100
AcDbVertex
100
AcDb2dVertex
 10
4856.0550672204745
 20
162.30646636569713
 30
0.0
  0
VERTEX
  5
3B0
100
AcDbEntity
  8
0
370
               0
390
0
  6
Continuous
 62
              30
100
AcDbVertex
100
AcDb2dVertex
 10
4855.9013319404376
 20
162.54673268878673
 30
0.0
  0
VERTEX
  5
3B1
100
AcDbEntity
  8
0
370
               0
390
0
  6
Continuous
 62
              30
100
AcDbVertex
100
AcDb2dVertex
 10
4855.7665807397616
 20
162.87007298553203
 30
0.0
  0
VERTEX
  5
3B2
100
AcDbEntity
  8
0
370
               0
390
0
  6
Continuous
 62
              30
100
AcDbVertex
100
AcDb2dVertex
 10
4855.6559843213809
 20
163.26407458865856
 30
0.0
  0
VERTEX
  5
3B3
100
AcDbEntity
  8
0
370
               0
390
0
  6
Continuous
 62
              30
100
AcDbVertex
100
AcDb2dVertex
 10
4855.5738044173968
 20
163.71358301723217
 30
0.0
  0
VERTEX
  5
3B4
100
AcDbEntity
  8
0
370
               0
390
0
  6
Continuous
 62
              30
100
AcDbVertex
100
AcDb2dVertex
 10
4855.5232000739825
 20
164.201312924268
 30
0.0
  0
VERTEX
  5
3B5
100
AcDbEntity
  8
0
370
               0
390
0
  6
Continuous
 62
              30
100
AcDbVertex
100
AcDb2dVertex
 10
4855.5061233432543
 20
164.70854845130657
 30
0.0
  0
SEQEND
  5
3B6
100
AcDbEntity
  8
0
370
               0
390
0
  6
Continuous
 62
              30
  0
LINE
  5
3B8
100
AcDbEntity
  8
0
370
               0
390
0
  6
Continuous
 62
              30
100
AcDbLine
 10
4858.3251973872748
 20
164.70855509414787
 30
0.0
 11
4855.5061195249173
 21
164.70855509414787
 31
0.0
  0
POLYLINE
  5
3B9
100
AcDbEntity
  8
0
370
               0
390
0
  6
Continuous
 62
              30
100
AcDb2dPolyline
 66
               1
 10
0.0
 20
0.0
 30
0.0
 75
               5
  0
VERTEX
  5
3BA
100
AcDbEntity
  8
0
370
               0
390
0
  6
Continuous
 62
              30
100
AcDbVertex
100
AcDb2dVertex
 10
4858.3251995237124
 20
164.70854845130657
 30
0.0
  0
VERTEX
  5
3BB
100
AcDbEntity
  8
0
370
               0
390
0
  6
Continuous
 62
              30
100
AcDbVertex
100
AcDb2dVertex
 10
4858.3422911556017
 20
164.201312924268
 30
0.0
  0
VERTEX
  5
3BC
100
AcDbEntity
  8
0
370
               0
390
0
  6
Continuous
 62
              30
100
AcDbVertex
100
AcDb2dVertex
 10
4858.3928805978549
 20
163.71358301723217
 30
0.0
  0
VERTEX
  5
3BD
100
AcDbEntity
  8
0
370
               0
390
0
  6
Continuous
 62
              30
100
AcDbVertex
100
AcDb2dVertex
 10
4858.4750605018389
 20
163.26407458865856
 30
0.0
  0
VERTEX
  5
3BE
100
AcDbEntity
  8
0
370
               0
390
0
  6
Continuous
 62
              30
100
AcDbVertex
100
AcDb2dVertex
 10
4858.5856569202197
 20
162.87007298553203
 30
0.0
  0
VERTEX
  5
3BF
100
AcDbEntity
  8
0
370
               0
390
0
  6
Continuous
 62
              30
100
AcDbVertex
100
AcDb2dVertex
 10
4858.7204081208956
 20
162.54673268878673
 30
0.0
  0
VERTEX
  5
3C0
100
AcDbEntity
  8
0
370
               0
390
0
  6
Continuous
 62
              30
100
AcDbVertex
100
AcDb2dVertex
 10
4858.8741434009326
 20
162.30646636569713
 30
0.0
  0
VERTEX
  5
3C1
100
AcDbEntity
  8
0
370
               0
390
0
  6
Continuous
 62
              30
100
AcDbVertex
100
AcDb2dVertex
 10
4859.0409619004977
 20
162.15851273620342
 30
0.0
  0
VERTEX
  5
3C2
100
AcDbEntity
  8
0
370
               0
390
0
  6
Continuous
 62
              30
100
AcDbVertex
100
AcDb2dVertex
 10
4859.2144561202776
 20
162.10854914272045
 30
0.0
  0
SEQEND
  5
3C3
100
AcDbEntity
  8
0
370
               0
390
0
  6
Continuous
 62
              30
  0
POLYLINE
  5
3C5
100
AcDbEntity
  8
0
370
               0
390
0
  6
Continuous
 62
              30
100
AcDb2dPolyline
 66
               1
 10
0.0
 20
0.0
 30
0.0
 75
               5
  0
VERTEX
  5
3C6
100
AcDbEntity
  8
0
370
               0
390
0
  6
Continuous
 62
              30
100
AcDbVertex
100
AcDb2dVertex
 10
4865.7667202146304
 20
164.70854845130634
 30
0.0
  0
VERTEX
  5
3C7
100
AcDbEntity
  8
0
370
               0
390
0
  6
Continuous
 62
              30
100
AcDbVertex
100
AcDb2dVertex
 10
4865.7496434839022
 20
164.20131292426777
 30
0.0
  0
VERTEX
  5
3C8
100
AcDbEntity
  8
0
370
               0
390
0
  6
Continuous
 62
              30
100
AcDbVertex
100
AcDb2dVertex
 10
4865.6990391404879
 20
163.71358301723194
 30
0.0
  0
VERTEX
  5
3C9
100
AcDbEntity
  8
0
370
               0
390
0
  6
Continuous
 62
              30
100
AcDbVertex
100
AcDb2dVertex
 10
4865.6168592365038
 20
163.26407458865833
 30
0.0
  0
VERTEX
  5
3CA
100
AcDbEntity
  8
0
370
               0
390
0
  6
Continuous
 62
              30
100
AcDbVertex
100
AcDb2dVertex
 10
4865.5062628181231
 20
162.87007298553181
 30
0.0
  0
VERTEX
  5
3CB
100
AcDbEntity
  8
0
370
               0
390
0
  6
Continuous
 62
              30
100
AcDbVertex
100
AcDb2dVertex
 10
4865.3715116174471
 20
162.54673268878651
 30
0.0
  0
VERTEX
  5
3CC
100
AcDbEntity
  8
0
370
               0
390
0
  6
Continuous
 62
              30
100
AcDbVertex
100
AcDb2dVertex
 10
4865.2177763374102
 20
162.30646636569691
 30
0.0
  0
VERTEX
  5
3CD
100
AcDbEntity
  8
0
370
               0
390
0
  6
Continuous
 62
              30
100
AcDbVertex
100
AcDb2dVertex
 10
4865.0509578378451
 20
162.15851273620319
 30
0.0
  0
VERTEX
  5
3CE
100
AcDbEntity
  8
0
370
               0
390
0
  6
Continuous
 62
              30
100
AcDbVertex
100
AcDb2dVertex
 10
4864.8774785192263
 20
162.10854914272022
 30
0.0
  0
SEQEND
  5
3CF
100
AcDbEntity
  8
0
370
               0
390
0
  6
Continuous
 62
              30
  0
POLYLINE
  5
3D1
100
AcDbEntity
  8
0
370
               0
390
0
  6
Continuous
 62
              30
100
AcDb2dPolyline
 66
               1
 10
0.0
 20
0.0
 30
0.0
 75
               5
  0
VERTEX
  5
3D2
100
AcDbEntity
  8
0
370
               0
390
0
  6
Continuous
 62
              30
100
AcDbVertex
100
AcDb2dVertex
 10
4863.0305540950549
 20
219.10854544723247
 30
0.0
  0
VERTEX
  5
3D3
100
AcDbEntity
  8
0
370
               0
390
0
  6
Continuous
 62
              30
100
AcDbVertex
100
AcDb2dVertex
 10
4862.970532217766
 20
217.55089726531719
 30
0.0
  0
VERTEX
  5
3D4
100
AcDbEntity
  8
0
370
               0
390
0
  6
Continuous
 62
              30
100
AcDbVertex
100
AcDb2dVertex
 10
4862.7934617192996
 20
216.07136097038006
 30
0.0
  0
VERTEX
  5
3D5
100
AcDbEntity
  8
0
370
               0
390
0
  6
Continuous
 62
              30
100
AcDbVertex
100
AcDb2dVertex
 10
4862.5082236917269
 20
214.74411454284404
 30
0.0
  0
VERTEX
  5
3D6
100
AcDbEntity
  8
0
370
               0
390
0
  6
Continuous
 62
              30
100
AcDbVertex
100
AcDb2dVertex
 10
4862.1291381509554
 20
213.63573637092327
 30
0.0
  0
VERTEX
  5
3D7
100
AcDbEntity
  8
0
370
               0
390
0
  6
Continuous
 62
              30
100
AcDbVertex
100
AcDb2dVertex
 10
4861.6751891763461
 20
212.80177798354839
 30
0.0
  0
VERTEX
  5
3D8
100
AcDbEntity
  8
0
370
               0
390
0
  6
Continuous
 62
              30
100
AcDbVertex
100
AcDb2dVertex
 10
4861.1691606433642
 20
212.28405203902935
 30
0.0
  0
VERTEX
  5
3D9
100
AcDbEntity
  8
0
370
               0
390
0
  6
Continuous
 62
              30
100
AcDbVertex
100
AcDb2dVertex
 10
4860.6364143283618
 20
212.10854616248821
 30
0.0
  0
VERTEX
  5
3DA
100
AcDbEntity
  8
0
370
               0
390
0
  6
Continuous
 62
              30
100
AcDbVertex
100
AcDb2dVertex
 10
4860.1036680133593
 20
212.28405203902935
 30
0.0
  0
VERTEX
  5
3DB
100
AcDbEntity
  8
0
370
               0
390
0
  6
Continuous
 62
              30
100
AcDbVertex
100
AcDb2dVertex
 10
4859.5976394803774
 20
212.80177798354839
 30
0.0
  0
VERTEX
  5
3DC
100
AcDbEntity
  8
0
370
               0
390
0
  6
Continuous
 62
              30
100
AcDbVertex
100
AcDb2dVertex
 10
4859.1436905057681
 20
213.63573637092327
 30
0.0
  0
VERTEX
  5
3DD
100
AcDbEntity
  8
0
370
               0
390
0
  6
Continuous
 62
              30
100
AcDbVertex
100
AcDb2dVertex
 10
4858.7646049649966
 20
214.74411454284404
 30
0.0
  0
VERTEX
  5
3DE
100
AcDbEntity
  8
0
370
               0
390
0
  6
Continuous
 62
              30
100
AcDbVertex
100
AcDb2dVertex
 10
4858.4793669374239
 20
216.07136097038006
 30
0.0
  0
VERTEX
  5
3DF
100
AcDbEntity
  8
0
370
               0
390
0
  6
Continuous
 62
              30
100
AcDbVertex
100
AcDb2dVertex
 10
4858.3022964389575
 20
217.55089726531719
 30
0.0
  0
VERTEX
  5
3E0
100
AcDbEntity
  8
0
370
               0
390
0
  6
Continuous
 62
              30
100
AcDbVertex
100
AcDb2dVertex
 10
4858.2422745616686
 20
219.10854544723247
 30
0.0
  0
VERTEX
  5
3E1
100
AcDbEntity
  8
0
370
               0
390
0
  6
Continuous
 62
              30
100
AcDbVertex
100
AcDb2dVertex
 10
4858.3022964389575
 20
220.66619362914776
 30
0.0
  0
VERTEX
  5
3E2
100
AcDbEntity
  8
0
370
               0
390
0
  6
Continuous
 62
              30
100
AcDbVertex
100
AcDb2dVertex
 10
4858.4793669374239
 20
222.14572992408489
 30
0.0
  0
VERTEX
  5
3E3
100
AcDbEntity
  8
0
370
               0
390
0
  6
Continuous
 62
              30
100
AcDbVertex
100
AcDb2dVertex
 10
4858.7646049649966
 20
223.4729763516209
 30
0.0
  0
VERTEX
  5
3E4
100
AcDbEntity
  8
0
370
               0
390
0
  6
Continuous
 62
              30
100
AcDbVertex
100
AcDb2dVertex
 10
4859.1436905057681
 20
224.58138432586406
 30
0.0
  0
VERTEX
  5
3E5
100
AcDbEntity
  8
0
370
               0
390
0
  6
Continuous
 62
              30
100
AcDbVertex
100
AcDb2dVertex
 10
4859.5976394803774
 20
225.41534271323894
 30
0.0
  0
VERTEX
  5
3E6
100
AcDbEntity
  8
0
370
               0
390
0
  6
Continuous
 62
              30
100
AcDbVertex
100
AcDb2dVertex
 10
4860.1036680133593
 20
225.9330388554356
 30
0.0
  0
VERTEX
  5
3E7
100
AcDbEntity
  8
0
370
               0
390
0
  6
Continuous
 62
              30
100
AcDbVertex
100
AcDb2dVertex
 10
4860.6364143283618
 20
226.10854473197674
 30
0.0
  0
VERTEX
  5
3E8
100
AcDbEntity
  8
0
370
               0
390
0
  6
Continuous
 62
              30
100
AcDbVertex
100
AcDb2dVertex
 10
4861.1691606433642
 20
225.9330388554356
 30
0.0
  0
VERTEX
  5
3E9
100
AcDbEntity
  8
0
370
               0
390
0
  6
Continuous
 62
              30
100
AcDbVertex
100
AcDb2dVertex
 10
4861.6751891763461
 20
225.41534271323894
 30
0.0
  0
VERTEX
  5
3EA
100
AcDbEntity
  8
0
370
               0
390
0
  6
Continuous
 62
              30
100
AcDbVertex
100
AcDb2dVertex
 10
4862.1291381509554
 20
224.58138432586406
 30
0.0
  0
VERTEX
  5
3EB
100
AcDbEntity
  8
0
370
               0
390
0
  6
Continuous
 62
              30
100
AcDbVertex
100
AcDb2dVertex
 10
4862.5082236917269
 20
223.4729763516209
 30
0.0
  0
VERTEX
  5
3EC
100
AcDbEntity
  8
0
370
               0
390
0
  6
Continuous
 62
              30
100
AcDbVertex
100
AcDb2dVertex
 10
4862.7934617192996
 20
222.14572992408489
 30
0.0
  0
VERTEX
  5
3ED
100
AcDbEntity
  8
0
370
               0
390
0
  6
Continuous
 62
              30
100
AcDbVertex
100
AcDb2dVertex
 10
4862.970532217766
 20
220.66619362914776
 30
0.0
  0
VERTEX
  5
3EE
100
AcDbEntity
  8
0
370
               0
390
0
  6
Continuous
 62
              30
100
AcDbVertex
100
AcDb2dVertex
 10
4863.0305540950549
 20
219.10854544723247
 30
0.0
  0
SEQEND
  5
3EF
100
AcDbEntity
  8
0
370
               0
390
0
  6
Continuous
 62
              30
  0
LINE
  5
3F1
100
AcDbEntity
  8
0
370
               0
390
0
  6
Continuous
 62
              30
100
AcDbLine
 10
4856.3953718975645
 20
202.10855509414796
 30
0.0
 11
4864.8774714520405
 21
202.10855509414773
 31
0.0
  0
POLYLINE
  5
3F2
100
AcDbEntity
  8
0
370
               0
390
0
  6
Continuous
 62
              30
100
AcDb2dPolyline
 66
               1
 10
0.0
 20
0.0
 30
0.0
 75
               5
  0
VERTEX
  5
3F3
100
AcDbEntity
  8
0
370
               0
390
0
  6
Continuous
 62
              30
100
AcDbVertex
100
AcDb2dVertex
 10
4855.5061233432543
 20
199.50854148948406
 30
0.0
  0
VERTEX
  5
3F4
100
AcDbEntity
  8
0
370
               0
390
0
  6
Continuous
 62
              30
100
AcDbVertex
100
AcDb2dVertex
 10
4855.5232000739825
 20
200.01577701652263
 30
0.0
  0
VERTEX
  5
3F5
100
AcDbEntity
  8
0
370
               0
390
0
  6
Continuous
 62
              30
100
AcDbVertex
100
AcDb2dVertex
 10
4855.5738044173968
 20
200.50352182471966
 30
0.0
  0
VERTEX
  5
3F6
100
AcDbEntity
  8
0
370
               0
390
0
  6
Continuous
 62
              30
100
AcDbVertex
100
AcDb2dVertex
 10
4855.6559843213809
 20
200.95303025329326
 30
0.0
  0
VERTEX
  5
3F7
100
AcDbEntity
  8
0
370
               0
390
0
  6
Continuous
 62
              30
100
AcDbVertex
100
AcDb2dVertex
 10
4855.7665807397616
 20
201.34704675758098
 30
0.0
  0
VERTEX
  5
3F8
100
AcDbEntity
  8
0
370
               0
390
0
  6
Continuous
 62
              30
100
AcDbVertex
100
AcDb2dVertex
 10
4855.9013319404376
 20
201.67037215316509
 30
0.0
  0
VERTEX
  5
3F9
100
AcDbEntity
  8
0
370
               0
390
0
  6
Continuous
 62
              30
100
AcDbVertex
100
AcDb2dVertex
 10
4856.0550672204745
 20
201.91063847625469
 30
0.0
  0
VERTEX
  5
3FA
100
AcDbEntity
  8
0
370
               0
390
0
  6
Continuous
 62
              30
100
AcDbVertex
100
AcDb2dVertex
 10
4856.2218857200396
 20
202.0586070069096
 30
0.0
  0
VERTEX
  5
3FB
100
AcDbEntity
  8
0
370
               0
390
0
  6
Continuous
 62
              30
100
AcDbVertex
100
AcDb2dVertex
 10
4856.3953650386584
 20
202.10855569923137
 30
0.0
  0
SEQEND
  5
3FC
100
AcDbEntity
  8
0
370
               0
390
0
  6
Continuous
 62
              30
  0
LINE
  5
3FE
100
AcDbEntity
  8
0
370
               0
390
0
  6
Continuous
 62
              30
100
AcDbLine
 10
4858.3251973872748
 20
199.50855509414782
 30
0.0
 11
4855.5061195249173
 21
199.50855509414782
 31
0.0
  0
POLYLINE
  5
3FF
100
AcDbEntity
  8
0
370
               0
390
0
  6
Continuous
 62
              30
100
AcDb2dPolyline
 66
               1
 10
0.0
 20
0.0
 30
0.0
 75
               5
  0
VERTEX
  5
400
100
AcDbEntity
  8
0
370
               0
390
0
  6
Continuous
 62
              30
100
AcDbVertex
100
AcDb2dVertex
 10
4859.2144561202776
 20
202.10855569923137
 30
0.0
  0
VERTEX
  5
401
100
AcDbEntity
  8
0
370
               0
390
0
  6
Continuous
 62
              30
100
AcDbVertex
100
AcDb2dVertex
 10
4859.0409619004977
 20
202.0586070069096
 30
0.0
  0
VERTEX
  5
402
100
AcDbEntity
  8
0
370
               0
390
0
  6
Continuous
 62
              30
100
AcDbVertex
100
AcDb2dVertex
 10
4858.8741434009326
 20
201.91063847625469
 30
0.0
  0
VERTEX
  5
403
100
AcDbEntity
  8
0
370
               0
390
0
  6
Continuous
 62
              30
100
AcDbVertex
100
AcDb2dVertex
 10
4858.7204081208956
 20
201.67037215316509
 30
0.0
  0
VERTEX
  5
404
100
AcDbEntity
  8
0
370
               0
390
0
  6
Continuous
 62
              30
100
AcDbVertex
100
AcDb2dVertex
 10
4858.5856569202197
 20
201.34704675758098
 30
0.0
  0
VERTEX
  5
405
100
AcDbEntity
  8
0
370
               0
390
0
  6
Continuous
 62
              30
100
AcDbVertex
100
AcDb2dVertex
 10
4858.4750605018389
 20
200.95303025329326
 30
0.0
  0
VERTEX
  5
406
100
AcDbEntity
  8
0
370
               0
390
0
  6
Continuous
 62
              30
100
AcDbVertex
100
AcDb2dVertex
 10
4858.3928805978549
 20
200.50352182471966
 30
0.0
  0
VERTEX
  5
407
100
AcDbEntity
  8
0
370
               0
390
0
  6
Continuous
 62
              30
100
AcDbVertex
100
AcDb2dVertex
 10
4858.3422911556017
 20
200.01577701652263
 30
0.0
  0
VERTEX
  5
408
100
AcDbEntity
  8
0
370
               0
390
0
  6
Continuous
 62
              30
100
AcDbVertex
100
AcDb2dVertex
 10
4858.3251995237124
 20
199.50854148948406
 30
0.0
  0
SEQEND
  5
409
100
AcDbEntity
  8
0
370
               0
390
0
  6
Continuous
 62
              30
  0
POLYLINE
  5
40B
100
AcDbEntity
  8
0
370
               0
390
0
  6
Continuous
 62
              30
100
AcDb2dPolyline
 66
               1
 10
0.0
 20
0.0
 30
0.0
 75
               5
  0
VERTEX
  5
40C
100
AcDbEntity
  8
0
370
               0
390
0
  6
Continuous
 62
              30
100
AcDbVertex
100
AcDb2dVertex
 10
4864.8774785192263
 20
202.10855569923115
 30
0.0
  0
VERTEX
  5
40D
100
AcDbEntity
  8
0
370
               0
390
0
  6
Continuous
 62
              30
100
AcDbVertex
100
AcDb2dVertex
 10
4865.0509578378451
 20
202.05860700690937
 30
0.0
  0
VERTEX
  5
40E
100
AcDbEntity
  8
0
370
               0
390
0
  6
Continuous
 62
              30
100
AcDbVertex
100
AcDb2dVertex
 10
4865.2177763374102
 20
201.91063847625446
 30
0.0
  0
VERTEX
  5
40F
100
AcDbEntity
  8
0
370
               0
390
0
  6
Continuous
 62
              30
100
AcDbVertex
100
AcDb2dVertex
 10
4865.3715116174471
 20
201.67037215316486
 30
0.0
  0
VERTEX
  5
410
100
AcDbEntity
  8
0
370
               0
390
0
  6
Continuous
 62
              30
100
AcDbVertex
100
AcDb2dVertex
 10
4865.5062628181231
 20
201.34704675758076
 30
0.0
  0
VERTEX
  5
411
100
AcDbEntity
  8
0
370
               0
390
0
  6
Continuous
 62
              30
100
AcDbVertex
100
AcDb2dVertex
 10
4865.6168592365038
 20
200.95303025329304
 30
0.0
  0
VERTEX
  5
412
100
AcDbEntity
  8
0
370
               0
390
0
  6
Continuous
 62
              30
100
AcDbVertex
100
AcDb2dVertex
 10
4865.6990391404879
 20
200.50352182471943
 30
0.0
  0
VERTEX
  5
413
100
AcDbEntity
  8
0
370
               0
390
0
  6
Continuous
 62
              30
100
AcDbVertex
100
AcDb2dVertex
 10
4865.7496434839022
 20
200.01577701652241
 30
0.0
  0
VERTEX
  5
414
100
AcDbEntity
  8
0
370
               0
390
0
  6
Continuous
 62
              30
100
AcDbVertex
100
AcDb2dVertex
 10
4865.7667202146304
 20
199.50854148948383
 30
0.0
  0
SEQEND
  5
415
100
AcDbEntity
  8
0
370
               0
390
0
  6
Continuous
 62
              30
  0
LINE
  5
417
100
AcDbEntity
  8
0
370
               0
390
0
  6
Continuous
 62
              30
100
AcDbLine
 10
4950.5004969628108
 20
405.10856475913681
 30
0.0
 11
4875.1722735555422
 21
405.10856475913704
 31
0.0
  0
LINE
  5
418
100
AcDbEntity
  8
0
370
               0
390
0
  6
Continuous
 62
              30
100
AcDbLine
 10
4875.1722735555422
 20
405.10856475913704
 30
0.0
 11
4950.5004969628108
 21
405.10856475913681
 31
0.0
  0
LINE
  5
419
100
AcDbEntity
  8
0
370
               0
390
0
  6
Continuous
 62
              30
100
AcDbLine
 10
4950.5004969628108
 20
417.10855927550949
 30
0.0
 11
4875.1722735555422
 21
417.10855927550972
 31
0.0
  0
LINE
  5
41A
100
AcDbEntity
  8
0
370
               0
390
0
  6
Continuous
 62
              30
100
AcDbLine
 10
4875.1722735555422
 20
405.10856475913704
 30
0.0
 11
4846.1005551011813
 21
405.10856475913772
 31
0.0
  0
LINE
  5
41B
100
AcDbEntity
  8
0
370
               0
390
0
  6
Continuous
 62
              30
100
AcDbLine
 10
4846.1005551011813
 20
405.10856475913772
 30
0.0
 11
4875.1722735555422
 21
405.10856475913704
 31
0.0
  0
LINE
  5
41C
100
AcDbEntity
  8
0
370
               0
390
0
  6
Continuous
 62
              30
100
AcDbLine
 10
4875.1722735555422
 20
417.10855927550972
 30
0.0
 11
4846.1005551011813
 21
417.1085592755104
 31
0.0
  0
LINE
  5
41D
100
AcDbEntity
  8
0
370
               0
390
0
  6
Continuous
 62
              30
100
AcDbLine
 10
4846.1005551011813
 20
405.10856475913772
 30
0.0
 11
4846.1005551011813
 21
417.1085592755104
 31
0.0
  0
LINE
  5
41E
100
AcDbEntity
  8
0
370
               0
390
0
  6
Continuous
 62
              30
100
AcDbLine
 10
4875.1722735555422
 20
405.10856475913704
 30
0.0
 11
4875.1722735555422
 21
417.10855927550972
 31
0.0
  0
LINE
  5
41F
100
AcDbEntity
  8
0
370
               0
390
0
  6
Continuous
 62
              30
100
AcDbLine
 10
4950.5004969628108
 20
405.10856475913681
 30
0.0
 11
4950.5004969628108
 21
417.10855927550949
 31
0.0
  0
CIRCLE
  5
420
100
AcDbEntity
  8
0
370
               0
390
0
  6
Continuous
 62
              30
100
AcDbCircle
 10
5075.1005584252989
 20
181.60855509414728
 30
0.0
 40
3.0
  0
CIRCLE
  5
421
100
AcDbEntity
  8
0
370
               0
390
0
  6
Continuous
 62
              30
100
AcDbCircle
 10
5075.100558425298
 20
181.60855509414728
 30
0.0
 40
1.6500000000005457
  0
LINE
  5
422
100
AcDbEntity
  8
0
370
               0
390
0
  6
Continuous
 62
              30
100
AcDbLine
 10
5095.0865249379185
 20
409.10855509414739
 30
0.0
 11
5083.7611896209301
 21
409.10855509414739
 31
0.0
  0
LINE
  5
423
100
AcDbEntity
  8
0
370
               0
390
0
  6
Continuous
 62
              30
100
AcDbLine
 10
5096.9746007012409
 20
417.10855509414739
 30
0.0
 11
5083.6814863927184
 21
417.10855509414739
 31
0.0
  0
LINE
  5
424
100
AcDbEntity
  8
0
370
               0
390
0
  6
Continuous
 62
              30
100
AcDbLine
 10
5083.6814863927184
 20
410.10855509414739
 30
0.0
 11
5096.9746007012409
 21
410.10855509414739
 31
0.0
  0
CIRCLE
  5
425
100
AcDbEntity
  8
0
370
               0
390
0
  6
Continuous
 62
              30
100
AcDbCircle
 10
5075.100558425298
 20
369.10855509414739
 30
0.0
 40
3.0
  0
CIRCLE
  5
426
100
AcDbEntity
  8
0
370
               0
390
0
  6
Continuous
 62
              30
100
AcDbCircle
 10
5075.100558425298
 20
369.10855509414739
 30
0.0
 40
1.6500000000005457
  0
LINE
  5
427
100
AcDbEntity
  8
0
370
               0
390
0
  6
Continuous
 62
              30
100
AcDbLine
 10
5063.1005590052855
 20
409.10854306304611
 30
0.0
 11
5083.7611896209301
 21
409.10855509414739
 31
0.0
  0
LINE
  5
428
100
AcDbEntity
  8
0
370
               0
390
0
  6
Continuous
 62
              30
100
AcDbLine
 10
5062.1005588413727
 20
410.10855999076523
 30
0.0
 11
5083.6814863927184
 21
410.10855509414739
 31
0.0
  0
LINE
  5
429
100
AcDbEntity
  8
0
370
               0
390
0
  6
Continuous
 62
              30
100
AcDbLine
 10
5063.1005590052855
 20
405.10856475913681
 30
0.0
 11
5062.1005588413727
 21
405.10856475913681
 31
0.0
  0
LINE
  5
42A
100
AcDbEntity
  8
0
370
               0
390
0
  6
Continuous
 62
              30
100
AcDbLine
 10
5062.1005588413727
 20
405.10856475913681
 30
0.0
 11
5062.1005588413727
 21
410.10855999076523
 31
0.0
  0
LINE
  5
42B
100
AcDbEntity
  8
0
370
               0
390
0
  6
Continuous
 62
              30
100
AcDbLine
 10
5062.1005588413727
 20
405.10856475913681
 30
0.0
 11
5063.1005590052855
 21
405.10856475913681
 31
0.0
  0
LINE
  5
42C
100
AcDbEntity
  8
0
370
               0
390
0
  6
Continuous
 62
              30
100
AcDbLine
 10
5083.6814863927184
 20
410.10855509414739
 30
0.0
 11
5083.6814863927184
 21
417.10855509414739
 31
0.0
  0
LINE
  5
42D
100
AcDbEntity
  8
0
370
               0
390
0
  6
Continuous
 62
              30
100
AcDbLine
 10
5093.035900333668
 20
409.10854306304611
 30
0.0
 11
5093.035900333668
 21
410.10855999076523
 31
0.0
  0
LINE
  5
42E
100
AcDbEntity
  8
0
370
               0
390
0
  6
Continuous
 62
              30
100
AcDbLine
 10
5083.6814863927184
 20
410.10855509414739
 30
0.0
 11
5083.6814877779734
 21
409.10854306304611
 31
0.0
  0
LINE
  5
42F
100
AcDbEntity
  8
0
370
               0
390
0
  6
Continuous
 62
              30
100
AcDbLine
 10
5096.9746007012409
 20
410.10855509414739
 30
0.0
 11
5096.9746007012409
 21
417.10855509414739
 31
0.0
  0
LINE
  5
430
100
AcDbEntity
  8
0
370
               0
390
0
  6
Continuous
 62
              30
100
AcDbLine
 10
5106.1005584252962
 20
410.1085550941483
 30
0.0
 11
5106.1005584252971
 21
417.10855509414807
 31
0.0
  0
LINE
  5
431
100
AcDbEntity
  8
0
370
               0
390
0
  6
Continuous
 62
              30
100
AcDbLine
 10
5104.1007414046389
 20
409.10855509414807
 30
0.0
 11
5095.0865249379185
 21
409.10855509414739
 31
0.0
  0
LINE
  5
432
100
AcDbEntity
  8
0
370
               0
390
0
  6
Continuous
 62
              30
100
AcDbLine
 10
5096.9746007012409
 20
410.10855509414739
 30
0.0
 11
5106.1005584252962
 21
410.1085550941483
 31
0.0
  0
LINE
  5
433
100
AcDbEntity
  8
0
370
               0
390
0
  6
Continuous
 62
              30
100
AcDbLine
 10
5102.1005598099482
 20
409.10854306304702
 30
0.0
 11
5102.1005598099482
 21
410.10855999076614
 31
0.0
  0
LINE
  5
434
100
AcDbEntity
  8
0
370
               0
390
0
  6
Continuous
 62
              30
100
AcDbLine
 10
5106.1005584252971
 20
417.10855509414807
 30
0.0
 11
5096.9746007012409
 21
417.10855509414739
 31
0.0
  0
LINE
  5
435
100
AcDbEntity
  8
0
370
               0
390
0
  6
Continuous
 62
              30
100
AcDbLine
 10
5495.1279257378346
 20
405.10856475913704
 30
0.0
 11
5415.2540658554799
 21
405.10856475913772
 31
0.0
  0
LINE
  5
436
100
AcDbEntity
  8
0
370
               0
390
0
  6
Continuous
 62
              30
100
AcDbLine
 10
5415.2540658554799
 20
405.10856475913772
 30
0.0
 11
5495.1279257378346
 21
405.10856475913704
 31
0.0
  0
LINE
  5
437
100
AcDbEntity
  8
0
370
               0
390
0
  6
Continuous
 62
              30
100
AcDbLine
 10
5495.1279257378346
 20
417.10855927550972
 30
0.0
 11
5415.2540658554799
 21
417.1085592755104
 31
0.0
  0
LINE
  5
438
100
AcDbEntity
  8
0
370
               0
390
0
  6
Continuous
 62
              30
100
AcDbLine
 10
5468.2603388245561
 20
164.70855509414764
 30
0.0
 11
5468.2603388245561
 21
199.50855509414782
 31
0.0
  0
LINE
  5
439
100
AcDbEntity
  8
0
370
               0
390
0
  6
Continuous
 62
              30
100
AcDbLine
 10
5441.0956206309556
 20
164.70855509414787
 30
0.0
 11
5441.0956206309556
 21
199.50855509414782
 31
0.0
  0
LINE
  5
43A
100
AcDbEntity
  8
0
370
               0
390
0
  6
Continuous
 62
              30
100
AcDbLine
 10
5469.2863992545344
 20
199.50855509414782
 30
0.0
 11
5469.2863992545344
 21
164.70855509414764
 31
0.0
  0
ARC
  5
43B
100
AcDbEntity
  8
0
370
               0
390
0
  6
Continuous
 62
              30
100
AcDbCircle
 10
5445.9808406132188
 20
111.2840057509527
 30
0.0
 40
5.827549749962226
100
AcDbArc
 50
91.836472255470142
 51
181.72531996334277
  0
ARC
  5
43C
100
AcDbEntity
  8
0
370
               0
390
0
  6
Continuous
 62
              30
100
AcDbCircle
 10
5443.6197264970851
 20
164.63249507916817
 30
0.0
 40
2.5252422209035457
100
AcDbArc
 50
178.27414723848472
 51
268.16407538057609
  0
POLYLINE
  5
43D
100
AcDbEntity
  8
0
370
               0
390
0
  6
Continuous
 62
              30
100
AcDb2dPolyline
 66
               1
 10
0.0
 20
0.0
 30
0.0
 75
               5
  0
VERTEX
  5
43E
100
AcDbEntity
  8
0
370
               0
390
0
  6
Continuous
 62
              30
100
AcDbVertex
100
AcDb2dVertex
 10
5461.768845184778
 20
146.10856142127727
 30
0.0
  0
VERTEX
  5
43F
100
AcDbEntity
  8
0
370
               0
390
0
  6
Continuous
 62
              30
100
AcDbVertex
100
AcDb2dVertex
 10
5461.6039191326845
 20
144.55091323936199
 30
0.0
  0
VERTEX
  5
440
100
AcDbEntity
  8
0
370
               0
390
0
  6
Continuous
 62
              30
100
AcDbVertex
100
AcDb2dVertex
 10
5461.1174260220278
 20
143.07136204326366
 30
0.0
  0
VERTEX
  5
441
100
AcDbEntity
  8
0
370
               0
390
0
  6
Continuous
 62
              30
100
AcDbVertex
100
AcDb2dVertex
 10
5460.3337739548433
 20
141.74413051688884
 30
0.0
  0
VERTEX
  5
442
100
AcDbEntity
  8
0
370
               0
390
0
  6
Continuous
 62
              30
100
AcDbVertex
100
AcDb2dVertex
 10
5459.2922125897157
 20
140.63573744380687
 30
0.0
  0
VERTEX
  5
443
100
AcDbEntity
  8
0
370
               0
390
0
  6
Continuous
 62
              30
100
AcDbVertex
100
AcDb2dVertex
 10
5458.0450152001131
 20
139.801779056432
 30
0.0
  0
VERTEX
  5
444
100
AcDbEntity
  8
0
370
               0
390
0
  6
Continuous
 62
              30
100
AcDbVertex
100
AcDb2dVertex
 10
5456.6547070584047
 20
139.28405311191295
 30
0.0
  0
VERTEX
  5
445
100
AcDbEntity
  8
0
370
               0
390
0
  6
Continuous
 62
              30
100
AcDbVertex
100
AcDb2dVertex
 10
5455.1909957966554
 20
139.10856213653301
 30
0.0
  0
VERTEX
  5
446
100
AcDbEntity
  8
0
370
               0
390
0
  6
Continuous
 62
              30
100
AcDbVertex
100
AcDb2dVertex
 10
5453.7272845349062
 20
139.28405311191295
 30
0.0
  0
VERTEX
  5
447
100
AcDbEntity
  8
0
370
               0
390
0
  6
Continuous
 62
              30
100
AcDbVertex
100
AcDb2dVertex
 10
5452.3369763931978
 20
139.801779056432
 30
0.0
  0
VERTEX
  5
448
100
AcDbEntity
  8
0
370
               0
390
0
  6
Continuous
 62
              30
100
AcDbVertex
100
AcDb2dVertex
 10
5451.0897790035951
 20
140.63573744380687
 30
0.0
  0
VERTEX
  5
449
100
AcDbEntity
  8
0
370
               0
390
0
  6
Continuous
 62
              30
100
AcDbVertex
100
AcDb2dVertex
 10
5450.0482176384676
 20
141.74413051688884
 30
0.0
  0
VERTEX
  5
44A
100
AcDbEntity
  8
0
370
               0
390
0
  6
Continuous
 62
              30
100
AcDbVertex
100
AcDb2dVertex
 10
5449.2645655712831
 20
143.07136204326366
 30
0.0
  0
VERTEX
  5
44B
100
AcDbEntity
  8
0
370
               0
390
0
  6
Continuous
 62
              30
100
AcDbVertex
100
AcDb2dVertex
 10
5448.7780724606264
 20
144.55091323936199
 30
0.0
  0
VERTEX
  5
44C
100
AcDbEntity
  8
0
370
               0
390
0
  6
Continuous
 62
              30
100
AcDbVertex
100
AcDb2dVertex
 10
5448.6131464085329
 20
146.10856142127727
 30
0.0
  0
VERTEX
  5
44D
100
AcDbEntity
  8
0
370
               0
390
0
  6
Continuous
 62
              30
100
AcDbVertex
100
AcDb2dVertex
 10
5448.7780724606264
 20
147.66619470203136
 30
0.0
  0
VERTEX
  5
44E
100
AcDbEntity
  8
0
370
               0
390
0
  6
Continuous
 62
              30
100
AcDbVertex
100
AcDb2dVertex
 10
5449.2645655712831
 20
149.14574589812969
 30
0.0
  0
VERTEX
  5
44F
100
AcDbEntity
  8
0
370
               0
390
0
  6
Continuous
 62
              30
100
AcDbVertex
100
AcDb2dVertex
 10
5450.0482176384676
 20
150.47297742450451
 30
0.0
  0
VERTEX
  5
450
100
AcDbEntity
  8
0
370
               0
390
0
  6
Continuous
 62
              30
100
AcDbVertex
100
AcDb2dVertex
 10
5451.0897790035951
 20
151.58137049758648
 30
0.0
  0
VERTEX
  5
451
100
AcDbEntity
  8
0
370
               0
390
0
  6
Continuous
 62
              30
100
AcDbVertex
100
AcDb2dVertex
 10
5452.3369763931978
 20
152.41534378612255
 30
0.0
  0
VERTEX
  5
452
100
AcDbEntity
  8
0
370
               0
390
0
  6
Continuous
 62
              30
100
AcDbVertex
100
AcDb2dVertex
 10
5453.7272845349062
 20
152.9330548294804
 30
0.0
  0
VERTEX
  5
453
100
AcDbEntity
  8
0
370
               0
390
0
  6
Continuous
 62
              30
100
AcDbVertex
100
AcDb2dVertex
 10
5455.1909957966554
 20
153.10856070602154
 30
0.0
  0
VERTEX
  5
454
100
AcDbEntity
  8
0
370
               0
390
0
  6
Continuous
 62
              30
100
AcDbVertex
100
AcDb2dVertex
 10
5456.6547070584047
 20
152.9330548294804
 30
0.0
  0
VERTEX
  5
455
100
AcDbEntity
  8
0
370
               0
390
0
  6
Continuous
 62
              30
100
AcDbVertex
100
AcDb2dVertex
 10
5458.0450152001131
 20
152.41534378612255
 30
0.0
  0
VERTEX
  5
456
100
AcDbEntity
  8
0
370
               0
390
0
  6
Continuous
 62
              30
100
AcDbVertex
100
AcDb2dVertex
 10
5459.2922125897157
 20
151.58137049758648
 30
0.0
  0
VERTEX
  5
457
100
AcDbEntity
  8
0
370
               0
390
0
  6
Continuous
 62
              30
100
AcDbVertex
100
AcDb2dVertex
 10
5460.3337739548433
 20
150.47297742450451
 30
0.0
  0
VERTEX
  5
458
100
AcDbEntity
  8
0
370
               0
390
0
  6
Continuous
 62
              30
100
AcDbVertex
100
AcDb2dVertex
 10
5461.1174260220278
 20
149.14574589812969
 30
0.0
  0
VERTEX
  5
459
100
AcDbEntity
  8
0
370
               0
390
0
  6
Continuous
 62
              30
100
AcDbVertex
100
AcDb2dVertex
 10
5461.6039191326845
 20
147.66619470203136
 30
0.0
  0
VERTEX
  5
45A
100
AcDbEntity
  8
0
370
               0
390
0
  6
Continuous
 62
              30
100
AcDbVertex
100
AcDb2dVertex
 10
5461.768845184778
 20
146.10856142127727
 30
0.0
  0
SEQEND
  5
45B
100
AcDbEntity
  8
0
370
               0
390
0
  6
Continuous
 62
              30
  0
ARC
  5
45D
100
AcDbEntity
  8
0
370
               0
390
0
  6
Continuous
 62
              30
100
AcDbCircle
 10
5459.9549127007494
 20
111.2840057509527
 30
0.0
 40
5.8275497499619284
100
AcDbArc
 50
358.27468003665609
 51
88.163527744538854
  0
LINE
  5
45E
100
AcDbEntity
  8
0
370
               0
390
0
  6
Continuous
 62
              30
100
AcDbLine
 10
5465.7798300120858
 20
111.10855509414773
 30
0.0
 11
5470.2260918753191
 21
111.10855509414773
 31
0.0
  0
ARC
  5
45F
100
AcDbEntity
  8
0
370
               0
390
0
  6
Continuous
 62
              30
100
AcDbCircle
 10
5464.4011807824145
 20
111.28400575095247
 30
0.0
 40
5.8275497499619249
100
AcDbArc
 50
358.27468003665723
 51
88.163527744539024
  0
LINE
  5
460
100
AcDbEntity
  8
0
370
               0
390
0
  6
Continuous
 62
              30
100
AcDbLine
 10
5445.794083734886
 20
117.10855509414773
 30
0.0
 11
5464.587936150604
 21
117.10855509414773
 31
0.0
  0
ARC
  5
461
100
AcDbEntity
  8
0
370
               0
390
0
  6
Continuous
 62
              30
100
AcDbCircle
 10
5465.7362307410631
 20
164.63249507916771
 30
0.0
 40
2.5252422209027858
100
AcDbArc
 50
271.83592461940367
 51
1.7258527615210826
  0
LINE
  5
462
100
AcDbEntity
  8
0
370
               0
390
0
  6
Continuous
 62
              30
100
AcDbLine
 10
5466.8431984404897
 20
162.10855509414773
 30
0.0
 11
5443.5388214449995
 21
162.10855509414773
 31
0.0
  0
LINE
  5
463
100
AcDbEntity
  8
0
370
               0
390
0
  6
Continuous
 62
              30
100
AcDbLine
 10
5468.2603388245561
 20
164.70855509414764
 30
0.0
 11
5469.2863992545344
 21
164.70855509414764
 31
0.0
  0
ARC
  5
464
100
AcDbEntity
  8
0
370
               0
390
0
  6
Continuous
 62
              30
100
AcDbCircle
 10
5466.762294898549
 20
164.63249507916794
 30
0.0
 40
2.5252422209035843
100
AcDbArc
 50
271.8359246194857
 51
1.7258527615159096
  0
ARC
  5
465
100
AcDbEntity
  8
0
370
               0
390
0
  6
Continuous
 62
              30
100
AcDbCircle
 10
5443.6197181585176
 20
199.58461716249212
 30
0.0
 40
2.5252345578599016
100
AcDbArc
 50
91.835740899285284
 51
181.72636422095576
  0
ARC
  5
466
100
AcDbEntity
  8
0
370
               0
390
0
  6
Continuous
 62
              30
100
AcDbCircle
 10
5465.7362390796306
 20
199.5846171624919
 30
0.0
 40
2.5252345578593318
100
AcDbArc
 50
358.27363577904623
 51
88.16425910071473
  0
LINE
  5
467
100
AcDbEntity
  8
0
370
               0
390
0
  6
Continuous
 62
              30
100
AcDbLine
 10
5443.5388214449995
 20
202.10855509414796
 30
0.0
 11
5466.8431984404897
 21
202.10855509414773
 31
0.0
  0
POLYLINE
  5
468
100
AcDbEntity
  8
0
370
               0
390
0
  6
Continuous
 62
              30
100
AcDb2dPolyline
 66
               1
 10
0.0
 20
0.0
 30
0.0
 75
               5
  0
VERTEX
  5
469
100
AcDbEntity
  8
0
370
               0
390
0
  6
Continuous
 62
              30
100
AcDbVertex
100
AcDb2dVertex
 10
5461.7688451847798
 20
219.10854544723247
 30
0.0
  0
VERTEX
  5
46A
100
AcDbEntity
  8
0
370
               0
390
0
  6
Continuous
 62
              30
100
AcDbVertex
100
AcDb2dVertex
 10
5461.6039191326863
 20
217.55089726531719
 30
0.0
  0
VERTEX
  5
46B
100
AcDbEntity
  8
0
370
               0
390
0
  6
Continuous
 62
              30
100
AcDbVertex
100
AcDb2dVertex
 10
5461.1174260220296
 20
216.07136097038006
 30
0.0
  0
VERTEX
  5
46C
100
AcDbEntity
  8
0
370
               0
390
0
  6
Continuous
 62
              30
100
AcDbVertex
100
AcDb2dVertex
 10
5460.3337739548451
 20
214.74411454284404
 30
0.0
  0
VERTEX
  5
46D
100
AcDbEntity
  8
0
370
               0
390
0
  6
Continuous
 62
              30
100
AcDbVertex
100
AcDb2dVertex
 10
5459.2922125897157
 20
213.63573637092327
 30
0.0
  0
VERTEX
  5
46E
100
AcDbEntity
  8
0
370
               0
390
0
  6
Continuous
 62
              30
100
AcDbVertex
100
AcDb2dVertex
 10
5458.0450152001131
 20
212.80177798354839
 30
0.0
  0
VERTEX
  5
46F
100
AcDbEntity
  8
0
370
               0
390
0
  6
Continuous
 62
              30
100
AcDbVertex
100
AcDb2dVertex
 10
5456.6547070584047
 20
212.28405203902935
 30
0.0
  0
VERTEX
  5
470
100
AcDbEntity
  8
0
370
               0
390
0
  6
Continuous
 62
              30
100
AcDbVertex
100
AcDb2dVertex
 10
5455.1909957966554
 20
212.10854616248821
 30
0.0
  0
VERTEX
  5
471
100
AcDbEntity
  8
0
370
               0
390
0
  6
Continuous
 62
              30
100
AcDbVertex
100
AcDb2dVertex
 10
5453.7272845349062
 20
212.28405203902935
 30
0.0
  0
VERTEX
  5
472
100
AcDbEntity
  8
0
370
               0
390
0
  6
Continuous
 62
              30
100
AcDbVertex
100
AcDb2dVertex
 10
5452.3369763931978
 20
212.80177798354839
 30
0.0
  0
VERTEX
  5
473
100
AcDbEntity
  8
0
370
               0
390
0
  6
Continuous
 62
              30
100
AcDbVertex
100
AcDb2dVertex
 10
5451.0897790035951
 20
213.63573637092327
 30
0.0
  0
VERTEX
  5
474
100
AcDbEntity
  8
0
370
               0
390
0
  6
Continuous
 62
              30
100
AcDbVertex
100
AcDb2dVertex
 10
5450.0482176384685
 20
214.74411454284404
 30
0.0
  0
VERTEX
  5
475
100
AcDbEntity
  8
0
370
               0
390
0
  6
Continuous
 62
              30
100
AcDbVertex
100
AcDb2dVertex
 10
5449.264565571284
 20
216.07136097038006
 30
0.0
  0
VERTEX
  5
476
100
AcDbEntity
  8
0
370
               0
390
0
  6
Continuous
 62
              30
100
AcDbVertex
100
AcDb2dVertex
 10
5448.7780724606273
 20
217.55089726531719
 30
0.0
  0
VERTEX
  5
477
100
AcDbEntity
  8
0
370
               0
390
0
  6
Continuous
 62
              30
100
AcDbVertex
100
AcDb2dVertex
 10
5448.6131464085338
 20
219.10854544723247
 30
0.0
  0
VERTEX
  5
478
100
AcDbEntity
  8
0
370
               0
390
0
  6
Continuous
 62
              30
100
AcDbVertex
100
AcDb2dVertex
 10
5448.7780724606273
 20
220.66619362914776
 30
0.0
  0
VERTEX
  5
479
100
AcDbEntity
  8
0
370
               0
390
0
  6
Continuous
 62
              30
100
AcDbVertex
100
AcDb2dVertex
 10
5449.264565571284
 20
222.14572992408489
 30
0.0
  0
VERTEX
  5
47A
100
AcDbEntity
  8
0
370
               0
390
0
  6
Continuous
 62
              30
100
AcDbVertex
100
AcDb2dVertex
 10
5450.0482176384685
 20
223.4729763516209
 30
0.0
  0
VERTEX
  5
47B
100
AcDbEntity
  8
0
370
               0
390
0
  6
Continuous
 62
              30
100
AcDbVertex
100
AcDb2dVertex
 10
5451.089779003596
 20
224.58138432586406
 30
0.0
  0
VERTEX
  5
47C
100
AcDbEntity
  8
0
370
               0
390
0
  6
Continuous
 62
              30
100
AcDbVertex
100
AcDb2dVertex
 10
5452.3369763931987
 20
225.41534271323894
 30
0.0
  0
VERTEX
  5
47D
100
AcDbEntity
  8
0
370
               0
390
0
  6
Continuous
 62
              30
100
AcDbVertex
100
AcDb2dVertex
 10
5453.7272845349071
 20
225.9330388554356
 30
0.0
  0
VERTEX
  5
47E
100
AcDbEntity
  8
0
370
               0
390
0
  6
Continuous
 62
              30
100
AcDbVertex
100
AcDb2dVertex
 10
5455.1909957966564
 20
226.10854473197674
 30
0.0
  0
VERTEX
  5
47F
100
AcDbEntity
  8
0
370
               0
390
0
  6
Continuous
 62
              30
100
AcDbVertex
100
AcDb2dVertex
 10
5456.6547070584056
 20
225.9330388554356
 30
0.0
  0
VERTEX
  5
480
100
AcDbEntity
  8
0
370
               0
390
0
  6
Continuous
 62
              30
100
AcDbVertex
100
AcDb2dVertex
 10
5458.0450152001149
 20
225.41534271323894
 30
0.0
  0
VERTEX
  5
481
100
AcDbEntity
  8
0
370
               0
390
0
  6
Continuous
 62
              30
100
AcDbVertex
100
AcDb2dVertex
 10
5459.2922125897176
 20
224.58138432586406
 30
0.0
  0
VERTEX
  5
482
100
AcDbEntity
  8
0
370
               0
390
0
  6
Continuous
 62
              30
100
AcDbVertex
100
AcDb2dVertex
 10
5460.3337739548451
 20
223.4729763516209
 30
0.0
  0
VERTEX
  5
483
100
AcDbEntity
  8
0
370
               0
390
0
  6
Continuous
 62
              30
100
AcDbVertex
100
AcDb2dVertex
 10
5461.1174260220296
 20
222.14572992408489
 30
0.0
  0
VERTEX
  5
484
100
AcDbEntity
  8
0
370
               0
390
0
  6
Continuous
 62
              30
100
AcDbVertex
100
AcDb2dVertex
 10
5461.6039191326863
 20
220.66619362914776
 30
0.0
  0
VERTEX
  5
485
100
AcDbEntity
  8
0
370
               0
390
0
  6
Continuous
 62
              30
100
AcDbVertex
100
AcDb2dVertex
 10
5461.7688451847798
 20
219.10854544723247
 30
0.0
  0
SEQEND
  5
486
100
AcDbEntity
  8
0
370
               0
390
0
  6
Continuous
 62
              30
  0
LINE
  5
488
100
AcDbEntity
  8
0
370
               0
390
0
  6
Continuous
 62
              30
100
AcDbLine
 10
5468.2603388245561
 20
199.50855509414782
 30
0.0
 11
5469.2863992545344
 21
199.50855509414782
 31
0.0
  0
ARC
  5
489
100
AcDbEntity
  8
0
370
               0
390
0
  6
Continuous
 62
              30
100
AcDbCircle
 10
5466.7623032371166
 20
199.5846171624919
 30
0.0
 40
2.5252345578593318
100
AcDbArc
 50
358.27363577904623
 51
88.16425910071473
  0
LINE
  5
48A
100
AcDbEntity
  8
0
370
               0
390
0
  6
Continuous
 62
              30
100
AcDbLine
 10
5415.2540658554799
 20
405.10856475913772
 30
0.0
 11
5300.2540563187367
 21
405.1085647591384
 31
0.0
  0
LINE
  5
48B
100
AcDbEntity
  8
0
370
               0
390
0
  6
Continuous
 62
              30
100
AcDbLine
 10
5415.2540658554799
 20
417.1085592755104
 30
0.0
 11
5300.2540563187367
 21
417.10855927551108
 31
0.0
  0
LINE
  5
48C
100
AcDbEntity
  8
0
370
               0
390
0
  6
Continuous
 62
              30
100
AcDbLine
 10
5300.2540563187367
 20
405.1085647591384
 30
0.0
 11
5415.2540658554799
 21
405.10856475913772
 31
0.0
  0
LINE
  5
48D
100
AcDbEntity
  8
0
370
               0
390
0
  6
Continuous
 62
              30
100
AcDbLine
 10
5300.2540563187367
 20
405.1085647591384
 30
0.0
 11
5300.2540563187367
 21
417.10855927551108
 31
0.0
  0
LINE
  5
48E
100
AcDbEntity
  8
0
370
               0
390
0
  6
Continuous
 62
              30
100
AcDbLine
 10
5415.2540658554799
 20
405.10856475913772
 30
0.0
 11
5415.2540658554799
 21
417.1085592755104
 31
0.0
  0
LINE
  5
48F
100
AcDbEntity
  8
0
370
               0
390
0
  6
Continuous
 62
              30
100
AcDbLine
 10
5530.2540604910619
 20
405.10856475913681
 30
0.0
 11
5495.1279257378346
 21
405.10856475913704
 31
0.0
  0
LINE
  5
490
100
AcDbEntity
  8
0
370
               0
390
0
  6
Continuous
 62
              30
100
AcDbLine
 10
5495.1279257378346
 20
405.10856475913704
 30
0.0
 11
5530.2540604910619
 21
405.10856475913681
 31
0.0
  0
LINE
  5
491
100
AcDbEntity
  8
0
370
               0
390
0
  6
Continuous
 62
              30
100
AcDbLine
 10
5530.2540604910619
 20
417.10855927550949
 30
0.0
 11
5495.1279257378346
 21
417.10855927550972
 31
0.0
  0
LINE
  5
492
100
AcDbEntity
  8
0
370
               0
390
0
  6
Continuous
 62
              30
100
AcDbLine
 10
5495.1279257378346
 20
405.10856475913704
 30
0.0
 11
5495.1279257378346
 21
417.10855927550972
 31
0.0
  0
LINE
  5
493
100
AcDbEntity
  8
0
370
               0
390
0
  6
Continuous
 62
              30
100
AcDbLine
 10
5530.2540604910619
 20
405.10856475913681
 30
0.0
 11
5530.2540604910619
 21
417.10855927550949
 31
0.0
  0
INSERT
  5
494
100
AcDbEntity
  8
Layer1
390
0
 62
               1
100
AcDbBlockReference
  2
グループ
 10
4757.6179032350374
 20
394.87939801389518
 30
0.0
  0
INSERT
  5
495
100
AcDbEntity
  8
Layer1
390
0
 62
               1
100
AcDbBlockReference
  2
グループ-1
 10
4757.6179032350374
 20
394.87939801389518
 30
0.0
  0
DIMENSION
  5
496
100
AcDbEntity
  8
寸法
370
               0
390
0
  6
Continuous
 62
               1
100
AcDbDimension
  2
*D3
 10
4300.0
 20
417.1085547157536
 30
0.0
 11
4292.5
 21
175.00000000000003
 31
0.0
 70
             128
 71
               5
 72
               1
 41
1.0
 42
0.0
  3
HIBINO
100
AcDbAlignedDimension
 13
4407.9903507744357
 23
-53.891445284246629
 33
0.0
 14
4407.9903507744339
 24
417.1085547157536
 34
0.0
 50
-90.0
100
AcDbRotatedDimension
1001
ACAD
1000
DSTYLE
1002
{
1070
             279
1070
               2
1070
             340
1005
2C
1070
             147
1040
7.5
1002
}
  0
DIMENSION
  5
497
100
AcDbEntity
  8
寸法
370
               0
390
0
  6
Continuous
 62
               1
100
AcDbDimension
  2
*D4
 10
4407.9903507744357
 20
-150.0
 30
0.0
 11
4525.0
 21
-142.5
 31
0.0
 70
             128
 71
               5
 72
               1
 41
1.0
 42
0.0
  3
HIBINO
100
AcDbAlignedDimension
 13
4637.9903507744357
 23
-53.891445284245037
 33
0.0
 14
4407.9903507744357
 24
-53.891445284246629
 34
0.0
100
AcDbRotatedDimension
1001
ACAD
1000
DSTYLE
1002
{
1070
             279
1070
               2
1070
             340
1005
2C
1070
             147
1040
7.5
1002
}
  0
DIMENSION
  5
498
100
AcDbEntity
  8
寸法
370
               0
390
0
  6
Continuous
 62
               1
100
AcDbDimension
  2
*D5
 10
4300.0
 20
-225.00339101721966
 30
0.0
 11
4300.0
 21
-355.00169550860994
 31
0.0
 71
               5
 72
               1
 41
1.0
 42
0.0
  3
HIBINO
100
AcDbAlignedDimension
 13
4522.9903507744357
 23
-485.00000000000023
 33
0.0
 14
4525.0
 24
-225.00339101721966
 34
0.0
 50
-90.0
100
AcDbRotatedDimension
1001
ACAD
1000
DSTYLE
1002
{
1070
             279
1070
               2
1070
             340
1005
2C
1070
             147
1040
7.5
1002
}
  0
LINE
  5
499
100
AcDbEntity
  8
Layer1
370
               0
390
0
  6
Continuous
 62
               1
100
AcDbLine
 10
4522.9903507744339
 20
1025.0
 30
0.0
 11
4522.9903507744339
 21
500.0
 31
0.0
  0
LINE
  5
49A
100
AcDbEntity
  8
Layer1
370
               0
390
0
  6
Continuous
 62
               1
100
AcDbLine
 10
4522.9903507744339
 20
944.46487311336136
 30
0.0
 11
4907.8260721982979
 21
675.0
 31
0.0
  0
LINE
  5
49B
100
AcDbEntity
  8
Layer1
370
               0
390
0
  6
Continuous
 62
               1
100
AcDbLine
 10
4492.235593505874
 20
1025.0
 30
0.0
 11
4272.7308488281951
 21
550.0
 31
0.0
  0
DIMENSION
  5
49C
100
AcDbEntity
  8
寸法
370
               0
390
0
  6
Continuous
 62
               1
100
AcDbDimension
  2
*D6
 10
4712.6243840234356
 20
580.18128457657394
 30
0.0
 11
4716.0874986226981
 21
573.52870332773728
 31
0.0
 70
             133
 71
               5
 72
               1
 41
1.0
 42
0.0
  3
HIBINO
100
AcDb3PointAngularDimension
 13
4522.9903507744339
 23
500.0
 33
0.0
 14
4907.8260721982979
 24
675.0
 34
0.0
 15
4522.9903507744339
 25
944.46487311336136
 35
0.0
1001
ACAD
1000
DSTYLE
1002
{
1070
             279
1070
               2
1070
             342
1005
46
1070
             340
1005
2C
1070
               3
1000
<> 
1070
             147
1040
7.5
1002
}
  0
DIMENSION
  5
49D
100
AcDbEntity
  8
寸法
370
               0
390
0
  6
Continuous
 62
               1
100
AcDbDimension
  2
*D7
 10
4402.8526284584323
 20
545.18851818918847
 30
0.0
 11
4397.4368525439986
 21
538.71392778458392
 31
0.0
 70
             133
 71
               5
 72
               1
 41
1.0
 42
0.0
  3
HIBINO
100
AcDb3PointAngularDimension
 13
4522.9903507744339
 23
500.0
 33
0.0
 14
4272.7308488281951
 24
550.0
 34
0.0
 15
4522.9903507744339
 25
1091.5521363741686
 35
0.0
1001
ACAD
1000
DSTYLE
1002
{
1070
             279
1070
               2
1070
             342
1005
46
1070
             340
1005
2C
1070
               3
1000
<> 
1070
             147
1040
7.5
1002
}
  0
INSERT
  5
49E
100
AcDbEntity
  8
Layer1
390
0
 62
               1
100
AcDbBlockReference
  2
Callout
 10
5050.0
 20
-200.0
 30
0.0
 50
98.276435724708946
  0
ENDSEC
  0
SECTION
  2
OBJECTS
  0
DICTIONARY
  5
19
100
AcDbDictionary
280
               0
281
               1
  3
ACAD_GROUP
350
1A
  3
ACAD_MLINESTYLE
350
1B
  3
ACAD_LAYOUT
350
1E
  3
ACAD_PLOTSETTINGS
350
22
  3
ACAD_PLOTSTYLENAME
350
1F
  3
ACAD_WIPEOUT_VARS
350
23
  0
DICTIONARY
  5
1A
102
{ACAD_REACTORS
330
19
102
}
100
AcDbDictionary
280
               0
281
               1
  0
DICTIONARY
  5
1B
102
{ACAD_REACTORS
330
19
102
}
100
AcDbDictionary
280
               0
281
               1
  3
Standard
350
1C
  0
MLINESTYLE
  5
1C
102
{ACAD_REACTORS
330
1B
102
}
100
AcDbMlineStyle
  2
Standard
 70
               0
  3

 62
               0
 51
90.0
 52
90.0
 71
               2
 49
0.5
 62
             256
  6
ByLayer
 49
-0.5
 62
             256
  6
ByLayer
  0
ACDBDICTIONARYWDFLT
  5
1F
102
{ACAD_REACTORS
330
19
102
}
100
AcDbDictionary
281
               1
  3
Normal
350
1D
100
AcDbDictionaryWithDefault
340
1D
  0
ACDBPLACEHOLDER
  5
1D
102
{ACAD_REACTORS
330
1F
102
}
  0
LAYOUT
  5
20
102
{ACAD_REACTORS
330
1E
102
}
100
AcDbPlotSettings
  1

  2

  4

  6

 40
0.0
 41
0.0
 42
0.0
 43
0.0
 44
0.0
 45
0.0
 46
0.0
 47
0.0
 48
0.0
 49
0.0
140
0.0
141
0.0
142
1.0
143
1.0
 70
            1024
 72
               0
 73
               0
 74
               0
  7
G308Pro_LR.ctb
 75
               0
147
1.0
148
0.0
149
0.0
100
AcDbLayout
  1
Model
 70
               0
 71
               0
 10
0.0
 20
0.0
 11
0.0
 21
0.0
 12
0.0
 22
0.0
 32
0.0
 14
0.0
 24
0.0
 34
0.0
 15
0.0
 25
0.0
 35
0.0
146
0.0
 13
0.0
 23
0.0
 33
0.0
 16
0.0
 26
0.0
 36
0.0
 17
0.0
 27
0.0
 37
0.0
 76
               0
330
A
331
0
345
0
346
0
  0
LAYOUT
  5
21
102
{ACAD_REACTORS
330
1E
102
}
100
AcDbPlotSettings
  1

  2

  4

  6

 40
0.0
 41
0.0
 42
0.0
 43
0.0
 44
0.0
 45
0.0
 46
0.0
 47
0.0
 48
0.0
 49
0.0
140
0.0
141
0.0
142
1.0
143
1.0
 70
               0
 72
               0
 73
               0
 74
               0
  7

 75
               0
147
1.0
148
0.0
149
0.0
100
AcDbLayout
  1
Layout1
 70
               0
 71
               0
 10
0.0
 20
0.0
 11
0.0
 21
0.0
 12
0.0
 22
0.0
 32
0.0
 14
0.0
 24
0.0
 34
0.0
 15
0.0
 25
0.0
 35
0.0
146
0.0
 13
0.0
 23
0.0
 33
0.0
 16
0.0
 26
0.0
 36
0.0
 17
0.0
 27
0.0
 37
0.0
 76
               0
330
B
331
0
345
0
346
0
  0
DICTIONARY
  5
1E
102
{ACAD_REACTORS
330
19
102
}
100
AcDbDictionary
280
               0
281
               1
  3
Layout1
350
21
  3
Model
350
20
  0
DICTIONARY
  5
22
102
{ACAD_REACTORS
330
19
102
}
100
AcDbDictionary
280
               0
281
               1
  0
WIPEOUTVARIABLES
  5
23
100
AcDbWipeoutVariables
 70
               0
  0
ENDSEC
  0
EOF
