  0
SECTION
  2
HEADER
  9
$ACADVER
  1
AC1015
  9
$ACADMAINTVER
 70
               6
  9
$DWGCODEPAGE
  3
ANSI_932
  9
$INSBASE
 10
0.0
 20
0.0
 30
0.0
  9
$EXTMIN
 10
-1350.0
 20
-2006.1405644444446
 30
0.0
  9
$EXTMAX
 10
1350.0
 20
1999.1229938888887
 30
0.0
  9
$LIMMIN
 10
0.0
 20
0.0
  9
$LIMMAX
 10
0.0
 20
0.0
  9
$ORTHOMODE
 70
               0
  9
$REGENMODE
 70
               1
  9
$FILLMODE
 70
               1
  9
$QTEXTMODE
 70
               0
  9
$MIRRTEXT
 70
               1
  9
$LTSCALE
 40
76.199999999999989
  9
$ATTMODE
 70
               1
  9
$TEXTSIZE
 40
0.2
  9
$TRACEWID
 40
1.0
  9
$TEXTSTYLE
  7
Standard
  9
$CLAYER
  8
一般
  9
$CELTYPE
  6
Continuous
  9
$CECOLOR
 62
             256
  9
$CELTSCALE
 40
1.0
  9
$DISPSILH
 70
               0
  9
$DIMSCALE
 40
1.0
  9
$DIMASZ
 40
29.998168945312496
  9
$DIMEXO
 40
22.5
  9
$DIMDLI
 40
4.9999999999999991
  9
$DIMRND
 40
0.0
  9
$DIMDLE
 40
0.0
  9
$DIMEXE
 40
14.999999999999998
  9
$DIMTP
 40
0.0
  9
$DIMTM
 40
0.0
  9
$DIMTXT
 40
40.721028645833343
  9
$DIMCEN
 40
0.0
  9
$DIMTSZ
 40
0.0
  9
$DIMTOL
 70
               0
  9
$DIMLIM
 70
               0
  9
$DIMTIH
 70
               0
  9
$DIMTOH
 70
               0
  9
$DIMSE1
 70
               0
  9
$DIMSE2
 70
               0
  9
$DIMTAD
 70
               1
  9
$DIMZIN
 70
               3
  9
$DIMBLK
  1
VW_EMPTYARROW
  9
$DIMASO
 70
               1
  9
$DIMSHO
 70
               1
  9
$DIMPOST
  1
<>
  9
$DIMAPOST
  1
[]
  9
$DIMALT
 70
               0
  9
$DIMALTD
 70
               2
  9
$DIMALTF
 40
1.0
  9
$DIMLFAC
 40
1.0
  9
$DIMTOFL
 70
               1
  9
$DIMTVP
 40
0.0
  9
$DIMTIX
 70
               1
  9
$DIMSOXD
 70
               0
  9
$DIMSAH
 70
               0
  9
$DIMBLK1
  1

  9
$DIMBLK2
  1

  9
$DIMSTYLE
  2
HIBINO
  9
$DIMCLRD
 70
               0
  9
$DIMCLRE
 70
               0
  9
$DIMCLRT
 70
               0
  9
$DIMTFAC
 40
1.0
  9
$DIMGAP
 40
0.4999999999999999
  9
$DIMJUST
 70
               0
  9
$DIMSD1
 70
               0
  9
$DIMSD2
 70
               0
  9
$DIMTOLJ
 70
               1
  9
$DIMTZIN
 70
               3
  9
$DIMALTZ
 70
              11
  9
$DIMALTTZ
 70
              11
  9
$DIMUPT
 70
               0
  9
$DIMDEC
 70
               1
  9
$DIMTDEC
 70
               1
  9
$DIMALTU
 70
               2
  9
$DIMALTTD
 70
               2
  9
$DIMTXSTY
  7
ＭＳ ゴシック
  9
$DIMAUNIT
 70
               0
  9
$DIMADEC
 70
               1
  9
$DIMALTRND
 40
0.0
  9
$DIMAZIN
 70
               0
  9
$DIMDSEP
 70
              46
  9
$DIMATFIT
 70
               0
  9
$DIMFRAC
 70
               2
  9
$DIMLDRBLK
  1

  9
$DIMLUNIT
 70
               2
  9
$DIMLWD
 70
              -2
  9
$DIMLWE
 70
              -2
  9
$DIMTMOVE
 70
               0
  9
$LUNITS
 70
               2
  9
$LUPREC
 70
               4
  9
$SKETCHINC
 40
0.1
  9
$FILLETRAD
 40
0.0
  9
$AUNITS
 70
               0
  9
$AUPREC
 70
               0
  9
$MENU
  1
acad
  9
$ELEVATION
 40
0.0
  9
$PELEVATION
 40
0.0
  9
$THICKNESS
 40
0.0
  9
$LIMCHECK
 70
               0
  9
$CHAMFERA
 40
0.0
  9
$CHAMFERB
 40
0.0
  9
$CHAMFERC
 40
0.0
  9
$CHAMFERD
 40
0.0
  9
$SKPOLY
 70
               0
  9
$TDCREATE
 40
2459641.449097222
  9
$TDUCREATE
 40
0.000000000
  9
$TDUPDATE
 40
2459641.449097222
  9
$TDUUPDATE
 40
0.000000000
  9
$TDINDWG
 40
0.0000000000
  9
$TDUSRTIMER
 40
0.0000000000
  9
$USRTIMER
 70
               1
  9
$ANGBASE
 50
0.0
  9
$ANGDIR
 70
               0
  9
$PDMODE
 70
               1
  9
$PDSIZE
 40
-2.0
  9
$PLINEWID
 40
0.0
  9
$SPLFRAME
 70
               0
  9
$SPLINETYPE
 70
               6
  9
$SPLINESEGS
 70
               8
  9
$HANDSEED
  5
1EA
  9
$SURFTAB1
 70
               6
  9
$SURFTAB2
 70
               6
  9
$SURFTYPE
 70
               6
  9
$SURFU
 70
               6
  9
$SURFV
 70
               6
  9
$UCSBASE
  2

  9
$UCSNAME
  2

  9
$UCSORG
 10
0.0
 20
0.0
 30
0.0
  9
$UCSXDIR
 10
1.0
 20
0.0
 30
0.0
  9
$UCSYDIR
 10
0.0
 20
1.0
 30
0.0
  9
$UCSORTHOREF
  2

  9
$UCSORTHOVIEW
 70
               0
  9
$UCSORGTOP
 10
0.0
 20
0.0
 30
0.0
  9
$UCSORGBOTTOM
 10
0.0
 20
0.0
 30
0.0
  9
$UCSORGLEFT
 10
0.0
 20
0.0
 30
0.0
  9
$UCSORGRIGHT
 10
0.0
 20
0.0
 30
0.0
  9
$UCSORGFRONT
 10
0.0
 20
0.0
 30
0.0
  9
$UCSORGBACK
 10
0.0
 20
0.0
 30
0.0
  9
$PUCSBASE
  2

  9
$PUCSNAME
  2

  9
$PUCSORG
 10
0.0
 20
0.0
 30
0.0
  9
$PUCSXDIR
 10
1.0
 20
0.0
 30
0.0
  9
$PUCSYDIR
 10
0.0
 20
1.0
 30
0.0
  9
$PUCSORTHOREF
  2

  9
$PUCSORTHOVIEW
 70
               0
  9
$PUCSORGTOP
 10
0.0
 20
0.0
 30
0.0
  9
$PUCSORGBOTTOM
 10
0.0
 20
0.0
 30
0.0
  9
$PUCSORGLEFT
 10
0.0
 20
0.0
 30
0.0
  9
$PUCSORGRIGHT
 10
0.0
 20
0.0
 30
0.0
  9
$PUCSORGFRONT
 10
0.0
 20
0.0
 30
0.0
  9
$PUCSORGBACK
 10
0.0
 20
0.0
 30
0.0
  9
$USERI1
 70
               0
  9
$USERI2
 70
               0
  9
$USERI3
 70
               0
  9
$USERI4
 70
               0
  9
$USERI5
 70
               0
  9
$USERR1
 40
0.0
  9
$USERR2
 40
0.0
  9
$USERR3
 40
0.0
  9
$USERR4
 40
0.0
  9
$USERR5
 40
0.0
  9
$WORLDVIEW
 70
               1
  9
$SHADEDGE
 70
               3
  9
$SHADEDIF
 70
              70
  9
$TILEMODE
 70
               1
  9
$MAXACTVP
 70
              64
  9
$PINSBASE
 10
0.0
 20
0.0
 30
0.0
  9
$PLIMCHECK
 70
               0
  9
$PEXTMIN
 10
1.0000000000000000E+20
 20
1.0000000000000000E+20
 30
1.0000000000000000E+20
  9
$PEXTMAX
 10
-1.0000000000000000E+20
 20
-1.0000000000000000E+20
 30
-1.0000000000000000E+20
  9
$PLIMMIN
 10
0.0
 20
0.0
  9
$PLIMMAX
 10
12.0
 20
9.0
  9
$UNITMODE
 70
               0
  9
$VISRETAIN
 70
               0
  9
$PLINEGEN
 70
               1
  9
$PSLTSCALE
 70
               0
  9
$TREEDEPTH
 70
            3020
  9
$CMLSTYLE
  2
Standard
  9
$CMLJUST
 70
               0
  9
$CMLSCALE
 40
1.0
  9
$PROXYGRAPHICS
 70
               0
  9
$MEASUREMENT
 70
               1
  9
$CELWEIGHT
370
               0
  9
$ENDCAPS
280
               0
  9
$JOINSTYLE
280
               0
  9
$LWDISPLAY
290
               1
  9
$INSUNITS
 70
               4
  9
$HYPERLINKBASE
  1

  9
$STYLESHEET
  1

  9
$XEDIT
290
               1
  9
$CEPSNTYPE
380
               0
  9
$PSTYLEMODE
290
               1
  9
$FINGERPRINTGUID
  2

  9
$VERSIONGUID
  2

  9
$EXTNAMES
290
               1
  9
$PSVPSCALE
 40
0.0
  0
ENDSEC
  0
SECTION
  2
CLASSES
  0
CLASS
  1
LWPOLYLINE
  2
AcDbPolyline
  3
AutoCAD 2000
 90
        0
280
               0
281
               1
  0
CLASS
  1
IMAGE
  2
AcDbRasterImage
  3
ISM
 90
      127
280
               0
281
               1
  0
CLASS
  1
OLE2FRAME
  2
AcDbOle2Frame
  3
AutoCAD 2000
 90
        0
280
               0
281
               1
  0
CLASS
  1
HATCH
  2
AcDbHatch
  3
AutoCAD 2000
 90
        0
280
               0
281
               1
  0
CLASS
  1
DICTIONARYVAR
  2
AcDbDictionaryVar
  3
AutoCAD 2000
 90
        0
280
               0
281
               0
  0
CLASS
  1
RASTERVARIABLES
  2
AcDbRasterVariables
  3
ISM
 90
        0
280
               0
281
               0
  0
CLASS
  1
IMAGEDEF
  2
AcDbRasterImageDef
  3
ISM
 90
        0
280
               0
281
               0
  0
CLASS
  1
IMAGEDEF_REACTOR
  2
AcDbRasterImageDefReactor
  3
ISM
 90
        1
280
               0
281
               0
  0
CLASS
  1
IDBUFFER
  2
AcDbIdBuffer
  3
AutoCAD 2000
 90
        0
280
               0
281
               0
  0
CLASS
  1
SPATIAL_FILTER
  2
AcDbSpatialFilter
  3
AutoCAD 2000
 90
        0
280
               0
281
               0
  0
CLASS
  1
XRECORD
  2
AcDbXrecord
  3
AutoCAD 2000
 90
        0
280
               0
281
               0
  0
CLASS
  1
SORTENTSTABLE
  2
AcDbSortentsTable
  3
AutoCAD 2000
 90
        0
280
               0
281
               0
  0
CLASS
  1
LAYER_INDEX
  2
AcDbLayerIndex
  3
AutoCAD 2000
 90
        0
280
               0
281
               0
  0
CLASS
  1
SPATIAL_INDEX
  2
AcDbSpatialIndex
  3
AutoCAD 2000
 90
        0
280
               0
281
               0
  0
CLASS
  1
OBJECT_PTR
  2
CAseDLPNTableRecord
  3
"ASE-LPNTableRecord"
 90
        1
280
               0
281
               0
  0
CLASS
  1
LAYOUT
  2
AcDbLayout
  3
AutoCAD 2000
 90
        0
280
               0
281
               0
  0
CLASS
  1
PLOTSETTINGS
  2
AcDbPlotSettings
  3
AutoCAD 2000
 90
        0
280
               0
281
               0
  0
CLASS
  1
ACDBDICTIONARYWDFLT
  2
AcDbDictionaryWithDefault
  3
AutoCAD 2000
 90
        0
280
               0
281
               0
  0
CLASS
  1
ACDBPLACEHOLDER
  2
AcDbPlaceHolder
  3
AutoCAD 2000
 90
        0
280
               0
281
               0
  0
CLASS
  1
VBA_PROJECT
  2
AcDbVbaProject
  3
acadvba
 90
        0
280
               0
281
               0
  0
CLASS
  1
WIPEOUT
  2
AcDbWipeout
  3
WipeOut|AutoCAD Express Tool|expresstools@autodesk.com
 90
      127
280
               0
281
               1
  0
CLASS
  1
WIPEOUTVARIABLES
  2
AcDbWipeoutVariables
  3
WipeOut|AutoCAD Express Tool|expresstools@autodesk.com
 90
        0
280
               0
281
               0
  0
CLASS
  1
RTEXT
  2
RText
  3
RText|AutoCAD Express Tool|expresstools@autodesk.com
 90
        0
280
               0
281
               1
  0
CLASS
  1
ARCALIGNEDTEXT
  2
AcDbArcAlignedText
  3
ATEXT|AutoCAD Express Tool|expresstools@autodesk.com
 90
        0
280
               0
281
               1
  0
ENDSEC
  0
SECTION
  2
TABLES
  0
TABLE
  2
VPORT
  5
7
100
AcDbSymbolTable
 70
               1
  0
VPORT
  5
15
100
AcDbSymbolTableRecord
100
AcDbViewportTableRecord
  2
*ACTIVE
 70
               0
 10
0.0
 20
0.0
 11
1.0
 21
1.0
 12
0.0
 22
-3.5087852777780881
 13
0.0
 23
0.0
 14
1.0
 24
1.0
 15
0.0
 25
0.0
 16
0.0
 26
0.0
 36
1.0
 17
0.0
 27
0.0
 37
0.0
 40
4005.2635583333331
 41
0.688564
 42
50.0
 43
0.0
 44
0.0
 50
0.0
 51
0.0
 71
               0
 72
            2000
 73
               1
 74
               1
 75
               0
 76
               0
 77
               0
 78
               0
281
               0
 65
               0
110
0.0
120
0.0
130
0.0
111
1.0
121
0.0
131
0.0
112
0.0
122
1.0
132
0.0
345
0
346
0
 79
               0
146
0.0
  0
ENDTAB
  0
TABLE
  2
LTYPE
  5
4
100
AcDbSymbolTable
 70
              13
  0
LTYPE
  5
11
100
AcDbSymbolTableRecord
100
AcDbLinetypeTableRecord
  2
ByBlock
 70
              64
  3

 72
              65
 73
               0
 40
0.0
  0
LTYPE
  5
12
100
AcDbSymbolTableRecord
100
AcDbLinetypeTableRecord
  2
ByLayer
 70
              64
  3

 72
              65
 73
               0
 40
0.0
  0
LTYPE
  5
13
100
AcDbSymbolTableRecord
100
AcDbLinetypeTableRecord
  2
Continuous
 70
              64
  3
Solid line
 72
              65
 73
               0
 40
0.0
  0
LTYPE
  5
33
100
AcDbSymbolTableRecord
100
AcDbLinetypeTableRecord
  2
STYLE_01
 70
               0
  3

 72
              65
 73
               2
 40
0.4166412353515625
 49
0.208282470703125
 74
               0
 49
-0.2083587646484375
 74
               0
  0
LTYPE
  5
34
100
AcDbSymbolTableRecord
100
AcDbLinetypeTableRecord
  2
STYLE_02
 70
               0
  3

 72
              65
 73
               2
 40
0.694427490234375
 49
0.4860687255859375
 74
               0
 49
-0.2083587646484375
 74
               0
  0
LTYPE
  5
35
100
AcDbSymbolTableRecord
100
AcDbLinetypeTableRecord
  2
STYLE_03
 70
               0
  3

 72
              65
 73
               2
 40
1.25
 49
1.0416412353515625
 74
               0
 49
-0.2083587646484375
 74
               0
  0
LTYPE
  5
36
100
AcDbSymbolTableRecord
100
AcDbLinetypeTableRecord
  2
STYLE_04
 70
               0
  3

 72
              65
 73
               2
 40
1.5277099609375
 49
1.319427490234375
 74
               0
 49
-0.208282470703125
 74
               0
  0
LTYPE
  5
37
100
AcDbSymbolTableRecord
100
AcDbLinetypeTableRecord
  2
STYLE_05
 70
               0
  3

 72
              65
 73
               2
 40
0.208282470703125
 49
0.069427490234375
 74
               0
 49
-0.13885498046875
 74
               0
  0
LTYPE
  5
38
100
AcDbSymbolTableRecord
100
AcDbLinetypeTableRecord
  2
STYLE_06
 70
               0
  3

 72
              65
 73
               4
 40
1.0416412353515625
 49
0.625
 74
               0
 49
-0.208282470703125
 74
               0
 49
0.069427490234375
 74
               0
 49
-0.1389312744140625
 74
               0
  0
LTYPE
  5
39
100
AcDbSymbolTableRecord
100
AcDbLinetypeTableRecord
  2
STYLE_07
 70
               0
  3

 72
              65
 73
               6
 40
1.875
 49
0.625
 74
               0
 49
-0.208282470703125
 74
               0
 49
0.625
 74
               0
 49
-0.2083587646484375
 74
               0
 49
0.069427490234375
 74
               0
 49
-0.1389312744140625
 74
               0
  0
LTYPE
  5
3A
100
AcDbSymbolTableRecord
100
AcDbLinetypeTableRecord
  2
STYLE_08
 70
               0
  3

 72
              65
 73
               6
 40
1.25
 49
0.625
 74
               0
 49
-0.208282470703125
 74
               0
 49
0.069427490234375
 74
               0
 49
-0.1389312744140625
 74
               0
 49
0.069427490234375
 74
               0
 49
-0.1389312744140625
 74
               0
  0
LTYPE
  5
3B
100
AcDbSymbolTableRecord
100
AcDbLinetypeTableRecord
  2
STYLE_09
 70
               0
  3

 72
              65
 73
               4
 40
5.0
 49
3.75
 74
               0
 49
-0.2777862548828125
 74
               0
 49
0.694427490234375
 74
               0
 49
-0.2777862548828125
 74
               0
  0
LTYPE
  5
3C
100
AcDbSymbolTableRecord
100
AcDbLinetypeTableRecord
  2
STYLE_10
 70
               0
  3

 72
              65
 73
               6
 40
5.9375
 49
3.75
 74
               0
 49
-0.2777862548828125
 74
               0
 49
0.694427490234375
 74
               0
 49
-0.2777862548828125
 74
               0
 49
0.625
 74
               0
 49
-0.3125
 74
               0
  0
ENDTAB
  0
TABLE
  2
LAYER
  5
2
100
AcDbSymbolTable
 70
               4
  0
LAYER
  5
14
100
AcDbSymbolTableRecord
100
AcDbLayerTableRecord
  2
0
 70
               0
 62
               7
  6
Continuous
290
               1
370
              -3
390
1D
  0
LAYER
  5
3D
100
AcDbSymbolTableRecord
100
AcDbLayerTableRecord
  2
一般
 70
               0
 62
               7
  6
Continuous
290
               1
370
               9
390
1D
  0
LAYER
  5
3E
100
AcDbSymbolTableRecord
100
AcDbLayerTableRecord
  2
寸法
 70
               0
 62
               7
  6
Continuous
290
               1
370
               9
390
1D
  0
LAYER
  5
3F
100
AcDbSymbolTableRecord
100
AcDbLayerTableRecord
  2
Defpoints
 70
               0
 62
               7
  6
Continuous
290
               0
370
              -3
390
1D
  0
ENDTAB
  0
TABLE
  2
STYLE
  5
3
100
AcDbSymbolTable
 70
               2
  0
STYLE
  5
17
100
AcDbSymbolTableRecord
100
AcDbTextStyleTableRecord
  2
Standard
 70
               0
 40
0.0
 41
1.0
 50
0.0
 71
               0
 42
0.0
  3
txt
  4
BIGFONT.SHX
  0
STYLE
  5
32
100
AcDbSymbolTableRecord
100
AcDbTextStyleTableRecord
  2
ＭＳ ゴシック
 70
               0
 40
0.0
 41
1.0
 50
0.0
 71
               0
 42
0.0
  3

  4
ＭＳ ゴシック
1001
ACAD
1000
ＭＳ ゴシック
1071
        0
  0
ENDTAB
  0
TABLE
  2
VIEW
  5
5
100
AcDbSymbolTable
 70
               0
  0
ENDTAB
  0
TABLE
  2
UCS
  5
6
100
AcDbSymbolTable
 70
               0
  0
ENDTAB
  0
TABLE
  2
APPID
  5
8
100
AcDbSymbolTable
 70
               1
  0
APPID
  5
16
100
AcDbSymbolTableRecord
100
AcDbRegAppTableRecord
  2
ACAD
 70
               0
  0
ENDTAB
  0
TABLE
  2
DIMSTYLE
  5
9
100
AcDbSymbolTable
 70
               2
100
AcDbDimStyleTable
 71
               0
  0
DIMSTYLE
105
18
100
AcDbSymbolTableRecord
100
AcDbDimStyleTableRecord
  2
Standard
 70
               0
  3

  4

 40
1.0
 41
0.18
 42
0.0625
 43
0.38
 44
0.18
 45
0.0
 46
0.0
 47
0.0
 48
0.0
 71
               0
 72
               0
 73
               1
 74
               1
 75
               0
 76
               0
 77
               0
 78
               0
 79
               0
140
0.18
141
0.09
142
0.0
143
25.399999999999999
144
1.0
145
0.0
146
1.0
147
0.09
148
0.0
170
               0
171
               2
172
               0
173
               0
174
               0
175
               0
176
               0
177
               0
178
               0
179
               0
271
               4
272
               4
273
               2
274
               2
275
               0
276
               0
277
               2
278
              46
279
               0
280
               0
281
               0
282
               0
283
               1
284
               0
285
               0
286
               0
288
               0
289
               3
340
17
341
0
342
0
343
0
344
0
371
              -2
372
              -2
  0
DIMSTYLE
105
49
100
AcDbSymbolTableRecord
100
AcDbDimStyleTableRecord
  2
HIBINO
 70
               0
  3
<>
  4
[]
 40
1.0
 41
29.998168945312496
 42
22.5
 43
4.9999999999999991
 44
14.999999999999998
 45
0.0
 46
0.0
 47
0.0
 48
0.0
 71
               0
 72
               0
 73
               0
 74
               0
 75
               0
 76
               0
 77
               1
 78
               3
 79
               0
140
40.721028645833343
141
0.0
142
0.0
143
1.0
144
1.0
145
0.0
146
1.0
147
0.4999999999999999
148
0.0
170
               0
171
               2
172
               1
173
               0
174
               1
175
               0
176
               0
177
               0
178
               0
179
               1
271
               1
272
               1
273
               2
274
               2
275
               0
276
               2
277
               2
278
              46
279
               0
280
               0
281
               0
282
               0
283
               1
284
               3
285
              11
286
              11
288
               0
289
               0
340
32
341
40
342
40
343
0
344
0
371
              -2
372
              -2
  0
ENDTAB
  0
TABLE
  2
BLOCK_RECORD
  5
1
100
AcDbSymbolTable
 70
              15
  0
BLOCK_RECORD
  5
A
100
AcDbSymbolTableRecord
100
AcDbBlockTableRecord
  2
*MODEL_SPACE
340
20
  0
BLOCK_RECORD
  5
B
100
AcDbSymbolTableRecord
100
AcDbBlockTableRecord
  2
*PAPER_SPACE
340
21
  0
BLOCK_RECORD
  5
40
100
AcDbSymbolTableRecord
100
AcDbBlockTableRecord
  2
VW_EMPTYARROW
340
0
  0
BLOCK_RECORD
  5
24
100
AcDbSymbolTableRecord
100
AcDbBlockTableRecord
  2
*D1
340
0
  0
BLOCK_RECORD
  5
25
100
AcDbSymbolTableRecord
100
AcDbBlockTableRecord
  2
*D2
340
0
  0
BLOCK_RECORD
  5
26
100
AcDbSymbolTableRecord
100
AcDbBlockTableRecord
  2
*D3
340
0
  0
BLOCK_RECORD
  5
27
100
AcDbSymbolTableRecord
100
AcDbBlockTableRecord
  2
*D4
340
0
  0
BLOCK_RECORD
  5
28
100
AcDbSymbolTableRecord
100
AcDbBlockTableRecord
  2
*D5
340
0
  0
BLOCK_RECORD
  5
29
100
AcDbSymbolTableRecord
100
AcDbBlockTableRecord
  2
*D6
340
0
  0
BLOCK_RECORD
  5
2A
100
AcDbSymbolTableRecord
100
AcDbBlockTableRecord
  2
*D7
340
0
  0
BLOCK_RECORD
  5
2B
100
AcDbSymbolTableRecord
100
AcDbBlockTableRecord
  2
*D8
340
0
  0
BLOCK_RECORD
  5
2C
100
AcDbSymbolTableRecord
100
AcDbBlockTableRecord
  2
*D9
340
0
  0
BLOCK_RECORD
  5
2D
100
AcDbSymbolTableRecord
100
AcDbBlockTableRecord
  2
*D10
340
0
  0
BLOCK_RECORD
  5
2E
100
AcDbSymbolTableRecord
100
AcDbBlockTableRecord
  2
*D11
340
0
  0
BLOCK_RECORD
  5
2F
100
AcDbSymbolTableRecord
100
AcDbBlockTableRecord
  2
*D12
340
0
  0
BLOCK_RECORD
  5
30
100
AcDbSymbolTableRecord
100
AcDbBlockTableRecord
  2
*D13
340
0
  0
BLOCK_RECORD
  5
31
100
AcDbSymbolTableRecord
100
AcDbBlockTableRecord
  2
*D14
340
0
  0
ENDTAB
  0
ENDSEC
  0
SECTION
  2
BLOCKS
  0
BLOCK
  5
D
100
AcDbEntity
  8
0
390
0
100
AcDbBlockBegin
  2
*MODEL_SPACE
 70
               0
 10
0.0
 20
0.0
 30
0.0
  3
*MODEL_SPACE
  1

  0
ENDBLK
  5
E
100
AcDbEntity
  8
0
390
0
100
AcDbBlockEnd
  0
BLOCK
  5
F
100
AcDbEntity
 67
               1
  8
0
390
0
100
AcDbBlockBegin
  2
*PAPER_SPACE
 70
               0
 10
0.0
 20
0.0
 30
0.0
  3
*PAPER_SPACE
  1

  0
ENDBLK
  5
10
100
AcDbEntity
 67
               1
  8
0
390
0
100
AcDbBlockEnd
  0
BLOCK
  5
41
100
AcDbEntity
  8
0
370
              -2
390
0
  6
ByBlock
 62
               0
100
AcDbBlockBegin
  2
VW_EMPTYARROW
 70
               0
 10
0.0
 20
0.0
 30
0.0
  3
VW_EMPTYARROW
  1

  0
LINE
  5
42
100
AcDbEntity
  8
0
370
              -2
390
0
  6
ByBlock
 62
               0
100
AcDbLine
 10
0.0
 20
0.0
 30
0.0
 11
-1.0
 21
0.0
 31
0.0
  0
POLYLINE
  5
43
100
AcDbEntity
  8
一般
370
              -2
390
0
  6
Continuous
 62
               0
100
AcDb2dPolyline
 66
               1
 10
0.0
 20
0.0
 30
0.0
 75
               5
  0
VERTEX
  5
44
100
AcDbEntity
  8
一般
370
              -2
390
0
  6
Continuous
 62
               0
100
AcDbVertex
100
AcDb2dVertex
 10
-0.99993896484375
 20
0.2679328381102957
 30
0.0
  0
VERTEX
  5
45
100
AcDbEntity
  8
一般
370
              -2
390
0
  6
Continuous
 62
               0
100
AcDbVertex
100
AcDb2dVertex
 10
0.0
 20
0.0
 30
0.0
  0
VERTEX
  5
46
100
AcDbEntity
  8
一般
370
              -2
390
0
  6
Continuous
 62
               0
100
AcDbVertex
100
AcDb2dVertex
 10
-0.9999389648437499
 20
-0.2679328381102959
 30
0.0
  0
SEQEND
  5
47
100
AcDbEntity
  8
一般
370
              -2
390
0
  6
Continuous
 62
               0
  0
ENDBLK
  5
48
100
AcDbEntity
  8
0
390
0
100
AcDbBlockEnd
  0
BLOCK
  5
4A
100
AcDbEntity
  8
寸法
390
0
100
AcDbBlockBegin
  2
*D1
 70
               1
 10
0.0
 20
0.0
 30
0.0
  3
*D1
  1

  0
LINE
  5
4B
100
AcDbEntity
  8
寸法
370
              -2
390
0
  6
Continuous
 62
               0
100
AcDbLine
 10
-405.76537180435992
 20
-380.99999999999818
 30
0.0
 11
-461.76537180435844
 21
-380.99999999999818
 31
0.0
  0
LINE
  5
4C
100
AcDbEntity
  8
寸法
370
              -2
390
0
  6
Continuous
 62
               0
100
AcDbLine
 10
-406.26537180435946
 20
0.0
 30
0.0
 11
-461.76537180435844
 21
0.0
 31
0.0
  0
LINE
  5
4D
100
AcDbEntity
  8
寸法
370
              -2
390
0
  6
Continuous
 62
               0
100
AcDbLine
 10
-446.76537180435844
 20
-380.99999999999818
 30
0.0
 11
-446.76537180435844
 21
0.0
 31
0.0
  0
POLYLINE
  5
4E
100
AcDbEntity
  8
一般
370
              -2
390
0
  6
Continuous
 62
               0
100
AcDb2dPolyline
 66
               1
 10
0.0
 20
0.0
 30
0.0
 75
               5
  0
VERTEX
  5
4F
100
AcDbEntity
  8
一般
370
              -2
390
0
  6
Continuous
 62
               0
100
AcDbVertex
100
AcDb2dVertex
 10
-438.72738666104959
 20
-351.00183105468568
 30
0.0
  0
VERTEX
  5
50
100
AcDbEntity
  8
一般
370
              -2
390
0
  6
Continuous
 62
               0
100
AcDbVertex
100
AcDb2dVertex
 10
-446.76537180435844
 20
-380.99999999999818
 30
0.0
  0
VERTEX
  5
51
100
AcDbEntity
  8
一般
370
              -2
390
0
  6
Continuous
 62
               0
100
AcDbVertex
100
AcDb2dVertex
 10
-454.80335694766728
 20
-351.00183105468568
 30
0.0
  0
SEQEND
  5
52
100
AcDbEntity
  8
一般
370
              -2
390
0
  6
Continuous
 62
               0
  0
POLYLINE
  5
53
100
AcDbEntity
  8
一般
370
              -2
390
0
  6
Continuous
 62
               0
100
AcDb2dPolyline
 66
               1
 10
0.0
 20
0.0
 30
0.0
 75
               5
  0
VERTEX
  5
54
100
AcDbEntity
  8
一般
370
              -2
390
0
  6
Continuous
 62
               0
100
AcDbVertex
100
AcDb2dVertex
 10
-454.80335694766728
 20
-29.9981689453125
 30
0.0
  0
VERTEX
  5
55
100
AcDbEntity
  8
一般
370
              -2
390
0
  6
Continuous
 62
               0
100
AcDbVertex
100
AcDb2dVertex
 10
-446.76537180435844
 20
0.0
 30
0.0
  0
VERTEX
  5
56
100
AcDbEntity
  8
一般
370
              -2
390
0
  6
Continuous
 62
               0
100
AcDbVertex
100
AcDb2dVertex
 10
-438.72738666104959
 20
-29.9981689453125
 30
0.0
  0
SEQEND
  5
57
100
AcDbEntity
  8
一般
370
              -2
390
0
  6
Continuous
 62
               0
  0
MTEXT
  5
58
100
AcDbEntity
  8
寸法
390
0
 62
               0
100
AcDbMText
 10
-497.394733783525
 20
-230.18749999999909
 30
0.0
 40
40.721028645833343
 41
0.0
 71
               1
 72
               1
  1
{\fＭＳ ゴシック|b0|i0|c128|p0;\l381}
 11
0.0
 21
1.0
 31
0.0
 73
               1
 44
0.7828267384257843
  0
POINT
  5
59
100
AcDbEntity
  8
Defpoints
370
               0
390
0
 62
               0
100
AcDbPoint
 10
-383.76537180435946
 20
0.0
 30
0.0
  0
POINT
  5
5A
100
AcDbEntity
  8
Defpoints
370
               0
390
0
 62
               0
100
AcDbPoint
 10
-383.26537180435992
 20
-380.99999999999818
 30
0.0
  0
POINT
  5
5B
100
AcDbEntity
  8
Defpoints
370
               0
390
0
 62
               0
100
AcDbPoint
 10
-446.76537180435844
 20
-380.99999999999818
 30
0.0
  0
ENDBLK
  5
5C
100
AcDbEntity
  8
寸法
390
0
100
AcDbBlockEnd
  0
BLOCK
  5
5D
100
AcDbEntity
  8
寸法
390
0
100
AcDbBlockBegin
  2
*D2
 70
               1
 10
0.0
 20
0.0
 30
0.0
  3
*D2
  1

  0
LINE
  5
5E
100
AcDbEntity
  8
寸法
370
              -2
390
0
  6
Continuous
 62
               0
100
AcDbLine
 10
-406.26537180435975
 20
129.99999999999704
 30
0.0
 11
-461.76537180435844
 21
129.99999999999704
 31
0.0
  0
LINE
  5
5F
100
AcDbEntity
  8
寸法
370
              -2
390
0
  6
Continuous
 62
               0
100
AcDbLine
 10
-406.26537180435997
 20
169.99999999999704
 30
0.0
 11
-461.76537180435844
 21
169.99999999999704
 31
0.0
  0
LINE
  5
60
100
AcDbEntity
  8
寸法
370
              -2
390
0
  6
Continuous
 62
               0
100
AcDbLine
 10
-446.76537180435844
 20
169.99999999999704
 30
0.0
 11
-446.76537180435844
 21
129.99999999999704
 31
0.0
  0
LINE
  5
61
100
AcDbEntity
  8
寸法
370
              -2
390
0
  6
Continuous
 62
               0
100
AcDbLine
 10
-446.76537180435844
 20
129.99999999999704
 30
0.0
 11
-446.76537180435844
 21
77.499999999997044
 31
0.0
  0
POLYLINE
  5
62
100
AcDbEntity
  8
一般
370
              -2
390
0
  6
Continuous
 62
               0
100
AcDb2dPolyline
 66
               1
 10
0.0
 20
0.0
 30
0.0
 75
               5
  0
VERTEX
  5
63
100
AcDbEntity
  8
一般
370
              -2
390
0
  6
Continuous
 62
               0
100
AcDbVertex
100
AcDb2dVertex
 10
-454.80335694766728
 20
100.00183105468454
 30
0.0
  0
VERTEX
  5
64
100
AcDbEntity
  8
一般
370
              -2
390
0
  6
Continuous
 62
               0
100
AcDbVertex
100
AcDb2dVertex
 10
-446.76537180435844
 20
129.99999999999704
 30
0.0
  0
VERTEX
  5
65
100
AcDbEntity
  8
一般
370
              -2
390
0
  6
Continuous
 62
               0
100
AcDbVertex
100
AcDb2dVertex
 10
-438.72738666104959
 20
100.00183105468454
 30
0.0
  0
SEQEND
  5
66
100
AcDbEntity
  8
一般
370
              -2
390
0
  6
Continuous
 62
               0
  0
LINE
  5
67
100
AcDbEntity
  8
寸法
370
              -2
390
0
  6
Continuous
 62
               0
100
AcDbLine
 10
-446.76537180435844
 20
169.99999999999704
 30
0.0
 11
-446.76537180435844
 21
222.49999999999704
 31
0.0
  0
POLYLINE
  5
68
100
AcDbEntity
  8
一般
370
              -2
390
0
  6
Continuous
 62
               0
100
AcDb2dPolyline
 66
               1
 10
0.0
 20
0.0
 30
0.0
 75
               5
  0
VERTEX
  5
69
100
AcDbEntity
  8
一般
370
              -2
390
0
  6
Continuous
 62
               0
100
AcDbVertex
100
AcDb2dVertex
 10
-438.72738666104959
 20
199.99816894530954
 30
0.0
  0
VERTEX
  5
6A
100
AcDbEntity
  8
一般
370
              -2
390
0
  6
Continuous
 62
               0
100
AcDbVertex
100
AcDb2dVertex
 10
-446.76537180435844
 20
169.99999999999704
 30
0.0
  0
VERTEX
  5
6B
100
AcDbEntity
  8
一般
370
              -2
390
0
  6
Continuous
 62
               0
100
AcDbVertex
100
AcDb2dVertex
 10
-454.80335694766728
 20
199.99816894530954
 30
0.0
  0
SEQEND
  5
6C
100
AcDbEntity
  8
一般
370
              -2
390
0
  6
Continuous
 62
               0
  0
MTEXT
  5
6D
100
AcDbEntity
  8
寸法
390
0
 62
               0
100
AcDbMText
 10
-506.89473378352511
 20
97.083333333330359
 30
0.0
 40
40.721028645833343
 41
0.0
 71
               1
 72
               1
  1
{\fＭＳ ゴシック|b0|i0|c128|p0;\l40.0}
 11
0.0
 21
1.0
 31
0.0
 73
               1
 44
0.7828267384257843
  0
POINT
  5
6E
100
AcDbEntity
  8
Defpoints
370
               0
390
0
 62
               0
100
AcDbPoint
 10
-383.76537180435997
 20
169.99999999999704
 30
0.0
  0
POINT
  5
6F
100
AcDbEntity
  8
Defpoints
370
               0
390
0
 62
               0
100
AcDbPoint
 10
-383.76537180435975
 20
129.99999999999704
 30
0.0
  0
POINT
  5
70
100
AcDbEntity
  8
Defpoints
370
               0
390
0
 62
               0
100
AcDbPoint
 10
-446.76537180435844
 20
129.99999999999704
 30
0.0
  0
ENDBLK
  5
71
100
AcDbEntity
  8
寸法
390
0
100
AcDbBlockEnd
  0
BLOCK
  5
72
100
AcDbEntity
  8
寸法
390
0
100
AcDbBlockBegin
  2
*D3
 70
               1
 10
0.0
 20
0.0
 30
0.0
  3
*D3
  1

  0
LINE
  5
73
100
AcDbEntity
  8
寸法
370
              -2
390
0
  6
Continuous
 62
               0
100
AcDbLine
 10
777.5
 20
400.0
 30
0.0
 11
760.0
 21
400.0
 31
0.0
  0
LINE
  5
74
100
AcDbEntity
  8
寸法
370
              -2
390
0
  6
Continuous
 62
               0
100
AcDbLine
 10
777.5
 20
501.0
 30
0.0
 11
760.0
 21
501.0
 31
0.0
  0
LINE
  5
75
100
AcDbEntity
  8
寸法
370
              -2
390
0
  6
Continuous
 62
               0
100
AcDbLine
 10
775.0
 20
400.0
 30
0.0
 11
775.0
 21
501.0
 31
0.0
  0
POLYLINE
  5
76
100
AcDbEntity
  8
一般
370
              -2
390
0
  6
Continuous
 62
               0
100
AcDb2dPolyline
 66
               1
 10
0.0
 20
0.0
 30
0.0
 75
               5
  0
VERTEX
  5
77
100
AcDbEntity
  8
一般
370
              -2
390
0
  6
Continuous
 62
               0
100
AcDbVertex
100
AcDb2dVertex
 10
783.0379851433089
 20
429.9981689453125
 30
0.0
  0
VERTEX
  5
78
100
AcDbEntity
  8
一般
370
              -2
390
0
  6
Continuous
 62
               0
100
AcDbVertex
100
AcDb2dVertex
 10
775.0
 20
400.0
 30
0.0
  0
VERTEX
  5
79
100
AcDbEntity
  8
一般
370
              -2
390
0
  6
Continuous
 62
               0
100
AcDbVertex
100
AcDb2dVertex
 10
766.9620148566911
 20
429.9981689453125
 30
0.0
  0
SEQEND
  5
7A
100
AcDbEntity
  8
一般
370
              -2
390
0
  6
Continuous
 62
               0
  0
POLYLINE
  5
7B
100
AcDbEntity
  8
一般
370
              -2
390
0
  6
Continuous
 62
               0
100
AcDb2dPolyline
 66
               1
 10
0.0
 20
0.0
 30
0.0
 75
               5
  0
VERTEX
  5
7C
100
AcDbEntity
  8
一般
370
              -2
390
0
  6
Continuous
 62
               0
100
AcDbVertex
100
AcDb2dVertex
 10
766.9620148566911
 20
471.0018310546875
 30
0.0
  0
VERTEX
  5
7D
100
AcDbEntity
  8
一般
370
              -2
390
0
  6
Continuous
 62
               0
100
AcDbVertex
100
AcDb2dVertex
 10
775.0
 20
501.0
 30
0.0
  0
VERTEX
  5
7E
100
AcDbEntity
  8
一般
370
              -2
390
0
  6
Continuous
 62
               0
100
AcDbVertex
100
AcDb2dVertex
 10
783.0379851433089
 20
471.0018310546875
 30
0.0
  0
SEQEND
  5
7F
100
AcDbEntity
  8
一般
370
              -2
390
0
  6
Continuous
 62
               0
  0
MTEXT
  5
80
100
AcDbEntity
  8
寸法
390
0
 62
               0
100
AcDbMText
 10
724.37063802083321
 20
410.8125
 30
0.0
 40
40.721028645833343
 41
0.0
 71
               1
 72
               1
  1
{\fＭＳ ゴシック|b0|i0|c128|p0;\l101}
 11
0.0
 21
1.0
 31
0.0
 73
               1
 44
0.7828267384257843
  0
POINT
  5
81
100
AcDbEntity
  8
Defpoints
370
               0
390
0
 62
               0
100
AcDbPoint
 10
800.0
 20
501.0
 30
0.0
  0
POINT
  5
82
100
AcDbEntity
  8
Defpoints
370
               0
390
0
 62
               0
100
AcDbPoint
 10
800.0
 20
400.0
 30
0.0
  0
POINT
  5
83
100
AcDbEntity
  8
Defpoints
370
               0
390
0
 62
               0
100
AcDbPoint
 10
775.0
 20
400.0
 30
0.0
  0
ENDBLK
  5
84
100
AcDbEntity
  8
寸法
390
0
100
AcDbBlockEnd
  0
BLOCK
  5
85
100
AcDbEntity
  8
寸法
390
0
100
AcDbBlockBegin
  2
*D4
 70
               1
 10
0.0
 20
0.0
 30
0.0
  3
*D4
  1

  0
LINE
  5
86
100
AcDbEntity
  8
寸法
370
              -2
390
0
  6
Continuous
 62
               0
100
AcDbLine
 10
806.5
 20
320.78845833629805
 30
0.0
 11
760.0
 21
320.78845833629805
 31
0.0
  0
LINE
  5
87
100
AcDbEntity
  8
寸法
370
              -2
390
0
  6
Continuous
 62
               0
100
AcDbLine
 10
785.89241125677972
 20
275.17083798856066
 30
0.0
 11
760.0
 21
275.17083798856066
 31
0.0
  0
LINE
  5
88
100
AcDbEntity
  8
寸法
370
              -2
390
0
  6
Continuous
 62
               0
100
AcDbLine
 10
775.0
 20
275.17083798856066
 30
0.0
 11
775.0
 21
320.78845833629805
 31
0.0
  0
LINE
  5
89
100
AcDbEntity
  8
寸法
370
              -2
390
0
  6
Continuous
 62
               0
100
AcDbLine
 10
775.0
 20
320.78845833629805
 30
0.0
 11
775.0
 21
373.28845833629805
 31
0.0
  0
POLYLINE
  5
8A
100
AcDbEntity
  8
一般
370
              -2
390
0
  6
Continuous
 62
               0
100
AcDb2dPolyline
 66
               1
 10
0.0
 20
0.0
 30
0.0
 75
               5
  0
VERTEX
  5
8B
100
AcDbEntity
  8
一般
370
              -2
390
0
  6
Continuous
 62
               0
100
AcDbVertex
100
AcDb2dVertex
 10
783.0379851433089
 20
350.78662728161055
 30
0.0
  0
VERTEX
  5
8C
100
AcDbEntity
  8
一般
370
              -2
390
0
  6
Continuous
 62
               0
100
AcDbVertex
100
AcDb2dVertex
 10
775.0
 20
320.78845833629805
 30
0.0
  0
VERTEX
  5
8D
100
AcDbEntity
  8
一般
370
              -2
390
0
  6
Continuous
 62
               0
100
AcDbVertex
100
AcDb2dVertex
 10
766.9620148566911
 20
350.78662728161055
 30
0.0
  0
SEQEND
  5
8E
100
AcDbEntity
  8
一般
370
              -2
390
0
  6
Continuous
 62
               0
  0
LINE
  5
8F
100
AcDbEntity
  8
寸法
370
              -2
390
0
  6
Continuous
 62
               0
100
AcDbLine
 10
775.0
 20
275.17083798856066
 30
0.0
 11
775.0
 21
222.67083798856066
 31
0.0
  0
POLYLINE
  5
90
100
AcDbEntity
  8
一般
370
              -2
390
0
  6
Continuous
 62
               0
100
AcDb2dPolyline
 66
               1
 10
0.0
 20
0.0
 30
0.0
 75
               5
  0
VERTEX
  5
91
100
AcDbEntity
  8
一般
370
              -2
390
0
  6
Continuous
 62
               0
100
AcDbVertex
100
AcDb2dVertex
 10
766.9620148566911
 20
245.17266904324816
 30
0.0
  0
VERTEX
  5
92
100
AcDbEntity
  8
一般
370
              -2
390
0
  6
Continuous
 62
               0
100
AcDbVertex
100
AcDb2dVertex
 10
775.0
 20
275.17083798856066
 30
0.0
  0
VERTEX
  5
93
100
AcDbEntity
  8
一般
370
              -2
390
0
  6
Continuous
 62
               0
100
AcDbVertex
100
AcDb2dVertex
 10
783.0379851433089
 20
245.17266904324816
 30
0.0
  0
SEQEND
  5
94
100
AcDbEntity
  8
一般
370
              -2
390
0
  6
Continuous
 62
               0
  0
MTEXT
  5
95
100
AcDbEntity
  8
寸法
390
0
 62
               0
100
AcDbMText
 10
724.37063802083333
 20
245.06298149576273
 30
0.0
 40
40.721028645833343
 41
0.0
 71
               1
 72
               1
  1
{\fＭＳ ゴシック|b0|i0|c128|p0;\l45.6}
 11
0.0
 21
1.0
 31
0.0
 73
               1
 44
0.7828267384257843
  0
POINT
  5
96
100
AcDbEntity
  8
Defpoints
370
               0
390
0
 62
               0
100
AcDbPoint
 10
808.39241125677972
 20
275.17083798856066
 30
0.0
  0
POINT
  5
97
100
AcDbEntity
  8
Defpoints
370
               0
390
0
 62
               0
100
AcDbPoint
 10
829.0
 20
320.78845833629805
 30
0.0
  0
POINT
  5
98
100
AcDbEntity
  8
Defpoints
370
               0
390
0
 62
               0
100
AcDbPoint
 10
775.0
 20
320.78845833629805
 30
0.0
  0
ENDBLK
  5
99
100
AcDbEntity
  8
寸法
390
0
100
AcDbBlockEnd
  0
BLOCK
  5
9A
100
AcDbEntity
  8
寸法
390
0
100
AcDbBlockBegin
  2
*D5
 70
               1
 10
0.0
 20
0.0
 30
0.0
  3
*D5
  1

  0
LINE
  5
9B
100
AcDbEntity
  8
寸法
370
              -2
390
0
  6
Continuous
 62
               0
100
AcDbLine
 10
800.54190125936248
 20
292.70843897538873
 30
0.0
 11
800.54190125936248
 21
135.0
 31
0.0
  0
LINE
  5
9C
100
AcDbEntity
  8
寸法
370
              -2
390
0
  6
Continuous
 62
               0
100
AcDbLine
 10
829.0
 20
256.71154166370195
 30
0.0
 11
829.0
 21
135.0
 31
0.0
  0
LINE
  5
9D
100
AcDbEntity
  8
寸法
370
              -2
390
0
  6
Continuous
 62
               0
100
AcDbLine
 10
829.0
 20
150.0
 30
0.0
 11
800.54190125936248
 21
150.0
 31
0.0
  0
LINE
  5
9E
100
AcDbEntity
  8
寸法
370
              -2
390
0
  6
Continuous
 62
               0
100
AcDbLine
 10
800.54190125936248
 20
150.0
 30
0.0
 11
683.66666666666663
 21
150.0
 31
0.0
  0
POLYLINE
  5
9F
100
AcDbEntity
  8
一般
370
              -2
390
0
  6
Continuous
 62
               0
100
AcDb2dPolyline
 66
               1
 10
0.0
 20
0.0
 30
0.0
 75
               5
  0
VERTEX
  5
A0
100
AcDbEntity
  8
一般
370
              -2
390
0
  6
Continuous
 62
               0
100
AcDbVertex
100
AcDb2dVertex
 10
770.54373231404998
 20
158.03798514330887
 30
0.0
  0
VERTEX
  5
A1
100
AcDbEntity
  8
一般
370
              -2
390
0
  6
Continuous
 62
               0
100
AcDbVertex
100
AcDb2dVertex
 10
800.54190125936248
 20
150.0
 30
0.0
  0
VERTEX
  5
A2
100
AcDbEntity
  8
一般
370
              -2
390
0
  6
Continuous
 62
               0
100
AcDbVertex
100
AcDb2dVertex
 10
770.54373231404998
 20
141.96201485669113
 30
0.0
  0
SEQEND
  5
A3
100
AcDbEntity
  8
一般
370
              -2
390
0
  6
Continuous
 62
               0
  0
LINE
  5
A4
100
AcDbEntity
  8
寸法
370
              -2
390
0
  6
Continuous
 62
               0
100
AcDbLine
 10
829.0
 20
150.0
 30
0.0
 11
881.5
 21
150.0
 31
0.0
  0
POLYLINE
  5
A5
100
AcDbEntity
  8
一般
370
              -2
390
0
  6
Continuous
 62
               0
100
AcDb2dPolyline
 66
               1
 10
0.0
 20
0.0
 30
0.0
 75
               5
  0
VERTEX
  5
A6
100
AcDbEntity
  8
一般
370
              -2
390
0
  6
Continuous
 62
               0
100
AcDbVertex
100
AcDb2dVertex
 10
858.9981689453125
 20
141.96201485669113
 30
0.0
  0
VERTEX
  5
A7
100
AcDbEntity
  8
一般
370
              -2
390
0
  6
Continuous
 62
               0
100
AcDbVertex
100
AcDb2dVertex
 10
829.0
 20
150.0
 30
0.0
  0
VERTEX
  5
A8
100
AcDbEntity
  8
一般
370
              -2
390
0
  6
Continuous
 62
               0
100
AcDbVertex
100
AcDb2dVertex
 10
858.9981689453125
 20
158.03798514330887
 30
0.0
  0
SEQEND
  5
A9
100
AcDbEntity
  8
一般
370
              -2
390
0
  6
Continuous
 62
               0
  0
MTEXT
  5
AA
100
AcDbEntity
  8
寸法
390
0
 62
               0
100
AcDbMText
 10
683.66666666666674
 20
200.6293619791667
 30
0.0
 40
40.721028645833343
 41
0.0
 71
               1
 72
               1
  1
{\fＭＳ ゴシック|b0|i0|c128|p0;\l28.5}
 73
               1
 44
0.7828267384257843
  0
POINT
  5
AB
100
AcDbEntity
  8
Defpoints
370
               0
390
0
 62
               0
100
AcDbPoint
 10
829.0
 20
279.21154166370195
 30
0.0
  0
POINT
  5
AC
100
AcDbEntity
  8
Defpoints
370
               0
390
0
 62
               0
100
AcDbPoint
 10
800.54190125936248
 20
315.20843897538873
 30
0.0
  0
POINT
  5
AD
100
AcDbEntity
  8
Defpoints
370
               0
390
0
 62
               0
100
AcDbPoint
 10
800.54190125936248
 20
150.0
 30
0.0
  0
ENDBLK
  5
AE
100
AcDbEntity
  8
寸法
390
0
100
AcDbBlockEnd
  0
BLOCK
  5
AF
100
AcDbEntity
  8
寸法
390
0
100
AcDbBlockBegin
  2
*D6
 70
               1
 10
0.0
 20
0.0
 30
0.0
  3
*D6
  1

  0
LINE
  5
B0
100
AcDbEntity
  8
寸法
370
              -2
390
0
  6
Continuous
 62
               0
100
AcDbLine
 10
938.0
 20
322.5
 30
0.0
 11
938.0
 21
390.0
 31
0.0
  0
LINE
  5
B1
100
AcDbEntity
  8
寸法
370
              -2
390
0
  6
Continuous
 62
               0
100
AcDbLine
 10
862.0
 20
322.5
 30
0.0
 11
862.0
 21
390.0
 31
0.0
  0
LINE
  5
B2
100
AcDbEntity
  8
寸法
370
              -2
390
0
  6
Continuous
 62
               0
100
AcDbLine
 10
938.0
 20
375.0
 30
0.0
 11
862.0
 21
375.0
 31
0.0
  0
POLYLINE
  5
B3
100
AcDbEntity
  8
一般
370
              -2
390
0
  6
Continuous
 62
               0
100
AcDb2dPolyline
 66
               1
 10
0.0
 20
0.0
 30
0.0
 75
               5
  0
VERTEX
  5
B4
100
AcDbEntity
  8
一般
370
              -2
390
0
  6
Continuous
 62
               0
100
AcDbVertex
100
AcDb2dVertex
 10
908.0018310546875
 20
383.03798514330884
 30
0.0
  0
VERTEX
  5
B5
100
AcDbEntity
  8
一般
370
              -2
390
0
  6
Continuous
 62
               0
100
AcDbVertex
100
AcDb2dVertex
 10
938.0
 20
375.0
 30
0.0
  0
VERTEX
  5
B6
100
AcDbEntity
  8
一般
370
              -2
390
0
  6
Continuous
 62
               0
100
AcDbVertex
100
AcDb2dVertex
 10
908.0018310546875
 20
366.9620148566911
 30
0.0
  0
SEQEND
  5
B7
100
AcDbEntity
  8
一般
370
              -2
390
0
  6
Continuous
 62
               0
  0
POLYLINE
  5
B8
100
AcDbEntity
  8
一般
370
              -2
390
0
  6
Continuous
 62
               0
100
AcDb2dPolyline
 66
               1
 10
0.0
 20
0.0
 30
0.0
 75
               5
  0
VERTEX
  5
B9
100
AcDbEntity
  8
一般
370
              -2
390
0
  6
Continuous
 62
               0
100
AcDbVertex
100
AcDb2dVertex
 10
891.9981689453125
 20
366.96201485669116
 30
0.0
  0
VERTEX
  5
BA
100
AcDbEntity
  8
一般
370
              -2
390
0
  6
Continuous
 62
               0
100
AcDbVertex
100
AcDb2dVertex
 10
862.0
 20
375.0
 30
0.0
  0
VERTEX
  5
BB
100
AcDbEntity
  8
一般
370
              -2
390
0
  6
Continuous
 62
               0
100
AcDbVertex
100
AcDb2dVertex
 10
891.9981689453125
 20
383.03798514330884
 30
0.0
  0
SEQEND
  5
BC
100
AcDbEntity
  8
一般
370
              -2
390
0
  6
Continuous
 62
               0
  0
MTEXT
  5
BD
100
AcDbEntity
  8
寸法
390
0
 62
               0
100
AcDbMText
 10
847.08333333333337
 20
435.12936197916667
 30
0.0
 40
40.721028645833343
 41
0.0
 71
               1
 72
               1
  1
{\fＭＳ ゴシック|b0|i0|c128|p0;\l76.0}
 73
               1
 44
0.7828267384257843
  0
POINT
  5
BE
100
AcDbEntity
  8
Defpoints
370
               0
390
0
 62
               0
100
AcDbPoint
 10
862.0
 20
300.0
 30
0.0
  0
POINT
  5
BF
100
AcDbEntity
  8
Defpoints
370
               0
390
0
 62
               0
100
AcDbPoint
 10
938.0
 20
300.0
 30
0.0
  0
POINT
  5
C0
100
AcDbEntity
  8
Defpoints
370
               0
390
0
 62
               0
100
AcDbPoint
 10
938.0
 20
375.0
 30
0.0
  0
ENDBLK
  5
C1
100
AcDbEntity
  8
寸法
390
0
100
AcDbBlockEnd
  0
BLOCK
  5
C2
100
AcDbEntity
  8
寸法
390
0
100
AcDbBlockBegin
  2
*D7
 70
               1
 10
0.0
 20
0.0
 30
0.0
  3
*D7
  1

  0
LINE
  5
C3
100
AcDbEntity
  8
寸法
370
              -2
390
0
  6
Continuous
 62
               0
100
AcDbLine
 10
864.66413320472452
 20
292.98912314546169
 30
0.0
 11
900.0
 21
200.0
 31
0.0
  0
POLYLINE
  5
C4
100
AcDbEntity
  8
一般
370
              -2
390
0
  6
Continuous
 62
               0
100
AcDb2dPolyline
 66
               1
 10
0.0
 20
0.0
 30
0.0
 75
               5
  0
VERTEX
  5
C5
100
AcDbEntity
  8
一般
370
              -2
390
0
  6
Continuous
 62
               0
100
AcDbVertex
100
AcDb2dVertex
 10
867.91040990150123
 20
262.10286353307856
 30
0.0
  0
VERTEX
  5
C6
100
AcDbEntity
  8
一般
370
              -2
390
0
  6
Continuous
 62
               0
100
AcDbVertex
100
AcDb2dVertex
 10
864.66413320472452
 20
292.98912314546169
 30
0.0
  0
VERTEX
  5
C7
100
AcDbEntity
  8
一般
370
              -2
390
0
  6
Continuous
 62
               0
100
AcDbVertex
100
AcDb2dVertex
 10
882.9186210980381
 20
267.86397604164495
 30
0.0
  0
SEQEND
  5
C8
100
AcDbEntity
  8
一般
370
              -2
390
0
  6
Continuous
 62
               0
  0
LINE
  5
C9
100
AcDbEntity
  8
寸法
370
              -2
390
0
  6
Continuous
 62
               0
100
AcDbLine
 10
900.0
 20
200.0
 30
0.0
 11
930.0
 21
200.0
 31
0.0
  0
MTEXT
  5
CA
100
AcDbEntity
  8
寸法
390
0
 62
               0
100
AcDbMText
 10
930.0
 20
221.67102864583333
 30
0.0
 40
40.721028645833343
 41
0.0
 71
               1
 72
               1
  1
{\fＭＳ ゴシック|b0|i0|c128|p0;\lM6サラ(2ヵ所)}
 73
               1
 44
0.7828267384257843
  0
POINT
  5
CB
100
AcDbEntity
  8
Defpoints
370
               0
390
0
 62
               0
100
AcDbPoint
 10
859.33586679527571
 20
307.01087685453786
 30
0.0
  0
POINT
  5
CC
100
AcDbEntity
  8
Defpoints
370
               0
390
0
 62
               0
100
AcDbPoint
 10
864.66413320472452
 20
292.98912314546169
 30
0.0
  0
ENDBLK
  5
CD
100
AcDbEntity
  8
寸法
390
0
100
AcDbBlockEnd
  0
BLOCK
  5
CE
100
AcDbEntity
  8
寸法
390
0
100
AcDbBlockBegin
  2
*D8
 70
               1
 10
0.0
 20
0.0
 30
0.0
  3
*D8
  1

  0
LINE
  5
CF
100
AcDbEntity
  8
寸法
370
              -2
390
0
  6
Continuous
 62
               0
100
AcDbLine
 10
901.34164078649985
 20
297.3167184270003
 30
0.0
 11
925.0
 21
250.0
 31
0.0
  0
POLYLINE
  5
D0
100
AcDbEntity
  8
一般
370
              -2
390
0
  6
Continuous
 62
               0
100
AcDb2dPolyline
 66
               1
 10
0.0
 20
0.0
 30
0.0
 75
               5
  0
VERTEX
  5
D1
100
AcDbEntity
  8
一般
370
              -2
390
0
  6
Continuous
 62
               0
100
AcDbVertex
100
AcDb2dVertex
 10
907.79862729323622
 20
266.93898529091211
 30
0.0
  0
VERTEX
  5
D2
100
AcDbEntity
  8
一般
370
              -2
390
0
  6
Continuous
 62
               0
100
AcDbVertex
100
AcDb2dVertex
 10
901.34164078649985
 20
297.3167184270003
 30
0.0
  0
VERTEX
  5
D3
100
AcDbEntity
  8
一般
370
              -2
390
0
  6
Continuous
 62
               0
100
AcDbVertex
100
AcDb2dVertex
 10
922.12242170127104
 20
274.23732307513183
 30
0.0
  0
SEQEND
  5
D4
100
AcDbEntity
  8
一般
370
              -2
390
0
  6
Continuous
 62
               0
  0
LINE
  5
D5
100
AcDbEntity
  8
寸法
370
              -2
390
0
  6
Continuous
 62
               0
100
AcDbLine
 10
925.0
 20
250.0
 30
0.0
 11
955.0
 21
250.0
 31
0.0
  0
MTEXT
  5
D6
100
AcDbEntity
  8
寸法
390
0
 62
               0
100
AcDbMText
 10
955.0
 20
271.6710286458333
 30
0.0
 40
40.721028645833343
 41
0.0
 71
               1
 72
               1
  1
{\fＭＳ ゴシック|b0|i0|c128|p0;\lM6.0}
 73
               1
 44
0.7828267384257843
  0
POINT
  5
D7
100
AcDbEntity
  8
Defpoints
370
               0
390
0
 62
               0
100
AcDbPoint
 10
898.65835921350015
 20
302.6832815729997
 30
0.0
  0
POINT
  5
D8
100
AcDbEntity
  8
Defpoints
370
               0
390
0
 62
               0
100
AcDbPoint
 10
901.34164078649985
 20
297.3167184270003
 30
0.0
  0
ENDBLK
  5
D9
100
AcDbEntity
  8
寸法
390
0
100
AcDbBlockEnd
  0
BLOCK
  5
DA
100
AcDbEntity
  8
寸法
390
0
100
AcDbBlockBegin
  2
*D9
 70
               1
 10
0.0
 20
0.0
 30
0.0
  3
*D9
  1

  0
LINE
  5
DB
100
AcDbEntity
  8
寸法
370
              -2
390
0
  6
Continuous
 62
               0
100
AcDbLine
 10
-135.91885872046464
 20
152.87809235412584
 30
0.0
 11
-100.0
 21
275.0
 31
0.0
  0
POLYLINE
  5
DC
100
AcDbEntity
  8
一般
370
              -2
390
0
  6
Continuous
 62
               0
100
AcDb2dPolyline
 66
               1
 10
0.0
 20
0.0
 30
0.0
 75
               5
  0
VERTEX
  5
DD
100
AcDbEntity
  8
一般
370
              -2
390
0
  6
Continuous
 62
               0
100
AcDbVertex
100
AcDb2dVertex
 10
-119.46147950645647
 20
179.21540456782557
 30
0.0
  0
VERTEX
  5
DE
100
AcDbEntity
  8
一般
370
              -2
390
0
  6
Continuous
 62
               0
100
AcDbVertex
100
AcDb2dVertex
 10
-135.91885872046464
 20
152.87809235412584
 30
0.0
  0
VERTEX
  5
DF
100
AcDbEntity
  8
一般
370
              -2
390
0
  6
Continuous
 62
               0
100
AcDbVertex
100
AcDb2dVertex
 10
-134.83500634826945
 20
183.91556340559606
 30
0.0
  0
SEQEND
  5
E0
100
AcDbEntity
  8
一般
370
              -2
390
0
  6
Continuous
 62
               0
  0
LINE
  5
E1
100
AcDbEntity
  8
寸法
370
              -2
390
0
  6
Continuous
 62
               0
100
AcDbLine
 10
-100.0
 20
275.0
 30
0.0
 11
-70.0
 21
275.0
 31
0.0
  0
MTEXT
  5
E2
100
AcDbEntity
  8
寸法
390
0
 62
               0
100
AcDbMText
 10
-70.0
 20
296.6710286458333
 30
0.0
 40
40.721028645833343
 41
0.0
 71
               1
 72
               1
  1
{\fＭＳ ゴシック|b0|i0|c128|p0;\lM6(2ヵ所)}
 73
               1
 44
0.7828267384257843
  0
POINT
  5
E3
100
AcDbEntity
  8
Defpoints
370
               0
390
0
 62
               0
100
AcDbPoint
 10
-137.61188488825218
 20
147.12190764587399
 30
0.0
  0
POINT
  5
E4
100
AcDbEntity
  8
Defpoints
370
               0
390
0
 62
               0
100
AcDbPoint
 10
-135.91885872046464
 20
152.87809235412584
 30
0.0
  0
ENDBLK
  5
E5
100
AcDbEntity
  8
寸法
390
0
100
AcDbBlockEnd
  0
BLOCK
  5
E6
100
AcDbEntity
  8
寸法
390
0
100
AcDbBlockBegin
  2
*D10
 70
               1
 10
0.0
 20
0.0
 30
0.0
  3
*D10
  1

  0
LINE
  5
E7
100
AcDbEntity
  8
寸法
370
              -2
390
0
  6
Continuous
 62
               0
100
AcDbLine
 10
-256.76537180435861
 20
172.5
 30
0.0
 11
-256.76537180435861
 21
265.0
 31
0.0
  0
LINE
  5
E8
100
AcDbEntity
  8
寸法
370
              -2
390
0
  6
Continuous
 62
               0
100
AcDbLine
 10
-136.76537180435838
 20
172.5
 30
0.0
 11
-136.76537180435838
 21
265.0
 31
0.0
  0
LINE
  5
E9
100
AcDbEntity
  8
寸法
370
              -2
390
0
  6
Continuous
 62
               0
100
AcDbLine
 10
-256.76537180435861
 20
250.0
 30
0.0
 11
-136.76537180435838
 21
250.0
 31
0.0
  0
POLYLINE
  5
EA
100
AcDbEntity
  8
一般
370
              -2
390
0
  6
Continuous
 62
               0
100
AcDb2dPolyline
 66
               1
 10
0.0
 20
0.0
 30
0.0
 75
               5
  0
VERTEX
  5
EB
100
AcDbEntity
  8
一般
370
              -2
390
0
  6
Continuous
 62
               0
100
AcDbVertex
100
AcDb2dVertex
 10
-226.76720285904611
 20
241.96201485669113
 30
0.0
  0
VERTEX
  5
EC
100
AcDbEntity
  8
一般
370
              -2
390
0
  6
Continuous
 62
               0
100
AcDbVertex
100
AcDb2dVertex
 10
-256.76537180435861
 20
250.0
 30
0.0
  0
VERTEX
  5
ED
100
AcDbEntity
  8
一般
370
              -2
390
0
  6
Continuous
 62
               0
100
AcDbVertex
100
AcDb2dVertex
 10
-226.76720285904611
 20
258.03798514330884
 30
0.0
  0
SEQEND
  5
EE
100
AcDbEntity
  8
一般
370
              -2
390
0
  6
Continuous
 62
               0
  0
POLYLINE
  5
EF
100
AcDbEntity
  8
一般
370
              -2
390
0
  6
Continuous
 62
               0
100
AcDb2dPolyline
 66
               1
 10
0.0
 20
0.0
 30
0.0
 75
               5
  0
VERTEX
  5
F0
100
AcDbEntity
  8
一般
370
              -2
390
0
  6
Continuous
 62
               0
100
AcDbVertex
100
AcDb2dVertex
 10
-166.76354074967088
 20
258.03798514330884
 30
0.0
  0
VERTEX
  5
F1
100
AcDbEntity
  8
一般
370
              -2
390
0
  6
Continuous
 62
               0
100
AcDbVertex
100
AcDb2dVertex
 10
-136.76537180435838
 20
250.0
 30
0.0
  0
VERTEX
  5
F2
100
AcDbEntity
  8
一般
370
              -2
390
0
  6
Continuous
 62
               0
100
AcDbVertex
100
AcDb2dVertex
 10
-166.76354074967088
 20
241.96201485669113
 30
0.0
  0
SEQEND
  5
F3
100
AcDbEntity
  8
一般
370
              -2
390
0
  6
Continuous
 62
               0
  0
MTEXT
  5
F4
100
AcDbEntity
  8
寸法
390
0
 62
               0
100
AcDbMText
 10
-236.45287180435849
 20
300.62936197916662
 30
0.0
 40
40.721028645833343
 41
0.0
 71
               1
 72
               1
  1
{\fＭＳ ゴシック|b0|i0|c128|p0;\l120}
 73
               1
 44
0.7828267384257843
  0
POINT
  5
F5
100
AcDbEntity
  8
Defpoints
370
               0
390
0
 62
               0
100
AcDbPoint
 10
-136.76537180435838
 20
150.0
 30
0.0
  0
POINT
  5
F6
100
AcDbEntity
  8
Defpoints
370
               0
390
0
 62
               0
100
AcDbPoint
 10
-256.76537180435861
 20
150.0
 30
0.0
  0
POINT
  5
F7
100
AcDbEntity
  8
Defpoints
370
               0
390
0
 62
               0
100
AcDbPoint
 10
-256.76537180435861
 20
250.0
 30
0.0
  0
ENDBLK
  5
F8
100
AcDbEntity
  8
寸法
390
0
100
AcDbBlockEnd
  0
BLOCK
  5
F9
100
AcDbEntity
  8
寸法
390
0
100
AcDbBlockBegin
  2
*D11
 70
               1
 10
0.0
 20
0.0
 30
0.0
  3
*D11
  1

  0
LINE
  5
FA
100
AcDbEntity
  8
寸法
370
              -2
390
0
  6
Continuous
 62
               0
100
AcDbLine
 10
-383.76537180435992
 20
-402.99999999999818
 30
0.0
 11
-383.76537180435992
 21
-440.0
 31
0.0
  0
LINE
  5
FB
100
AcDbEntity
  8
寸法
370
              -2
390
0
  6
Continuous
 62
               0
100
AcDbLine
 10
-9.7653718043599156
 20
-402.99999999999955
 30
0.0
 11
-9.7653718043599156
 21
-440.0
 31
0.0
  0
LINE
  5
FC
100
AcDbEntity
  8
寸法
370
              -2
390
0
  6
Continuous
 62
               0
100
AcDbLine
 10
-383.76537180435992
 20
-425.0
 30
0.0
 11
-9.7653718043599156
 21
-425.0
 31
0.0
  0
POLYLINE
  5
FD
100
AcDbEntity
  8
一般
370
              -2
390
0
  6
Continuous
 62
               0
100
AcDb2dPolyline
 66
               1
 10
0.0
 20
0.0
 30
0.0
 75
               5
  0
VERTEX
  5
FE
100
AcDbEntity
  8
一般
370
              -2
390
0
  6
Continuous
 62
               0
100
AcDbVertex
100
AcDb2dVertex
 10
-353.76720285904742
 20
-433.03798514330884
 30
0.0
  0
VERTEX
  5
FF
100
AcDbEntity
  8
一般
370
              -2
390
0
  6
Continuous
 62
               0
100
AcDbVertex
100
AcDb2dVertex
 10
-383.76537180435992
 20
-425.0
 30
0.0
  0
VERTEX
  5
100
100
AcDbEntity
  8
一般
370
              -2
390
0
  6
Continuous
 62
               0
100
AcDbVertex
100
AcDb2dVertex
 10
-353.76720285904742
 20
-416.96201485669116
 30
0.0
  0
SEQEND
  5
101
100
AcDbEntity
  8
一般
370
              -2
390
0
  6
Continuous
 62
               0
  0
POLYLINE
  5
102
100
AcDbEntity
  8
一般
370
              -2
390
0
  6
Continuous
 62
               0
100
AcDb2dPolyline
 66
               1
 10
0.0
 20
0.0
 30
0.0
 75
               5
  0
VERTEX
  5
103
100
AcDbEntity
  8
一般
370
              -2
390
0
  6
Continuous
 62
               0
100
AcDbVertex
100
AcDb2dVertex
 10
-39.763540749672416
 20
-416.96201485669116
 30
0.0
  0
VERTEX
  5
104
100
AcDbEntity
  8
一般
370
              -2
390
0
  6
Continuous
 62
               0
100
AcDbVertex
100
AcDb2dVertex
 10
-9.7653718043599156
 20
-425.0
 30
0.0
  0
VERTEX
  5
105
100
AcDbEntity
  8
一般
370
              -2
390
0
  6
Continuous
 62
               0
100
AcDbVertex
100
AcDb2dVertex
 10
-39.763540749672416
 20
-433.0379851433089
 30
0.0
  0
SEQEND
  5
106
100
AcDbEntity
  8
一般
370
              -2
390
0
  6
Continuous
 62
               0
  0
MTEXT
  5
107
100
AcDbEntity
  8
寸法
390
0
 62
               0
100
AcDbMText
 10
-236.45287180435992
 20
-374.37063802083333
 30
0.0
 40
40.721028645833343
 41
0.0
 71
               1
 72
               1
  1
{\fＭＳ ゴシック|b0|i0|c128|p0;\l374}
 73
               1
 44
0.7828267384257843
  0
POINT
  5
108
100
AcDbEntity
  8
Defpoints
370
               0
390
0
 62
               0
100
AcDbPoint
 10
-9.7653718043599156
 20
-380.49999999999955
 30
0.0
  0
POINT
  5
109
100
AcDbEntity
  8
Defpoints
370
               0
390
0
 62
               0
100
AcDbPoint
 10
-383.76537180435992
 20
-380.49999999999818
 30
0.0
  0
POINT
  5
10A
100
AcDbEntity
  8
Defpoints
370
               0
390
0
 62
               0
100
AcDbPoint
 10
-383.76537180435992
 20
-425.0
 30
0.0
  0
ENDBLK
  5
10B
100
AcDbEntity
  8
寸法
390
0
100
AcDbBlockEnd
  0
BLOCK
  5
10C
100
AcDbEntity
  8
寸法
390
0
100
AcDbBlockBegin
  2
*D12
 70
               1
 10
0.0
 20
0.0
 30
0.0
  3
*D12
  1

  0
LINE
  5
10D
100
AcDbEntity
  8
寸法
370
              -2
390
0
  6
Continuous
 62
               0
100
AcDbLine
 10
95.734628195641676
 20
-0.0000000000009095
 30
0.0
 11
165.0
 21
-0.0000000000009095
 31
0.0
  0
LINE
  5
10E
100
AcDbEntity
  8
寸法
370
              -2
390
0
  6
Continuous
 62
               0
100
AcDbLine
 10
75.734628195642159
 20
-352.00000000000091
 30
0.0
 11
165.0
 21
-352.00000000000091
 31
0.0
  0
LINE
  5
10F
100
AcDbEntity
  8
寸法
370
              -2
390
0
  6
Continuous
 62
               0
100
AcDbLine
 10
150.0
 20
-0.0000000000009095
 30
0.0
 11
150.0
 21
-352.00000000000091
 31
0.0
  0
POLYLINE
  5
110
100
AcDbEntity
  8
一般
370
              -2
390
0
  6
Continuous
 62
               0
100
AcDb2dPolyline
 66
               1
 10
0.0
 20
0.0
 30
0.0
 75
               5
  0
VERTEX
  5
111
100
AcDbEntity
  8
一般
370
              -2
390
0
  6
Continuous
 62
               0
100
AcDbVertex
100
AcDb2dVertex
 10
141.96201485669113
 20
-29.998168945313409
 30
0.0
  0
VERTEX
  5
112
100
AcDbEntity
  8
一般
370
              -2
390
0
  6
Continuous
 62
               0
100
AcDbVertex
100
AcDb2dVertex
 10
150.0
 20
-0.0000000000009095
 30
0.0
  0
VERTEX
  5
113
100
AcDbEntity
  8
一般
370
              -2
390
0
  6
Continuous
 62
               0
100
AcDbVertex
100
AcDb2dVertex
 10
158.03798514330887
 20
-29.998168945313409
 30
0.0
  0
SEQEND
  5
114
100
AcDbEntity
  8
一般
370
              -2
390
0
  6
Continuous
 62
               0
  0
POLYLINE
  5
115
100
AcDbEntity
  8
一般
370
              -2
390
0
  6
Continuous
 62
               0
100
AcDb2dPolyline
 66
               1
 10
0.0
 20
0.0
 30
0.0
 75
               5
  0
VERTEX
  5
116
100
AcDbEntity
  8
一般
370
              -2
390
0
  6
Continuous
 62
               0
100
AcDbVertex
100
AcDb2dVertex
 10
158.03798514330887
 20
-322.00183105468841
 30
0.0
  0
VERTEX
  5
117
100
AcDbEntity
  8
一般
370
              -2
390
0
  6
Continuous
 62
               0
100
AcDbVertex
100
AcDb2dVertex
 10
150.0
 20
-352.00000000000091
 30
0.0
  0
VERTEX
  5
118
100
AcDbEntity
  8
一般
370
              -2
390
0
  6
Continuous
 62
               0
100
AcDbVertex
100
AcDb2dVertex
 10
141.96201485669113
 20
-322.00183105468841
 30
0.0
  0
SEQEND
  5
119
100
AcDbEntity
  8
一般
370
              -2
390
0
  6
Continuous
 62
               0
  0
MTEXT
  5
11A
100
AcDbEntity
  8
寸法
390
0
 62
               0
100
AcDbMText
 10
99.370638020833326
 20
-215.68750000000091
 30
0.0
 40
40.721028645833343
 41
0.0
 71
               1
 72
               1
  1
{\fＭＳ ゴシック|b0|i0|c128|p0;\l352}
 11
0.0
 21
1.0
 31
0.0
 73
               1
 44
0.7828267384257843
  0
POINT
  5
11B
100
AcDbEntity
  8
Defpoints
370
               0
390
0
 62
               0
100
AcDbPoint
 10
53.234628195642159
 20
-352.00000000000091
 30
0.0
  0
POINT
  5
11C
100
AcDbEntity
  8
Defpoints
370
               0
390
0
 62
               0
100
AcDbPoint
 10
73.234628195641676
 20
-0.0000000000009095
 30
0.0
  0
POINT
  5
11D
100
AcDbEntity
  8
Defpoints
370
               0
390
0
 62
               0
100
AcDbPoint
 10
150.0
 20
-0.0000000000009095
 30
0.0
  0
ENDBLK
  5
11E
100
AcDbEntity
  8
寸法
390
0
100
AcDbBlockEnd
  0
BLOCK
  5
11F
100
AcDbEntity
  8
寸法
390
0
100
AcDbBlockBegin
  2
*D13
 70
               1
 10
0.0
 20
0.0
 30
0.0
  3
*D13
  1

  0
LINE
  5
120
100
AcDbEntity
  8
寸法
370
              -2
390
0
  6
Continuous
 62
               0
100
AcDbLine
 10
-316.76537180435849
 20
127.5
 30
0.0
 11
-316.76537180435849
 21
10.0
 31
0.0
  0
LINE
  5
121
100
AcDbEntity
  8
寸法
370
              -2
390
0
  6
Continuous
 62
               0
100
AcDbLine
 10
-76.765371804358381
 20
127.5
 30
0.0
 11
-76.765371804358381
 21
10.0
 31
0.0
  0
LINE
  5
122
100
AcDbEntity
  8
寸法
370
              -2
390
0
  6
Continuous
 62
               0
100
AcDbLine
 10
-316.76537180435849
 20
25.0
 30
0.0
 11
-76.765371804358381
 21
25.0
 31
0.0
  0
POLYLINE
  5
123
100
AcDbEntity
  8
一般
370
              -2
390
0
  6
Continuous
 62
               0
100
AcDb2dPolyline
 66
               1
 10
0.0
 20
0.0
 30
0.0
 75
               5
  0
VERTEX
  5
124
100
AcDbEntity
  8
一般
370
              -2
390
0
  6
Continuous
 62
               0
100
AcDbVertex
100
AcDb2dVertex
 10
-286.76720285904599
 20
16.962014856691134
 30
0.0
  0
VERTEX
  5
125
100
AcDbEntity
  8
一般
370
              -2
390
0
  6
Continuous
 62
               0
100
AcDbVertex
100
AcDb2dVertex
 10
-316.76537180435849
 20
25.0
 30
0.0
  0
VERTEX
  5
126
100
AcDbEntity
  8
一般
370
              -2
390
0
  6
Continuous
 62
               0
100
AcDbVertex
100
AcDb2dVertex
 10
-286.76720285904599
 20
33.037985143308866
 30
0.0
  0
SEQEND
  5
127
100
AcDbEntity
  8
一般
370
              -2
390
0
  6
Continuous
 62
               0
  0
POLYLINE
  5
128
100
AcDbEntity
  8
一般
370
              -2
390
0
  6
Continuous
 62
               0
100
AcDb2dPolyline
 66
               1
 10
0.0
 20
0.0
 30
0.0
 75
               5
  0
VERTEX
  5
129
100
AcDbEntity
  8
一般
370
              -2
390
0
  6
Continuous
 62
               0
100
AcDbVertex
100
AcDb2dVertex
 10
-106.76354074967088
 20
33.037985143308873
 30
0.0
  0
VERTEX
  5
12A
100
AcDbEntity
  8
一般
370
              -2
390
0
  6
Continuous
 62
               0
100
AcDbVertex
100
AcDb2dVertex
 10
-76.765371804358381
 20
25.0
 30
0.0
  0
VERTEX
  5
12B
100
AcDbEntity
  8
一般
370
              -2
390
0
  6
Continuous
 62
               0
100
AcDbVertex
100
AcDb2dVertex
 10
-106.76354074967088
 20
16.962014856691123
 30
0.0
  0
SEQEND
  5
12C
100
AcDbEntity
  8
一般
370
              -2
390
0
  6
Continuous
 62
               0
  0
MTEXT
  5
12D
100
AcDbEntity
  8
寸法
390
0
 62
               0
100
AcDbMText
 10
-236.45287180435844
 20
75.629361979166674
 30
0.0
 40
40.721028645833343
 41
0.0
 71
               1
 72
               1
  1
{\fＭＳ ゴシック|b0|i0|c128|p0;\l240}
 73
               1
 44
0.7828267384257843
  0
POINT
  5
12E
100
AcDbEntity
  8
Defpoints
370
               0
390
0
 62
               0
100
AcDbPoint
 10
-76.765371804358381
 20
150.0
 30
0.0
  0
POINT
  5
12F
100
AcDbEntity
  8
Defpoints
370
               0
390
0
 62
               0
100
AcDbPoint
 10
-316.76537180435849
 20
150.0
 30
0.0
  0
POINT
  5
130
100
AcDbEntity
  8
Defpoints
370
               0
390
0
 62
               0
100
AcDbPoint
 10
-316.76537180435849
 20
25.0
 30
0.0
  0
ENDBLK
  5
131
100
AcDbEntity
  8
寸法
390
0
100
AcDbBlockEnd
  0
BLOCK
  5
132
100
AcDbEntity
  8
寸法
390
0
100
AcDbBlockBegin
  2
*D14
 70
               1
 10
0.0
 20
0.0
 30
0.0
  3
*D14
  1

  0
LINE
  5
133
100
AcDbEntity
  8
寸法
370
              -2
390
0
  6
Continuous
 62
               0
100
AcDbLine
 10
-191.42256586107362
 20
147.26972077391312
 30
0.0
 11
-49.999999999999972
 21
75.0
 31
0.0
  0
POLYLINE
  5
134
100
AcDbEntity
  8
一般
370
              -2
390
0
  6
Continuous
 62
               0
100
AcDb2dPolyline
 66
               1
 10
0.0
 20
0.0
 30
0.0
 75
               5
  0
VERTEX
  5
135
100
AcDbEntity
  8
一般
370
              -2
390
0
  6
Continuous
 62
               0
100
AcDbVertex
100
AcDb2dVertex
 10
-168.34317050920515
 20
126.48893985914196
 30
0.0
  0
VERTEX
  5
136
100
AcDbEntity
  8
一般
370
              -2
390
0
  6
Continuous
 62
               0
100
AcDbVertex
100
AcDb2dVertex
 10
-191.42256586107362
 20
147.26972077391312
 30
0.0
  0
VERTEX
  5
137
100
AcDbEntity
  8
一般
370
              -2
390
0
  6
Continuous
 62
               0
100
AcDbVertex
100
AcDb2dVertex
 10
-161.04483272498544
 20
140.81273426717672
 30
0.0
  0
SEQEND
  5
138
100
AcDbEntity
  8
一般
370
              -2
390
0
  6
Continuous
 62
               0
  0
LINE
  5
139
100
AcDbEntity
  8
寸法
370
              -2
390
0
  6
Continuous
 62
               0
100
AcDbLine
 10
-49.999999999999972
 20
75.0
 30
0.0
 11
-19.999999999999972
 21
75.0
 31
0.0
  0
MTEXT
  5
13A
100
AcDbEntity
  8
寸法
390
0
 62
               0
100
AcDbMText
 10
-19.999999999999972
 20
96.67102864583336
 30
0.0
 40
40.721028645833343
 41
0.0
 71
               1
 72
               1
  1
{\fＭＳ ゴシック|b0|i0|c128|p0;\lφ12.0(3ヵ所)}
 73
               1
 44
0.7828267384257843
  0
POINT
  5
13B
100
AcDbEntity
  8
Defpoints
370
               0
390
0
 62
               0
100
AcDbPoint
 10
-202.10817774764314
 20
152.73027922608691
 30
0.0
  0
POINT
  5
13C
100
AcDbEntity
  8
Defpoints
370
               0
390
0
 62
               0
100
AcDbPoint
 10
-191.42256586107362
 20
147.26972077391312
 30
0.0
  0
ENDBLK
  5
13D
100
AcDbEntity
  8
寸法
390
0
100
AcDbBlockEnd
  0
ENDSEC
  0
SECTION
  2
ENTITIES
  0
LINE
  5
13E
100
AcDbEntity
  8
一般
370
              40
390
0
  6
Continuous
 62
               7
100
AcDbLine
 10
-1350.0
 20
1999.1229938888887
 30
0.0
 11
1350.0
 21
1999.1229938888887
 31
0.0
  0
LINE
  5
13F
100
AcDbEntity
  8
一般
370
              40
390
0
  6
Continuous
 62
               7
100
AcDbLine
 10
1350.0
 20
-1900.8770061111113
 30
0.0
 11
-1350.0
 21
-1900.8770061111113
 31
0.0
  0
LINE
  5
140
100
AcDbEntity
  8
一般
370
              40
390
0
  6
Continuous
 62
               7
100
AcDbLine
 10
-1350.0
 20
-1900.8770061111113
 30
0.0
 11
-1350.0
 21
1999.1229938888887
 31
0.0
  0
LINE
  5
141
100
AcDbEntity
  8
一般
370
              40
390
0
  6
Continuous
 62
               7
100
AcDbLine
 10
1350.0
 20
1999.1229938888887
 30
0.0
 11
1350.0
 21
-1900.8770061111113
 31
0.0
  0
LINE
  5
142
100
AcDbEntity
  8
一般
370
              40
390
0
  6
Continuous
 62
               7
100
AcDbLine
 10
0.0
 20
-1563.3770061111113
 30
0.0
 11
1350.0
 21
-1563.3770061111113
 31
0.0
  0
LINE
  5
143
100
AcDbEntity
  8
一般
370
              40
390
0
  6
Continuous
 62
               7
100
AcDbLine
 10
0.0
 20
-1900.8770061111113
 30
0.0
 11
0.0
 21
-1563.3770061111113
 31
0.0
  0
MTEXT
  5
144
100
AcDbEntity
  8
一般
390
0
 62
               7
100
AcDbMText
 10
13.500000000000512
 20
-1576.5747889236111
 30
0.0
 40
24.4326171875
 41
0.0
 71
               1
 72
               1
  1
{\fＭＳ ゴシック|b0|i0|c128|p0;\lNOTE}
 73
               1
 44
0.7828267384257843
  0
LINE
  5
145
100
AcDbEntity
  8
一般
370
               9
390
0
  6
Continuous
 62
               7
100
AcDbLine
 10
525.0
 20
-1900.8770061111113
 30
0.0
 11
525.0
 21
-1563.3770061111113
 31
0.0
  0
MTEXT
  5
146
100
AcDbEntity
  8
一般
390
0
 62
               7
100
AcDbMText
 10
538.49999999999966
 20
-1576.5747889236111
 30
0.0
 40
24.4326171875
 41
0.0
 71
               1
 72
               1
  1
{\fＭＳ ゴシック|b0|i0|c128|p0;\lTITLE}
 73
               1
 44
0.7828267384257843
  0
LINE
  5
147
100
AcDbEntity
  8
一般
370
               9
390
0
  6
Continuous
 62
               7
100
AcDbLine
 10
0.0
 20
-1750.8770061111113
 30
0.0
 11
1350.0
 21
-1750.8770061111113
 31
0.0
  0
MTEXT
  5
148
100
AcDbEntity
  8
一般
390
0
 62
               7
100
AcDbMText
 10
725.99999999999966
 20
-1763.2299889236112
 30
0.0
 40
24.4326171875
 41
0.0
 71
               1
 72
               1
  1
{\fＭＳ ゴシック|b0|i0|c128|p0;\lDRAWN}
 73
               1
 44
0.7828267384257843
  0
MTEXT
  5
149
100
AcDbEntity
  8
一般
390
0
 62
               7
100
AcDbMText
 10
350.99999999999966
 20
-1763.2299889236112
 30
0.0
 40
24.4326171875
 41
0.0
 71
               1
 72
               1
  1
{\fＭＳ ゴシック|b0|i0|c128|p0;\lDATE}
 73
               1
 44
0.7828267384257843
  0
MTEXT
  5
14A
100
AcDbEntity
  8
一般
390
0
 62
               7
100
AcDbMText
 10
200.99999999999966
 20
-1763.2299889236112
 30
0.0
 40
24.4326171875
 41
0.0
 71
               1
 72
               1
  1
{\fＭＳ ゴシック|b0|i0|c128|p0;\lSCALE}
 73
               1
 44
0.7828267384257843
  0
MTEXT
  5
14B
100
AcDbEntity
  8
一般
390
0
 62
               7
100
AcDbMText
 10
538.49999999999966
 20
-1763.2299889236112
 30
0.0
 40
24.4326171875
 41
0.0
 71
               1
 72
               1
  1
{\fＭＳ ゴシック|b0|i0|c128|p0;\lDESIGN}
 73
               1
 44
0.7828267384257843
  0
MTEXT
  5
14C
100
AcDbEntity
  8
一般
390
0
 62
               7
100
AcDbMText
 10
1100.9999999999995
 20
-1763.2299889236112
 30
0.0
 40
24.4326171875
 41
0.0
 71
               1
 72
               1
  1
{\fＭＳ ゴシック|b0|i0|c128|p0;\lDRAWING NO.}
 73
               1
 44
0.7828267384257843
  0
MTEXT
  5
14D
100
AcDbEntity
  8
一般
390
0
 62
               7
100
AcDbMText
 10
913.49999999999966
 20
-1763.2299889236112
 30
0.0
 40
24.4326171875
 41
0.0
 71
               1
 72
               1
  1
{\fＭＳ ゴシック|b0|i0|c128|p0;\lCHECK}
 73
               1
 44
0.7828267384257843
  0
LINE
  5
14E
100
AcDbEntity
  8
一般
370
               9
390
0
  6
Continuous
 62
               7
100
AcDbLine
 10
215.625
 20
-1882.1270061111113
 30
0.0
 11
271.875
 21
-1825.8770061111113
 31
0.0
  0
MTEXT
  5
14F
100
AcDbEntity
  8
一般
390
0
 62
               7
100
AcDbMText
 10
206.25
 20
-1818.0785389236114
 30
0.0
 40
24.4326171875
 41
0.0
 71
               1
 72
               1
  1
{\fＭＳ ゴシック|b0|i0|c128|p0;\l1}
 73
               1
 44
0.7828267384257843
  0
LINE
  5
150
100
AcDbEntity
  8
一般
370
               9
390
0
  6
Continuous
 62
               7
100
AcDbLine
 10
187.5
 20
-1900.8770061111113
 30
0.0
 11
187.5
 21
-1750.8770061111113
 31
0.0
  0
LINE
  5
151
100
AcDbEntity
  8
一般
370
               9
390
0
  6
Continuous
 62
               7
100
AcDbLine
 10
337.5
 20
-1900.8770061111113
 30
0.0
 11
337.5
 21
-1750.8770061111113
 31
0.0
  0
LINE
  5
152
100
AcDbEntity
  8
一般
370
               9
390
0
  6
Continuous
 62
               7
100
AcDbLine
 10
712.5
 20
-1750.8770061111113
 30
0.0
 11
712.5
 21
-1900.8770061111113
 31
0.0
  0
LINE
  5
153
100
AcDbEntity
  8
一般
370
               9
390
0
  6
Continuous
 62
               7
100
AcDbLine
 10
1087.5
 20
-1750.8770061111113
 30
0.0
 11
1087.5
 21
-1900.8770061111113
 31
0.0
  0
LINE
  5
154
100
AcDbEntity
  8
一般
370
               9
390
0
  6
Continuous
 62
               7
100
AcDbLine
 10
900.0
 20
-1900.8770061111113
 30
0.0
 11
900.0
 21
-1750.8770061111113
 31
0.0
  0
MTEXT
  5
155
100
AcDbEntity
  8
一般
390
0
 62
               7
100
AcDbMText
 10
350.34809999999993
 20
-1833.4896889236109
 30
0.0
 40
24.4326171875
 41
0.0
 71
               1
 72
               1
  1
{\fＭＳ ゴシック|b0|i0|c128|p0;\l'22.03.}
 73
               1
 44
0.7828267384257843
  0
MTEXT
  5
156
100
AcDbEntity
  8
一般
390
0
 62
               7
100
AcDbMText
 10
262.5
 20
-1846.2035389236114
 30
0.0
 40
24.4326171875
 41
0.0
 71
               1
 72
               1
  1
{\fＭＳ ゴシック|b0|i0|c128|p0;\l15}
 73
               1
 44
0.7828267384257843
  0
MTEXT
  5
157
100
AcDbEntity
  8
一般
390
0
 62
               7
100
AcDbMText
 10
735.08715016551923
 20
-1833.4896889236109
 30
0.0
 40
24.4326171875
 41
0.0
 71
               1
 72
               1
  1
{\fＭＳ ゴシック|b0|i0|c128|p0;\lN.Sasaki}
 73
               1
 44
0.7828267384257843
  0
MTEXT
  5
158
100
AcDbEntity
  8
一般
390
0
 62
               7
100
AcDbMText
 10
58.250000000000739
 20
-1822.3717717361112
 30
0.0
 40
48.865234375
 41
0.0
 71
               1
 72
               1
  1
{\fＭＳ ゴシック|b0|i0|c128|p0;\lA4}
 73
               1
 44
0.7828267384257843
  0
MTEXT
  5
159
100
AcDbEntity
  8
一般
390
0
 62
               7
100
AcDbMText
 10
14.374999999999716
 20
-1765.7362139236109
 30
0.0
 40
24.4326171875
 41
0.0
 71
               1
 72
               1
  1
{\fＭＳ ゴシック|b0|i0|c128|p0;\lPAPER SIZE}
 73
               1
 44
0.7828267384257843
  0
MTEXT
  5
15A
100
AcDbEntity
  8
一般
390
0
 62
               7
100
AcDbMText
 10
-1242.2399999999996
 20
-1943.5723938715278
 30
0.0
 40
52.937337239583329
 41
0.0
 71
               1
 72
               1
  1
{\fＭＳ ゴシック|b0|i0|c128|p0;\lHibino-Intersound Corporation}
 73
               1
 44
0.7828267384257843
  0
MTEXT
  5
15B
100
AcDbEntity
  8
一般
390
0
 62
               7
100
AcDbMText
 10
210.36501250864688
 20
-1943.5723938715278
 30
0.0
 40
52.937337239583329
 41
0.0
 71
               1
 72
               1
  1
{\fＭＳ ゴシック|b0|i0|c128|p0;\lヒビノインタ ーサウンド株式会社}
 73
               1
 44
0.7828267384257843
  0
LINE
  5
15C
100
AcDbEntity
  8
一般
370
               9
390
0
  6
Continuous
 62
               7
100
AcDbLine
 10
-1237.4999999999995
 20
1849.1229938888887
 30
0.0
 11
975.00000000000023
 21
1849.1229938888887
 31
0.0
  0
LINE
  5
15D
100
AcDbEntity
  8
一般
370
               9
390
0
  6
Continuous
 62
               7
100
AcDbLine
 10
-1237.4999999999995
 20
1792.8729938888887
 30
0.0
 11
975.00000000000023
 21
1792.8729938888887
 31
0.0
  0
LINE
  5
15E
100
AcDbEntity
  8
一般
370
               9
390
0
  6
Continuous
 62
               7
100
AcDbLine
 10
-1237.4999999999995
 20
1849.1229938888887
 30
0.0
 11
-1237.4999999999995
 21
1736.6229938888887
 31
0.0
  0
MTEXT
  5
15F
100
AcDbEntity
  8
一般
390
0
 62
               7
100
AcDbMText
 10
-1218.7499999999995
 20
1906.6709696701387
 30
0.0
 40
36.64892578125
 41
0.0
 71
               1
 72
               1
  1
{\fＭＳ ゴシック|b0|i0|c128|p0;\l仕様}
 73
               1
 44
0.7828267384257843
  0
LINE
  5
160
100
AcDbEntity
  8
一般
370
               9
390
0
  6
Continuous
 62
               7
100
AcDbLine
 10
-749.99999999999977
 20
1849.1229938888887
 30
0.0
 11
-749.99999999999977
 21
1736.6229938888887
 31
0.0
  0
LINE
  5
161
100
AcDbEntity
  8
一般
370
               9
390
0
  6
Continuous
 62
               7
100
AcDbLine
 10
975.00000000000023
 20
1849.1229938888887
 30
0.0
 11
975.00000000000023
 21
1736.6229938888887
 31
0.0
  0
MTEXT
  5
162
100
AcDbEntity
  8
一般
390
0
 62
               7
100
AcDbMText
 10
-1224.0
 20
1833.1964806076389
 30
0.0
 40
28.504720052083339
 41
0.0
 71
               1
 72
               1
  1
{\fＭＳ ゴシック|b0|i0|c128|p0;\l寸法(W×H×D)}
 73
               1
 44
0.7828267384257843
  0
MTEXT
  5
163
100
AcDbEntity
  8
一般
390
0
 62
               7
100
AcDbMText
 10
-1224.0
 20
1776.9464806076389
 30
0.0
 40
28.504720052083339
 41
0.0
 71
               1
 72
               1
  1
{\fＭＳ ゴシック|b0|i0|c128|p0;\l質量}
 73
               1
 44
0.7828267384257843
  0
MTEXT
  5
164
100
AcDbEntity
  8
一般
390
0
 62
               7
100
AcDbMText
 10
-736.49999999999977
 20
1833.1964806076389
 30
0.0
 40
28.504720052083339
 41
0.0
 71
               1
 72
               1
  1
{\fＭＳ ゴシック|b0|i0|c128|p0;\l483×88.0×300mm\fＭＳ ゴシック|b0|i0|c128|p0;\l(除突起部)}
 73
               1
 44
0.7828267384257843
  0
MTEXT
  5
165
100
AcDbEntity
  8
一般
390
0
 62
               7
100
AcDbMText
 10
-736.49999999999977
 20
1776.9464806076389
 30
0.0
 40
28.504720052083339
 41
0.0
 71
               1
 72
               1
  1
{\fＭＳ ゴシック|b0|i0|c128|p0;\l1.2kg}
 73
               1
 44
0.7828267384257843
  0
LINE
  5
166
100
AcDbEntity
  8
一般
370
               9
390
0
  6
Continuous
 62
               7
100
AcDbLine
 10
-1237.4999999999995
 20
1736.6229938888887
 30
0.0
 11
975.00000000000023
 21
1736.6229938888887
 31
0.0
  0
MTEXT
  5
167
100
AcDbEntity
  8
一般
390
0
 62
               7
100
AcDbMText
 10
-299.99999999999989
 20
-1680.1857303298607
 30
0.0
 40
36.64892578125
 41
0.0
 71
               1
 72
               1
  1
{\fＭＳ ゴシック|b0|i0|c128|p0;\l(単位：mm)}
 73
               1
 44
0.7828267384257843
  0
MTEXT
  5
168
100
AcDbEntity
  8
一般
390
0
 62
               7
100
AcDbMText
 10
75.0
 20
-1471.3114007986112
 30
0.0
 40
40.721028645833343
 41
0.0
 71
               1
 72
               1
  1
{\fＭＳ ゴシック|b0|i0|c128|p0;\l※センタ ー振り分け}
 73
               1
 44
0.7828267384257843
  0
DIMENSION
  5
169
100
AcDbEntity
  8
寸法
370
               9
390
0
  6
Continuous
 62
               7
100
AcDbDimension
  2
*D1
 10
-446.76537180435844
 20
-380.99999999999818
 30
0.0
 11
-446.76537180435844
 21
-190.49999999999909
 31
0.0
 71
               5
 72
               1
 41
1.0
 42
0.0
  3
HIBINO
100
AcDbAlignedDimension
 13
-383.76537180435946
 23
0.0
 33
0.0
 14
-383.26537180435992
 24
-380.99999999999818
 34
0.0
 50
-90.0
100
AcDbRotatedDimension
1001
ACAD
1000
DSTYLE
1002
{
1070
             271
1070
               0
1070
             279
1070
               2
1070
             340
1005
32
1070
             147
1040
2.5
1002
}
  0
DIMENSION
  5
16A
100
AcDbEntity
  8
寸法
370
               9
390
0
  6
Continuous
 62
               7
100
AcDbDimension
  2
*D2
 10
-446.76537180435844
 20
129.99999999999704
 30
0.0
 11
-446.76537180435844
 21
149.99999999999704
 31
0.0
 71
               5
 72
               1
 41
1.0
 42
0.0
  3
HIBINO
100
AcDbAlignedDimension
 13
-383.76537180435997
 23
169.99999999999704
 33
0.0
 14
-383.76537180435975
 24
129.99999999999704
 34
0.0
 50
-90.0
100
AcDbRotatedDimension
1001
ACAD
1000
DSTYLE
1002
{
1070
             279
1070
               2
1070
             340
1005
32
1070
             147
1040
12.0
1002
}
  0
DIMENSION
  5
16B
100
AcDbEntity
  8
寸法
370
               9
390
0
  6
Continuous
 62
               7
100
AcDbDimension
  2
*D3
 10
775.0
 20
400.0
 30
0.0
 11
775.0
 21
450.5
 31
0.0
 71
               5
 72
               1
 41
1.0
 42
0.0
  3
HIBINO
100
AcDbAlignedDimension
 13
800.0
 23
501.0
 33
0.0
 14
800.0
 24
400.0
 34
0.0
 50
-90.0
100
AcDbRotatedDimension
1001
ACAD
1000
DSTYLE
1002
{
1070
             271
1070
               0
1070
             279
1070
               2
1070
             340
1005
32
1070
             147
1040
2.5
1002
}
  0
DIMENSION
  5
16C
100
AcDbEntity
  8
寸法
370
               9
390
0
  6
Continuous
 62
               7
100
AcDbDimension
  2
*D4
 10
775.0
 20
320.78845833629805
 30
0.0
 11
775.0
 21
297.97964816242938
 31
0.0
 71
               5
 72
               1
 41
1.0
 42
0.0
  3
HIBINO
100
AcDbAlignedDimension
 13
808.39241125677972
 23
275.17083798856066
 33
0.0
 14
829.0
 24
320.78845833629805
 34
0.0
 50
-90.0
100
AcDbRotatedDimension
1001
ACAD
1000
DSTYLE
1002
{
1070
             279
1070
               2
1070
             340
1005
32
1070
             147
1040
2.5
1002
}
  0
DIMENSION
  5
16D
100
AcDbEntity
  8
寸法
370
               9
390
0
  6
Continuous
 62
               7
100
AcDbDimension
  2
*D5
 10
800.54190125936248
 20
150.0
 30
0.0
 11
789.5
 21
152.5
 31
0.0
 70
             128
 71
               5
 72
               1
 41
1.0
 42
0.0
  3
HIBINO
100
AcDbAlignedDimension
 13
829.0
 23
279.21154166370195
 33
0.0
 14
800.54190125936248
 24
315.20843897538873
 34
0.0
100
AcDbRotatedDimension
1001
ACAD
1000
DSTYLE
1002
{
1070
             279
1070
               2
1070
             340
1005
32
1070
             174
1070
               0
1070
             147
1040
2.5
1002
}
  0
DIMENSION
  5
16E
100
AcDbEntity
  8
寸法
370
               9
390
0
  6
Continuous
 62
               7
100
AcDbDimension
  2
*D6
 10
938.0
 20
375.0
 30
0.0
 11
900.0
 21
375.0
 31
0.0
 71
               5
 72
               1
 41
1.0
 42
0.0
  3
HIBINO
100
AcDbAlignedDimension
 13
862.0
 23
300.0
 33
0.0
 14
938.0
 24
300.0
 34
0.0
100
AcDbRotatedDimension
1001
ACAD
1000
DSTYLE
1002
{
1070
             279
1070
               2
1070
             340
1005
32
1070
             147
1040
12.0
1002
}
  0
DIMENSION
  5
16F
100
AcDbEntity
  8
寸法
370
               9
390
0
  6
Continuous
 62
               7
100
AcDbDimension
  2
*D7
 10
859.33586679527571
 20
307.01087685453786
 30
0.0
 11
929.9999999999992
 21
199.99999999999972
 31
0.0
 70
               3
 71
               5
 72
               1
 41
1.0
 42
0.0
  1
M6サラ(2ヵ所)
  3
HIBINO
100
AcDbDiametricDimension
 15
864.66413320472452
 25
292.98912314546169
 35
0.0
 40
99.476632962396209
1001
ACAD
1000
DSTYLE
1002
{
1070
             172
1070
               0
1070
             289
1070
               0
1070
             342
1005
40
1070
             340
1005
32
1070
              77
1070
               0
1070
              73
1070
               1
1070
              74
1070
               1
1070
              75
1070
               1
1070
              76
1070
               1
1070
             174
1070
               0
1070
             147
1040
5.953125
1002
}
  0
DIMENSION
  5
170
100
AcDbEntity
  8
寸法
370
               9
390
0
  6
Continuous
 62
               7
100
AcDbDimension
  2
*D8
 10
898.65835921350015
 20
302.6832815729997
 30
0.0
 11
955.0
 21
250.0
 31
0.0
 70
               3
 71
               5
 72
               1
 41
1.0
 42
0.0
  3
HIBINO
100
AcDbDiametricDimension
 15
901.34164078649985
 25
297.3167184270003
 35
0.0
 40
52.901699437494791
1001
ACAD
1000
DSTYLE
1002
{
1070
             172
1070
               0
1070
             289
1070
               0
1070
             342
1005
40
1070
             340
1005
32
1070
              77
1070
               0
1070
              73
1070
               1
1070
              74
1070
               1
1070
              75
1070
               1
1070
              76
1070
               1
1070
               3
1000
M<>
1070
             174
1070
               0
1070
             147
1040
5.953125
1002
}
  0
DIMENSION
  5
171
100
AcDbEntity
  8
寸法
370
               9
390
0
  6
Continuous
 62
               7
100
AcDbDimension
  2
*D9
 10
-137.61188488825218
 20
147.12190764587399
 30
0.0
 11
-69.999999999999915
 21
275.0
 31
0.0
 70
               3
 71
               5
 72
               1
 41
1.0
 42
0.0
  1
M6(2ヵ所)
  3
HIBINO
100
AcDbDiametricDimension
 15
-135.91885872046464
 25
152.87809235412584
 35
0.0
 40
127.29463751017997
1001
ACAD
1000
DSTYLE
1002
{
1070
             172
1070
               0
1070
             289
1070
               0
1070
             342
1005
40
1070
             340
1005
32
1070
              77
1070
               0
1070
              73
1070
               1
1070
              74
1070
               1
1070
              75
1070
               1
1070
              76
1070
               1
1070
             174
1070
               0
1070
             147
1040
5.953125
1002
}
  0
DIMENSION
  5
172
100
AcDbEntity
  8
寸法
370
               9
390
0
  6
Continuous
 62
               7
100
AcDbDimension
  2
*D10
 10
-256.76537180435861
 20
250.0
 30
0.0
 11
-196.76537180435849
 21
250.0
 31
0.0
 71
               5
 72
               1
 41
1.0
 42
0.0
  3
HIBINO
100
AcDbAlignedDimension
 13
-136.76537180435838
 23
150.0
 33
0.0
 14
-256.76537180435861
 24
150.0
 34
0.0
100
AcDbRotatedDimension
1001
ACAD
1000
DSTYLE
1002
{
1070
             271
1070
               0
1070
             279
1070
               2
1070
             340
1005
32
1070
             147
1040
2.5
1002
}
  0
DIMENSION
  5
173
100
AcDbEntity
  8
寸法
370
               9
390
0
  6
Continuous
 62
               7
100
AcDbDimension
  2
*D11
 10
-383.76537180435992
 20
-425.0
 30
0.0
 11
-196.76537180435992
 21
-425.0
 31
0.0
 71
               5
 72
               1
 41
1.0
 42
0.0
  3
HIBINO
100
AcDbAlignedDimension
 13
-9.7653718043599156
 23
-380.49999999999955
 33
0.0
 14
-383.76537180435992
 24
-380.49999999999818
 34
0.0
100
AcDbRotatedDimension
1001
ACAD
1000
DSTYLE
1002
{
1070
             271
1070
               0
1070
             279
1070
               2
1070
             340
1005
32
1070
             147
1040
2.5
1002
}
  0
DIMENSION
  5
174
100
AcDbEntity
  8
寸法
370
               9
390
0
  6
Continuous
 62
               7
100
AcDbDimension
  2
*D12
 10
150.0
 20
-0.0000000000009095
 30
0.0
 11
150.0
 21
-176.00000000000091
 31
0.0
 71
               5
 72
               1
 41
1.0
 42
0.0
  3
HIBINO
100
AcDbAlignedDimension
 13
53.234628195642159
 23
-352.00000000000091
 33
0.0
 14
73.234628195641676
 24
-0.0000000000009095
 34
0.0
 50
-90.0
100
AcDbRotatedDimension
1001
ACAD
1000
DSTYLE
1002
{
1070
             271
1070
               0
1070
             279
1070
               2
1070
             340
1005
32
1070
             147
1040
2.5
1002
}
  0
MTEXT
  5
175
100
AcDbEntity
  8
一般
390
0
 62
               7
100
AcDbMText
 10
-157.07787180435849
 20
320.58638671875002
 30
0.0
 40
28.504720052083332
 41
0.0
 71
               1
 72
               1
  1
{\fＭＳ ゴシック|b0|i0|c128|p0;\l※}
 73
               1
 44
0.7828267384257843
  0
DIMENSION
  5
176
100
AcDbEntity
  8
寸法
370
               9
390
0
  6
Continuous
 62
               7
100
AcDbDimension
  2
*D13
 10
-316.76537180435849
 20
25.0
 30
0.0
 11
-196.76537180435844
 21
25.0
 31
0.0
 71
               5
 72
               1
 41
1.0
 42
0.0
  3
HIBINO
100
AcDbAlignedDimension
 13
-76.765371804358381
 23
150.0
 33
0.0
 14
-316.76537180435849
 24
150.0
 34
0.0
100
AcDbRotatedDimension
1001
ACAD
1000
DSTYLE
1002
{
1070
             271
1070
               0
1070
             279
1070
               2
1070
             340
1005
32
1070
             147
1040
2.5
1002
}
  0
MTEXT
  5
177
100
AcDbEntity
  8
一般
390
0
 62
               7
100
AcDbMText
 10
-157.07787180435844
 20
95.586386718749992
 30
0.0
 40
28.504720052083332
 41
0.0
 71
               1
 72
               1
  1
{\fＭＳ ゴシック|b0|i0|c128|p0;\l※}
 73
               1
 44
0.7828267384257843
  0
MTEXT
  5
178
100
AcDbEntity
  8
一般
390
0
 62
               7
100
AcDbMText
 10
-70.0
 20
243.75436197916665
 30
0.0
 40
40.721028645833343
 41
0.0
 71
               1
 72
               1
  1
{\fＭＳ ゴシック|b0|i0|c128|p0;\l(落下防止用)}
 73
               1
 44
0.7828267384257843
  0
DIMENSION
  5
179
100
AcDbEntity
  8
寸法
370
               9
390
0
  6
Continuous
 62
               7
100
AcDbDimension
  2
*D14
 10
-202.10817774764314
 20
152.73027922608691
 30
0.0
 11
-19.999999999999943
 21
75.000000000000043
 31
0.0
 70
               3
 71
               5
 72
               1
 41
1.0
 42
0.0
  3
HIBINO
100
AcDbDiametricDimension
 15
-191.42256586107362
 25
147.26972077391312
 35
0.0
 40
158.81830711687201
1001
ACAD
1000
DSTYLE
1002
{
1070
             172
1070
               0
1070
             289
1070
               0
1070
             342
1005
40
1070
             340
1005
32
1070
              77
1070
               0
1070
              73
1070
               1
1070
              74
1070
               1
1070
              75
1070
               1
1070
              76
1070
               1
1070
               3
1000
(3ヵ所)
1070
             174
1070
               0
1070
             147
1040
5.953125
1002
}
  0
MTEXT
  5
17A
100
AcDbEntity
  8
一般
390
0
 62
               7
100
AcDbMText
 10
-1312.4999999999998
 20
-1754.2281193923614
 30
0.0
 40
28.504720052083339
 41
0.0
 71
               1
 72
               1
  1
{\fＭＳ ゴシック|b0|i0|c128|p0;\l※仕様及び外観は予告なく変更されることがあります。\P　また、同一商品でも若干の個体差があることがあります。ご了承ください。}
 73
               1
 44
0.7828267384257843
  0
LINE
  5
17B
100
AcDbEntity
  8
一般
370
               9
390
0
  6
Continuous
 62
               7
100
AcDbLine
 10
-19.765371804359916
 20
-375.00000000000023
 30
0.0
 11
-19.765371804359916
 21
-380.50000000000023
 31
0.0
  0
LINE
  5
17C
100
AcDbEntity
  8
一般
370
               9
390
0
  6
Continuous
 62
               7
100
AcDbLine
 10
-9.7653718043599156
 20
-380.49999999999955
 30
0.0
 11
-19.765371804359916
 21
-380.50000000000023
 31
0.0
  0
LINE
  5
17D
100
AcDbEntity
  8
一般
370
               9
390
0
  6
Continuous
 62
               7
100
AcDbLine
 10
-9.7653718043599156
 20
-374.99999999999943
 30
0.0
 11
-9.7653718043599156
 21
-380.49999999999955
 31
0.0
  0
LINE
  5
17E
100
AcDbEntity
  8
一般
370
               9
390
0
  6
Continuous
 62
               7
100
AcDbLine
 10
-9.7653718043599156
 20
-374.99999999999943
 30
0.0
 11
-19.765371804359916
 21
-375.00000000000023
 31
0.0
  0
LINE
  5
17F
100
AcDbEntity
  8
一般
370
               9
390
0
  6
Continuous
 62
               7
100
AcDbLine
 10
-19.265371804359916
 20
-381.00000000000023
 30
0.0
 11
-10.265371804359916
 21
-380.99999999999943
 31
0.0
  0
ARC
  5
180
100
AcDbEntity
  8
一般
370
               9
390
0
  6
Continuous
 62
               7
100
AcDbCircle
 10
-10.265371804359916
 20
-380.49999999999955
 30
0.0
 40
0.5
100
AcDbArc
 50
270.0
 51
0.0
  0
ARC
  5
181
100
AcDbEntity
  8
一般
370
               9
390
0
  6
Continuous
 62
               7
100
AcDbCircle
 10
-19.265371804359916
 20
-380.50000000000023
 30
0.0
 40
0.5000000000002274
100
AcDbArc
 50
180.0
 51
270.0
  0
LINE
  5
182
100
AcDbEntity
  8
一般
370
               9
390
0
  6
Continuous
 62
               7
100
AcDbLine
 10
-383.76537180435992
 20
-374.99999999999818
 30
0.0
 11
-383.76537180435992
 21
-380.49999999999818
 31
0.0
  0
LINE
  5
183
100
AcDbEntity
  8
一般
370
               9
390
0
  6
Continuous
 62
               7
100
AcDbLine
 10
-373.76537180435992
 20
-380.4999999999975
 30
0.0
 11
-383.76537180435992
 21
-380.49999999999818
 31
0.0
  0
LINE
  5
184
100
AcDbEntity
  8
一般
370
               9
390
0
  6
Continuous
 62
               7
100
AcDbLine
 10
-373.76537180435992
 20
-374.9999999999975
 30
0.0
 11
-373.76537180435992
 21
-380.4999999999975
 31
0.0
  0
LINE
  5
185
100
AcDbEntity
  8
一般
370
               9
390
0
  6
Continuous
 62
               7
100
AcDbLine
 10
-373.76537180435992
 20
-374.9999999999975
 30
0.0
 11
-383.76537180435992
 21
-374.99999999999818
 31
0.0
  0
LINE
  5
186
100
AcDbEntity
  8
一般
370
               9
390
0
  6
Continuous
 62
               7
100
AcDbLine
 10
-383.26537180435992
 20
-380.99999999999818
 30
0.0
 11
-374.26537180435992
 21
-380.9999999999975
 31
0.0
  0
ARC
  5
187
100
AcDbEntity
  8
一般
370
               9
390
0
  6
Continuous
 62
               7
100
AcDbCircle
 10
-374.26537180435992
 20
-380.4999999999975
 30
0.0
 40
0.5
100
AcDbArc
 50
270.0
 51
0.0
  0
ARC
  5
188
100
AcDbEntity
  8
一般
370
               9
390
0
  6
Continuous
 62
               7
100
AcDbCircle
 10
-383.26537180435992
 20
-380.49999999999818
 30
0.0
 40
0.5
100
AcDbArc
 50
180.0
 51
270.0
  0
LINE
  5
189
100
AcDbEntity
  8
一般
370
               9
390
0
  6
Continuous
 62
               7
100
AcDbLine
 10
-9.7653718043571871
 20
0.0
 30
0.0
 11
-9.7653718043594608
 21
-375.0
 31
0.0
  0
LINE
  5
18A
100
AcDbEntity
  8
一般
370
               9
390
0
  6
Continuous
 62
               7
100
AcDbLine
 10
-19.765371804358551
 20
-9.9999999999999716
 30
0.0
 11
-19.765371804359461
 21
-375.0
 31
0.0
  0
LINE
  5
18B
100
AcDbEntity
  8
一般
370
               9
390
0
  6
Continuous
 62
               7
100
AcDbLine
 10
-9.7653718043571871
 20
0.0
 30
0.0
 11
-19.765371804358551
 21
-9.9999999999999716
 31
0.0
  0
LINE
  5
18C
100
AcDbEntity
  8
一般
370
               9
390
0
  6
Continuous
 62
               7
100
AcDbLine
 10
-373.76537180435832
 20
-9.9999999999999716
 30
0.0
 11
-383.76537180435946
 21
0.0
 31
0.0
  0
LINE
  5
18D
100
AcDbEntity
  8
一般
370
               9
390
0
  6
Continuous
 62
               7
100
AcDbLine
 10
-383.76537180435946
 20
0.0
 30
0.0
 11
-383.76537180435696
 21
-375.0
 31
0.0
  0
LINE
  5
18E
100
AcDbEntity
  8
一般
370
               9
390
0
  6
Continuous
 62
               7
100
AcDbLine
 10
-373.76537180435832
 20
-9.9999999999999716
 30
0.0
 11
-373.76537180435696
 21
-375.0
 31
0.0
  0
LINE
  5
18F
100
AcDbEntity
  8
一般
370
               9
390
0
  6
Continuous
 62
               7
100
AcDbLine
 10
-373.76537180435832
 20
-10.000000000000028
 30
0.0
 11
-19.765371804358551
 21
-10.000000000000028
 31
0.0
  0
LINE
  5
190
100
AcDbEntity
  8
一般
370
               9
390
0
  6
Continuous
 62
               7
100
AcDbLine
 10
-383.76537180435832
 20
0.0
 30
0.0
 11
-9.765371804358324
 21
0.0
 31
0.0
  0
LINE
  5
191
100
AcDbEntity
  8
一般
370
               9
390
0
  6
Continuous
 62
               7
100
AcDbLine
 10
33.234628195638976
 20
-374.99999999999784
 30
0.0
 11
33.234628195638976
 21
-380.49999999999773
 31
0.0
  0
LINE
  5
192
100
AcDbEntity
  8
一般
370
               9
390
0
  6
Continuous
 62
               7
100
AcDbLine
 10
73.234628195638948
 20
-380.49999999999909
 30
0.0
 11
33.234628195638976
 21
-380.49999999999773
 31
0.0
  0
LINE
  5
193
100
AcDbEntity
  8
一般
370
               9
390
0
  6
Continuous
 62
               7
100
AcDbLine
 10
73.234628195638948
 20
-374.99999999999909
 30
0.0
 11
73.234628195638948
 21
-380.49999999999909
 31
0.0
  0
LINE
  5
194
100
AcDbEntity
  8
一般
370
               9
390
0
  6
Continuous
 62
               7
100
AcDbLine
 10
73.234628195638948
 20
-374.99999999999909
 30
0.0
 11
33.234628195638976
 21
-374.99999999999784
 31
0.0
  0
ARC
  5
195
100
AcDbEntity
  8
一般
370
               9
390
0
  6
Continuous
 62
               7
100
AcDbCircle
 10
33.734628195638976
 20
-380.49999999999773
 30
0.0
 40
0.5000000000002274
100
AcDbArc
 50
180.0
 51
270.0
  0
LINE
  5
196
100
AcDbEntity
  8
一般
370
               9
390
0
  6
Continuous
 62
               7
100
AcDbLine
 10
33.734628195638976
 20
-380.99999999999784
 30
0.0
 11
72.73462819563872
 21
-380.99999999999909
 31
0.0
  0
ARC
  5
197
100
AcDbEntity
  8
一般
370
               9
390
0
  6
Continuous
 62
               7
100
AcDbCircle
 10
72.73462819563872
 20
-380.49999999999909
 30
0.0
 40
0.5000000000001137
100
AcDbArc
 50
270.0
 51
0.0
  0
LINE
  5
198
100
AcDbEntity
  8
一般
370
               9
390
0
  6
Continuous
 62
               7
100
AcDbLine
 10
73.234628195641676
 20
-0.0000000000009095
 30
0.0
 11
73.234628195642131
 21
-375.00000000000091
 31
0.0
  0
LINE
  5
199
100
AcDbEntity
  8
一般
370
               9
390
0
  6
Continuous
 62
               7
100
AcDbLine
 10
33.234628195641704
 20
-0.0000000000009095
 30
0.0
 11
33.234628195642159
 21
-375.00000000000091
 31
0.0
  0
CIRCLE
  5
19A
100
AcDbEntity
  8
一般
370
               9
390
0
  6
Continuous
 62
               7
100
AcDbCircle
 10
53.234628195642159
 20
-352.00000000000091
 30
0.0
 40
9.9999999999999716
  0
LINE
  5
19B
100
AcDbEntity
  8
一般
370
               9
390
0
  6
Continuous
 62
               7
100
AcDbLine
 10
73.234628195641676
 20
-0.0000000000009095
 30
0.0
 11
33.234628195641704
 21
-0.0000000000009095
 31
0.0
  0
CIRCLE
  5
19C
100
AcDbEntity
  8
一般
370
               9
390
0
  6
Continuous
 62
               7
100
AcDbCircle
 10
53.234628195642159
 20
-352.00000000000091
 30
0.0
 40
3.4999999999997726
  0
LINE
  5
19D
100
AcDbEntity
  8
一般
370
               9
390
0
  6
Continuous
 62
               7
100
AcDbLine
 10
-9.7653718043599724
 20
130.0
 30
0.0
 11
-9.7653718043599724
 21
170.0
 31
0.0
  0
LINE
  5
19E
100
AcDbEntity
  8
一般
370
               9
390
0
  6
Continuous
 62
               7
100
AcDbLine
 10
-383.76537180435997
 20
170.0
 30
0.0
 11
-383.76537180435997
 21
130.0
 31
0.0
  0
CIRCLE
  5
19F
100
AcDbEntity
  8
一般
370
               9
390
0
  6
Continuous
 62
               7
100
AcDbCircle
 10
-256.76537180435861
 20
150.0
 30
0.0
 40
3.0
  0
CIRCLE
  5
1A0
100
AcDbEntity
  8
一般
370
               9
390
0
  6
Continuous
 62
               7
100
AcDbCircle
 10
-136.76537180435838
 20
150.0
 30
0.0
 40
3.0
  0
LINE
  5
1A1
100
AcDbEntity
  8
一般
370
               9
390
0
  6
Continuous
 62
               7
100
AcDbLine
 10
-383.76537180435997
 20
170.0
 30
0.0
 11
-9.7653718043599724
 21
170.0
 31
0.0
  0
LINE
  5
1A2
100
AcDbEntity
  8
一般
370
               9
390
0
  6
Continuous
 62
               7
100
AcDbLine
 10
-383.76537180435997
 20
130.0
 30
0.0
 11
-9.7653718043599724
 21
130.0
 31
0.0
  0
CIRCLE
  5
1A3
100
AcDbEntity
  8
一般
370
               9
390
0
  6
Continuous
 62
               7
100
AcDbCircle
 10
-196.76537180435838
 20
150.0
 30
0.0
 40
6.0
  0
CIRCLE
  5
1A4
100
AcDbEntity
  8
一般
370
               9
390
0
  6
Continuous
 62
               7
100
AcDbCircle
 10
-316.76537180435849
 20
150.0
 30
0.0
 40
5.9999999999998863
  0
CIRCLE
  5
1A5
100
AcDbEntity
  8
一般
370
               9
390
0
  6
Continuous
 62
               7
100
AcDbCircle
 10
-76.765371804358381
 20
150.0
 30
0.0
 40
6.0
  0
LINE
  5
1A6
100
AcDbEntity
  8
一般
370
               9
390
0
  6
Continuous
 62
               7
100
AcDbLine
 10
-19.765371804359972
 20
-480.00000000000136
 30
0.0
 11
-19.765371804359972
 21
-520.00000000000136
 31
0.0
  0
LINE
  5
1A7
100
AcDbEntity
  8
一般
370
               9
390
0
  6
Continuous
 62
               7
100
AcDbLine
 10
-19.765371804359972
 20
-520.00000000000125
 30
0.0
 11
-19.265371804359972
 21
-519.50000000000125
 31
0.0
  0
LINE
  5
1A8
100
AcDbEntity
  8
一般
370
               9
390
0
  6
Continuous
 62
               7
100
AcDbLine
 10
-19.265371804359972
 20
-519.50000000000125
 30
0.0
 11
-19.265371804359972
 21
-480.50000000000171
 31
0.0
  0
LINE
  5
1A9
100
AcDbEntity
  8
一般
370
               9
390
0
  6
Continuous
 62
               7
100
AcDbLine
 10
-19.265371804359972
 20
-480.50000000000171
 30
0.0
 11
-19.765371804359972
 21
-480.00000000000171
 31
0.0
  0
LINE
  5
1AA
100
AcDbEntity
  8
一般
370
               9
390
0
  6
Continuous
 62
               7
100
AcDbLine
 10
-10.265371804359972
 20
-519.50000000000125
 30
0.0
 11
-19.265371804359972
 21
-519.50000000000125
 31
0.0
  0
LINE
  5
1AB
100
AcDbEntity
  8
一般
370
               9
390
0
  6
Continuous
 62
               7
100
AcDbLine
 10
-10.265371804359972
 20
-480.50000000000171
 30
0.0
 11
-10.265371804359972
 21
-519.50000000000125
 31
0.0
  0
LINE
  5
1AC
100
AcDbEntity
  8
一般
370
               9
390
0
  6
Continuous
 62
               7
100
AcDbLine
 10
-19.265371804359972
 20
-480.50000000000171
 30
0.0
 11
-10.265371804359972
 21
-480.50000000000171
 31
0.0
  0
LINE
  5
1AD
100
AcDbEntity
  8
一般
370
               9
390
0
  6
Continuous
 62
               7
100
AcDbLine
 10
-10.265371804359972
 20
-480.50000000000171
 30
0.0
 11
-9.7653718043599724
 21
-480.00000000000171
 31
0.0
  0
LINE
  5
1AE
100
AcDbEntity
  8
一般
370
               9
390
0
  6
Continuous
 62
               7
100
AcDbLine
 10
-9.7653718043599724
 20
-520.00000000000125
 30
0.0
 11
-10.265371804359972
 21
-519.50000000000125
 31
0.0
  0
LINE
  5
1AF
100
AcDbEntity
  8
一般
370
               9
390
0
  6
Continuous
 62
               7
100
AcDbLine
 10
-9.7653718043599724
 20
-520.0
 30
0.0
 11
-9.7653718043599724
 21
-480.0
 31
0.0
  0
LINE
  5
1B0
100
AcDbEntity
  8
一般
370
               9
390
0
  6
Continuous
 62
               7
100
AcDbLine
 10
-383.26537180435975
 20
-519.50000000000284
 30
0.0
 11
-383.26537180435997
 21
-480.5000000000033
 31
0.0
  0
LINE
  5
1B1
100
AcDbEntity
  8
一般
370
               9
390
0
  6
Continuous
 62
               7
100
AcDbLine
 10
-374.26537180435997
 20
-519.50000000000284
 30
0.0
 11
-383.26537180435975
 21
-519.50000000000284
 31
0.0
  0
LINE
  5
1B2
100
AcDbEntity
  8
一般
370
               9
390
0
  6
Continuous
 62
               7
100
AcDbLine
 10
-374.26537180435997
 20
-480.5000000000033
 30
0.0
 11
-374.26537180435997
 21
-519.50000000000284
 31
0.0
  0
LINE
  5
1B3
100
AcDbEntity
  8
一般
370
               9
390
0
  6
Continuous
 62
               7
100
AcDbLine
 10
-383.26537180435997
 20
-480.5000000000033
 30
0.0
 11
-374.26537180435997
 21
-480.5000000000033
 31
0.0
  0
LINE
  5
1B4
100
AcDbEntity
  8
一般
370
               9
390
0
  6
Continuous
 62
               7
100
AcDbLine
 10
-374.26537180435997
 20
-480.5000000000033
 30
0.0
 11
-373.76537180435997
 21
-480.0000000000033
 31
0.0
  0
LINE
  5
1B5
100
AcDbEntity
  8
一般
370
               9
390
0
  6
Continuous
 62
               7
100
AcDbLine
 10
-383.26537180435997
 20
-480.5000000000033
 30
0.0
 11
-383.76537180435997
 21
-480.0000000000033
 31
0.0
  0
LINE
  5
1B6
100
AcDbEntity
  8
一般
370
               9
390
0
  6
Continuous
 62
               7
100
AcDbLine
 10
-383.76537180435997
 20
-480.0
 30
0.0
 11
-383.76537180435997
 21
-520.0
 31
0.0
  0
LINE
  5
1B7
100
AcDbEntity
  8
一般
370
               9
390
0
  6
Continuous
 62
               7
100
AcDbLine
 10
-383.76537180435975
 20
-520.00000000000284
 30
0.0
 11
-383.26537180435975
 21
-519.50000000000284
 31
0.0
  0
LINE
  5
1B8
100
AcDbEntity
  8
一般
370
               9
390
0
  6
Continuous
 62
               7
100
AcDbLine
 10
-373.76537180435975
 20
-520.00000000000284
 30
0.0
 11
-374.26537180435997
 21
-519.50000000000284
 31
0.0
  0
LINE
  5
1B9
100
AcDbEntity
  8
一般
370
               9
390
0
  6
Continuous
 62
               7
100
AcDbLine
 10
-373.76537180435975
 20
-520.00000000000284
 30
0.0
 11
-373.76537180435997
 21
-480.00000000000307
 31
0.0
  0
CIRCLE
  5
1BA
100
AcDbEntity
  8
一般
370
               9
390
0
  6
Continuous
 62
               7
100
AcDbCircle
 10
-256.76537180435861
 20
-500.0
 30
0.0
 40
6.0000000000002274
  0
CIRCLE
  5
1BB
100
AcDbEntity
  8
一般
370
               9
390
0
  6
Continuous
 62
               7
100
AcDbCircle
 10
-256.76537180435861
 20
-500.0
 30
0.0
 40
5.5000000000002274
  0
CIRCLE
  5
1BC
100
AcDbEntity
  8
一般
370
               9
390
0
  6
Continuous
 62
               7
100
AcDbCircle
 10
-256.76537180435861
 20
-500.0
 30
0.0
 40
2.5
  0
CIRCLE
  5
1BD
100
AcDbEntity
  8
一般
370
               9
390
0
  6
Continuous
 62
               7
100
AcDbCircle
 10
-136.76537180435838
 20
-500.0
 30
0.0
 40
6.0
  0
CIRCLE
  5
1BE
100
AcDbEntity
  8
一般
370
               9
390
0
  6
Continuous
 62
               7
100
AcDbCircle
 10
-136.76537180435838
 20
-500.0
 30
0.0
 40
5.5
  0
CIRCLE
  5
1BF
100
AcDbEntity
  8
一般
370
               9
390
0
  6
Continuous
 62
               7
100
AcDbCircle
 10
-136.76537180435838
 20
-500.0
 30
0.0
 40
2.5
  0
LINE
  5
1C0
100
AcDbEntity
  8
一般
370
               9
390
0
  6
Continuous
 62
               7
100
AcDbLine
 10
-383.76537180435997
 20
-480.0
 30
0.0
 11
-9.7653718043599724
 21
-480.0
 31
0.0
  0
LINE
  5
1C1
100
AcDbEntity
  8
一般
370
               9
390
0
  6
Continuous
 62
               7
100
AcDbLine
 10
-383.76537180435997
 20
-520.0
 30
0.0
 11
-9.7653718043599724
 21
-520.0
 31
0.0
  0
CIRCLE
  5
1C2
100
AcDbEntity
  8
一般
370
               9
390
0
  6
Continuous
 62
               7
100
AcDbCircle
 10
-196.76537180435838
 20
-500.0
 30
0.0
 40
6.0
  0
CIRCLE
  5
1C3
100
AcDbEntity
  8
一般
370
               9
390
0
  6
Continuous
 62
               7
100
AcDbCircle
 10
-316.76537180435849
 20
-500.0
 30
0.0
 40
5.9999999999998863
  0
CIRCLE
  5
1C4
100
AcDbEntity
  8
一般
370
               9
390
0
  6
Continuous
 62
               7
100
AcDbCircle
 10
-76.765371804358381
 20
-500.0
 30
0.0
 40
6.0
  0
CIRCLE
  5
1C5
100
AcDbEntity
  8
一般
370
               9
390
0
  6
Continuous
 62
               7
100
AcDbCircle
 10
-136.76537180435838
 20
-500.0
 30
0.0
 40
10.0
  0
CIRCLE
  5
1C6
100
AcDbEntity
  8
一般
370
               9
390
0
  6
Continuous
 62
               7
100
AcDbCircle
 10
-256.76537180435861
 20
-500.0
 30
0.0
 40
10.0
  0
MTEXT
  5
1C7
100
AcDbEntity
  8
一般
390
0
 62
               7
100
AcDbMText
 10
749.99999999999977
 20
-1697.2647303298609
 30
0.0
 40
36.64892578125
 41
0.0
 71
               1
 72
               1
  1
{\fＭＳ ゴシック|b0|i0|c128|p0;\lCUD12V}
 73
               1
 44
0.7828267384257843
  0
MTEXT
  5
1C8
100
AcDbEntity
  8
一般
390
0
 62
               7
100
AcDbMText
 10
749.99999999999977
 20
-1588.5147303298609
 30
0.0
 40
36.64892578125
 41
0.0
 71
               1
 72
               1
  1
{\fＭＳ ゴシック|b0|i0|c128|p0;\lCODA}
 73
               1
 44
0.7828267384257843
  0
MTEXT
  5
1C9
100
AcDbEntity
  8
一般
390
0
 62
               7
100
AcDbMText
 10
712.49999999999977
 20
-1650.718261059028
 30
0.0
 40
28.504720052083339
 41
0.0
 71
               1
 72
               1
  1
{\fＭＳ ゴシック|b0|i0|c128|p0;\lブラケット}
 73
               1
 44
0.7828267384257843
  0
POLYLINE
  5
1CA
100
AcDbEntity
  8
一般
370
               9
390
0
  6
Continuous
 62
               7
100
AcDb2dPolyline
 66
               1
 10
0.0
 20
0.0
 30
0.0
 70
               1
 75
               5
  0
VERTEX
  5
1CB
100
AcDbEntity
  8
一般
370
               9
390
0
  6
Continuous
 62
               7
100
AcDbVertex
100
AcDb2dVertex
 10
800.0
 20
501.0
 30
0.0
  0
VERTEX
  5
1CC
100
AcDbEntity
  8
一般
370
               9
390
0
  6
Continuous
 62
               7
100
AcDbVertex
100
AcDb2dVertex
 10
829.0
 20
501.0
 30
0.0
  0
VERTEX
  5
1CD
100
AcDbEntity
  8
一般
370
               9
390
0
  6
Continuous
 62
               7
100
AcDbVertex
100
AcDb2dVertex
 10
829.0
 20
400.0
 30
0.0
  0
VERTEX
  5
1CE
100
AcDbEntity
  8
一般
370
               9
390
0
  6
Continuous
 62
               7
100
AcDbVertex
100
AcDb2dVertex
 10
800.0
 20
400.0
 30
0.0
  0
SEQEND
  5
1CF
100
AcDbEntity
  8
一般
370
               9
390
0
  6
Continuous
 62
               7
  0
LINE
  5
1D1
100
AcDbEntity
  8
一般
370
               9
390
0
  6
Continuous
 62
               7
100
AcDbLine
 10
808.39241125677961
 20
275.17083798856061
 30
0.0
 11
800.54190125936248
 21
315.20843897538867
 31
0.0
  0
LINE
  5
1D2
100
AcDbEntity
  8
一般
370
               9
390
0
  6
Continuous
 62
               7
100
AcDbLine
 10
829.0
 20
279.21154166370189
 30
0.0
 11
808.39241125677961
 21
275.17083798856061
 31
0.0
  0
LINE
  5
1D3
100
AcDbEntity
  8
一般
370
               9
390
0
  6
Continuous
 62
               7
100
AcDbLine
 10
829.0
 20
320.78845833629805
 30
0.0
 11
829.0
 21
279.21154166370189
 31
0.0
  0
LINE
  5
1D4
100
AcDbEntity
  8
一般
370
               9
390
0
  6
Continuous
 62
               7
100
AcDbLine
 10
800.54190125936248
 20
315.20843897538867
 30
0.0
 11
829.0
 21
320.78845833629805
 31
0.0
  0
LINE
  5
1D5
100
AcDbEntity
  8
一般
370
               9
390
0
  6
Continuous
 62
               7
100
AcDbLine
 10
870.28845833629816
 20
320.78845833629805
 30
0.0
 11
929.71154166370184
 21
320.78845833629805
 31
0.0
  0
LINE
  5
1D6
100
AcDbEntity
  8
一般
370
               9
390
0
  6
Continuous
 62
               7
100
AcDbLine
 10
870.28845833629816
 20
279.21154166370195
 30
0.0
 11
929.71154166370184
 21
279.21154166370195
 31
0.0
  0
LINE
  5
1D7
100
AcDbEntity
  8
一般
370
               9
390
0
  6
Continuous
 62
               7
100
AcDbLine
 10
870.28845833629816
 20
275.17083798856066
 30
0.0
 11
929.71154166370184
 21
275.17083798856066
 31
0.0
  0
ARC
  5
1D8
100
AcDbEntity
  8
一般
370
               9
390
0
  6
Continuous
 62
               7
100
AcDbCircle
 10
870.28845833629816
 20
300.0
 30
0.0
 40
20.788458336298049
100
AcDbArc
 50
90.0
 51
270.0
  0
ARC
  5
1D9
100
AcDbEntity
  8
一般
370
               9
390
0
  6
Continuous
 62
               7
100
AcDbCircle
 10
929.71154166370184
 20
300.0
 30
0.0
 40
20.788458336298049
100
AcDbArc
 50
270.0
 51
90.0
  0
ARC
  5
1DA
100
AcDbEntity
  8
一般
370
               9
390
0
  6
Continuous
 62
               7
100
AcDbCircle
 10
870.28845833629816
 20
295.95929632485871
 30
0.0
 40
20.788458336298163
100
AcDbArc
 50
180.0
 51
270.0
  0
LINE
  5
1DB
100
AcDbEntity
  8
一般
370
               9
390
0
  6
Continuous
 62
               7
100
AcDbLine
 10
849.5
 20
295.95929632485871
 30
0.0
 11
849.5
 21
300.0
 31
0.0
  0
ARC
  5
1DC
100
AcDbEntity
  8
一般
370
               9
390
0
  6
Continuous
 62
               7
100
AcDbCircle
 10
929.71154166370184
 20
295.95929632485871
 30
0.0
 40
20.788458336298049
100
AcDbArc
 50
270.0
 51
0.0
  0
LINE
  5
1DD
100
AcDbEntity
  8
一般
370
               9
390
0
  6
Continuous
 62
               7
100
AcDbLine
 10
950.5
 20
295.95929632485871
 30
0.0
 11
950.5
 21
300.0
 31
0.0
  0
CIRCLE
  5
1DE
100
AcDbEntity
  8
一般
370
               9
390
0
  6
Continuous
 62
               7
100
AcDbCircle
 10
862.0
 20
300.0
 30
0.0
 40
3.1000000000000227
  0
CIRCLE
  5
1DF
100
AcDbEntity
  8
一般
370
               9
390
0
  6
Continuous
 62
               7
100
AcDbCircle
 10
862.0
 20
300.0
 30
0.0
 40
7.5
  0
CIRCLE
  5
1E0
100
AcDbEntity
  8
一般
370
               9
390
0
  6
Continuous
 62
               7
100
AcDbCircle
 10
938.0
 20
300.0
 30
0.0
 40
3.1000000000000227
  0
CIRCLE
  5
1E1
100
AcDbEntity
  8
一般
370
               9
390
0
  6
Continuous
 62
               7
100
AcDbCircle
 10
938.0
 20
300.0
 30
0.0
 40
7.5
  0
CIRCLE
  5
1E2
100
AcDbEntity
  8
一般
370
               9
390
0
  6
Continuous
 62
               7
100
AcDbCircle
 10
900.0
 20
300.0
 30
0.0
 40
3.0
  0
CIRCLE
  5
1E3
100
AcDbEntity
  8
一般
370
               9
390
0
  6
Continuous
 62
               7
100
AcDbCircle
 10
900.0
 20
300.0
 30
0.0
 40
5.5
  0
LINE
  5
1E4
100
AcDbEntity
  8
一般
370
               9
390
0
  6
STYLE_06
 62
               7
100
AcDbLine
 10
900.0
 20
337.5
 30
0.0
 11
900.0
 21
262.5
 31
0.0
  0
LINE
  5
1E5
100
AcDbEntity
  8
一般
370
               9
390
0
  6
STYLE_06
 62
               7
100
AcDbLine
 10
-396.76537180435832
 20
149.99999999999704
 30
0.0
 11
3.234628195641676
 21
149.99999999999704
 31
0.0
  0
LINE
  5
1E6
100
AcDbEntity
  8
一般
370
               9
390
0
  6
STYLE_06
 62
               7
100
AcDbLine
 10
-196.76537180435832
 20
194.99999999999409
 30
0.0
 11
-196.76537180435832
 21
119.99999999999409
 31
0.0
  0
LINE
  5
1E7
100
AcDbEntity
  8
一般
370
               9
390
0
  6
STYLE_06
 62
               7
100
AcDbLine
 10
53.234628195638948
 20
19.00000000000216
 30
0.0
 11
53.234628195638948
 21
-405.99999999999784
 31
0.0
  0
MTEXT
  5
1E8
100
AcDbEntity
  8
一般
390
0
 62
               7
100
AcDbMText
 10
850.0
 20
89.536207665838958
 30
0.0
 40
40.721028645833343
 41
0.0
 71
               5
 72
               1
  1
{\fＭＳ ゴシック|b0|i0|c128|p0;\l台座}
 73
               1
 44
0.7828267384257843
  0
LINE
  5
1E9
100
AcDbEntity
  8
一般
370
               9
390
0
  6
Continuous
 62
               7
100
AcDbLine
 10
787.5
 20
50.0
 30
0.0
 11
912.5
 21
50.0
 31
0.0
  0
ENDSEC
  0
SECTION
  2
OBJECTS
  0
DICTIONARY
  5
19
100
AcDbDictionary
280
               0
281
               1
  3
ACAD_GROUP
350
1A
  3
ACAD_MLINESTYLE
350
1B
  3
ACAD_LAYOUT
350
1E
  3
ACAD_PLOTSETTINGS
350
22
  3
ACAD_PLOTSTYLENAME
350
1F
  3
ACAD_WIPEOUT_VARS
350
23
  0
DICTIONARY
  5
1A
102
{ACAD_REACTORS
330
19
102
}
100
AcDbDictionary
280
               0
281
               1
  0
DICTIONARY
  5
1B
102
{ACAD_REACTORS
330
19
102
}
100
AcDbDictionary
280
               0
281
               1
  3
Standard
350
1C
  0
MLINESTYLE
  5
1C
102
{ACAD_REACTORS
330
1B
102
}
100
AcDbMlineStyle
  2
Standard
 70
               0
  3

 62
               0
 51
90.0
 52
90.0
 71
               2
 49
0.5
 62
             256
  6
ByLayer
 49
-0.5
 62
             256
  6
ByLayer
  0
ACDBDICTIONARYWDFLT
  5
1F
102
{ACAD_REACTORS
330
19
102
}
100
AcDbDictionary
281
               1
  3
Normal
350
1D
100
AcDbDictionaryWithDefault
340
1D
  0
ACDBPLACEHOLDER
  5
1D
102
{ACAD_REACTORS
330
1F
102
}
  0
LAYOUT
  5
20
102
{ACAD_REACTORS
330
1E
102
}
100
AcDbPlotSettings
  1

  2

  4

  6

 40
0.0
 41
0.0
 42
0.0
 43
0.0
 44
0.0
 45
0.0
 46
0.0
 47
0.0
 48
0.0
 49
0.0
140
0.0
141
0.0
142
1.0
143
1.0
 70
            1024
 72
               0
 73
               0
 74
               0
  7

 75
               0
147
1.0
148
0.0
149
0.0
100
AcDbLayout
  1
Model
 70
               0
 71
               0
 10
0.0
 20
0.0
 11
0.0
 21
0.0
 12
0.0
 22
0.0
 32
0.0
 14
0.0
 24
0.0
 34
0.0
 15
0.0
 25
0.0
 35
0.0
146
0.0
 13
0.0
 23
0.0
 33
0.0
 16
0.0
 26
0.0
 36
0.0
 17
0.0
 27
0.0
 37
0.0
 76
               0
330
A
331
0
345
0
346
0
  0
LAYOUT
  5
21
102
{ACAD_REACTORS
330
1E
102
}
100
AcDbPlotSettings
  1

  2

  4

  6

 40
0.0
 41
0.0
 42
0.0
 43
0.0
 44
0.0
 45
0.0
 46
0.0
 47
0.0
 48
0.0
 49
0.0
140
0.0
141
0.0
142
1.0
143
1.0
 70
               0
 72
               0
 73
               0
 74
               0
  7

 75
               0
147
1.0
148
0.0
149
0.0
100
AcDbLayout
  1
Layout1
 70
               0
 71
               0
 10
0.0
 20
0.0
 11
0.0
 21
0.0
 12
0.0
 22
0.0
 32
0.0
 14
0.0
 24
0.0
 34
0.0
 15
0.0
 25
0.0
 35
0.0
146
0.0
 13
0.0
 23
0.0
 33
0.0
 16
0.0
 26
0.0
 36
0.0
 17
0.0
 27
0.0
 37
0.0
 76
               0
330
B
331
0
345
0
346
0
  0
DICTIONARY
  5
1E
102
{ACAD_REACTORS
330
19
102
}
100
AcDbDictionary
280
               0
281
               1
  3
Layout1
350
21
  3
Model
350
20
  0
DICTIONARY
  5
22
102
{ACAD_REACTORS
330
19
102
}
100
AcDbDictionary
280
               0
281
               1
  0
WIPEOUTVARIABLES
  5
23
100
AcDbWipeoutVariables
 70
               0
  0
ENDSEC
  0
EOF
