  0
SECTION
  2
HEADER
  9
$ACADVER
  1
AC1015
  9
$ACADMAINTVER
 70
               6
  9
$DWGCODEPAGE
  3
ANSI_932
  9
$INSBASE
 10
0.0
 20
0.0
 30
0.0
  9
$EXTMIN
 10
-1239.5390770628428
 20
-1830.1918577640761
 30
-22.250399999999999
  9
$EXTMAX
 10
1460.4609229371563
 20
2175.8175790819014
 30
22.250399999999999
  9
$LIMMIN
 10
0.0
 20
0.0
  9
$LIMMAX
 10
0.0
 20
0.0
  9
$ORTHOMODE
 70
               0
  9
$REGENMODE
 70
               1
  9
$FILLMODE
 70
               1
  9
$QTEXTMODE
 70
               0
  9
$MIRRTEXT
 70
               1
  9
$LTSCALE
 40
76.199999999999989
  9
$ATTMODE
 70
               1
  9
$TEXTSIZE
 40
0.2
  9
$TRACEWID
 40
1.0
  9
$TEXTSTYLE
  7
Standard
  9
$CLAYER
  8
0
  9
$CELTYPE
  6
Continuous
  9
$CECOLOR
 62
             256
  9
$CELTSCALE
 40
1.0
  9
$DISPSILH
 70
               0
  9
$DIMSCALE
 40
1.0
  9
$DIMASZ
 40
37.50933837890625
  9
$DIMEXO
 40
29.999999999999996
  9
$DIMDLI
 40
4.9999999999999991
  9
$DIMRND
 40
0.0
  9
$DIMDLE
 40
0.0
  9
$DIMEXE
 40
29.999999999999996
  9
$DIMTP
 40
0.0
  9
$DIMTM
 40
0.0
  9
$DIMTXT
 40
48.865234375000092
  9
$DIMCEN
 40
0.0
  9
$DIMTSZ
 40
0.0
  9
$DIMTOL
 70
               0
  9
$DIMLIM
 70
               0
  9
$DIMTIH
 70
               0
  9
$DIMTOH
 70
               0
  9
$DIMSE1
 70
               0
  9
$DIMSE2
 70
               0
  9
$DIMTAD
 70
               1
  9
$DIMZIN
 70
              11
  9
$DIMBLK
  1
VW_EMPTYARROW
  9
$DIMASO
 70
               1
  9
$DIMSHO
 70
               1
  9
$DIMPOST
  1
<>
  9
$DIMAPOST
  1
[]
  9
$DIMALT
 70
               0
  9
$DIMALTD
 70
               2
  9
$DIMALTF
 40
1.0
  9
$DIMLFAC
 40
1.0
  9
$DIMTOFL
 70
               1
  9
$DIMTVP
 40
0.0
  9
$DIMTIX
 70
               1
  9
$DIMSOXD
 70
               0
  9
$DIMSAH
 70
               0
  9
$DIMBLK1
  1

  9
$DIMBLK2
  1

  9
$DIMSTYLE
  2
HIBINO
  9
$DIMCLRD
 70
               0
  9
$DIMCLRE
 70
               0
  9
$DIMCLRT
 70
               0
  9
$DIMTFAC
 40
1.0
  9
$DIMGAP
 40
0.4999999999999999
  9
$DIMJUST
 70
               0
  9
$DIMSD1
 70
               0
  9
$DIMSD2
 70
               0
  9
$DIMTOLJ
 70
               1
  9
$DIMTZIN
 70
              11
  9
$DIMALTZ
 70
              11
  9
$DIMALTTZ
 70
              11
  9
$DIMUPT
 70
               0
  9
$DIMDEC
 70
               2
  9
$DIMTDEC
 70
               2
  9
$DIMALTU
 70
               2
  9
$DIMALTTD
 70
               2
  9
$DIMTXSTY
  7
ＭＳ ゴシック
  9
$DIMAUNIT
 70
               0
  9
$DIMADEC
 70
               2
  9
$DIMALTRND
 40
0.0
  9
$DIMAZIN
 70
               0
  9
$DIMDSEP
 70
              46
  9
$DIMATFIT
 70
               0
  9
$DIMFRAC
 70
               2
  9
$DIMLDRBLK
  1

  9
$DIMLUNIT
 70
               2
  9
$DIMLWD
 70
              -2
  9
$DIMLWE
 70
              -2
  9
$DIMTMOVE
 70
               0
  9
$LUNITS
 70
               2
  9
$LUPREC
 70
               4
  9
$SKETCHINC
 40
0.1
  9
$FILLETRAD
 40
0.0
  9
$AUNITS
 70
               0
  9
$AUPREC
 70
               0
  9
$MENU
  1
acad
  9
$ELEVATION
 40
0.0
  9
$PELEVATION
 40
0.0
  9
$THICKNESS
 40
0.0
  9
$LIMCHECK
 70
               0
  9
$CHAMFERA
 40
0.0
  9
$CHAMFERB
 40
0.0
  9
$CHAMFERC
 40
0.0
  9
$CHAMFERD
 40
0.0
  9
$SKPOLY
 70
               0
  9
$TDCREATE
 40
2456889.742743055
  9
$TDUCREATE
 40
0.000000000
  9
$TDUPDATE
 40
2456889.742743055
  9
$TDUUPDATE
 40
0.000000000
  9
$TDINDWG
 40
0.0000000000
  9
$TDUSRTIMER
 40
0.0000000000
  9
$USRTIMER
 70
               1
  9
$ANGBASE
 50
0.0
  9
$ANGDIR
 70
               0
  9
$PDMODE
 70
               1
  9
$PDSIZE
 40
-2.0
  9
$PLINEWID
 40
0.0
  9
$SPLFRAME
 70
               0
  9
$SPLINETYPE
 70
               6
  9
$SPLINESEGS
 70
               8
  9
$HANDSEED
  5
5CD
  9
$SURFTAB1
 70
               6
  9
$SURFTAB2
 70
               6
  9
$SURFTYPE
 70
               6
  9
$SURFU
 70
               6
  9
$SURFV
 70
               6
  9
$UCSBASE
  2

  9
$UCSNAME
  2

  9
$UCSORG
 10
0.0
 20
0.0
 30
0.0
  9
$UCSXDIR
 10
1.0
 20
0.0
 30
0.0
  9
$UCSYDIR
 10
0.0
 20
1.0
 30
0.0
  9
$UCSORTHOREF
  2

  9
$UCSORTHOVIEW
 70
               0
  9
$UCSORGTOP
 10
0.0
 20
0.0
 30
0.0
  9
$UCSORGBOTTOM
 10
0.0
 20
0.0
 30
0.0
  9
$UCSORGLEFT
 10
0.0
 20
0.0
 30
0.0
  9
$UCSORGRIGHT
 10
0.0
 20
0.0
 30
0.0
  9
$UCSORGFRONT
 10
0.0
 20
0.0
 30
0.0
  9
$UCSORGBACK
 10
0.0
 20
0.0
 30
0.0
  9
$PUCSBASE
  2

  9
$PUCSNAME
  2

  9
$PUCSORG
 10
0.0
 20
0.0
 30
0.0
  9
$PUCSXDIR
 10
1.0
 20
0.0
 30
0.0
  9
$PUCSYDIR
 10
0.0
 20
1.0
 30
0.0
  9
$PUCSORTHOREF
  2

  9
$PUCSORTHOVIEW
 70
               0
  9
$PUCSORGTOP
 10
0.0
 20
0.0
 30
0.0
  9
$PUCSORGBOTTOM
 10
0.0
 20
0.0
 30
0.0
  9
$PUCSORGLEFT
 10
0.0
 20
0.0
 30
0.0
  9
$PUCSORGRIGHT
 10
0.0
 20
0.0
 30
0.0
  9
$PUCSORGFRONT
 10
0.0
 20
0.0
 30
0.0
  9
$PUCSORGBACK
 10
0.0
 20
0.0
 30
0.0
  9
$USERI1
 70
               0
  9
$USERI2
 70
               0
  9
$USERI3
 70
               0
  9
$USERI4
 70
               0
  9
$USERI5
 70
               0
  9
$USERR1
 40
0.0
  9
$USERR2
 40
0.0
  9
$USERR3
 40
0.0
  9
$USERR4
 40
0.0
  9
$USERR5
 40
0.0
  9
$WORLDVIEW
 70
               1
  9
$SHADEDGE
 70
               3
  9
$SHADEDIF
 70
              70
  9
$TILEMODE
 70
               1
  9
$MAXACTVP
 70
              64
  9
$PINSBASE
 10
0.0
 20
0.0
 30
0.0
  9
$PLIMCHECK
 70
               0
  9
$PEXTMIN
 10
1.0000000000000000E+20
 20
1.0000000000000000E+20
 30
1.0000000000000000E+20
  9
$PEXTMAX
 10
-1.0000000000000000E+20
 20
-1.0000000000000000E+20
 30
-1.0000000000000000E+20
  9
$PLIMMIN
 10
0.0
 20
0.0
  9
$PLIMMAX
 10
12.0
 20
9.0
  9
$UNITMODE
 70
               0
  9
$VISRETAIN
 70
               0
  9
$PLINEGEN
 70
               1
  9
$PSLTSCALE
 70
               0
  9
$TREEDEPTH
 70
            3020
  9
$CMLSTYLE
  2
Standard
  9
$CMLJUST
 70
               0
  9
$CMLSCALE
 40
1.0
  9
$PROXYGRAPHICS
 70
               0
  9
$MEASUREMENT
 70
               1
  9
$CELWEIGHT
370
               0
  9
$ENDCAPS
280
               0
  9
$JOINSTYLE
280
               0
  9
$LWDISPLAY
290
               0
  9
$INSUNITS
 70
               4
  9
$HYPERLINKBASE
  1

  9
$STYLESHEET
  1

  9
$XEDIT
290
               1
  9
$CEPSNTYPE
380
               0
  9
$PSTYLEMODE
290
               1
  9
$FINGERPRINTGUID
  2

  9
$VERSIONGUID
  2

  9
$EXTNAMES
290
               1
  9
$PSVPSCALE
 40
0.0
  0
ENDSEC
  0
SECTION
  2
CLASSES
  0
CLASS
  1
LWPOLYLINE
  2
AcDbPolyline
  3
AutoCAD 2000
 90
        0
280
               0
281
               1
  0
CLASS
  1
IMAGE
  2
AcDbRasterImage
  3
ISM
 90
      127
280
               0
281
               1
  0
CLASS
  1
OLE2FRAME
  2
AcDbOle2Frame
  3
AutoCAD 2000
 90
        0
280
               0
281
               1
  0
CLASS
  1
HATCH
  2
AcDbHatch
  3
AutoCAD 2000
 90
        0
280
               0
281
               1
  0
CLASS
  1
DICTIONARYVAR
  2
AcDbDictionaryVar
  3
AutoCAD 2000
 90
        0
280
               0
281
               0
  0
CLASS
  1
RASTERVARIABLES
  2
AcDbRasterVariables
  3
ISM
 90
        0
280
               0
281
               0
  0
CLASS
  1
IMAGEDEF
  2
AcDbRasterImageDef
  3
ISM
 90
        0
280
               0
281
               0
  0
CLASS
  1
IMAGEDEF_REACTOR
  2
AcDbRasterImageDefReactor
  3
ISM
 90
        1
280
               0
281
               0
  0
CLASS
  1
IDBUFFER
  2
AcDbIdBuffer
  3
AutoCAD 2000
 90
        0
280
               0
281
               0
  0
CLASS
  1
SPATIAL_FILTER
  2
AcDbSpatialFilter
  3
AutoCAD 2000
 90
        0
280
               0
281
               0
  0
CLASS
  1
XRECORD
  2
AcDbXrecord
  3
AutoCAD 2000
 90
        0
280
               0
281
               0
  0
CLASS
  1
SORTENTSTABLE
  2
AcDbSortentsTable
  3
AutoCAD 2000
 90
        0
280
               0
281
               0
  0
CLASS
  1
LAYER_INDEX
  2
AcDbLayerIndex
  3
AutoCAD 2000
 90
        0
280
               0
281
               0
  0
CLASS
  1
SPATIAL_INDEX
  2
AcDbSpatialIndex
  3
AutoCAD 2000
 90
        0
280
               0
281
               0
  0
CLASS
  1
OBJECT_PTR
  2
CAseDLPNTableRecord
  3
"ASE-LPNTableRecord"
 90
        1
280
               0
281
               0
  0
CLASS
  1
LAYOUT
  2
AcDbLayout
  3
AutoCAD 2000
 90
        0
280
               0
281
               0
  0
CLASS
  1
PLOTSETTINGS
  2
AcDbPlotSettings
  3
AutoCAD 2000
 90
        0
280
               0
281
               0
  0
CLASS
  1
ACDBDICTIONARYWDFLT
  2
AcDbDictionaryWithDefault
  3
AutoCAD 2000
 90
        0
280
               0
281
               0
  0
CLASS
  1
ACDBPLACEHOLDER
  2
AcDbPlaceHolder
  3
AutoCAD 2000
 90
        0
280
               0
281
               0
  0
CLASS
  1
VBA_PROJECT
  2
AcDbVbaProject
  3
acadvba
 90
        0
280
               0
281
               0
  0
CLASS
  1
WIPEOUT
  2
AcDbWipeout
  3
WipeOut|AutoCAD Express Tool|expresstools@autodesk.com
 90
      127
280
               0
281
               1
  0
CLASS
  1
WIPEOUTVARIABLES
  2
AcDbWipeoutVariables
  3
WipeOut|AutoCAD Express Tool|expresstools@autodesk.com
 90
        0
280
               0
281
               0
  0
CLASS
  1
RTEXT
  2
RText
  3
RText|AutoCAD Express Tool|expresstools@autodesk.com
 90
        0
280
               0
281
               1
  0
CLASS
  1
ARCALIGNEDTEXT
  2
AcDbArcAlignedText
  3
ATEXT|AutoCAD Express Tool|expresstools@autodesk.com
 90
        0
280
               0
281
               1
  0
ENDSEC
  0
SECTION
  2
TABLES
  0
TABLE
  2
VPORT
  5
7
100
AcDbSymbolTable
 70
               1
  0
VPORT
  5
15
100
AcDbSymbolTableRecord
100
AcDbViewportTableRecord
  2
*ACTIVE
 70
               0
 10
0.0
 20
0.0
 11
1.0
 21
1.0
 12
110.46092293715674
 22
172.81286065891277
 13
0.0
 23
0.0
 14
1.0
 24
1.0
 15
0.0
 25
0.0
 16
0.0
 26
0.0
 36
1.0
 17
0.0
 27
0.0
 37
0.0
 40
4006.0094368459777
 41
0.688564
 42
50.0
 43
0.0
 44
0.0
 50
0.0
 51
0.0
 71
               0
 72
            2000
 73
               1
 74
               1
 75
               0
 76
               0
 77
               0
 78
               0
281
               0
 65
               0
110
0.0
120
0.0
130
0.0
111
1.0
121
0.0
131
0.0
112
0.0
122
1.0
132
0.0
345
0
346
0
 79
               0
146
0.0
  0
ENDTAB
  0
TABLE
  2
LTYPE
  5
4
100
AcDbSymbolTable
 70
              13
  0
LTYPE
  5
11
100
AcDbSymbolTableRecord
100
AcDbLinetypeTableRecord
  2
ByBlock
 70
              64
  3

 72
              65
 73
               0
 40
0.0
  0
LTYPE
  5
12
100
AcDbSymbolTableRecord
100
AcDbLinetypeTableRecord
  2
ByLayer
 70
              64
  3

 72
              65
 73
               0
 40
0.0
  0
LTYPE
  5
13
100
AcDbSymbolTableRecord
100
AcDbLinetypeTableRecord
  2
Continuous
 70
              64
  3
Solid line
 72
              65
 73
               0
 40
0.0
  0
LTYPE
  5
61
100
AcDbSymbolTableRecord
100
AcDbLinetypeTableRecord
  2
STYLE_01
 70
               0
  3

 72
              65
 73
               4
 40
0.1333333333333333
 49
0.0833333333333333
 74
               0
 49
-0.0166666666666667
 74
               0
 49
0.0166666666666667
 74
               0
 49
-0.0166666666666667
 74
               0
  0
LTYPE
  5
62
100
AcDbSymbolTableRecord
100
AcDbLinetypeTableRecord
  2
STYLE_02
 70
               0
  3

 72
              65
 73
               4
 40
0.2666666666666667
 49
0.1666666666666667
 74
               0
 49
-0.0333333333333333
 74
               0
 49
0.0333333333333333
 74
               0
 49
-0.0333333333333333
 74
               0
  0
LTYPE
  5
63
100
AcDbSymbolTableRecord
100
AcDbLinetypeTableRecord
  2
STYLE_03
 70
               0
  3

 72
              65
 73
               2
 40
1.25
 49
1.0416412353515625
 74
               0
 49
-0.2083587646484375
 74
               0
  0
LTYPE
  5
64
100
AcDbSymbolTableRecord
100
AcDbLinetypeTableRecord
  2
STYLE_04
 70
               0
  3

 72
              65
 73
               2
 40
1.5277099609375
 49
1.319427490234375
 74
               0
 49
-0.208282470703125
 74
               0
  0
LTYPE
  5
65
100
AcDbSymbolTableRecord
100
AcDbLinetypeTableRecord
  2
STYLE_05
 70
               0
  3

 72
              65
 73
               2
 40
0.208282470703125
 49
0.069427490234375
 74
               0
 49
-0.13885498046875
 74
               0
  0
LTYPE
  5
66
100
AcDbSymbolTableRecord
100
AcDbLinetypeTableRecord
  2
STYLE_06
 70
               0
  3

 72
              65
 73
               4
 40
1.0416412353515625
 49
0.625
 74
               0
 49
-0.208282470703125
 74
               0
 49
0.069427490234375
 74
               0
 49
-0.1389312744140625
 74
               0
  0
LTYPE
  5
67
100
AcDbSymbolTableRecord
100
AcDbLinetypeTableRecord
  2
STYLE_07
 70
               0
  3

 72
              65
 73
               6
 40
1.875
 49
0.625
 74
               0
 49
-0.208282470703125
 74
               0
 49
0.625
 74
               0
 49
-0.2083587646484375
 74
               0
 49
0.069427490234375
 74
               0
 49
-0.1389312744140625
 74
               0
  0
LTYPE
  5
68
100
AcDbSymbolTableRecord
100
AcDbLinetypeTableRecord
  2
STYLE_08
 70
               0
  3

 72
              65
 73
               6
 40
1.25
 49
0.625
 74
               0
 49
-0.208282470703125
 74
               0
 49
0.069427490234375
 74
               0
 49
-0.1389312744140625
 74
               0
 49
0.069427490234375
 74
               0
 49
-0.1389312744140625
 74
               0
  0
LTYPE
  5
69
100
AcDbSymbolTableRecord
100
AcDbLinetypeTableRecord
  2
STYLE_09
 70
               0
  3

 72
              65
 73
               4
 40
5.0
 49
3.75
 74
               0
 49
-0.2777862548828125
 74
               0
 49
0.694427490234375
 74
               0
 49
-0.2777862548828125
 74
               0
  0
LTYPE
  5
6A
100
AcDbSymbolTableRecord
100
AcDbLinetypeTableRecord
  2
STYLE_10
 70
               0
  3

 72
              65
 73
               6
 40
5.9375
 49
3.75
 74
               0
 49
-0.2777862548828125
 74
               0
 49
0.694427490234375
 74
               0
 49
-0.2777862548828125
 74
               0
 49
0.625
 74
               0
 49
-0.3125
 74
               0
  0
ENDTAB
  0
TABLE
  2
LAYER
  5
2
100
AcDbSymbolTable
 70
              12
  0
LAYER
  5
14
100
AcDbSymbolTableRecord
100
AcDbLayerTableRecord
  2
0
 70
               0
 62
               7
  6
Continuous
290
               1
370
               0
390
1D
  0
LAYER
  5
6B
100
AcDbSymbolTableRecord
100
AcDbLayerTableRecord
  2
DATA
 70
               0
 62
               7
  6
Continuous
290
               1
370
               0
390
1D
  0
LAYER
  5
6C
100
AcDbSymbolTableRecord
100
AcDbLayerTableRecord
  2
一般
 70
               0
 62
               7
  6
Continuous
290
               1
370
               0
390
1D
  0
LAYER
  5
6D
100
AcDbSymbolTableRecord
100
AcDbLayerTableRecord
  2
寸法
 70
               0
 62
               7
  6
Continuous
290
               1
370
               0
390
1D
  0
LAYER
  5
6E
100
AcDbSymbolTableRecord
100
AcDbLayerTableRecord
  2
HIBINO-BASE
 70
               0
 62
               7
  6
Continuous
290
               1
370
               0
390
1D
  0
LAYER
  5
6F
100
AcDbSymbolTableRecord
100
AcDbLayerTableRecord
  2
SPEC
 70
               0
 62
               7
  6
Continuous
290
               1
370
               0
390
1D
  0
LAYER
  5
70
100
AcDbSymbolTableRecord
100
AcDbLayerTableRecord
  2
DIMNSIONS
 70
               0
 62
               7
  6
Continuous
290
               1
370
               0
390
1D
  0
LAYER
  5
71
100
AcDbSymbolTableRecord
100
AcDbLayerTableRecord
  2
Layer1
 70
               0
 62
               3
  6
Continuous
290
               1
370
               0
390
1D
  0
LAYER
  5
72
100
AcDbSymbolTableRecord
100
AcDbLayerTableRecord
  2
2D
 70
               0
 62
              82
  6
Continuous
290
               1
370
               0
390
1D
  0
LAYER
  5
73
100
AcDbSymbolTableRecord
100
AcDbLayerTableRecord
  2
FORMAT
 70
               0
 62
               7
  6
Continuous
290
               1
370
               0
390
1D
  0
LAYER
  5
74
100
AcDbSymbolTableRecord
100
AcDbLayerTableRecord
  2
Defpoints
 70
               0
 62
               7
  6
Continuous
290
               0
370
               0
390
1D
  0
LAYER
  5
75
100
AcDbSymbolTableRecord
100
AcDbLayerTableRecord
  2
5in
 70
               0
 62
               7
  6
Continuous
290
               1
370
               0
390
1D
  0
ENDTAB
  0
TABLE
  2
STYLE
  5
3
100
AcDbSymbolTable
 70
               2
  0
STYLE
  5
17
100
AcDbSymbolTableRecord
100
AcDbTextStyleTableRecord
  2
Standard
 70
               0
 40
0.0
 41
1.0
 50
0.0
 71
               0
 42
0.0
  3
txt
  4
BIGFONT.SHX
  0
STYLE
  5
60
100
AcDbSymbolTableRecord
100
AcDbTextStyleTableRecord
  2
ＭＳ ゴシック
 70
               0
 40
0.0
 41
1.0
 50
0.0
 71
               0
 42
0.0
  3

  4
ＭＳ ゴシック
1001
ACAD
1000
ＭＳ ゴシック
1071
        0
  0
ENDTAB
  0
TABLE
  2
VIEW
  5
5
100
AcDbSymbolTable
 70
               0
  0
ENDTAB
  0
TABLE
  2
UCS
  5
6
100
AcDbSymbolTable
 70
               0
  0
ENDTAB
  0
TABLE
  2
APPID
  5
8
100
AcDbSymbolTable
 70
               1
  0
APPID
  5
16
100
AcDbSymbolTableRecord
100
AcDbRegAppTableRecord
  2
ACAD
 70
               0
  0
ENDTAB
  0
TABLE
  2
DIMSTYLE
  5
9
100
AcDbSymbolTable
 70
               2
100
AcDbDimStyleTable
 71
               0
  0
DIMSTYLE
105
18
100
AcDbSymbolTableRecord
100
AcDbDimStyleTableRecord
  2
Standard
 70
               0
  3

  4

 40
1.0
 41
0.18
 42
0.0625
 43
0.38
 44
0.18
 45
0.0
 46
0.0
 47
0.0
 48
0.0
 71
               0
 72
               0
 73
               1
 74
               1
 75
               0
 76
               0
 77
               0
 78
               0
 79
               0
140
0.18
141
0.09
142
0.0
143
25.399999999999999
144
1.0
145
0.0
146
1.0
147
0.09
148
0.0
170
               0
171
               2
172
               0
173
               0
174
               0
175
               0
176
               0
177
               0
178
               0
179
               0
271
               4
272
               4
273
               2
274
               2
275
               0
276
               0
277
               2
278
              46
279
               0
280
               0
281
               0
282
               0
283
               1
284
               0
285
               0
286
               0
288
               0
289
               3
340
17
341
0
342
0
343
0
344
0
371
              -2
372
              -2
  0
DIMSTYLE
105
7F
100
AcDbSymbolTableRecord
100
AcDbDimStyleTableRecord
  2
HIBINO
 70
               0
  3
<>
  4
[]
 40
1.0
 41
37.50933837890625
 42
29.999999999999996
 43
4.9999999999999991
 44
29.999999999999996
 45
0.0
 46
0.0
 47
0.0
 48
0.0
 71
               0
 72
               0
 73
               0
 74
               0
 75
               0
 76
               0
 77
               1
 78
              11
 79
               0
140
48.865234375000092
141
0.0
142
0.0
143
1.0
144
1.0
145
0.0
146
1.0
147
0.4999999999999999
148
0.0
170
               0
171
               2
172
               1
173
               0
174
               1
175
               0
176
               0
177
               0
178
               0
179
               2
271
               2
272
               2
273
               2
274
               2
275
               0
276
               2
277
               2
278
              46
279
               0
280
               0
281
               0
282
               0
283
               1
284
              11
285
              11
286
              11
288
               0
289
               0
340
60
341
76
342
76
343
0
344
0
371
              -2
372
              -2
  0
ENDTAB
  0
TABLE
  2
BLOCK_RECORD
  5
1
100
AcDbSymbolTable
 70
              61
  0
BLOCK_RECORD
  5
A
100
AcDbSymbolTableRecord
100
AcDbBlockTableRecord
  2
*MODEL_SPACE
340
20
  0
BLOCK_RECORD
  5
B
100
AcDbSymbolTableRecord
100
AcDbBlockTableRecord
  2
*PAPER_SPACE
340
21
  0
BLOCK_RECORD
  5
76
100
AcDbSymbolTableRecord
100
AcDbBlockTableRecord
  2
VW_EMPTYARROW
340
0
  0
BLOCK_RECORD
  5
24
100
AcDbSymbolTableRecord
100
AcDbBlockTableRecord
  2
*D1
340
0
  0
BLOCK_RECORD
  5
25
100
AcDbSymbolTableRecord
100
AcDbBlockTableRecord
  2
*D2
340
0
  0
BLOCK_RECORD
  5
26
100
AcDbSymbolTableRecord
100
AcDbBlockTableRecord
  2
*D3
340
0
  0
BLOCK_RECORD
  5
27
100
AcDbSymbolTableRecord
100
AcDbBlockTableRecord
  2
*D4
340
0
  0
BLOCK_RECORD
  5
28
100
AcDbSymbolTableRecord
100
AcDbBlockTableRecord
  2
*D5
340
0
  0
BLOCK_RECORD
  5
29
100
AcDbSymbolTableRecord
100
AcDbBlockTableRecord
  2
*D6
340
0
  0
BLOCK_RECORD
  5
2A
100
AcDbSymbolTableRecord
100
AcDbBlockTableRecord
  2
*D7
340
0
  0
BLOCK_RECORD
  5
2B
100
AcDbSymbolTableRecord
100
AcDbBlockTableRecord
  2
グループ
340
0
102
{BLKREFS
331
19C
102
}
  0
BLOCK_RECORD
  5
2C
100
AcDbSymbolTableRecord
100
AcDbBlockTableRecord
  2
*D9
340
0
  0
BLOCK_RECORD
  5
2D
100
AcDbSymbolTableRecord
100
AcDbBlockTableRecord
  2
*D10
340
0
  0
BLOCK_RECORD
  5
2E
100
AcDbSymbolTableRecord
100
AcDbBlockTableRecord
  2
*D11
340
0
  0
BLOCK_RECORD
  5
2F
100
AcDbSymbolTableRecord
100
AcDbBlockTableRecord
  2
*D12
340
0
  0
BLOCK_RECORD
  5
30
100
AcDbSymbolTableRecord
100
AcDbBlockTableRecord
  2
グループ-1
340
0
102
{BLKREFS
331
19D
102
}
  0
BLOCK_RECORD
  5
31
100
AcDbSymbolTableRecord
100
AcDbBlockTableRecord
  2
グループ-2
340
0
102
{BLKREFS
331
1A1
102
}
  0
BLOCK_RECORD
  5
32
100
AcDbSymbolTableRecord
100
AcDbBlockTableRecord
  2
グループ-3
340
0
102
{BLKREFS
331
5CA
102
}
  0
BLOCK_RECORD
  5
33
100
AcDbSymbolTableRecord
100
AcDbBlockTableRecord
  2
*D16
340
0
  0
BLOCK_RECORD
  5
34
100
AcDbSymbolTableRecord
100
AcDbBlockTableRecord
  2
*D17
340
0
  0
BLOCK_RECORD
  5
35
100
AcDbSymbolTableRecord
100
AcDbBlockTableRecord
  2
*D18
340
0
  0
BLOCK_RECORD
  5
36
100
AcDbSymbolTableRecord
100
AcDbBlockTableRecord
  2
*D19
340
0
  0
BLOCK_RECORD
  5
37
100
AcDbSymbolTableRecord
100
AcDbBlockTableRecord
  2
グループ-4
340
0
102
{BLKREFS
331
2A4
102
}
  0
BLOCK_RECORD
  5
38
100
AcDbSymbolTableRecord
100
AcDbBlockTableRecord
  2
*D21
340
0
  0
BLOCK_RECORD
  5
39
100
AcDbSymbolTableRecord
100
AcDbBlockTableRecord
  2
*D22
340
0
  0
BLOCK_RECORD
  5
3A
100
AcDbSymbolTableRecord
100
AcDbBlockTableRecord
  2
*D23
340
0
  0
BLOCK_RECORD
  5
3B
100
AcDbSymbolTableRecord
100
AcDbBlockTableRecord
  2
グループ-5
340
0
102
{BLKREFS
331
2A8
102
}
  0
BLOCK_RECORD
  5
3C
100
AcDbSymbolTableRecord
100
AcDbBlockTableRecord
  2
グループ-6
340
0
102
{BLKREFS
331
2A9
102
}
  0
BLOCK_RECORD
  5
3D
100
AcDbSymbolTableRecord
100
AcDbBlockTableRecord
  2
グループ-7
340
0
102
{BLKREFS
331
2AD
102
}
  0
BLOCK_RECORD
  5
3E
100
AcDbSymbolTableRecord
100
AcDbBlockTableRecord
  2
グループ-8
340
0
102
{BLKREFS
331
2B0
102
}
  0
BLOCK_RECORD
  5
3F
100
AcDbSymbolTableRecord
100
AcDbBlockTableRecord
  2
グループ-9
340
0
102
{BLKREFS
331
5CB
102
}
  0
BLOCK_RECORD
  5
40
100
AcDbSymbolTableRecord
100
AcDbBlockTableRecord
  2
グループ-10
340
0
102
{BLKREFS
331
542
102
}
  0
BLOCK_RECORD
  5
41
100
AcDbSymbolTableRecord
100
AcDbBlockTableRecord
  2
グループ-11
340
0
102
{BLKREFS
331
543
102
}
  0
BLOCK_RECORD
  5
42
100
AcDbSymbolTableRecord
100
AcDbBlockTableRecord
  2
グループ-12
340
0
102
{BLKREFS
331
499
102
}
  0
BLOCK_RECORD
  5
43
100
AcDbSymbolTableRecord
100
AcDbBlockTableRecord
  2
グループ-13
340
0
102
{BLKREFS
331
49A
102
}
  0
BLOCK_RECORD
  5
44
100
AcDbSymbolTableRecord
100
AcDbBlockTableRecord
  2
グループ-14
340
0
102
{BLKREFS
331
49B
102
}
  0
BLOCK_RECORD
  5
45
100
AcDbSymbolTableRecord
100
AcDbBlockTableRecord
  2
グループ-15
340
0
102
{BLKREFS
331
49C
102
}
  0
BLOCK_RECORD
  5
46
100
AcDbSymbolTableRecord
100
AcDbBlockTableRecord
  2
グループ-16
340
0
102
{BLKREFS
331
49D
102
}
  0
BLOCK_RECORD
  5
47
100
AcDbSymbolTableRecord
100
AcDbBlockTableRecord
  2
グループ-17
340
0
102
{BLKREFS
331
49E
102
}
  0
BLOCK_RECORD
  5
48
100
AcDbSymbolTableRecord
100
AcDbBlockTableRecord
  2
グループ-18
340
0
102
{BLKREFS
331
49F
102
}
  0
BLOCK_RECORD
  5
49
100
AcDbSymbolTableRecord
100
AcDbBlockTableRecord
  2
*D38
340
0
  0
BLOCK_RECORD
  5
4A
100
AcDbSymbolTableRecord
100
AcDbBlockTableRecord
  2
*D39
340
0
  0
BLOCK_RECORD
  5
4B
100
AcDbSymbolTableRecord
100
AcDbBlockTableRecord
  2
*D40
340
0
  0
BLOCK_RECORD
  5
4C
100
AcDbSymbolTableRecord
100
AcDbBlockTableRecord
  2
*D41
340
0
  0
BLOCK_RECORD
  5
4D
100
AcDbSymbolTableRecord
100
AcDbBlockTableRecord
  2
*D42
340
0
  0
BLOCK_RECORD
  5
4E
100
AcDbSymbolTableRecord
100
AcDbBlockTableRecord
  2
*D43
340
0
  0
BLOCK_RECORD
  5
4F
100
AcDbSymbolTableRecord
100
AcDbBlockTableRecord
  2
*D44
340
0
  0
BLOCK_RECORD
  5
50
100
AcDbSymbolTableRecord
100
AcDbBlockTableRecord
  2
*D45
340
0
  0
BLOCK_RECORD
  5
51
100
AcDbSymbolTableRecord
100
AcDbBlockTableRecord
  2
*D46
340
0
  0
BLOCK_RECORD
  5
52
100
AcDbSymbolTableRecord
100
AcDbBlockTableRecord
  2
グループ-19
340
0
102
{BLKREFS
331
544
102
}
  0
BLOCK_RECORD
  5
53
100
AcDbSymbolTableRecord
100
AcDbBlockTableRecord
  2
*D48
340
0
  0
BLOCK_RECORD
  5
54
100
AcDbSymbolTableRecord
100
AcDbBlockTableRecord
  2
*D49
340
0
  0
BLOCK_RECORD
  5
55
100
AcDbSymbolTableRecord
100
AcDbBlockTableRecord
  2
*D50
340
0
  0
BLOCK_RECORD
  5
56
100
AcDbSymbolTableRecord
100
AcDbBlockTableRecord
  2
グループ-20
340
0
102
{BLKREFS
331
545
102
}
  0
BLOCK_RECORD
  5
57
100
AcDbSymbolTableRecord
100
AcDbBlockTableRecord
  2
グループ-21
340
0
102
{BLKREFS
331
549
102
}
  0
BLOCK_RECORD
  5
58
100
AcDbSymbolTableRecord
100
AcDbBlockTableRecord
  2
グループ-22
340
0
102
{BLKREFS
331
591
102
}
  0
BLOCK_RECORD
  5
59
100
AcDbSymbolTableRecord
100
AcDbBlockTableRecord
  2
Callout
340
0
102
{BLKREFS
331
58D
102
}
  0
BLOCK_RECORD
  5
5A
100
AcDbSymbolTableRecord
100
AcDbBlockTableRecord
  2
グループ-23
340
0
102
{BLKREFS
331
57E
102
}
  0
BLOCK_RECORD
  5
5B
100
AcDbSymbolTableRecord
100
AcDbBlockTableRecord
  2
グループ-24
340
0
102
{BLKREFS
331
57F
102
}
  0
BLOCK_RECORD
  5
5C
100
AcDbSymbolTableRecord
100
AcDbBlockTableRecord
  2
グループ-25
340
0
102
{BLKREFS
331
582
102
}
  0
BLOCK_RECORD
  5
5D
100
AcDbSymbolTableRecord
100
AcDbBlockTableRecord
  2
グループ-26
340
0
102
{BLKREFS
331
58E
102
}
  0
BLOCK_RECORD
  5
5E
100
AcDbSymbolTableRecord
100
AcDbBlockTableRecord
  2
グループ-27
340
0
102
{BLKREFS
331
593
102
}
  0
BLOCK_RECORD
  5
5F
100
AcDbSymbolTableRecord
100
AcDbBlockTableRecord
  2
グループ-28
340
0
102
{BLKREFS
331
5CC
102
}
  0
ENDTAB
  0
ENDSEC
  0
SECTION
  2
BLOCKS
  0
BLOCK
  5
D
100
AcDbEntity
  8
0
390
0
100
AcDbBlockBegin
  2
*MODEL_SPACE
 70
               0
 10
0.0
 20
0.0
 30
0.0
  3
*MODEL_SPACE
  1

  0
ENDBLK
  5
E
100
AcDbEntity
  8
0
390
0
100
AcDbBlockEnd
  0
BLOCK
  5
F
100
AcDbEntity
 67
               1
  8
0
390
0
100
AcDbBlockBegin
  2
*PAPER_SPACE
 70
               0
 10
0.0
 20
0.0
 30
0.0
  3
*PAPER_SPACE
  1

  0
ENDBLK
  5
10
100
AcDbEntity
 67
               1
  8
0
390
0
100
AcDbBlockEnd
  0
BLOCK
  5
77
100
AcDbEntity
  8
0
370
              -2
390
0
  6
ByBlock
 62
               0
100
AcDbBlockBegin
  2
VW_EMPTYARROW
 70
               0
 10
0.0
 20
0.0
 30
0.0
  3
VW_EMPTYARROW
  1

  0
LINE
  5
78
100
AcDbEntity
  8
0
370
              -2
390
0
  6
ByBlock
 62
               0
100
AcDbLine
 10
0.0
 20
0.0
 30
0.0
 11
-1.0
 21
0.0
 31
0.0
  0
POLYLINE
  5
79
100
AcDbEntity
  8
0
370
              -2
390
0
  6
Continuous
 62
               0
100
AcDb2dPolyline
 66
               1
 10
0.0
 20
0.0
 30
0.0
 75
               5
  0
VERTEX
  5
7A
100
AcDbEntity
  8
0
370
              -2
390
0
  6
Continuous
 62
               0
100
AcDbVertex
100
AcDb2dVertex
 10
-0.99993896484375
 20
0.2679328381102957
 30
0.0
  0
VERTEX
  5
7B
100
AcDbEntity
  8
0
370
              -2
390
0
  6
Continuous
 62
               0
100
AcDbVertex
100
AcDb2dVertex
 10
0.0
 20
0.0
 30
0.0
  0
VERTEX
  5
7C
100
AcDbEntity
  8
0
370
              -2
390
0
  6
Continuous
 62
               0
100
AcDbVertex
100
AcDb2dVertex
 10
-0.9999389648437499
 20
-0.2679328381102959
 30
0.0
  0
SEQEND
  5
7D
100
AcDbEntity
  8
0
370
              -2
390
0
  6
Continuous
 62
               0
  0
ENDBLK
  5
7E
100
AcDbEntity
  8
0
390
0
100
AcDbBlockEnd
  0
BLOCK
  5
80
100
AcDbEntity
  8
寸法
390
0
100
AcDbBlockBegin
  2
*D1
 70
               1
 10
0.0
 20
0.0
 30
0.0
  3
*D1
  1

  0
LINE
  5
81
100
AcDbEntity
  8
寸法
370
              -2
390
0
  6
Continuous
 62
               0
100
AcDbLine
 10
86.299651787606308
 20
-550.24570637170586
 30
0.0
 11
86.299651787606308
 21
-681.4636746514343
 31
0.0
  0
LINE
  5
82
100
AcDbEntity
  8
寸法
370
              -2
390
0
  6
Continuous
 62
               0
100
AcDbLine
 10
26.299651787606308
 20
-550.24570637170564
 30
0.0
 11
26.299651787606308
 21
-681.4636746514343
 31
0.0
  0
LINE
  5
83
100
AcDbEntity
  8
寸法
370
              -2
390
0
  6
Continuous
 62
               0
100
AcDbLine
 10
86.299651787606308
 20
-651.4636746514343
 30
0.0
 11
26.299651787606308
 21
-651.4636746514343
 31
0.0
  0
POLYLINE
  5
84
100
AcDbEntity
  8
0
370
              -2
390
0
  6
Continuous
 62
               0
100
AcDb2dPolyline
 66
               1
 10
0.0
 20
0.0
 30
0.0
 75
               5
  0
VERTEX
  5
85
100
AcDbEntity
  8
0
370
              -2
390
0
  6
Continuous
 62
               0
100
AcDbVertex
100
AcDb2dVertex
 10
48.790313408700058
 20
-641.41307772418065
 30
0.0
  0
VERTEX
  5
86
100
AcDbEntity
  8
0
370
              -2
390
0
  6
Continuous
 62
               0
100
AcDbVertex
100
AcDb2dVertex
 10
86.299651787606308
 20
-651.4636746514343
 30
0.0
  0
VERTEX
  5
87
100
AcDbEntity
  8
0
370
              -2
390
0
  6
Continuous
 62
               0
100
AcDbVertex
100
AcDb2dVertex
 10
48.790313408700065
 20
-661.51427157868795
 30
0.0
  0
SEQEND
  5
88
100
AcDbEntity
  8
0
370
              -2
390
0
  6
Continuous
 62
               0
  0
POLYLINE
  5
89
100
AcDbEntity
  8
0
370
              -2
390
0
  6
Continuous
 62
               0
100
AcDb2dPolyline
 66
               1
 10
0.0
 20
0.0
 30
0.0
 75
               5
  0
VERTEX
  5
8A
100
AcDbEntity
  8
0
370
              -2
390
0
  6
Continuous
 62
               0
100
AcDbVertex
100
AcDb2dVertex
 10
63.808990166512558
 20
-661.51427157868795
 30
0.0
  0
VERTEX
  5
8B
100
AcDbEntity
  8
0
370
              -2
390
0
  6
Continuous
 62
               0
100
AcDbVertex
100
AcDb2dVertex
 10
26.299651787606308
 20
-651.4636746514343
 30
0.0
  0
VERTEX
  5
8C
100
AcDbEntity
  8
0
370
              -2
390
0
  6
Continuous
 62
               0
100
AcDbVertex
100
AcDb2dVertex
 10
63.808990166512558
 20
-641.41307772418065
 30
0.0
  0
SEQEND
  5
8D
100
AcDbEntity
  8
0
370
              -2
390
0
  6
Continuous
 62
               0
  0
WIPEOUT
  5
8E
100
AcDbEntity
  8
寸法
370
              -2
390
0
  6
Continuous
 62
               0
 92
        0
100
AcDbWipeout
 90
        0
 10
26.999199186992087
 20
-643.9636746514343
 30
0.0
 11
63.500000000000114
 21
0.0
 31
0.0
 12
0.0
 22
63.500000000000114
 32
0.0
 13
1.0
 23
1.0
340
0
 70
               7
280
               1
281
              50
282
              50
283
               0
360
0
 71
               2
 91
        5
 14
-0.5
 24
0.5
 14
0.4999999999999982
 24
0.5
 14
0.4999999999999982
 24
-0.5
 14
-0.5
 24
-0.5
 14
-0.5
 24
0.5
  0
MTEXT
  5
8F
100
AcDbEntity
  8
寸法
390
0
 62
               0
100
AcDbMText
 10
26.999199186992087
 20
-586.2084402764342
 30
0.0
 40
48.865234375000092
 41
0.0
 71
               1
 72
               1
  1
{\fＭＳ ゴシック|b0|i0|c128|p0;\l60}
 73
               1
 44
0.7828267384257843
  0
POINT
  5
90
100
AcDbEntity
  8
Defpoints
370
               0
390
0
 62
               0
100
AcDbPoint
 10
26.299651787606308
 20
-520.24570637170564
 30
0.0
  0
POINT
  5
91
100
AcDbEntity
  8
Defpoints
370
               0
390
0
 62
               0
100
AcDbPoint
 10
86.299651787606308
 20
-520.24570637170586
 30
0.0
  0
POINT
  5
92
100
AcDbEntity
  8
Defpoints
370
               0
390
0
 62
               0
100
AcDbPoint
 10
86.299651787606308
 20
-651.4636746514343
 30
0.0
  0
ENDBLK
  5
93
100
AcDbEntity
  8
寸法
390
0
100
AcDbBlockEnd
  0
BLOCK
  5
94
100
AcDbEntity
  8
寸法
390
0
100
AcDbBlockBegin
  2
*D2
 70
               1
 10
0.0
 20
0.0
 30
0.0
  3
*D2
  1

  0
LINE
  5
95
100
AcDbEntity
  8
寸法
370
              -2
390
0
  6
Continuous
 62
               0
100
AcDbLine
 10
86.299651787606308
 20
-550.24570637170575
 30
0.0
 11
86.299651787606308
 21
-681.32347447859365
 31
0.0
  0
LINE
  5
96
100
AcDbEntity
  8
寸法
370
              -2
390
0
  6
Continuous
 62
               0
100
AcDbLine
 10
146.29965178760631
 20
-550.24570637170564
 30
0.0
 11
146.29965178760631
 21
-681.32347447859365
 31
0.0
  0
LINE
  5
97
100
AcDbEntity
  8
寸法
370
              -2
390
0
  6
Continuous
 62
               0
100
AcDbLine
 10
86.299651787606308
 20
-651.32347447859365
 30
0.0
 11
146.29965178760631
 21
-651.32347447859365
 31
0.0
  0
POLYLINE
  5
98
100
AcDbEntity
  8
0
370
              -2
390
0
  6
Continuous
 62
               0
100
AcDb2dPolyline
 66
               1
 10
0.0
 20
0.0
 30
0.0
 75
               5
  0
VERTEX
  5
99
100
AcDbEntity
  8
0
370
              -2
390
0
  6
Continuous
 62
               0
100
AcDbVertex
100
AcDb2dVertex
 10
123.80899016651256
 20
-661.3740714058473
 30
0.0
  0
VERTEX
  5
9A
100
AcDbEntity
  8
0
370
              -2
390
0
  6
Continuous
 62
               0
100
AcDbVertex
100
AcDb2dVertex
 10
86.299651787606308
 20
-651.32347447859365
 30
0.0
  0
VERTEX
  5
9B
100
AcDbEntity
  8
0
370
              -2
390
0
  6
Continuous
 62
               0
100
AcDbVertex
100
AcDb2dVertex
 10
123.80899016651256
 20
-641.27287755134
 30
0.0
  0
SEQEND
  5
9C
100
AcDbEntity
  8
0
370
              -2
390
0
  6
Continuous
 62
               0
  0
POLYLINE
  5
9D
100
AcDbEntity
  8
0
370
              -2
390
0
  6
Continuous
 62
               0
100
AcDb2dPolyline
 66
               1
 10
0.0
 20
0.0
 30
0.0
 75
               5
  0
VERTEX
  5
9E
100
AcDbEntity
  8
0
370
              -2
390
0
  6
Continuous
 62
               0
100
AcDbVertex
100
AcDb2dVertex
 10
108.79031340870006
 20
-641.27287755134
 30
0.0
  0
VERTEX
  5
9F
100
AcDbEntity
  8
0
370
              -2
390
0
  6
Continuous
 62
               0
100
AcDbVertex
100
AcDb2dVertex
 10
146.29965178760631
 20
-651.32347447859365
 30
0.0
  0
VERTEX
  5
A0
100
AcDbEntity
  8
0
370
              -2
390
0
  6
Continuous
 62
               0
100
AcDbVertex
100
AcDb2dVertex
 10
108.79031340870006
 20
-661.3740714058473
 30
0.0
  0
SEQEND
  5
A1
100
AcDbEntity
  8
0
370
              -2
390
0
  6
Continuous
 62
               0
  0
WIPEOUT
  5
A2
100
AcDbEntity
  8
寸法
370
              -2
390
0
  6
Continuous
 62
               0
 92
        0
100
AcDbWipeout
 90
        0
 10
101.99919918699209
 20
-643.82347447859365
 30
0.0
 11
63.500000000000114
 21
0.0
 31
0.0
 12
0.0
 22
63.500000000000114
 32
0.0
 13
1.0
 23
1.0
340
0
 70
               7
280
               1
281
              50
282
              50
283
               0
360
0
 71
               2
 91
        5
 14
-0.5
 24
0.5
 14
0.4999999999999982
 24
0.5
 14
0.4999999999999982
 24
-0.5
 14
-0.5
 24
-0.5
 14
-0.5
 24
0.5
  0
MTEXT
  5
A3
100
AcDbEntity
  8
寸法
390
0
 62
               0
100
AcDbMText
 10
101.99919918699209
 20
-586.06824010359355
 30
0.0
 40
48.865234375000092
 41
0.0
 71
               1
 72
               1
  1
{\fＭＳ ゴシック|b0|i0|c128|p0;\l60}
 73
               1
 44
0.7828267384257843
  0
POINT
  5
A4
100
AcDbEntity
  8
Defpoints
370
               0
390
0
 62
               0
100
AcDbPoint
 10
146.29965178760631
 20
-520.24570637170564
 30
0.0
  0
POINT
  5
A5
100
AcDbEntity
  8
Defpoints
370
               0
390
0
 62
               0
100
AcDbPoint
 10
86.299651787606308
 20
-520.24570637170575
 30
0.0
  0
POINT
  5
A6
100
AcDbEntity
  8
Defpoints
370
               0
390
0
 62
               0
100
AcDbPoint
 10
86.299651787606308
 20
-651.32347447859365
 30
0.0
  0
ENDBLK
  5
A7
100
AcDbEntity
  8
寸法
390
0
100
AcDbBlockEnd
  0
BLOCK
  5
A8
100
AcDbEntity
  8
寸法
390
0
100
AcDbBlockBegin
  2
*D3
 70
               1
 10
0.0
 20
0.0
 30
0.0
  3
*D3
  1

  0
LINE
  5
A9
100
AcDbEntity
  8
寸法
370
              -2
390
0
  6
Continuous
 62
               0
100
AcDbLine
 10
-53.700348212393692
 20
-550.24570637170575
 30
0.0
 11
-53.700348212393692
 21
-788.82347447859377
 31
0.0
  0
LINE
  5
AA
100
AcDbEntity
  8
寸法
370
              -2
390
0
  6
Continuous
 62
               0
100
AcDbLine
 10
86.299651787606308
 20
-550.24570637170575
 30
0.0
 11
86.299651787606308
 21
-788.82347447859377
 31
0.0
  0
LINE
  5
AB
100
AcDbEntity
  8
寸法
370
              -2
390
0
  6
Continuous
 62
               0
100
AcDbLine
 10
-53.700348212393692
 20
-758.82347447859377
 30
0.0
 11
86.299651787606308
 21
-758.82347447859377
 31
0.0
  0
POLYLINE
  5
AC
100
AcDbEntity
  8
0
370
              -2
390
0
  6
Continuous
 62
               0
100
AcDb2dPolyline
 66
               1
 10
0.0
 20
0.0
 30
0.0
 75
               5
  0
VERTEX
  5
AD
100
AcDbEntity
  8
0
370
              -2
390
0
  6
Continuous
 62
               0
100
AcDbVertex
100
AcDb2dVertex
 10
-16.191009833487442
 20
-768.87407140584742
 30
0.0
  0
VERTEX
  5
AE
100
AcDbEntity
  8
0
370
              -2
390
0
  6
Continuous
 62
               0
100
AcDbVertex
100
AcDb2dVertex
 10
-53.700348212393692
 20
-758.82347447859377
 30
0.0
  0
VERTEX
  5
AF
100
AcDbEntity
  8
0
370
              -2
390
0
  6
Continuous
 62
               0
100
AcDbVertex
100
AcDb2dVertex
 10
-16.191009833487442
 20
-748.77287755134012
 30
0.0
  0
SEQEND
  5
B0
100
AcDbEntity
  8
0
370
              -2
390
0
  6
Continuous
 62
               0
  0
POLYLINE
  5
B1
100
AcDbEntity
  8
0
370
              -2
390
0
  6
Continuous
 62
               0
100
AcDb2dPolyline
 66
               1
 10
0.0
 20
0.0
 30
0.0
 75
               5
  0
VERTEX
  5
B2
100
AcDbEntity
  8
0
370
              -2
390
0
  6
Continuous
 62
               0
100
AcDbVertex
100
AcDb2dVertex
 10
48.790313408700058
 20
-748.77287755134012
 30
0.0
  0
VERTEX
  5
B3
100
AcDbEntity
  8
0
370
              -2
390
0
  6
Continuous
 62
               0
100
AcDbVertex
100
AcDb2dVertex
 10
86.299651787606308
 20
-758.82347447859377
 30
0.0
  0
VERTEX
  5
B4
100
AcDbEntity
  8
0
370
              -2
390
0
  6
Continuous
 62
               0
100
AcDbVertex
100
AcDb2dVertex
 10
48.790313408700065
 20
-768.87407140584742
 30
0.0
  0
SEQEND
  5
B5
100
AcDbEntity
  8
0
370
              -2
390
0
  6
Continuous
 62
               0
  0
WIPEOUT
  5
B6
100
AcDbEntity
  8
寸法
370
              -2
390
0
  6
Continuous
 62
               0
 92
        0
100
AcDbWipeout
 90
        0
 10
-38.875800813007913
 20
-751.32347447859365
 30
0.0
 11
95.25
 21
0.0
 31
0.0
 12
0.0
 22
95.25
 32
0.0
 13
1.0
 23
1.0
340
0
 70
               7
280
               1
281
              50
282
              50
283
               0
360
0
 71
               2
 91
        5
 14
-0.5
 24
0.5
 14
0.5
 24
0.5
 14
0.5
 24
-0.1666666666666679
 14
-0.5
 24
-0.1666666666666679
 14
-0.5
 24
0.5
  0
MTEXT
  5
B7
100
AcDbEntity
  8
寸法
390
0
 62
               0
100
AcDbMText
 10
-38.875800813007913
 20
-693.56824010359355
 30
0.0
 40
48.865234375000092
 41
0.0
 71
               1
 72
               1
  1
{\fＭＳ ゴシック|b0|i0|c128|p0;\l140}
 73
               1
 44
0.7828267384257843
  0
POINT
  5
B8
100
AcDbEntity
  8
Defpoints
370
               0
390
0
 62
               0
100
AcDbPoint
 10
86.299651787606308
 20
-520.24570637170575
 30
0.0
  0
POINT
  5
B9
100
AcDbEntity
  8
Defpoints
370
               0
390
0
 62
               0
100
AcDbPoint
 10
-53.700348212393692
 20
-520.24570637170575
 30
0.0
  0
POINT
  5
BA
100
AcDbEntity
  8
Defpoints
370
               0
390
0
 62
               0
100
AcDbPoint
 10
-53.700348212393692
 20
-758.82347447859377
 30
0.0
  0
ENDBLK
  5
BB
100
AcDbEntity
  8
寸法
390
0
100
AcDbBlockEnd
  0
BLOCK
  5
BC
100
AcDbEntity
  8
寸法
390
0
100
AcDbBlockBegin
  2
*D4
 70
               1
 10
0.0
 20
0.0
 30
0.0
  3
*D4
  1

  0
LINE
  5
BD
100
AcDbEntity
  8
寸法
370
              -2
390
0
  6
Continuous
 62
               0
100
AcDbLine
 10
86.299651787606308
 20
-550.24570637170575
 30
0.0
 11
86.299651787606308
 21
-788.82347447859377
 31
0.0
  0
LINE
  5
BE
100
AcDbEntity
  8
寸法
370
              -2
390
0
  6
Continuous
 62
               0
100
AcDbLine
 10
226.29965178760631
 20
-550.24570637170586
 30
0.0
 11
226.29965178760631
 21
-788.82347447859377
 31
0.0
  0
LINE
  5
BF
100
AcDbEntity
  8
寸法
370
              -2
390
0
  6
Continuous
 62
               0
100
AcDbLine
 10
86.299651787606308
 20
-758.82347447859377
 30
0.0
 11
226.29965178760631
 21
-758.82347447859377
 31
0.0
  0
POLYLINE
  5
C0
100
AcDbEntity
  8
0
370
              -2
390
0
  6
Continuous
 62
               0
100
AcDb2dPolyline
 66
               1
 10
0.0
 20
0.0
 30
0.0
 75
               5
  0
VERTEX
  5
C1
100
AcDbEntity
  8
0
370
              -2
390
0
  6
Continuous
 62
               0
100
AcDbVertex
100
AcDb2dVertex
 10
123.80899016651256
 20
-768.87407140584742
 30
0.0
  0
VERTEX
  5
C2
100
AcDbEntity
  8
0
370
              -2
390
0
  6
Continuous
 62
               0
100
AcDbVertex
100
AcDb2dVertex
 10
86.299651787606308
 20
-758.82347447859377
 30
0.0
  0
VERTEX
  5
C3
100
AcDbEntity
  8
0
370
              -2
390
0
  6
Continuous
 62
               0
100
AcDbVertex
100
AcDb2dVertex
 10
123.80899016651256
 20
-748.77287755134012
 30
0.0
  0
SEQEND
  5
C4
100
AcDbEntity
  8
0
370
              -2
390
0
  6
Continuous
 62
               0
  0
POLYLINE
  5
C5
100
AcDbEntity
  8
0
370
              -2
390
0
  6
Continuous
 62
               0
100
AcDb2dPolyline
 66
               1
 10
0.0
 20
0.0
 30
0.0
 75
               5
  0
VERTEX
  5
C6
100
AcDbEntity
  8
0
370
              -2
390
0
  6
Continuous
 62
               0
100
AcDbVertex
100
AcDb2dVertex
 10
188.79031340870006
 20
-748.77287755134012
 30
0.0
  0
VERTEX
  5
C7
100
AcDbEntity
  8
0
370
              -2
390
0
  6
Continuous
 62
               0
100
AcDbVertex
100
AcDb2dVertex
 10
226.29965178760631
 20
-758.82347447859377
 30
0.0
  0
VERTEX
  5
C8
100
AcDbEntity
  8
0
370
              -2
390
0
  6
Continuous
 62
               0
100
AcDbVertex
100
AcDb2dVertex
 10
188.79031340870006
 20
-768.87407140584742
 30
0.0
  0
SEQEND
  5
C9
100
AcDbEntity
  8
0
370
              -2
390
0
  6
Continuous
 62
               0
  0
WIPEOUT
  5
CA
100
AcDbEntity
  8
寸法
370
              -2
390
0
  6
Continuous
 62
               0
 92
        0
100
AcDbWipeout
 90
        0
 10
111.12419918699209
 20
-751.32347447859365
 30
0.0
 11
95.25
 21
0.0
 31
0.0
 12
0.0
 22
95.25
 32
0.0
 13
1.0
 23
1.0
340
0
 70
               7
280
               1
281
              50
282
              50
283
               0
360
0
 71
               2
 91
        5
 14
-0.5
 24
0.5
 14
0.5
 24
0.5
 14
0.5
 24
-0.1666666666666679
 14
-0.5
 24
-0.1666666666666679
 14
-0.5
 24
0.5
  0
MTEXT
  5
CB
100
AcDbEntity
  8
寸法
390
0
 62
               0
100
AcDbMText
 10
111.12419918699209
 20
-693.56824010359355
 30
0.0
 40
48.865234375000092
 41
0.0
 71
               1
 72
               1
  1
{\fＭＳ ゴシック|b0|i0|c128|p0;\l140}
 73
               1
 44
0.7828267384257843
  0
POINT
  5
CC
100
AcDbEntity
  8
Defpoints
370
               0
390
0
 62
               0
100
AcDbPoint
 10
226.29965178760631
 20
-520.24570637170586
 30
0.0
  0
POINT
  5
CD
100
AcDbEntity
  8
Defpoints
370
               0
390
0
 62
               0
100
AcDbPoint
 10
86.299651787606308
 20
-520.24570637170575
 30
0.0
  0
POINT
  5
CE
100
AcDbEntity
  8
Defpoints
370
               0
390
0
 62
               0
100
AcDbPoint
 10
86.299651787606308
 20
-758.82347447859377
 30
0.0
  0
ENDBLK
  5
CF
100
AcDbEntity
  8
寸法
390
0
100
AcDbBlockEnd
  0
BLOCK
  5
D0
100
AcDbEntity
  8
寸法
390
0
100
AcDbBlockBegin
  2
*D5
 70
               1
 10
0.0
 20
0.0
 30
0.0
  3
*D5
  1

  0
LINE
  5
D1
100
AcDbEntity
  8
寸法
370
              -2
390
0
  6
Continuous
 62
               0
100
AcDbLine
 10
-58.264123633510223
 20
-516.3505871301918
 30
0.0
 11
-137.38328735352661
 21
-448.82347447859377
 31
0.0
  0
LINE
  5
D2
100
AcDbEntity
  8
寸法
370
              -2
390
0
  6
Continuous
 62
               0
100
AcDbLine
 10
-137.38328735352661
 20
-448.82347447859377
 30
0.0
 11
-294.38328735352661
 21
-448.82347447859377
 31
0.0
  0
LINE
  5
D3
100
AcDbEntity
  8
寸法
370
              -2
390
0
  6
Continuous
 62
               0
100
AcDbLine
 10
-49.13657279127716
 20
-524.1408256132197
 30
0.0
 11
-58.264123633510223
 21
-516.3505871301918
 31
0.0
  0
POLYLINE
  5
D4
100
AcDbEntity
  8
0
370
              -2
390
0
  6
Continuous
 62
               0
100
AcDb2dPolyline
 66
               1
 10
0.0
 20
0.0
 30
0.0
 75
               5
  0
VERTEX
  5
D5
100
AcDbEntity
  8
0
370
              -2
390
0
  6
Continuous
 62
               0
100
AcDbVertex
100
AcDb2dVertex
 10
-70.851444952786395
 20
-491.94720371032224
 30
0.0
  0
VERTEX
  5
D6
100
AcDbEntity
  8
0
370
              -2
390
0
  6
Continuous
 62
               0
100
AcDbVertex
100
AcDb2dVertex
 10
-49.13657279127716
 20
-524.1408256132197
 30
0.0
  0
VERTEX
  5
D7
100
AcDbEntity
  8
0
370
              -2
390
0
  6
Continuous
 62
               0
100
AcDbVertex
100
AcDb2dVertex
 10
-84.039014674524395
 20
-507.11776728623397
 30
0.0
  0
SEQEND
  5
D8
100
AcDbEntity
  8
0
370
              -2
390
0
  6
Continuous
 62
               0
  0
POLYLINE
  5
D9
100
AcDbEntity
  8
0
370
              -2
390
0
  6
Continuous
 62
               0
100
AcDb2dPolyline
 66
               1
 10
0.0
 20
0.0
 30
0.0
 75
               5
  0
VERTEX
  5
DA
100
AcDbEntity
  8
0
370
              -2
390
0
  6
Continuous
 62
               0
100
AcDbVertex
100
AcDb2dVertex
 10
-35.990702578071918
 20
-548.16032901384381
 30
0.0
  0
VERTEX
  5
DB
100
AcDbEntity
  8
0
370
              -2
390
0
  6
Continuous
 62
               0
100
AcDbVertex
100
AcDb2dVertex
 10
-58.264123633510223
 20
-516.3505871301918
 30
0.0
  0
VERTEX
  5
DC
100
AcDbEntity
  8
0
370
              -2
390
0
  6
Continuous
 62
               0
100
AcDbVertex
100
AcDb2dVertex
 10
-23.069904228487424
 20
-532.76192116154118
 30
0.0
  0
SEQEND
  5
DD
100
AcDbEntity
  8
0
370
              -2
390
0
  6
Continuous
 62
               0
  0
WIPEOUT
  5
DE
100
AcDbEntity
  8
寸法
370
              -2
390
0
  6
Continuous
 62
               0
 92
        0
100
AcDbWipeout
 90
        0
 10
-294.38328735352661
 20
-441.32347447859377
 30
0.0
 11
127.0
 21
0.0
 31
0.0
 12
0.0
 22
127.0
 32
0.0
 13
1.0
 23
1.0
340
0
 70
               7
280
               1
281
              50
282
              50
283
               0
360
0
 71
               2
 91
        5
 14
-0.5
 24
0.5
 14
0.5
 24
0.5
 14
0.5
 24
-0.0000000000000009
 14
-0.5
 24
-0.0000000000000009
 14
-0.5
 24
0.5
  0
MTEXT
  5
DF
100
AcDbEntity
  8
寸法
390
0
 62
               0
100
AcDbMText
 10
-294.38328735352661
 20
-383.56824010359367
 30
0.0
 40
48.865234375000092
 41
0.0
 71
               1
 72
               1
  1
{\fＭＳ ゴシック|b0|i0|c128|p0;\lφ12}
 73
               1
 44
0.7828267384257843
  0
POINT
  5
E0
100
AcDbEntity
  8
Defpoints
370
               0
390
0
 62
               0
100
AcDbPoint
 10
-49.13657279127716
 20
-524.1408256132197
 30
0.0
  0
POINT
  5
E1
100
AcDbEntity
  8
Defpoints
370
               0
390
0
 62
               0
100
AcDbPoint
 10
-58.264123633510223
 20
-516.3505871301918
 30
0.0
  0
ENDBLK
  5
E2
100
AcDbEntity
  8
寸法
390
0
100
AcDbBlockEnd
  0
BLOCK
  5
E3
100
AcDbEntity
  8
寸法
390
0
100
AcDbBlockBegin
  2
*D6
 70
               1
 10
0.0
 20
0.0
 30
0.0
  3
*D6
  1

  0
LINE
  5
E4
100
AcDbEntity
  8
寸法
370
              -2
390
0
  6
Continuous
 62
               0
100
AcDbLine
 10
148.23592676623491
 20
-518.66430218329015
 30
0.0
 11
233.74919918699214
 21
-448.82347447859377
 31
0.0
  0
LINE
  5
E5
100
AcDbEntity
  8
寸法
370
              -2
390
0
  6
Continuous
 62
               0
100
AcDbLine
 10
233.74919918699214
 20
-448.82347447859377
 30
0.0
 11
327.24919918699214
 21
-448.82347447859377
 31
0.0
  0
LINE
  5
E6
100
AcDbEntity
  8
寸法
370
              -2
390
0
  6
Continuous
 62
               0
100
AcDbLine
 10
144.36337680897816
 20
-521.82711056012113
 30
0.0
 11
148.23592676623491
 21
-518.66430218329015
 31
0.0
  0
POLYLINE
  5
E7
100
AcDbEntity
  8
0
370
              -2
390
0
  6
Continuous
 62
               0
100
AcDb2dPolyline
 66
               1
 10
0.0
 20
0.0
 30
0.0
 75
               5
  0
VERTEX
  5
E8
100
AcDbEntity
  8
0
370
              -2
390
0
  6
Continuous
 62
               0
100
AcDbVertex
100
AcDb2dVertex
 10
179.83865323561167
 20
-506.03249987573417
 30
0.0
  0
VERTEX
  5
E9
100
AcDbEntity
  8
0
370
              -2
390
0
  6
Continuous
 62
               0
100
AcDbVertex
100
AcDb2dVertex
 10
144.36337680897816
 20
-521.82711056012113
 30
0.0
  0
VERTEX
  5
EA
100
AcDbEntity
  8
0
370
              -2
390
0
  6
Continuous
 62
               0
100
AcDbVertex
100
AcDb2dVertex
 10
167.18856205852455
 20
-490.41093825124017
 30
0.0
  0
SEQEND
  5
EB
100
AcDbEntity
  8
0
370
              -2
390
0
  6
Continuous
 62
               0
  0
POLYLINE
  5
EC
100
AcDbEntity
  8
0
370
              -2
390
0
  6
Continuous
 62
               0
100
AcDb2dPolyline
 66
               1
 10
0.0
 20
0.0
 30
0.0
 75
               5
  0
VERTEX
  5
ED
100
AcDbEntity
  8
0
370
              -2
390
0
  6
Continuous
 62
               0
100
AcDbVertex
100
AcDb2dVertex
 10
113.0417073612121
 20
-535.07563621463953
 30
0.0
  0
VERTEX
  5
EE
100
AcDbEntity
  8
0
370
              -2
390
0
  6
Continuous
 62
               0
100
AcDbVertex
100
AcDb2dVertex
 10
148.23592676623491
 20
-518.66430218329015
 30
0.0
  0
VERTEX
  5
EF
100
AcDbEntity
  8
0
370
              -2
390
0
  6
Continuous
 62
               0
100
AcDbVertex
100
AcDb2dVertex
 10
125.96250571079661
 20
-550.47404406694216
 30
0.0
  0
SEQEND
  5
F0
100
AcDbEntity
  8
0
370
              -2
390
0
  6
Continuous
 62
               0
  0
WIPEOUT
  5
F1
100
AcDbEntity
  8
寸法
370
              -2
390
0
  6
Continuous
 62
               0
 92
        0
100
AcDbWipeout
 90
        0
 10
263.74919918699214
 20
-441.32347447859377
 30
0.0
 11
63.500000000000114
 21
0.0
 31
0.0
 12
0.0
 22
63.500000000000114
 32
0.0
 13
1.0
 23
1.0
340
0
 70
               7
280
               1
281
              50
282
              50
283
               0
360
0
 71
               2
 91
        5
 14
-0.5
 24
0.5
 14
0.4999999999999982
 24
0.5
 14
0.4999999999999982
 24
-0.5
 14
-0.5
 24
-0.5
 14
-0.5
 24
0.5
  0
MTEXT
  5
F2
100
AcDbEntity
  8
寸法
390
0
 62
               0
100
AcDbMText
 10
263.74919918699214
 20
-383.56824010359367
 30
0.0
 40
48.865234375000092
 41
0.0
 71
               1
 72
               1
  1
{\fＭＳ ゴシック|b0|i0|c128|p0;\lM6}
 73
               1
 44
0.7828267384257843
  0
POINT
  5
F3
100
AcDbEntity
  8
Defpoints
370
               0
390
0
 62
               0
100
AcDbPoint
 10
144.36337680897816
 20
-521.82711056012113
 30
0.0
  0
POINT
  5
F4
100
AcDbEntity
  8
Defpoints
370
               0
390
0
 62
               0
100
AcDbPoint
 10
148.23592676623491
 20
-518.66430218329015
 30
0.0
  0
ENDBLK
  5
F5
100
AcDbEntity
  8
寸法
390
0
100
AcDbBlockEnd
  0
BLOCK
  5
F6
100
AcDbEntity
  8
寸法
390
0
100
AcDbBlockBegin
  2
*D7
 70
               1
 10
0.0
 20
0.0
 30
0.0
  3
*D7
  1

  0
LINE
  5
F7
100
AcDbEntity
  8
寸法
370
              -2
390
0
  6
Continuous
 62
               0
100
AcDbLine
 10
-130.70034821238869
 20
-500.24570637170712
 30
0.0
 11
-186.60978466163039
 21
-500.24570637170712
 31
0.0
  0
LINE
  5
F8
100
AcDbEntity
  8
寸法
370
              -2
390
0
  6
Continuous
 62
               0
100
AcDbLine
 10
-130.70034821238869
 20
-540.24570637170712
 30
0.0
 11
-186.60978466163039
 21
-540.24570637170712
 31
0.0
  0
LINE
  5
F9
100
AcDbEntity
  8
寸法
370
              -2
390
0
  6
Continuous
 62
               0
100
AcDbLine
 10
-156.60978466163039
 20
-500.24570637170712
 30
0.0
 11
-156.60978466163039
 21
-540.24570637170712
 31
0.0
  0
POLYLINE
  5
FA
100
AcDbEntity
  8
0
370
              -2
390
0
  6
Continuous
 62
               0
100
AcDb2dPolyline
 66
               1
 10
0.0
 20
0.0
 30
0.0
 75
               5
  0
VERTEX
  5
FB
100
AcDbEntity
  8
0
370
              -2
390
0
  6
Continuous
 62
               0
100
AcDbVertex
100
AcDb2dVertex
 10
-166.66038158888404
 20
-537.75504475061337
 30
0.0
  0
VERTEX
  5
FC
100
AcDbEntity
  8
0
370
              -2
390
0
  6
Continuous
 62
               0
100
AcDbVertex
100
AcDb2dVertex
 10
-156.60978466163039
 20
-500.24570637170712
 30
0.0
  0
VERTEX
  5
FD
100
AcDbEntity
  8
0
370
              -2
390
0
  6
Continuous
 62
               0
100
AcDbVertex
100
AcDb2dVertex
 10
-146.55918773437674
 20
-537.75504475061337
 30
0.0
  0
SEQEND
  5
FE
100
AcDbEntity
  8
0
370
              -2
390
0
  6
Continuous
 62
               0
  0
POLYLINE
  5
FF
100
AcDbEntity
  8
0
370
              -2
390
0
  6
Continuous
 62
               0
100
AcDb2dPolyline
 66
               1
 10
0.0
 20
0.0
 30
0.0
 75
               5
  0
VERTEX
  5
100
100
AcDbEntity
  8
0
370
              -2
390
0
  6
Continuous
 62
               0
100
AcDbVertex
100
AcDb2dVertex
 10
-146.55918773437674
 20
-502.73636799280087
 30
0.0
  0
VERTEX
  5
101
100
AcDbEntity
  8
0
370
              -2
390
0
  6
Continuous
 62
               0
100
AcDbVertex
100
AcDb2dVertex
 10
-156.60978466163039
 20
-540.24570637170712
 30
0.0
  0
VERTEX
  5
102
100
AcDbEntity
  8
0
370
              -2
390
0
  6
Continuous
 62
               0
100
AcDbVertex
100
AcDb2dVertex
 10
-166.66038158888404
 20
-502.73636799280087
 30
0.0
  0
SEQEND
  5
103
100
AcDbEntity
  8
0
370
              -2
390
0
  6
Continuous
 62
               0
  0
WIPEOUT
  5
104
100
AcDbEntity
  8
寸法
370
              -2
390
0
  6
Continuous
 62
               0
 92
        0
100
AcDbWipeout
 90
        0
 10
-227.6097846616305
 20
-551.99570637170723
 30
0.0
 11
63.500000000000114
 21
0.0
 31
0.0
 12
0.0
 22
63.500000000000114
 32
0.0
 13
1.0
 23
1.0
340
0
 70
               7
280
               1
281
              50
282
              50
283
               0
360
0
 71
               2
 91
        5
 14
0.5
 24
0.5
 14
0.5
 24
-0.4999999999999982
 14
-0.5
 24
-0.4999999999999982
 14
-0.5
 24
0.5
 14
0.5
 24
0.5
  0
MTEXT
  5
105
100
AcDbEntity
  8
寸法
390
0
 62
               0
100
AcDbMText
 10
-221.86501903663049
 20
-551.99570637170723
 30
0.0
 40
48.865234375000092
 41
0.0
 71
               1
 72
               1
  1
{\fＭＳ ゴシック|b0|i0|c128|p0;\l40}
 11
0.0
 21
1.0
 31
0.0
 73
               1
 44
0.7828267384257843
  0
POINT
  5
106
100
AcDbEntity
  8
Defpoints
370
               0
390
0
 62
               0
100
AcDbPoint
 10
-100.70034821238869
 20
-540.24570637170712
 30
0.0
  0
POINT
  5
107
100
AcDbEntity
  8
Defpoints
370
               0
390
0
 62
               0
100
AcDbPoint
 10
-100.70034821238869
 20
-500.24570637170712
 30
0.0
  0
POINT
  5
108
100
AcDbEntity
  8
Defpoints
370
               0
390
0
 62
               0
100
AcDbPoint
 10
-156.60978466163039
 20
-500.24570637170712
 30
0.0
  0
ENDBLK
  5
109
100
AcDbEntity
  8
寸法
390
0
100
AcDbBlockEnd
  0
BLOCK
  5
10A
100
AcDbEntity
  8
0
390
0
100
AcDbBlockBegin
  2
グループ
 70
               0
 10
0.0
 20
0.0
 30
0.0
  3
グループ
  1

  0
CIRCLE
  5
10B
100
AcDbEntity
  8
0
370
               0
390
0
  6
Continuous
 62
               0
100
AcDbCircle
 10
146.29965178760631
 20
-520.24570637170575
 30
0.0
 40
2.5
  0
CIRCLE
  5
10C
100
AcDbEntity
  8
0
370
               0
390
0
  6
Continuous
 62
               0
100
AcDbCircle
 10
146.29965178760631
 20
-520.24570637170575
 30
0.0
 40
5.5
  0
CIRCLE
  5
10D
100
AcDbEntity
  8
0
370
               0
390
0
  6
Continuous
 62
               0
100
AcDbCircle
 10
146.29965178760631
 20
-520.24570637170564
 30
0.0
 40
6.0
  0
CIRCLE
  5
10E
100
AcDbEntity
  8
0
370
               0
390
0
  6
Continuous
 62
               0
100
AcDbCircle
 10
26.299651787606308
 20
-520.24570637170564
 30
0.0
 40
6.0
  0
CIRCLE
  5
10F
100
AcDbEntity
  8
0
370
               0
390
0
  6
Continuous
 62
               0
100
AcDbCircle
 10
26.299651787606308
 20
-520.24570637170575
 30
0.0
 40
2.5
  0
CIRCLE
  5
110
100
AcDbEntity
  8
0
370
               0
390
0
  6
Continuous
 62
               0
100
AcDbCircle
 10
26.299651787606308
 20
-520.24570637170575
 30
0.0
 40
5.5
  0
LINE
  5
111
100
AcDbEntity
  8
0
370
               0
390
0
  6
Continuous
 62
               0
100
AcDbLine
 10
-99.20034821238869
 20
-538.74570637170712
 30
0.0
 11
-99.20034821238869
 21
-501.74570637170712
 31
0.0
  0
LINE
  5
112
100
AcDbEntity
  8
0
370
               0
390
0
  6
Continuous
 62
               0
100
AcDbLine
 10
-92.200348212388803
 20
-538.74570637170712
 30
0.0
 11
-99.20034821238869
 21
-538.74570637170712
 31
0.0
  0
LINE
  5
113
100
AcDbEntity
  8
0
370
               0
390
0
  6
Continuous
 62
               0
100
AcDbLine
 10
-92.20034821238869
 20
-501.74570637170712
 30
0.0
 11
-92.200348212388803
 21
-538.74570637170712
 31
0.0
  0
LINE
  5
114
100
AcDbEntity
  8
0
370
               0
390
0
  6
Continuous
 62
               0
100
AcDbLine
 10
-99.20034821238869
 20
-501.74570637170712
 30
0.0
 11
-92.20034821238869
 21
-501.74570637170712
 31
0.0
  0
LINE
  5
115
100
AcDbEntity
  8
0
370
               0
390
0
  6
Continuous
 62
               0
100
AcDbLine
 10
-90.70034821238869
 20
-500.24570637170712
 30
0.0
 11
-90.700348212388803
 21
-540.24570637170712
 31
0.0
  0
LINE
  5
116
100
AcDbEntity
  8
0
370
               0
390
0
  6
Continuous
 62
               0
100
AcDbLine
 10
-90.700348212388803
 20
-540.24570637170712
 30
0.0
 11
-100.70034821238869
 21
-540.24570637170712
 31
0.0
  0
LINE
  5
117
100
AcDbEntity
  8
0
370
               0
390
0
  6
Continuous
 62
               0
100
AcDbLine
 10
-100.70034821238869
 20
-540.24570637170712
 30
0.0
 11
-100.70034821238869
 21
-500.24570637170712
 31
0.0
  0
LINE
  5
118
100
AcDbEntity
  8
0
370
               0
390
0
  6
Continuous
 62
               0
100
AcDbLine
 10
-100.70034821238869
 20
-500.24570637170712
 30
0.0
 11
-90.70034821238869
 21
-500.24570637170712
 31
0.0
  0
LINE
  5
119
100
AcDbEntity
  8
0
370
               0
390
0
  6
Continuous
 62
               0
100
AcDbLine
 10
271.79965178760642
 20
-501.745706371707
 30
0.0
 11
271.79965178760642
 21
-538.745706371707
 31
0.0
  0
LINE
  5
11A
100
AcDbEntity
  8
0
370
               0
390
0
  6
Continuous
 62
               0
100
AcDbLine
 10
264.79965178760654
 20
-501.745706371707
 30
0.0
 11
271.79965178760642
 21
-501.745706371707
 31
0.0
  0
LINE
  5
11B
100
AcDbEntity
  8
0
370
               0
390
0
  6
Continuous
 62
               0
100
AcDbLine
 10
264.79965178760654
 20
-538.74570637170689
 30
0.0
 11
264.79965178760654
 21
-501.745706371707
 31
0.0
  0
LINE
  5
11C
100
AcDbEntity
  8
0
370
               0
390
0
  6
Continuous
 62
               0
100
AcDbLine
 10
271.79965178760642
 20
-538.745706371707
 30
0.0
 11
264.79965178760654
 21
-538.74570637170689
 31
0.0
  0
LINE
  5
11D
100
AcDbEntity
  8
0
370
               0
390
0
  6
Continuous
 62
               0
100
AcDbLine
 10
263.29965178760654
 20
-540.24570637170689
 30
0.0
 11
263.29965178760654
 21
-500.245706371707
 31
0.0
  0
LINE
  5
11E
100
AcDbEntity
  8
0
370
               0
390
0
  6
Continuous
 62
               0
100
AcDbLine
 10
263.29965178760654
 20
-500.245706371707
 30
0.0
 11
273.29965178760642
 21
-500.245706371707
 31
0.0
  0
LINE
  5
11F
100
AcDbEntity
  8
0
370
               0
390
0
  6
Continuous
 62
               0
100
AcDbLine
 10
273.29965178760642
 20
-500.245706371707
 30
0.0
 11
273.29965178760642
 21
-540.24570637170689
 31
0.0
  0
LINE
  5
120
100
AcDbEntity
  8
0
370
               0
390
0
  6
Continuous
 62
               0
100
AcDbLine
 10
273.29965178760642
 20
-540.24570637170689
 30
0.0
 11
263.29965178760654
 21
-540.24570637170689
 31
0.0
  0
LINE
  5
121
100
AcDbEntity
  8
0
370
               0
390
0
  6
Continuous
 62
               0
100
AcDbLine
 10
263.29965178760631
 20
-540.24570637170575
 30
0.0
 11
-90.700348212393578
 21
-540.24570637170575
 31
0.0
  0
CIRCLE
  5
122
100
AcDbEntity
  8
0
370
               0
390
0
  6
Continuous
 62
               0
100
AcDbCircle
 10
86.299651787606308
 20
-520.24570637170575
 30
0.0
 40
6.0
  0
CIRCLE
  5
123
100
AcDbEntity
  8
0
370
               0
390
0
  6
Continuous
 62
               0
100
AcDbCircle
 10
-53.700348212393692
 20
-520.24570637170575
 30
0.0
 40
6.0
  0
CIRCLE
  5
124
100
AcDbEntity
  8
0
370
               0
390
0
  6
Continuous
 62
               0
100
AcDbCircle
 10
226.29965178760631
 20
-520.24570637170575
 30
0.0
 40
6.0
  0
CIRCLE
  5
125
100
AcDbEntity
  8
0
370
               0
390
0
  6
Continuous
 62
               0
100
AcDbCircle
 10
146.29965178760642
 20
-520.24570637170575
 30
0.0
 40
10.0
  0
CIRCLE
  5
126
100
AcDbEntity
  8
0
370
               0
390
0
  6
Continuous
 62
               0
100
AcDbCircle
 10
26.299651787606308
 20
-520.24570637170575
 30
0.0
 40
10.0
  0
LINE
  5
127
100
AcDbEntity
  8
0
370
               0
390
0
  6
Continuous
 62
               0
100
AcDbLine
 10
263.29965178760631
 20
-500.24570637170575
 30
0.0
 11
-90.700348212393578
 21
-500.24570637170575
 31
0.0
  0
DIMENSION
  5
128
100
AcDbEntity
  8
寸法
370
               0
390
0
  6
Continuous
 62
               2
100
AcDbDimension
  2
*D1
 10
86.299651787606308
 20
-651.4636746514343
 30
0.0
 11
58.749199186992087
 21
-643.9636746514343
 31
0.0
 70
             128
 71
               5
 72
               1
 41
1.0
 42
0.0
  3
HIBINO
100
AcDbAlignedDimension
 13
26.299651787606308
 23
-520.24570637170564
 33
0.0
 14
86.299651787606308
 24
-520.24570637170586
 34
0.0
100
AcDbRotatedDimension
1001
ACAD
1000
DSTYLE
1002
{
1070
             279
1070
               2
1070
             340
1005
60
1070
             147
1040
7.5
1002
}
  0
DIMENSION
  5
129
100
AcDbEntity
  8
寸法
370
               0
390
0
  6
Continuous
 62
               2
100
AcDbDimension
  2
*D2
 10
86.299651787606308
 20
-651.32347447859365
 30
0.0
 11
133.74919918699209
 21
-643.82347447859365
 31
0.0
 70
             128
 71
               5
 72
               1
 41
1.0
 42
0.0
  3
HIBINO
100
AcDbAlignedDimension
 13
146.29965178760631
 23
-520.24570637170564
 33
0.0
 14
86.299651787606308
 24
-520.24570637170575
 34
0.0
100
AcDbRotatedDimension
1001
ACAD
1000
DSTYLE
1002
{
1070
             279
1070
               2
1070
             340
1005
60
1070
             147
1040
7.5
1002
}
  0
DIMENSION
  5
12A
100
AcDbEntity
  8
寸法
370
               0
390
0
  6
Continuous
 62
               2
100
AcDbDimension
  2
*D3
 10
-53.700348212393692
 20
-758.82347447859377
 30
0.0
 11
8.7491991869920867
 21
-751.32347447859377
 31
0.0
 70
             128
 71
               5
 72
               1
 41
1.0
 42
0.0
  3
HIBINO
100
AcDbAlignedDimension
 13
86.299651787606308
 23
-520.24570637170575
 33
0.0
 14
-53.700348212393692
 24
-520.24570637170575
 34
0.0
100
AcDbRotatedDimension
1001
ACAD
1000
DSTYLE
1002
{
1070
             279
1070
               2
1070
             340
1005
60
1070
             147
1040
7.5
1002
}
  0
DIMENSION
  5
12B
100
AcDbEntity
  8
寸法
370
               0
390
0
  6
Continuous
 62
               2
100
AcDbDimension
  2
*D4
 10
86.299651787606308
 20
-758.82347447859377
 30
0.0
 11
158.74919918699209
 21
-751.32347447859377
 31
0.0
 70
             128
 71
               5
 72
               1
 41
1.0
 42
0.0
  3
HIBINO
100
AcDbAlignedDimension
 13
226.29965178760631
 23
-520.24570637170586
 33
0.0
 14
86.299651787606308
 24
-520.24570637170575
 34
0.0
100
AcDbRotatedDimension
1001
ACAD
1000
DSTYLE
1002
{
1070
             279
1070
               2
1070
             340
1005
60
1070
             147
1040
7.5
1002
}
  0
DIMENSION
  5
12C
100
AcDbEntity
  8
寸法
370
               0
390
0
  6
Continuous
 62
               2
100
AcDbDimension
  2
*D5
 10
-49.13657279127716
 20
-524.1408256132197
 30
0.0
 11
-167.38328735352678
 21
-448.82347447859399
 31
0.0
 70
               3
 71
               5
 72
               1
 41
1.0
 42
0.0
  3
HIBINO
100
AcDbDiametricDimension
 15
-58.264123633510223
 25
-516.3505871301918
 35
0.0
 40
104.0180417563048
1001
ACAD
1000
DSTYLE
1002
{
1070
             289
1070
               0
1070
             342
1005
76
1070
             340
1005
60
1070
              73
1070
               1
1070
              74
1070
               1
1070
              75
1070
               1
1070
              76
1070
               1
1070
               3
1000

1070
             174
1070
               0
1070
             147
1040
7.5
1002
}
  0
DIMENSION
  5
12D
100
AcDbEntity
  8
寸法
370
               0
390
0
  6
Continuous
 62
               2
100
AcDbDimension
  2
*D6
 10
144.36337680897816
 20
-521.82711056012113
 30
0.0
 11
263.7491991869918
 21
-448.82347447859343
 31
0.0
 70
               3
 71
               5
 72
               1
 41
1.0
 42
0.0
  1
M6
  3
HIBINO
100
AcDbDiametricDimension
 15
148.23592676623491
 25
-518.66430218329015
 35
0.0
 40
110.40951487341893
1001
ACAD
1000
DSTYLE
1002
{
1070
             289
1070
               0
1070
             342
1005
76
1070
             340
1005
60
1070
              73
1070
               1
1070
              74
1070
               1
1070
              75
1070
               1
1070
              76
1070
               1
1070
             174
1070
               0
1070
             147
1040
7.5
1002
}
  0
DIMENSION
  5
12E
100
AcDbEntity
  8
寸法
370
               0
390
0
  6
Continuous
 62
               2
100
AcDbDimension
  2
*D7
 10
-156.60978466163039
 20
-500.24570637170712
 30
0.0
 11
-164.10978466163039
 21
-520.24570637170712
 31
0.0
 70
             128
 71
               5
 72
               1
 41
1.0
 42
0.0
  3
HIBINO
100
AcDbAlignedDimension
 13
-100.70034821238869
 23
-540.24570637170712
 33
0.0
 14
-100.70034821238869
 24
-500.24570637170712
 34
0.0
 50
-90.0
100
AcDbRotatedDimension
1001
ACAD
1000
DSTYLE
1002
{
1070
             279
1070
               2
1070
             340
1005
60
1070
             147
1040
7.5
1002
}
  0
ENDBLK
  5
12F
100
AcDbEntity
  8
0
390
0
100
AcDbBlockEnd
  0
BLOCK
  5
130
100
AcDbEntity
  8
寸法
390
0
100
AcDbBlockBegin
  2
*D9
 70
               1
 10
0.0
 20
0.0
 30
0.0
  3
*D9
  1

  0
LINE
  5
131
100
AcDbEntity
  8
寸法
370
              -2
390
0
  6
Continuous
 62
               0
100
AcDbLine
 10
-100.70034821239369
 20
123.92446436000014
 30
0.0
 11
-100.70034821239369
 21
198.9244643600023
 31
0.0
  0
LINE
  5
132
100
AcDbEntity
  8
寸法
370
              -2
390
0
  6
Continuous
 62
               0
100
AcDbLine
 10
273.29965178760631
 20
123.92446436000208
 30
0.0
 11
273.29965178760631
 21
198.9244643600023
 31
0.0
  0
LINE
  5
133
100
AcDbEntity
  8
寸法
370
              -2
390
0
  6
Continuous
 62
               0
100
AcDbLine
 10
-100.70034821239369
 20
168.9244643600023
 30
0.0
 11
273.29965178760631
 21
168.9244643600023
 31
0.0
  0
POLYLINE
  5
134
100
AcDbEntity
  8
0
370
              -2
390
0
  6
Continuous
 62
               0
100
AcDb2dPolyline
 66
               1
 10
0.0
 20
0.0
 30
0.0
 75
               5
  0
VERTEX
  5
135
100
AcDbEntity
  8
0
370
              -2
390
0
  6
Continuous
 62
               0
100
AcDbVertex
100
AcDb2dVertex
 10
-63.191009833487442
 20
158.87386743274865
 30
0.0
  0
VERTEX
  5
136
100
AcDbEntity
  8
0
370
              -2
390
0
  6
Continuous
 62
               0
100
AcDbVertex
100
AcDb2dVertex
 10
-100.70034821239369
 20
168.9244643600023
 30
0.0
  0
VERTEX
  5
137
100
AcDbEntity
  8
0
370
              -2
390
0
  6
Continuous
 62
               0
100
AcDbVertex
100
AcDb2dVertex
 10
-63.191009833487442
 20
178.97506128725595
 30
0.0
  0
SEQEND
  5
138
100
AcDbEntity
  8
0
370
              -2
390
0
  6
Continuous
 62
               0
  0
POLYLINE
  5
139
100
AcDbEntity
  8
0
370
              -2
390
0
  6
Continuous
 62
               0
100
AcDb2dPolyline
 66
               1
 10
0.0
 20
0.0
 30
0.0
 75
               5
  0
VERTEX
  5
13A
100
AcDbEntity
  8
0
370
              -2
390
0
  6
Continuous
 62
               0
100
AcDbVertex
100
AcDb2dVertex
 10
235.79031340870006
 20
178.97506128725595
 30
0.0
  0
VERTEX
  5
13B
100
AcDbEntity
  8
0
370
              -2
390
0
  6
Continuous
 62
               0
100
AcDbVertex
100
AcDb2dVertex
 10
273.29965178760631
 20
168.9244643600023
 30
0.0
  0
VERTEX
  5
13C
100
AcDbEntity
  8
0
370
              -2
390
0
  6
Continuous
 62
               0
100
AcDbVertex
100
AcDb2dVertex
 10
235.79031340870006
 20
158.87386743274865
 30
0.0
  0
SEQEND
  5
13D
100
AcDbEntity
  8
0
370
              -2
390
0
  6
Continuous
 62
               0
  0
WIPEOUT
  5
13E
100
AcDbEntity
  8
寸法
370
              -2
390
0
  6
Continuous
 62
               0
 92
        0
100
AcDbWipeout
 90
        0
 10
38.674651787606308
 20
176.4244643600023
 30
0.0
 11
95.25
 21
0.0
 31
0.0
 12
0.0
 22
95.25
 32
0.0
 13
1.0
 23
1.0
340
0
 70
               7
280
               1
281
              50
282
              50
283
               0
360
0
 71
               2
 91
        5
 14
-0.5
 24
0.5
 14
0.5
 24
0.5
 14
0.5
 24
-0.1666666666666679
 14
-0.5
 24
-0.1666666666666679
 14
-0.5
 24
0.5
  0
MTEXT
  5
13F
100
AcDbEntity
  8
寸法
390
0
 62
               0
100
AcDbMText
 10
38.674651787606308
 20
234.1796987350024
 30
0.0
 40
48.865234375000092
 41
0.0
 71
               1
 72
               1
  1
{\fＭＳ ゴシック|b0|i0|c128|p0;\l374}
 73
               1
 44
0.7828267384257843
  0
POINT
  5
140
100
AcDbEntity
  8
Defpoints
370
               0
390
0
 62
               0
100
AcDbPoint
 10
273.29965178760631
 20
93.924464360002077
 30
0.0
  0
POINT
  5
141
100
AcDbEntity
  8
Defpoints
370
               0
390
0
 62
               0
100
AcDbPoint
 10
-100.70034821239369
 20
93.924464360000144
 30
0.0
  0
POINT
  5
142
100
AcDbEntity
  8
Defpoints
370
               0
390
0
 62
               0
100
AcDbPoint
 10
-100.70034821239369
 20
168.9244643600023
 30
0.0
  0
ENDBLK
  5
143
100
AcDbEntity
  8
寸法
390
0
100
AcDbBlockEnd
  0
BLOCK
  5
144
100
AcDbEntity
  8
寸法
390
0
100
AcDbBlockBegin
  2
*D10
 70
               1
 10
0.0
 20
0.0
 30
0.0
  3
*D10
  1

  0
LINE
  5
145
100
AcDbEntity
  8
寸法
370
              -2
390
0
  6
Continuous
 62
               0
100
AcDbLine
 10
-130.70034821239369
 20
93.924464360000144
 30
0.0
 11
-196.25080081300791
 21
93.924464360000144
 31
0.0
  0
LINE
  5
146
100
AcDbEntity
  8
寸法
370
              -2
390
0
  6
Continuous
 62
               0
100
AcDbLine
 10
-130.70034821238869
 20
-306.07553564000051
 30
0.0
 11
-196.25080081300791
 21
-306.07553564000051
 31
0.0
  0
LINE
  5
147
100
AcDbEntity
  8
寸法
370
              -2
390
0
  6
Continuous
 62
               0
100
AcDbLine
 10
-166.25080081300791
 20
93.924464360000144
 30
0.0
 11
-166.25080081300791
 21
-306.07553564000051
 31
0.0
  0
POLYLINE
  5
148
100
AcDbEntity
  8
0
370
              -2
390
0
  6
Continuous
 62
               0
100
AcDb2dPolyline
 66
               1
 10
0.0
 20
0.0
 30
0.0
 75
               5
  0
VERTEX
  5
149
100
AcDbEntity
  8
0
370
              -2
390
0
  6
Continuous
 62
               0
100
AcDbVertex
100
AcDb2dVertex
 10
-176.30139774026156
 20
56.415125981093894
 30
0.0
  0
VERTEX
  5
14A
100
AcDbEntity
  8
0
370
              -2
390
0
  6
Continuous
 62
               0
100
AcDbVertex
100
AcDb2dVertex
 10
-166.25080081300791
 20
93.924464360000144
 30
0.0
  0
VERTEX
  5
14B
100
AcDbEntity
  8
0
370
              -2
390
0
  6
Continuous
 62
               0
100
AcDbVertex
100
AcDb2dVertex
 10
-156.20020388575426
 20
56.415125981093894
 30
0.0
  0
SEQEND
  5
14C
100
AcDbEntity
  8
0
370
              -2
390
0
  6
Continuous
 62
               0
  0
POLYLINE
  5
14D
100
AcDbEntity
  8
0
370
              -2
390
0
  6
Continuous
 62
               0
100
AcDb2dPolyline
 66
               1
 10
0.0
 20
0.0
 30
0.0
 75
               5
  0
VERTEX
  5
14E
100
AcDbEntity
  8
0
370
              -2
390
0
  6
Continuous
 62
               0
100
AcDbVertex
100
AcDb2dVertex
 10
-156.20020388575426
 20
-268.56619726109426
 30
0.0
  0
VERTEX
  5
14F
100
AcDbEntity
  8
0
370
              -2
390
0
  6
Continuous
 62
               0
100
AcDbVertex
100
AcDb2dVertex
 10
-166.25080081300791
 20
-306.07553564000051
 30
0.0
  0
VERTEX
  5
150
100
AcDbEntity
  8
0
370
              -2
390
0
  6
Continuous
 62
               0
100
AcDbVertex
100
AcDb2dVertex
 10
-176.30139774026156
 20
-268.56619726109426
 30
0.0
  0
SEQEND
  5
151
100
AcDbEntity
  8
0
370
              -2
390
0
  6
Continuous
 62
               0
  0
WIPEOUT
  5
152
100
AcDbEntity
  8
寸法
370
              -2
390
0
  6
Continuous
 62
               0
 92
        0
100
AcDbWipeout
 90
        0
 10
-237.25080081300803
 20
-153.70053564000017
 30
0.0
 11
95.25
 21
0.0
 31
0.0
 12
0.0
 22
95.25
 32
0.0
 13
1.0
 23
1.0
340
0
 70
               7
280
               1
281
              50
282
              50
283
               0
360
0
 71
               2
 91
        5
 14
0.1666666666666679
 24
0.5
 14
0.1666666666666679
 24
-0.5
 14
-0.5
 24
-0.5
 14
-0.5
 24
0.5
 14
0.1666666666666679
 24
0.5
  0
MTEXT
  5
153
100
AcDbEntity
  8
寸法
390
0
 62
               0
100
AcDbMText
 10
-231.50603518800801
 20
-153.70053564000017
 30
0.0
 40
48.865234375000092
 41
0.0
 71
               1
 72
               1
  1
{\fＭＳ ゴシック|b0|i0|c128|p0;\l400}
 11
0.0
 21
1.0
 31
0.0
 73
               1
 44
0.7828267384257843
  0
POINT
  5
154
100
AcDbEntity
  8
Defpoints
370
               0
390
0
 62
               0
100
AcDbPoint
 10
-100.70034821238869
 20
-306.07553564000051
 30
0.0
  0
POINT
  5
155
100
AcDbEntity
  8
Defpoints
370
               0
390
0
 62
               0
100
AcDbPoint
 10
-100.70034821239369
 20
93.924464360000144
 30
0.0
  0
POINT
  5
156
100
AcDbEntity
  8
Defpoints
370
               0
390
0
 62
               0
100
AcDbPoint
 10
-166.25080081300791
 20
93.924464360000144
 30
0.0
  0
ENDBLK
  5
157
100
AcDbEntity
  8
寸法
390
0
100
AcDbBlockEnd
  0
BLOCK
  5
158
100
AcDbEntity
  8
寸法
390
0
100
AcDbBlockBegin
  2
*D11
 70
               1
 10
0.0
 20
0.0
 30
0.0
  3
*D11
  1

  0
LINE
  5
159
100
AcDbEntity
  8
寸法
370
              -2
390
0
  6
Continuous
 62
               0
100
AcDbLine
 10
-332.83771406604978
 20
-286.07553564000017
 30
0.0
 11
-396.50080081300808
 21
-286.07553564000017
 31
0.0
  0
LINE
  5
15A
100
AcDbEntity
  8
寸法
370
              -2
390
0
  6
Continuous
 62
               0
100
AcDbLine
 10
-332.83771406604978
 20
93.924464360000371
 30
0.0
 11
-396.50080081300808
 21
93.924464360000371
 31
0.0
  0
LINE
  5
15B
100
AcDbEntity
  8
寸法
370
              -2
390
0
  6
Continuous
 62
               0
100
AcDbLine
 10
-366.50080081300808
 20
-286.07553564000017
 30
0.0
 11
-366.50080081300808
 21
93.924464360000371
 31
0.0
  0
POLYLINE
  5
15C
100
AcDbEntity
  8
0
370
              -2
390
0
  6
Continuous
 62
               0
100
AcDb2dPolyline
 66
               1
 10
0.0
 20
0.0
 30
0.0
 75
               5
  0
VERTEX
  5
15D
100
AcDbEntity
  8
0
370
              -2
390
0
  6
Continuous
 62
               0
100
AcDbVertex
100
AcDb2dVertex
 10
-356.45020388575443
 20
-248.56619726109392
 30
0.0
  0
VERTEX
  5
15E
100
AcDbEntity
  8
0
370
              -2
390
0
  6
Continuous
 62
               0
100
AcDbVertex
100
AcDb2dVertex
 10
-366.50080081300808
 20
-286.07553564000017
 30
0.0
  0
VERTEX
  5
15F
100
AcDbEntity
  8
0
370
              -2
390
0
  6
Continuous
 62
               0
100
AcDbVertex
100
AcDb2dVertex
 10
-376.55139774026173
 20
-248.56619726109392
 30
0.0
  0
SEQEND
  5
160
100
AcDbEntity
  8
0
370
              -2
390
0
  6
Continuous
 62
               0
  0
POLYLINE
  5
161
100
AcDbEntity
  8
0
370
              -2
390
0
  6
Continuous
 62
               0
100
AcDb2dPolyline
 66
               1
 10
0.0
 20
0.0
 30
0.0
 75
               5
  0
VERTEX
  5
162
100
AcDbEntity
  8
0
370
              -2
390
0
  6
Continuous
 62
               0
100
AcDbVertex
100
AcDb2dVertex
 10
-376.55139774026173
 20
56.415125981094121
 30
0.0
  0
VERTEX
  5
163
100
AcDbEntity
  8
0
370
              -2
390
0
  6
Continuous
 62
               0
100
AcDbVertex
100
AcDb2dVertex
 10
-366.50080081300808
 20
93.924464360000371
 30
0.0
  0
VERTEX
  5
164
100
AcDbEntity
  8
0
370
              -2
390
0
  6
Continuous
 62
               0
100
AcDbVertex
100
AcDb2dVertex
 10
-356.45020388575443
 20
56.415125981094121
 30
0.0
  0
SEQEND
  5
165
100
AcDbEntity
  8
0
370
              -2
390
0
  6
Continuous
 62
               0
  0
WIPEOUT
  5
166
100
AcDbEntity
  8
寸法
370
              -2
390
0
  6
Continuous
 62
               0
 92
        0
100
AcDbWipeout
 90
        0
 10
-437.5008008130082
 20
-143.70053563999991
 30
0.0
 11
95.25
 21
0.0
 31
0.0
 12
0.0
 22
95.25
 32
0.0
 13
1.0
 23
1.0
340
0
 70
               7
280
               1
281
              50
282
              50
283
               0
360
0
 71
               2
 91
        5
 14
0.1666666666666679
 24
0.5
 14
0.1666666666666679
 24
-0.5
 14
-0.5
 24
-0.5
 14
-0.5
 24
0.5
 14
0.1666666666666679
 24
0.5
  0
MTEXT
  5
167
100
AcDbEntity
  8
寸法
390
0
 62
               0
100
AcDbMText
 10
-431.75603518800818
 20
-143.70053563999991
 30
0.0
 40
48.865234375000092
 41
0.0
 71
               1
 72
               1
  1
{\fＭＳ ゴシック|b0|i0|c128|p0;\l380}
 11
0.0
 21
1.0
 31
0.0
 73
               1
 44
0.7828267384257843
  0
POINT
  5
168
100
AcDbEntity
  8
Defpoints
370
               0
390
0
 62
               0
100
AcDbPoint
 10
-302.83771406604978
 20
93.924464360000371
 30
0.0
  0
POINT
  5
169
100
AcDbEntity
  8
Defpoints
370
               0
390
0
 62
               0
100
AcDbPoint
 10
-302.83771406604978
 20
-286.07553564000017
 30
0.0
  0
POINT
  5
16A
100
AcDbEntity
  8
Defpoints
370
               0
390
0
 62
               0
100
AcDbPoint
 10
-366.50080081300808
 20
-286.07553564000017
 30
0.0
  0
ENDBLK
  5
16B
100
AcDbEntity
  8
寸法
390
0
100
AcDbBlockEnd
  0
BLOCK
  5
16C
100
AcDbEntity
  8
寸法
390
0
100
AcDbBlockBegin
  2
*D12
 70
               1
 10
0.0
 20
0.0
 30
0.0
  3
*D12
  1

  0
LINE
  5
16D
100
AcDbEntity
  8
寸法
370
              -2
390
0
  6
Continuous
 62
               0
100
AcDbLine
 10
263.29965178760654
 20
-336.07553563999784
 30
0.0
 11
263.29965178760654
 21
-353.82347447859377
 31
0.0
  0
LINE
  5
16E
100
AcDbEntity
  8
寸法
370
              -2
390
0
  6
Continuous
 62
               0
100
AcDbLine
 10
273.29965178760642
 20
-336.07553563999784
 30
0.0
 11
273.29965178760642
 21
-353.82347447859377
 31
0.0
  0
LINE
  5
16F
100
AcDbEntity
  8
寸法
370
              -2
390
0
  6
Continuous
 62
               0
100
AcDbLine
 10
273.29965178760642
 20
-323.82347447859377
 30
0.0
 11
422.24919918699209
 21
-323.82347447859377
 31
0.0
  0
LINE
  5
170
100
AcDbEntity
  8
寸法
370
              -2
390
0
  6
Continuous
 62
               0
100
AcDbLine
 10
263.29965178760654
 20
-323.82347447859377
 30
0.0
 11
273.29965178760642
 21
-323.82347447859377
 31
0.0
  0
POLYLINE
  5
171
100
AcDbEntity
  8
0
370
              -2
390
0
  6
Continuous
 62
               0
100
AcDb2dPolyline
 66
               1
 10
0.0
 20
0.0
 30
0.0
 75
               5
  0
VERTEX
  5
172
100
AcDbEntity
  8
0
370
              -2
390
0
  6
Continuous
 62
               0
100
AcDbVertex
100
AcDb2dVertex
 10
300.80899016651279
 20
-333.87407140584742
 30
0.0
  0
VERTEX
  5
173
100
AcDbEntity
  8
0
370
              -2
390
0
  6
Continuous
 62
               0
100
AcDbVertex
100
AcDb2dVertex
 10
263.29965178760654
 20
-323.82347447859377
 30
0.0
  0
VERTEX
  5
174
100
AcDbEntity
  8
0
370
              -2
390
0
  6
Continuous
 62
               0
100
AcDbVertex
100
AcDb2dVertex
 10
300.80899016651279
 20
-313.77287755134012
 30
0.0
  0
SEQEND
  5
175
100
AcDbEntity
  8
0
370
              -2
390
0
  6
Continuous
 62
               0
  0
POLYLINE
  5
176
100
AcDbEntity
  8
0
370
              -2
390
0
  6
Continuous
 62
               0
100
AcDb2dPolyline
 66
               1
 10
0.0
 20
0.0
 30
0.0
 75
               5
  0
VERTEX
  5
177
100
AcDbEntity
  8
0
370
              -2
390
0
  6
Continuous
 62
               0
100
AcDbVertex
100
AcDb2dVertex
 10
235.79031340870017
 20
-313.77287755134012
 30
0.0
  0
VERTEX
  5
178
100
AcDbEntity
  8
0
370
              -2
390
0
  6
Continuous
 62
               0
100
AcDbVertex
100
AcDb2dVertex
 10
273.29965178760642
 20
-323.82347447859377
 30
0.0
  0
VERTEX
  5
179
100
AcDbEntity
  8
0
370
              -2
390
0
  6
Continuous
 62
               0
100
AcDbVertex
100
AcDb2dVertex
 10
235.79031340870017
 20
-333.87407140584742
 30
0.0
  0
SEQEND
  5
17A
100
AcDbEntity
  8
0
370
              -2
390
0
  6
Continuous
 62
               0
  0
WIPEOUT
  5
17B
100
AcDbEntity
  8
寸法
370
              -2
390
0
  6
Continuous
 62
               0
 92
        0
100
AcDbWipeout
 90
        0
 10
358.74919918699209
 20
-316.32347447859377
 30
0.0
 11
63.500000000000114
 21
0.0
 31
0.0
 12
0.0
 22
63.500000000000114
 32
0.0
 13
1.0
 23
1.0
340
0
 70
               7
280
               1
281
              50
282
              50
283
               0
360
0
 71
               2
 91
        5
 14
-0.5
 24
0.5
 14
0.4999999999999982
 24
0.5
 14
0.4999999999999982
 24
-0.5
 14
-0.5
 24
-0.5
 14
-0.5
 24
0.5
  0
MTEXT
  5
17C
100
AcDbEntity
  8
寸法
390
0
 62
               0
100
AcDbMText
 10
358.74919918699209
 20
-258.56824010359367
 30
0.0
 40
48.865234375000092
 41
0.0
 71
               1
 72
               1
  1
{\fＭＳ ゴシック|b0|i0|c128|p0;\l10}
 73
               1
 44
0.7828267384257843
  0
POINT
  5
17D
100
AcDbEntity
  8
Defpoints
370
               0
390
0
 62
               0
100
AcDbPoint
 10
273.29965178760642
 20
-306.07553563999784
 30
0.0
  0
POINT
  5
17E
100
AcDbEntity
  8
Defpoints
370
               0
390
0
 62
               0
100
AcDbPoint
 10
263.29965178760654
 20
-306.07553563999784
 30
0.0
  0
POINT
  5
17F
100
AcDbEntity
  8
Defpoints
370
               0
390
0
 62
               0
100
AcDbPoint
 10
263.29965178760654
 20
-323.82347447859377
 30
0.0
  0
ENDBLK
  5
180
100
AcDbEntity
  8
寸法
390
0
100
AcDbBlockEnd
  0
BLOCK
  5
181
100
AcDbEntity
  8
0
390
0
100
AcDbBlockBegin
  2
グループ-1
 70
               0
 10
0.0
 20
0.0
 30
0.0
  3
グループ-1
  1

  0
LINE
  5
182
100
AcDbEntity
  8
0
370
               0
390
0
  6
Continuous
 62
               0
100
AcDbLine
 10
-100.70034821239369
 20
93.924464360000144
 30
0.0
 11
-100.70034821238869
 21
-306.07553564000051
 31
0.0
  0
LINE
  5
183
100
AcDbEntity
  8
0
370
               0
390
0
  6
Continuous
 62
               0
100
AcDbLine
 10
-90.700348212388803
 20
-306.07553564000034
 30
0.0
 11
-100.70034821238869
 21
-306.07553564000051
 31
0.0
  0
LINE
  5
184
100
AcDbEntity
  8
0
370
               0
390
0
  6
Continuous
 62
               0
100
AcDbLine
 10
-90.700348212393578
 20
83.924464360000144
 30
0.0
 11
-100.70034821239369
 21
93.924464360000144
 31
0.0
  0
LINE
  5
185
100
AcDbEntity
  8
0
370
               0
390
0
  6
Continuous
 62
               0
100
AcDbLine
 10
-90.700348212393578
 20
83.924464360000144
 30
0.0
 11
-90.700348212388803
 21
-306.07553564000034
 31
0.0
  0
LINE
  5
186
100
AcDbEntity
  8
0
370
               0
390
0
  6
Continuous
 62
               0
100
AcDbLine
 10
273.29965178760631
 20
93.924464360002759
 30
0.0
 11
273.29965178760642
 21
-306.07553563999784
 31
0.0
  0
LINE
  5
187
100
AcDbEntity
  8
0
370
               0
390
0
  6
Continuous
 62
               0
100
AcDbLine
 10
273.29965178760631
 20
93.924464360002759
 30
0.0
 11
263.29965178760642
 21
83.924464360002645
 31
0.0
  0
LINE
  5
188
100
AcDbEntity
  8
0
370
               0
390
0
  6
Continuous
 62
               0
100
AcDbLine
 10
263.29965178760642
 20
83.924464360002645
 30
0.0
 11
263.29965178760654
 21
-306.07553563999784
 31
0.0
  0
LINE
  5
189
100
AcDbEntity
  8
0
370
               0
390
0
  6
Continuous
 62
               0
100
AcDbLine
 10
273.29965178760642
 20
-306.07553563999784
 30
0.0
 11
263.29965178760654
 21
-306.07553563999784
 31
0.0
  0
LINE
  5
18A
100
AcDbEntity
  8
0
370
               0
390
0
  6
Continuous
 62
               0
100
AcDbLine
 10
263.29965178760631
 20
83.924464360002077
 30
0.0
 11
-90.700348212393578
 21
83.924464359999575
 31
0.0
  0
LINE
  5
18B
100
AcDbEntity
  8
0
370
               0
390
0
  6
Continuous
 62
               0
100
AcDbLine
 10
273.29965178760631
 20
93.924464360002077
 30
0.0
 11
-100.70034821239375
 21
93.924464359999462
 31
0.0
  0
LINE
  5
18C
100
AcDbEntity
  8
0
370
               0
390
0
  6
Continuous
 62
               0
100
AcDbLine
 10
-90.700348212393578
 20
83.924464359999575
 30
0.0
 11
-100.70034821239375
 21
93.924464359999462
 31
0.0
  0
LINE
  5
18D
100
AcDbEntity
  8
0
370
               0
390
0
  6
Continuous
 62
               0
100
AcDbLine
 10
263.29965178760631
 20
83.924464360002077
 30
0.0
 11
273.29965178760631
 21
93.924464360002077
 31
0.0
  0
LINE
  5
18E
100
AcDbEntity
  8
FORMAT
370
               0
390
0
 62
               0
100
AcDbLine
 10
263.29965178760619
 20
80.924464360001963
 30
0.0
 11
263.29965178760835
 21
-244.84996049099902
 31
0.0
  0
LINE
  5
18F
100
AcDbEntity
  8
FORMAT
370
               0
390
0
 62
               0
100
AcDbLine
 10
-90.700348212393635
 20
80.924464359999575
 30
0.0
 11
-90.700348212391305
 21
-244.8499604910013
 31
0.0
  0
LINE
  5
190
100
AcDbEntity
  8
0
370
               0
390
0
  6
Continuous
 62
               0
100
AcDbLine
 10
-282.83771406604967
 20
93.924464360000371
 30
0.0
 11
-282.83771406604967
 21
-306.07553564000051
 31
0.0
  0
LINE
  5
191
100
AcDbEntity
  8
0
370
               0
390
0
  6
Continuous
 62
               0
100
AcDbLine
 10
-322.83771406604978
 20
93.924464360000371
 30
0.0
 11
-322.83771406604978
 21
-306.07553564000034
 31
0.0
  0
LINE
  5
192
100
AcDbEntity
  8
0
370
               0
390
0
  6
Continuous
 62
               0
100
AcDbLine
 10
-282.83771406604967
 20
-306.07553564000051
 30
0.0
 11
-322.83771406604978
 21
-306.07553564000034
 31
0.0
  0
CIRCLE
  5
193
100
AcDbEntity
  8
0
370
               0
390
0
  6
Continuous
 62
               0
100
AcDbCircle
 10
-302.83771406604978
 20
-286.07553564000017
 30
0.0
 40
4.0000000000001137
  0
LINE
  5
194
100
AcDbEntity
  8
0
370
               0
390
0
  6
Continuous
 62
               0
100
AcDbLine
 10
-282.83771406604967
 20
93.924464360000371
 30
0.0
 11
-322.83771406604978
 21
93.924464360000371
 31
0.0
  0
LINE
  5
195
100
AcDbEntity
  8
0
370
               0
390
0
  6
Continuous
 62
               0
100
AcDbLine
 10
-282.83771406604967
 20
93.924464359999462
 30
0.0
 11
-322.83771406604978
 21
93.924464359999462
 31
0.0
  0
DIMENSION
  5
196
100
AcDbEntity
  8
寸法
370
               0
390
0
  6
Continuous
 62
               2
100
AcDbDimension
  2
*D9
 10
-100.70034821239369
 20
168.9244643600023
 30
0.0
 11
86.299651787606308
 21
168.9244643600023
 31
0.0
 71
               5
 72
               1
 41
1.0
 42
0.0
  3
HIBINO
100
AcDbAlignedDimension
 13
273.29965178760631
 23
93.924464360002077
 33
0.0
 14
-100.70034821239369
 24
93.924464360000144
 34
0.0
100
AcDbRotatedDimension
1001
ACAD
1000
DSTYLE
1002
{
1070
             279
1070
               2
1070
             340
1005
60
1070
             147
1040
7.5
1002
}
  0
DIMENSION
  5
197
100
AcDbEntity
  8
寸法
370
               0
390
0
  6
Continuous
 62
               2
100
AcDbDimension
  2
*D10
 10
-166.25080081300791
 20
93.924464360000144
 30
0.0
 11
-166.25080081300791
 21
-106.0755356400002
 31
0.0
 71
               5
 72
               1
 41
1.0
 42
0.0
  3
HIBINO
100
AcDbAlignedDimension
 13
-100.70034821238869
 23
-306.07553564000051
 33
0.0
 14
-100.70034821239369
 24
93.924464360000144
 34
0.0
 50
-90.0
100
AcDbRotatedDimension
1001
ACAD
1000
DSTYLE
1002
{
1070
             279
1070
               2
1070
             340
1005
60
1070
             147
1040
7.5
1002
}
  0
DIMENSION
  5
198
100
AcDbEntity
  8
寸法
370
               0
390
0
  6
Continuous
 62
               2
100
AcDbDimension
  2
*D11
 10
-366.50080081300808
 20
-286.07553564000017
 30
0.0
 11
-374.00080081300808
 21
-96.075535639999913
 31
0.0
 70
             128
 71
               5
 72
               1
 41
1.0
 42
0.0
  3
HIBINO
100
AcDbAlignedDimension
 13
-302.83771406604978
 23
93.924464360000371
 33
0.0
 14
-302.83771406604978
 24
-286.07553564000017
 34
0.0
 50
-90.0
100
AcDbRotatedDimension
1001
ACAD
1000
DSTYLE
1002
{
1070
             279
1070
               2
1070
             340
1005
60
1070
             147
1040
7.5
1002
}
  0
DIMENSION
  5
199
100
AcDbEntity
  8
寸法
370
               0
390
0
  6
Continuous
 62
               2
100
AcDbDimension
  2
*D12
 10
263.29965178760654
 20
-323.82347447859377
 30
0.0
 11
358.74919918699209
 21
-316.32347447859377
 31
0.0
 70
             128
 71
               5
 72
               1
 41
1.0
 42
0.0
  3
HIBINO
100
AcDbAlignedDimension
 13
273.29965178760642
 23
-306.07553563999784
 33
0.0
 14
263.29965178760654
 24
-306.07553563999784
 34
0.0
100
AcDbRotatedDimension
1001
ACAD
1000
DSTYLE
1002
{
1070
             279
1070
               2
1070
             340
1005
60
1070
             174
1070
               0
1070
             147
1040
7.5
1002
}
  0
ENDBLK
  5
19A
100
AcDbEntity
  8
0
390
0
100
AcDbBlockEnd
  0
BLOCK
  5
19B
100
AcDbEntity
  8
0
390
0
100
AcDbBlockBegin
  2
グループ-2
 70
               0
 10
0.0
 20
0.0
 30
0.0
  3
グループ-2
  1

  0
INSERT
  5
19C
100
AcDbEntity
  8
0
390
0
 62
               2
100
AcDbBlockReference
  2
グループ
 10
0.0
 20
0.0
 30
0.0
  0
INSERT
  5
19D
100
AcDbEntity
  8
0
390
0
 62
               2
100
AcDbBlockReference
  2
グループ-1
 10
0.0
 20
0.0
 30
0.0
  0
ENDBLK
  5
19E
100
AcDbEntity
  8
0
390
0
100
AcDbBlockEnd
  0
BLOCK
  5
19F
100
AcDbEntity
  8
0
390
0
100
AcDbBlockBegin
  2
グループ-3
 70
               0
 10
0.0
 20
0.0
 30
0.0
  3
グループ-3
  1

  0
MTEXT
  5
1A0
100
AcDbEntity
  8
0
390
0
 62
               2
100
AcDbMText
 10
-825.62580081300803
 20
225.12502365929339
 30
0.0
 40
48.865234375000092
 41
0.0
 71
               1
 72
               1
  1
{\fＭＳ ゴシック|b0|i0|c128|p0;\lA12VG}
 73
               1
 44
0.7828267384257843
  0
INSERT
  5
1A1
100
AcDbEntity
  8
0
390
0
 62
               2
100
AcDbBlockReference
  2
グループ-2
 10
0.0
 20
0.0
 30
0.0
  0
MTEXT
  5
1A2
100
AcDbEntity
  8
0
390
0
 62
               2
100
AcDbMText
 10
-825.51690948845442
 20
-432.81824010359372
 30
0.0
 40
48.865234375000092
 41
0.0
 71
               1
 72
               1
  1
{\fＭＳ ゴシック|b0|i0|c128|p0;\l重量　約1.2kg}
 73
               1
 44
0.7828267384257843
  0
ENDBLK
  5
1A3
100
AcDbEntity
  8
0
390
0
100
AcDbBlockEnd
  0
BLOCK
  5
1A4
100
AcDbEntity
  8
寸法
390
0
100
AcDbBlockBegin
  2
*D16
 70
               1
 10
0.0
 20
0.0
 30
0.0
  3
*D16
  1

  0
LINE
  5
1A5
100
AcDbEntity
  8
寸法
370
              -2
390
0
  6
Continuous
 62
               0
100
AcDbLine
 10
-126.85232642159929
 20
-1280.3802107157085
 30
0.0
 11
-159.4453969819109
 21
-1280.3802107157085
 31
0.0
  0
LINE
  5
1A6
100
AcDbEntity
  8
寸法
370
              -2
390
0
  6
Continuous
 62
               0
100
AcDbLine
 10
-126.85232642159929
 20
-1299.3802107157085
 30
0.0
 11
-159.4453969819109
 21
-1299.3802107157085
 31
0.0
  0
LINE
  5
1A7
100
AcDbEntity
  8
寸法
370
              -2
390
0
  6
Continuous
 62
               0
100
AcDbLine
 10
-129.4453969819109
 20
-1280.3802107157085
 30
0.0
 11
-129.4453969819109
 21
-1299.3802107157085
 31
0.0
  0
POLYLINE
  5
1A8
100
AcDbEntity
  8
0
370
              -2
390
0
  6
Continuous
 62
               0
100
AcDb2dPolyline
 66
               1
 10
0.0
 20
0.0
 30
0.0
 75
               5
  0
VERTEX
  5
1A9
100
AcDbEntity
  8
0
370
              -2
390
0
  6
Continuous
 62
               0
100
AcDbVertex
100
AcDb2dVertex
 10
-139.49599390916455
 20
-1317.8895490946147
 30
0.0
  0
VERTEX
  5
1AA
100
AcDbEntity
  8
0
370
              -2
390
0
  6
Continuous
 62
               0
100
AcDbVertex
100
AcDb2dVertex
 10
-129.4453969819109
 20
-1280.3802107157085
 30
0.0
  0
VERTEX
  5
1AB
100
AcDbEntity
  8
0
370
              -2
390
0
  6
Continuous
 62
               0
100
AcDbVertex
100
AcDb2dVertex
 10
-119.39480005465725
 20
-1317.8895490946147
 30
0.0
  0
SEQEND
  5
1AC
100
AcDbEntity
  8
0
370
              -2
390
0
  6
Continuous
 62
               0
  0
POLYLINE
  5
1AD
100
AcDbEntity
  8
0
370
              -2
390
0
  6
Continuous
 62
               0
100
AcDb2dPolyline
 66
               1
 10
0.0
 20
0.0
 30
0.0
 75
               5
  0
VERTEX
  5
1AE
100
AcDbEntity
  8
0
370
              -2
390
0
  6
Continuous
 62
               0
100
AcDbVertex
100
AcDb2dVertex
 10
-119.39480005465725
 20
-1261.8708723368022
 30
0.0
  0
VERTEX
  5
1AF
100
AcDbEntity
  8
0
370
              -2
390
0
  6
Continuous
 62
               0
100
AcDbVertex
100
AcDb2dVertex
 10
-129.4453969819109
 20
-1299.3802107157085
 30
0.0
  0
VERTEX
  5
1B0
100
AcDbEntity
  8
0
370
              -2
390
0
  6
Continuous
 62
               0
100
AcDbVertex
100
AcDb2dVertex
 10
-139.49599390916455
 20
-1261.8708723368022
 30
0.0
  0
SEQEND
  5
1B1
100
AcDbEntity
  8
0
370
              -2
390
0
  6
Continuous
 62
               0
  0
WIPEOUT
  5
1B2
100
AcDbEntity
  8
寸法
370
              -2
390
0
  6
Continuous
 62
               0
 92
        0
100
AcDbWipeout
 90
        0
 10
-200.44539698191102
 20
-1312.1302107157085
 30
0.0
 11
63.500000000000114
 21
0.0
 31
0.0
 12
0.0
 22
63.500000000000114
 32
0.0
 13
1.0
 23
1.0
340
0
 70
               7
280
               1
281
              50
282
              50
283
               0
360
0
 71
               2
 91
        5
 14
0.5
 24
0.5
 14
0.5
 24
-0.4999999999999982
 14
-0.5
 24
-0.4999999999999982
 14
-0.5
 24
0.5
 14
0.5
 24
0.5
  0
MTEXT
  5
1B3
100
AcDbEntity
  8
寸法
390
0
 62
               0
100
AcDbMText
 10
-194.700631356911
 20
-1312.1302107157085
 30
0.0
 40
48.865234375000092
 41
0.0
 71
               1
 72
               1
  1
{\fＭＳ ゴシック|b0|i0|c128|p0;\l19}
 11
0.0
 21
1.0
 31
0.0
 73
               1
 44
0.7828267384257843
  0
POINT
  5
1B4
100
AcDbEntity
  8
Defpoints
370
               0
390
0
 62
               0
100
AcDbPoint
 10
-96.852326421599287
 20
-1299.3802107157085
 30
0.0
  0
POINT
  5
1B5
100
AcDbEntity
  8
Defpoints
370
               0
390
0
 62
               0
100
AcDbPoint
 10
-96.852326421599287
 20
-1280.3802107157085
 30
0.0
  0
POINT
  5
1B6
100
AcDbEntity
  8
Defpoints
370
               0
390
0
 62
               0
100
AcDbPoint
 10
-129.4453969819109
 20
-1280.3802107157085
 30
0.0
  0
ENDBLK
  5
1B7
100
AcDbEntity
  8
寸法
390
0
100
AcDbBlockEnd
  0
BLOCK
  5
1B8
100
AcDbEntity
  8
寸法
390
0
100
AcDbBlockBegin
  2
*D17
 70
               1
 10
0.0
 20
0.0
 30
0.0
  3
*D17
  1

  0
LINE
  5
1B9
100
AcDbEntity
  8
寸法
370
              -2
390
0
  6
Continuous
 62
               0
100
AcDbLine
 10
-96.852326421599287
 20
-1329.3802107157085
 30
0.0
 11
-96.852326421599287
 21
-1430.8802107157067
 31
0.0
  0
LINE
  5
1BA
100
AcDbEntity
  8
寸法
370
              -2
390
0
  6
Continuous
 62
               0
100
AcDbLine
 10
133.14767357839889
 20
-1329.3802107157067
 30
0.0
 11
133.14767357839889
 21
-1430.8802107157067
 31
0.0
  0
LINE
  5
1BB
100
AcDbEntity
  8
寸法
370
              -2
390
0
  6
Continuous
 62
               0
100
AcDbLine
 10
-96.852326421599287
 20
-1400.8802107157067
 30
0.0
 11
133.14767357839889
 21
-1400.8802107157067
 31
0.0
  0
POLYLINE
  5
1BC
100
AcDbEntity
  8
0
370
              -2
390
0
  6
Continuous
 62
               0
100
AcDb2dPolyline
 66
               1
 10
0.0
 20
0.0
 30
0.0
 75
               5
  0
VERTEX
  5
1BD
100
AcDbEntity
  8
0
370
              -2
390
0
  6
Continuous
 62
               0
100
AcDbVertex
100
AcDb2dVertex
 10
-59.342988042693037
 20
-1410.9308076429602
 30
0.0
  0
VERTEX
  5
1BE
100
AcDbEntity
  8
0
370
              -2
390
0
  6
Continuous
 62
               0
100
AcDbVertex
100
AcDb2dVertex
 10
-96.852326421599287
 20
-1400.8802107157067
 30
0.0
  0
VERTEX
  5
1BF
100
AcDbEntity
  8
0
370
              -2
390
0
  6
Continuous
 62
               0
100
AcDbVertex
100
AcDb2dVertex
 10
-59.342988042693037
 20
-1390.8296137884531
 30
0.0
  0
SEQEND
  5
1C0
100
AcDbEntity
  8
0
370
              -2
390
0
  6
Continuous
 62
               0
  0
POLYLINE
  5
1C1
100
AcDbEntity
  8
0
370
              -2
390
0
  6
Continuous
 62
               0
100
AcDb2dPolyline
 66
               1
 10
0.0
 20
0.0
 30
0.0
 75
               5
  0
VERTEX
  5
1C2
100
AcDbEntity
  8
0
370
              -2
390
0
  6
Continuous
 62
               0
100
AcDbVertex
100
AcDb2dVertex
 10
95.638335199492644
 20
-1390.8296137884531
 30
0.0
  0
VERTEX
  5
1C3
100
AcDbEntity
  8
0
370
              -2
390
0
  6
Continuous
 62
               0
100
AcDbVertex
100
AcDb2dVertex
 10
133.14767357839889
 20
-1400.8802107157067
 30
0.0
  0
VERTEX
  5
1C4
100
AcDbEntity
  8
0
370
              -2
390
0
  6
Continuous
 62
               0
100
AcDbVertex
100
AcDb2dVertex
 10
95.638335199492644
 20
-1410.9308076429604
 30
0.0
  0
SEQEND
  5
1C5
100
AcDbEntity
  8
0
370
              -2
390
0
  6
Continuous
 62
               0
  0
WIPEOUT
  5
1C6
100
AcDbEntity
  8
寸法
370
              -2
390
0
  6
Continuous
 62
               0
 92
        0
100
AcDbWipeout
 90
        0
 10
-27.070396981910918
 20
-1393.3802107157067
 30
0.0
 11
95.25
 21
0.0
 31
0.0
 12
0.0
 22
95.25
 32
0.0
 13
1.0
 23
1.0
340
0
 70
               7
280
               1
281
              50
282
              50
283
               0
360
0
 71
               2
 91
        5
 14
-0.5
 24
0.5
 14
0.5
 24
0.5
 14
0.5
 24
-0.1666666666666666
 14
-0.5
 24
-0.1666666666666666
 14
-0.5
 24
0.5
  0
MTEXT
  5
1C7
100
AcDbEntity
  8
寸法
390
0
 62
               0
100
AcDbMText
 10
-27.070396981910918
 20
-1335.6249763407066
 30
0.0
 40
48.865234375000092
 41
0.0
 71
               1
 72
               1
  1
{\fＭＳ ゴシック|b0|i0|c128|p0;\l230}
 73
               1
 44
0.7828267384257843
  0
POINT
  5
1C8
100
AcDbEntity
  8
Defpoints
370
               0
390
0
 62
               0
100
AcDbPoint
 10
133.14767357839889
 20
-1299.3802107157067
 30
0.0
  0
POINT
  5
1C9
100
AcDbEntity
  8
Defpoints
370
               0
390
0
 62
               0
100
AcDbPoint
 10
-96.852326421599287
 20
-1299.3802107157085
 30
0.0
  0
POINT
  5
1CA
100
AcDbEntity
  8
Defpoints
370
               0
390
0
 62
               0
100
AcDbPoint
 10
-96.852326421599287
 20
-1400.8802107157067
 30
0.0
  0
ENDBLK
  5
1CB
100
AcDbEntity
  8
寸法
390
0
100
AcDbBlockEnd
  0
BLOCK
  5
1CC
100
AcDbEntity
  8
寸法
390
0
100
AcDbBlockBegin
  2
*D18
 70
               1
 10
0.0
 20
0.0
 30
0.0
  3
*D18
  1

  0
LINE
  5
1CD
100
AcDbEntity
  8
寸法
370
              -2
390
0
  6
Continuous
 62
               0
100
AcDbLine
 10
153.14767357839821
 20
-1268.8802107157067
 30
0.0
 11
300.5546030180891
 21
-1268.8802107157067
 31
0.0
  0
LINE
  5
1CE
100
AcDbEntity
  8
寸法
370
              -2
390
0
  6
Continuous
 62
               0
100
AcDbLine
 10
153.14767357839833
 20
-1310.8802107157067
 30
0.0
 11
300.5546030180891
 21
-1310.8802107157067
 31
0.0
  0
LINE
  5
1CF
100
AcDbEntity
  8
寸法
370
              -2
390
0
  6
Continuous
 62
               0
100
AcDbLine
 10
270.5546030180891
 20
-1268.8802107157067
 30
0.0
 11
270.5546030180891
 21
-1310.8802107157067
 31
0.0
  0
POLYLINE
  5
1D0
100
AcDbEntity
  8
0
370
              -2
390
0
  6
Continuous
 62
               0
100
AcDb2dPolyline
 66
               1
 10
0.0
 20
0.0
 30
0.0
 75
               5
  0
VERTEX
  5
1D1
100
AcDbEntity
  8
0
370
              -2
390
0
  6
Continuous
 62
               0
100
AcDbVertex
100
AcDb2dVertex
 10
260.50400609083545
 20
-1306.3895490946129
 30
0.0
  0
VERTEX
  5
1D2
100
AcDbEntity
  8
0
370
              -2
390
0
  6
Continuous
 62
               0
100
AcDbVertex
100
AcDb2dVertex
 10
270.5546030180891
 20
-1268.8802107157067
 30
0.0
  0
VERTEX
  5
1D3
100
AcDbEntity
  8
0
370
              -2
390
0
  6
Continuous
 62
               0
100
AcDbVertex
100
AcDb2dVertex
 10
280.60519994534275
 20
-1306.3895490946129
 30
0.0
  0
SEQEND
  5
1D4
100
AcDbEntity
  8
0
370
              -2
390
0
  6
Continuous
 62
               0
  0
POLYLINE
  5
1D5
100
AcDbEntity
  8
0
370
              -2
390
0
  6
Continuous
 62
               0
100
AcDb2dPolyline
 66
               1
 10
0.0
 20
0.0
 30
0.0
 75
               5
  0
VERTEX
  5
1D6
100
AcDbEntity
  8
0
370
              -2
390
0
  6
Continuous
 62
               0
100
AcDbVertex
100
AcDb2dVertex
 10
280.60519994534275
 20
-1273.3708723368004
 30
0.0
  0
VERTEX
  5
1D7
100
AcDbEntity
  8
0
370
              -2
390
0
  6
Continuous
 62
               0
100
AcDbVertex
100
AcDb2dVertex
 10
270.5546030180891
 20
-1310.8802107157067
 30
0.0
  0
VERTEX
  5
1D8
100
AcDbEntity
  8
0
370
              -2
390
0
  6
Continuous
 62
               0
100
AcDbVertex
100
AcDb2dVertex
 10
260.50400609083545
 20
-1273.3708723368004
 30
0.0
  0
SEQEND
  5
1D9
100
AcDbEntity
  8
0
370
              -2
390
0
  6
Continuous
 62
               0
  0
WIPEOUT
  5
1DA
100
AcDbEntity
  8
寸法
370
              -2
390
0
  6
Continuous
 62
               0
 92
        0
100
AcDbWipeout
 90
        0
 10
199.55460301808898
 20
-1307.6302107157067
 30
0.0
 11
63.500000000000114
 21
0.0
 31
0.0
 12
0.0
 22
63.500000000000114
 32
0.0
 13
1.0
 23
1.0
340
0
 70
               7
280
               1
281
              50
282
              50
283
               0
360
0
 71
               2
 91
        5
 14
0.5
 24
0.5
 14
0.5
 24
-0.4999999999999982
 14
-0.5
 24
-0.4999999999999982
 14
-0.5
 24
0.5
 14
0.5
 24
0.5
  0
MTEXT
  5
1DB
100
AcDbEntity
  8
寸法
390
0
 62
               0
100
AcDbMText
 10
205.299368643089
 20
-1307.6302107157067
 30
0.0
 40
48.865234375000092
 41
0.0
 71
               1
 72
               1
  1
{\fＭＳ ゴシック|b0|i0|c128|p0;\l42}
 11
0.0
 21
1.0
 31
0.0
 73
               1
 44
0.7828267384257843
  0
POINT
  5
1DC
100
AcDbEntity
  8
Defpoints
370
               0
390
0
 62
               0
100
AcDbPoint
 10
123.14767357839833
 20
-1310.8802107157067
 30
0.0
  0
POINT
  5
1DD
100
AcDbEntity
  8
Defpoints
370
               0
390
0
 62
               0
100
AcDbPoint
 10
123.14767357839821
 20
-1268.8802107157067
 30
0.0
  0
POINT
  5
1DE
100
AcDbEntity
  8
Defpoints
370
               0
390
0
 62
               0
100
AcDbPoint
 10
270.5546030180891
 20
-1268.8802107157067
 30
0.0
  0
ENDBLK
  5
1DF
100
AcDbEntity
  8
寸法
390
0
100
AcDbBlockEnd
  0
BLOCK
  5
1E0
100
AcDbEntity
  8
寸法
390
0
100
AcDbBlockBegin
  2
*D19
 70
               1
 10
0.0
 20
0.0
 30
0.0
  3
*D19
  1

  0
LINE
  5
1E1
100
AcDbEntity
  8
寸法
370
              -2
390
0
  6
Continuous
 62
               0
100
AcDbLine
 10
100.45940166485337
 20
-1152.7557975177626
 30
0.0
 11
250.5546030180891
 21
-1152.7557975177626
 31
0.0
  0
LINE
  5
1E2
100
AcDbEntity
  8
寸法
370
              -2
390
0
  6
Continuous
 62
               0
100
AcDbLine
 10
100.45940166485337
 20
-1106.1680462474121
 30
0.0
 11
250.5546030180891
 21
-1106.1680462474121
 31
0.0
  0
LINE
  5
1E3
100
AcDbEntity
  8
寸法
370
              -2
390
0
  6
Continuous
 62
               0
100
AcDbLine
 10
220.5546030180891
 20
-1106.1680462474121
 30
0.0
 11
220.5546030180891
 21
-1012.3802107157067
 31
0.0
  0
LINE
  5
1E4
100
AcDbEntity
  8
寸法
370
              -2
390
0
  6
Continuous
 62
               0
100
AcDbLine
 10
220.5546030180891
 20
-1152.7557975177626
 30
0.0
 11
220.5546030180891
 21
-1106.1680462474121
 31
0.0
  0
POLYLINE
  5
1E5
100
AcDbEntity
  8
0
370
              -2
390
0
  6
Continuous
 62
               0
100
AcDb2dPolyline
 66
               1
 10
0.0
 20
0.0
 30
0.0
 75
               5
  0
VERTEX
  5
1E6
100
AcDbEntity
  8
0
370
              -2
390
0
  6
Continuous
 62
               0
100
AcDbVertex
100
AcDb2dVertex
 10
230.60519994534275
 20
-1115.2464591388564
 30
0.0
  0
VERTEX
  5
1E7
100
AcDbEntity
  8
0
370
              -2
390
0
  6
Continuous
 62
               0
100
AcDbVertex
100
AcDb2dVertex
 10
220.5546030180891
 20
-1152.7557975177626
 30
0.0
  0
VERTEX
  5
1E8
100
AcDbEntity
  8
0
370
              -2
390
0
  6
Continuous
 62
               0
100
AcDbVertex
100
AcDb2dVertex
 10
210.50400609083545
 20
-1115.2464591388564
 30
0.0
  0
SEQEND
  5
1E9
100
AcDbEntity
  8
0
370
              -2
390
0
  6
Continuous
 62
               0
  0
POLYLINE
  5
1EA
100
AcDbEntity
  8
0
370
              -2
390
0
  6
Continuous
 62
               0
100
AcDb2dPolyline
 66
               1
 10
0.0
 20
0.0
 30
0.0
 75
               5
  0
VERTEX
  5
1EB
100
AcDbEntity
  8
0
370
              -2
390
0
  6
Continuous
 62
               0
100
AcDbVertex
100
AcDb2dVertex
 10
210.50400609083545
 20
-1143.6773846263184
 30
0.0
  0
VERTEX
  5
1EC
100
AcDbEntity
  8
0
370
              -2
390
0
  6
Continuous
 62
               0
100
AcDbVertex
100
AcDb2dVertex
 10
220.5546030180891
 20
-1106.1680462474121
 30
0.0
  0
VERTEX
  5
1ED
100
AcDbEntity
  8
0
370
              -2
390
0
  6
Continuous
 62
               0
100
AcDbVertex
100
AcDb2dVertex
 10
230.60519994534275
 20
-1143.6773846263184
 30
0.0
  0
SEQEND
  5
1EE
100
AcDbEntity
  8
0
370
              -2
390
0
  6
Continuous
 62
               0
  0
WIPEOUT
  5
1EF
100
AcDbEntity
  8
寸法
370
              -2
390
0
  6
Continuous
 62
               0
 92
        0
100
AcDbWipeout
 90
        0
 10
149.55460301808898
 20
-1075.8802107157067
 30
0.0
 11
63.500000000000114
 21
0.0
 31
0.0
 12
0.0
 22
63.500000000000114
 32
0.0
 13
1.0
 23
1.0
340
0
 70
               7
280
               1
281
              50
282
              50
283
               0
360
0
 71
               2
 91
        5
 14
0.5
 24
0.5
 14
0.5
 24
-0.4999999999999982
 14
-0.5
 24
-0.4999999999999982
 14
-0.5
 24
0.5
 14
0.5
 24
0.5
  0
MTEXT
  5
1F0
100
AcDbEntity
  8
寸法
390
0
 62
               0
100
AcDbMText
 10
155.299368643089
 20
-1075.8802107157067
 30
0.0
 40
48.865234375000092
 41
0.0
 71
               1
 72
               1
  1
{\fＭＳ ゴシック|b0|i0|c128|p0;\l47}
 11
0.0
 21
1.0
 31
0.0
 73
               1
 44
0.7828267384257843
  0
POINT
  5
1F1
100
AcDbEntity
  8
Defpoints
370
               0
390
0
 62
               0
100
AcDbPoint
 10
70.459401664853374
 20
-1106.1680462474121
 30
0.0
  0
POINT
  5
1F2
100
AcDbEntity
  8
Defpoints
370
               0
390
0
 62
               0
100
AcDbPoint
 10
70.459401664853374
 20
-1152.7557975177626
 30
0.0
  0
POINT
  5
1F3
100
AcDbEntity
  8
Defpoints
370
               0
390
0
 62
               0
100
AcDbPoint
 10
220.5546030180891
 20
-1152.7557975177626
 30
0.0
  0
ENDBLK
  5
1F4
100
AcDbEntity
  8
寸法
390
0
100
AcDbBlockEnd
  0
BLOCK
  5
1F5
100
AcDbEntity
  8
0
390
0
100
AcDbBlockBegin
  2
グループ-4
 70
               0
 10
0.0
 20
0.0
 30
0.0
  3
グループ-4
  1

  0
LINE
  5
1F6
100
AcDbEntity
  8
0
370
               0
390
0
  6
Continuous
 62
              30
100
AcDbLine
 10
-266.04332115929515
 20
-1284.3802107157067
 30
0.0
 11
-266.04332115929515
 21
-1280.3802107157067
 31
0.0
  0
LINE
  5
1F7
100
AcDbEntity
  8
0
370
               0
390
0
  6
Continuous
 62
              30
100
AcDbLine
 10
-266.04332115929515
 20
-1299.3802107157067
 30
0.0
 11
-266.04332115929515
 21
-1295.3802107157067
 31
0.0
  0
LINE
  5
1F8
100
AcDbEntity
  8
0
370
               0
390
0
  6
Continuous
 62
              30
100
AcDbLine
 10
-220.95320911625709
 20
-1280.3802107157067
 30
0.0
 11
-220.95320911625709
 21
-1284.3802107157067
 31
0.0
  0
LINE
  5
1F9
100
AcDbEntity
  8
0
370
               0
390
0
  6
Continuous
 62
              30
100
AcDbLine
 10
-232.95320911625709
 20
-1280.3802107157067
 30
0.0
 11
-232.95320911625709
 21
-1284.3802107157067
 31
0.0
  0
LINE
  5
1FA
100
AcDbEntity
  8
0
370
               0
390
0
  6
Continuous
 62
              30
100
AcDbLine
 10
-232.95320911625709
 20
-1284.3802107157067
 30
0.0
 11
-220.95320911625709
 21
-1284.3802107157067
 31
0.0
  0
LINE
  5
1FB
100
AcDbEntity
  8
0
370
               0
390
0
  6
Continuous
 62
              30
100
AcDbLine
 10
-232.95320911625709
 20
-1280.3802107157067
 30
0.0
 11
-220.95320911625709
 21
-1280.3802107157067
 31
0.0
  0
LINE
  5
1FC
100
AcDbEntity
  8
0
370
               0
390
0
  6
Continuous
 62
              30
100
AcDbLine
 10
-241.92368261469596
 20
-1284.3802107157067
 30
0.0
 11
-241.92368261469596
 21
-1280.3802107157067
 31
0.0
  0
LINE
  5
1FD
100
AcDbEntity
  8
0
370
               0
390
0
  6
Continuous
 62
              30
100
AcDbLine
 10
-241.92368261469596
 20
-1284.3802107157067
 30
0.0
 11
-232.95320911625709
 21
-1284.3802107157067
 31
0.0
  0
LINE
  5
1FE
100
AcDbEntity
  8
0
370
               0
390
0
  6
Continuous
 62
              30
100
AcDbLine
 10
-241.92368261469596
 20
-1280.3802107157067
 30
0.0
 11
-232.95320911625709
 21
-1280.3802107157067
 31
0.0
  0
LINE
  5
1FF
100
AcDbEntity
  8
0
370
               0
390
0
  6
Continuous
 62
              30
100
AcDbLine
 10
-253.78246039044529
 20
-1284.3802107157067
 30
0.0
 11
-253.78246039044529
 21
-1280.3802107157067
 31
0.0
  0
LINE
  5
200
100
AcDbEntity
  8
0
370
               0
390
0
  6
Continuous
 62
              30
100
AcDbLine
 10
-253.78246039044529
 20
-1284.3802107157067
 30
0.0
 11
-241.92368261469596
 21
-1284.3802107157067
 31
0.0
  0
LINE
  5
201
100
AcDbEntity
  8
0
370
               0
390
0
  6
Continuous
 62
              30
100
AcDbLine
 10
-253.78246039044529
 20
-1280.3802107157067
 30
0.0
 11
-241.92368261469596
 21
-1280.3802107157067
 31
0.0
  0
LINE
  5
202
100
AcDbEntity
  8
0
370
               0
390
0
  6
Continuous
 62
              30
100
AcDbLine
 10
-266.04332115929515
 20
-1284.3802107157067
 30
0.0
 11
-253.78246039044529
 21
-1284.3802107157067
 31
0.0
  0
LINE
  5
203
100
AcDbEntity
  8
0
370
               0
390
0
  6
Continuous
 62
              30
100
AcDbLine
 10
-253.78246039044529
 20
-1280.3802107157067
 30
0.0
 11
-266.04332115929515
 21
-1280.3802107157067
 31
0.0
  0
LINE
  5
204
100
AcDbEntity
  8
0
370
               0
390
0
  6
Continuous
 62
              30
100
AcDbLine
 10
-220.95320911625709
 20
-1295.3802107157067
 30
0.0
 11
-220.95320911625709
 21
-1299.3802107157067
 31
0.0
  0
LINE
  5
205
100
AcDbEntity
  8
0
370
               0
390
0
  6
Continuous
 62
              30
100
AcDbLine
 10
-220.95320911625709
 20
-1295.3802107157067
 30
0.0
 11
-232.95320911625709
 21
-1295.3802107157067
 31
0.0
  0
LINE
  5
206
100
AcDbEntity
  8
0
370
               0
390
0
  6
Continuous
 62
              30
100
AcDbLine
 10
-232.95320911625709
 20
-1295.3802107157067
 30
0.0
 11
-232.95320911625709
 21
-1299.3802107157067
 31
0.0
  0
LINE
  5
207
100
AcDbEntity
  8
0
370
               0
390
0
  6
Continuous
 62
              30
100
AcDbLine
 10
-220.95320911625709
 20
-1299.3802107157067
 30
0.0
 11
-232.95320911625709
 21
-1299.3802107157067
 31
0.0
  0
LINE
  5
208
100
AcDbEntity
  8
0
370
               0
390
0
  6
Continuous
 62
              30
100
AcDbLine
 10
-241.92368261469596
 20
-1295.3802107157067
 30
0.0
 11
-241.92368261469596
 21
-1299.3802107157067
 31
0.0
  0
LINE
  5
209
100
AcDbEntity
  8
0
370
               0
390
0
  6
Continuous
 62
              30
100
AcDbLine
 10
-232.95320911625709
 20
-1299.3802107157067
 30
0.0
 11
-241.92368261469596
 21
-1299.3802107157067
 31
0.0
  0
LINE
  5
20A
100
AcDbEntity
  8
0
370
               0
390
0
  6
Continuous
 62
              30
100
AcDbLine
 10
-232.95320911625709
 20
-1295.3802107157067
 30
0.0
 11
-241.92368261469596
 21
-1295.3802107157067
 31
0.0
  0
LINE
  5
20B
100
AcDbEntity
  8
0
370
               0
390
0
  6
Continuous
 62
              30
100
AcDbLine
 10
-253.78246039044575
 20
-1299.3802107157067
 30
0.0
 11
-253.78246039044575
 21
-1295.3802107157067
 31
0.0
  0
LINE
  5
20C
100
AcDbEntity
  8
0
370
               0
390
0
  6
Continuous
 62
              30
100
AcDbLine
 10
-241.92368261469596
 20
-1299.3802107157067
 30
0.0
 11
-253.78246039044575
 21
-1299.3802107157067
 31
0.0
  0
LINE
  5
20D
100
AcDbEntity
  8
0
370
               0
390
0
  6
Continuous
 62
              30
100
AcDbLine
 10
-241.92368261469596
 20
-1295.3802107157067
 30
0.0
 11
-253.78246039044575
 21
-1295.3802107157067
 31
0.0
  0
LINE
  5
20E
100
AcDbEntity
  8
0
370
               0
390
0
  6
Continuous
 62
              30
100
AcDbLine
 10
-266.04332115929515
 20
-1299.3802107157067
 30
0.0
 11
-253.78246039044575
 21
-1299.3802107157067
 31
0.0
  0
LINE
  5
20F
100
AcDbEntity
  8
0
370
               0
390
0
  6
Continuous
 62
              30
100
AcDbLine
 10
-253.78246039044575
 20
-1295.3802107157067
 30
0.0
 11
-266.04332115929515
 21
-1295.3802107157067
 31
0.0
  0
LINE
  5
210
100
AcDbEntity
  8
0
370
               0
390
0
  6
Continuous
 62
              30
100
AcDbLine
 10
-222.45320911625709
 20
-1300.8802107157067
 30
0.0
 11
-219.45320911625709
 21
-1300.8802107157067
 31
0.0
  0
LINE
  5
211
100
AcDbEntity
  8
0
370
               0
390
0
  6
Continuous
 62
              30
100
AcDbLine
 10
-222.45320911625709
 20
-1310.8802107157067
 30
0.0
 11
-222.45320911625709
 21
-1300.8802107157067
 31
0.0
  0
LINE
  5
212
100
AcDbEntity
  8
0
370
               0
390
0
  6
Continuous
 62
              30
100
AcDbLine
 10
-219.45320911625709
 20
-1310.8802107157067
 30
0.0
 11
-222.45320911625709
 21
-1310.8802107157067
 31
0.0
  0
LINE
  5
213
100
AcDbEntity
  8
0
370
               0
390
0
  6
Continuous
 62
              30
100
AcDbLine
 10
-219.45320911625709
 20
-1300.8802107157067
 30
0.0
 11
-219.45320911625709
 21
-1310.8802107157067
 31
0.0
  0
LINE
  5
214
100
AcDbEntity
  8
0
370
               0
390
0
  6
Continuous
 62
              30
100
AcDbLine
 10
-219.45320911625709
 20
-1278.8802107157067
 30
0.0
 11
-222.45320911625709
 21
-1278.8802107157067
 31
0.0
  0
LINE
  5
215
100
AcDbEntity
  8
0
370
               0
390
0
  6
Continuous
 62
              30
100
AcDbLine
 10
-222.45320911625709
 20
-1278.8802107157067
 30
0.0
 11
-222.45320911625709
 21
-1280.3802107157067
 31
0.0
  0
LINE
  5
216
100
AcDbEntity
  8
0
370
               0
390
0
  6
Continuous
 62
              30
100
AcDbLine
 10
-222.45320911625709
 20
-1284.3802107157067
 30
0.0
 11
-222.45320911625709
 21
-1295.3802107157067
 31
0.0
  0
LINE
  5
217
100
AcDbEntity
  8
0
370
               0
390
0
  6
Continuous
 62
              30
100
AcDbLine
 10
-222.45320911625709
 20
-1299.3802107157067
 30
0.0
 11
-222.45320911625709
 21
-1300.8802107157067
 31
0.0
  0
LINE
  5
218
100
AcDbEntity
  8
0
370
               0
390
0
  6
Continuous
 62
              30
100
AcDbLine
 10
-219.45320911625709
 20
-1278.8802107157067
 30
0.0
 11
-219.45320911625709
 21
-1300.8802107157067
 31
0.0
  0
LINE
  5
219
100
AcDbEntity
  8
0
370
               0
390
0
  6
Continuous
 62
              30
100
AcDbLine
 10
-222.45320911625709
 20
-1268.8802107157067
 30
0.0
 11
-219.45320911625709
 21
-1268.8802107157067
 31
0.0
  0
LINE
  5
21A
100
AcDbEntity
  8
0
370
               0
390
0
  6
Continuous
 62
              30
100
AcDbLine
 10
-222.45320911625709
 20
-1278.8802107157067
 30
0.0
 11
-222.45320911625709
 21
-1268.8802107157067
 31
0.0
  0
LINE
  5
21B
100
AcDbEntity
  8
0
370
               0
390
0
  6
Continuous
 62
              30
100
AcDbLine
 10
-219.45320911625709
 20
-1268.8802107157067
 30
0.0
 11
-219.45320911625709
 21
-1278.8802107157067
 31
0.0
  0
ENDBLK
  5
21C
100
AcDbEntity
  8
0
390
0
100
AcDbBlockEnd
  0
BLOCK
  5
21D
100
AcDbEntity
  8
寸法
390
0
100
AcDbBlockBegin
  2
*D21
 70
               1
 10
0.0
 20
0.0
 30
0.0
  3
*D21
  1

  0
LINE
  5
21E
100
AcDbEntity
  8
寸法
370
              -2
390
0
  6
Continuous
 62
               0
100
AcDbLine
 10
-32.204585290454418
 20
-1119.9476714550142
 30
0.0
 11
45.554603018089082
 21
-1000.8802107157065
 31
0.0
  0
LINE
  5
21F
100
AcDbEntity
  8
寸法
370
              -2
390
0
  6
Continuous
 62
               0
100
AcDbLine
 10
45.554603018089082
 20
-1000.8802107157065
 30
0.0
 11
202.5546030180891
 21
-1000.8802107157065
 31
0.0
  0
LINE
  5
220
100
AcDbEntity
  8
寸法
370
              -2
390
0
  6
Continuous
 62
               0
100
AcDbLine
 10
-41.500067552751091
 20
-1134.1812237000206
 30
0.0
 11
-32.204585290454418
 21
-1119.9476714550142
 31
0.0
  0
POLYLINE
  5
221
100
AcDbEntity
  8
0
370
              -2
390
0
  6
Continuous
 62
               0
100
AcDb2dPolyline
 66
               1
 10
0.0
 20
0.0
 30
0.0
 75
               5
  0
VERTEX
  5
222
100
AcDbEntity
  8
0
370
              -2
390
0
  6
Continuous
 62
               0
100
AcDbVertex
100
AcDb2dVertex
 10
-12.192789238084263
 20
-1108.7047953395916
 30
0.0
  0
VERTEX
  5
223
100
AcDbEntity
  8
0
370
              -2
390
0
  6
Continuous
 62
               0
100
AcDbVertex
100
AcDb2dVertex
 10
-41.500067552751091
 20
-1134.1812237000206
 30
0.0
  0
VERTEX
  5
224
100
AcDbEntity
  8
0
370
              -2
390
0
  6
Continuous
 62
               0
100
AcDbVertex
100
AcDb2dVertex
 10
-28.857434196683311
 20
-1097.4643503848613
 30
0.0
  0
SEQEND
  5
225
100
AcDbEntity
  8
0
370
              -2
390
0
  6
Continuous
 62
               0
  0
POLYLINE
  5
226
100
AcDbEntity
  8
0
370
              -2
390
0
  6
Continuous
 62
               0
100
AcDb2dPolyline
 66
               1
 10
0.0
 20
0.0
 30
0.0
 75
               5
  0
VERTEX
  5
227
100
AcDbEntity
  8
0
370
              -2
390
0
  6
Continuous
 62
               0
100
AcDbVertex
100
AcDb2dVertex
 10
-61.062774982364381
 20
-1145.9317021647241
 30
0.0
  0
VERTEX
  5
228
100
AcDbEntity
  8
0
370
              -2
390
0
  6
Continuous
 62
               0
100
AcDbVertex
100
AcDb2dVertex
 10
-32.204585290454418
 20
-1119.9476714550142
 30
0.0
  0
VERTEX
  5
229
100
AcDbEntity
  8
0
370
              -2
390
0
  6
Continuous
 62
               0
100
AcDbVertex
100
AcDb2dVertex
 10
-44.204495316023682
 20
-1156.8795969882931
 30
0.0
  0
SEQEND
  5
22A
100
AcDbEntity
  8
0
370
              -2
390
0
  6
Continuous
 62
               0
  0
WIPEOUT
  5
22B
100
AcDbEntity
  8
寸法
370
              -2
390
0
  6
Continuous
 62
               0
 92
        0
100
AcDbWipeout
 90
        0
 10
75.554603018089097
 20
-993.38021071570643
 30
0.0
 11
127.0
 21
0.0
 31
0.0
 12
0.0
 22
127.0
 32
0.0
 13
1.0
 23
1.0
340
0
 70
               7
280
               1
281
              50
282
              50
283
               0
360
0
 71
               2
 91
        5
 14
-0.5
 24
0.5
 14
0.5
 24
0.5
 14
0.5
 24
-0.0000000000000009
 14
-0.5
 24
-0.0000000000000009
 14
-0.5
 24
0.5
  0
MTEXT
  5
22C
100
AcDbEntity
  8
寸法
390
0
 62
               0
100
AcDbMText
 10
75.554603018089097
 20
-935.62497634070633
 30
0.0
 40
48.865234375000092
 41
0.0
 71
               1
 72
               1
  1
{\fＭＳ ゴシック|b0|i0|c128|p0;\lφ17}
 73
               1
 44
0.7828267384257843
  0
POINT
  5
22D
100
AcDbEntity
  8
Defpoints
370
               0
390
0
 62
               0
100
AcDbPoint
 10
-41.500067552751091
 20
-1134.1812237000206
 30
0.0
  0
POINT
  5
22E
100
AcDbEntity
  8
Defpoints
370
               0
390
0
 62
               0
100
AcDbPoint
 10
-32.204585290454418
 20
-1119.9476714550142
 30
0.0
  0
ENDBLK
  5
22F
100
AcDbEntity
  8
寸法
390
0
100
AcDbBlockEnd
  0
BLOCK
  5
230
100
AcDbEntity
  8
寸法
390
0
100
AcDbBlockBegin
  2
*D22
 70
               1
 10
0.0
 20
0.0
 30
0.0
  3
*D22
  1

  0
LINE
  5
231
100
AcDbEntity
  8
寸法
370
              -2
390
0
  6
Continuous
 62
               0
100
AcDbLine
 10
33.147673578397075
 20
-1259.8802107157067
 30
0.0
 11
33.147673578397075
 21
-1220.8802107157067
 31
0.0
  0
LINE
  5
232
100
AcDbEntity
  8
寸法
370
              -2
390
0
  6
Continuous
 62
               0
100
AcDbLine
 10
113.14767357839776
 20
-1259.8802107157067
 30
0.0
 11
113.14767357839776
 21
-1220.8802107157067
 31
0.0
  0
LINE
  5
233
100
AcDbEntity
  8
寸法
370
              -2
390
0
  6
Continuous
 62
               0
100
AcDbLine
 10
33.147673578397075
 20
-1250.8802107157067
 30
0.0
 11
113.14767357839776
 21
-1250.8802107157067
 31
0.0
  0
POLYLINE
  5
234
100
AcDbEntity
  8
0
370
              -2
390
0
  6
Continuous
 62
               0
100
AcDb2dPolyline
 66
               1
 10
0.0
 20
0.0
 30
0.0
 75
               5
  0
VERTEX
  5
235
100
AcDbEntity
  8
0
370
              -2
390
0
  6
Continuous
 62
               0
100
AcDbVertex
100
AcDb2dVertex
 10
70.657011957303325
 20
-1260.9308076429602
 30
0.0
  0
VERTEX
  5
236
100
AcDbEntity
  8
0
370
              -2
390
0
  6
Continuous
 62
               0
100
AcDbVertex
100
AcDb2dVertex
 10
33.147673578397075
 20
-1250.8802107157067
 30
0.0
  0
VERTEX
  5
237
100
AcDbEntity
  8
0
370
              -2
390
0
  6
Continuous
 62
               0
100
AcDbVertex
100
AcDb2dVertex
 10
70.657011957303325
 20
-1240.8296137884531
 30
0.0
  0
SEQEND
  5
238
100
AcDbEntity
  8
0
370
              -2
390
0
  6
Continuous
 62
               0
  0
POLYLINE
  5
239
100
AcDbEntity
  8
0
370
              -2
390
0
  6
Continuous
 62
               0
100
AcDb2dPolyline
 66
               1
 10
0.0
 20
0.0
 30
0.0
 75
               5
  0
VERTEX
  5
23A
100
AcDbEntity
  8
0
370
              -2
390
0
  6
Continuous
 62
               0
100
AcDbVertex
100
AcDb2dVertex
 10
75.638335199491507
 20
-1240.8296137884531
 30
0.0
  0
VERTEX
  5
23B
100
AcDbEntity
  8
0
370
              -2
390
0
  6
Continuous
 62
               0
100
AcDbVertex
100
AcDb2dVertex
 10
113.14767357839776
 20
-1250.8802107157067
 30
0.0
  0
VERTEX
  5
23C
100
AcDbEntity
  8
0
370
              -2
390
0
  6
Continuous
 62
               0
100
AcDbVertex
100
AcDb2dVertex
 10
75.638335199491507
 20
-1260.9308076429604
 30
0.0
  0
SEQEND
  5
23D
100
AcDbEntity
  8
0
370
              -2
390
0
  6
Continuous
 62
               0
  0
WIPEOUT
  5
23E
100
AcDbEntity
  8
寸法
370
              -2
390
0
  6
Continuous
 62
               0
 92
        0
100
AcDbWipeout
 90
        0
 10
41.397673578397416
 20
-1243.3802107157067
 30
0.0
 11
63.5
 21
0.0
 31
0.0
 12
0.0
 22
63.5
 32
0.0
 13
1.0
 23
1.0
340
0
 70
               7
280
               1
281
              50
282
              50
283
               0
360
0
 71
               2
 91
        5
 14
-0.5
 24
0.5
 14
0.5
 24
0.5
 14
0.5
 24
-0.5
 14
-0.5
 24
-0.5
 14
-0.5
 24
0.5
  0
MTEXT
  5
23F
100
AcDbEntity
  8
寸法
390
0
 62
               0
100
AcDbMText
 10
41.397673578397416
 20
-1185.6249763407066
 30
0.0
 40
48.865234375000092
 41
0.0
 71
               1
 72
               1
  1
{\fＭＳ ゴシック|b0|i0|c128|p0;\l80}
 73
               1
 44
0.7828267384257843
  0
POINT
  5
240
100
AcDbEntity
  8
Defpoints
370
               0
390
0
 62
               0
100
AcDbPoint
 10
113.14767357839776
 20
-1289.8802107157067
 30
0.0
  0
POINT
  5
241
100
AcDbEntity
  8
Defpoints
370
               0
390
0
 62
               0
100
AcDbPoint
 10
33.147673578397075
 20
-1289.8802107157067
 30
0.0
  0
POINT
  5
242
100
AcDbEntity
  8
Defpoints
370
               0
390
0
 62
               0
100
AcDbPoint
 10
33.147673578397075
 20
-1250.8802107157067
 30
0.0
  0
ENDBLK
  5
243
100
AcDbEntity
  8
寸法
390
0
100
AcDbBlockEnd
  0
BLOCK
  5
244
100
AcDbEntity
  8
寸法
390
0
100
AcDbBlockBegin
  2
*D23
 70
               1
 10
0.0
 20
0.0
 30
0.0
  3
*D23
  1

  0
LINE
  5
245
100
AcDbEntity
  8
寸法
370
              -2
390
0
  6
Continuous
 62
               0
100
AcDbLine
 10
115.61167847607891
 20
-1287.8384761922675
 30
0.0
 11
220.55460301808915
 21
-1200.8802107157067
 31
0.0
  0
LINE
  5
246
100
AcDbEntity
  8
寸法
370
              -2
390
0
  6
Continuous
 62
               0
100
AcDbLine
 10
220.55460301808915
 20
-1200.8802107157067
 30
0.0
 11
409.30460301808915
 21
-1200.8802107157067
 31
0.0
  0
LINE
  5
247
100
AcDbEntity
  8
寸法
370
              -2
390
0
  6
Continuous
 62
               0
100
AcDbLine
 10
110.68366868071661
 20
-1291.921945239146
 30
0.0
 11
115.61167847607891
 21
-1287.8384761922675
 31
0.0
  0
POLYLINE
  5
248
100
AcDbEntity
  8
0
370
              -2
390
0
  6
Continuous
 62
               0
100
AcDb2dPolyline
 66
               1
 10
0.0
 20
0.0
 30
0.0
 75
               5
  0
VERTEX
  5
249
100
AcDbEntity
  8
0
370
              -2
390
0
  6
Continuous
 62
               0
100
AcDbVertex
100
AcDb2dVertex
 10
146.15894510735012
 20
-1276.127334554759
 30
0.0
  0
VERTEX
  5
24A
100
AcDbEntity
  8
0
370
              -2
390
0
  6
Continuous
 62
               0
100
AcDbVertex
100
AcDb2dVertex
 10
110.68366868071661
 20
-1291.921945239146
 30
0.0
  0
VERTEX
  5
24B
100
AcDbEntity
  8
0
370
              -2
390
0
  6
Continuous
 62
               0
100
AcDbVertex
100
AcDb2dVertex
 10
133.508853930263
 20
-1260.505772930265
 30
0.0
  0
SEQEND
  5
24C
100
AcDbEntity
  8
0
370
              -2
390
0
  6
Continuous
 62
               0
  0
POLYLINE
  5
24D
100
AcDbEntity
  8
0
370
              -2
390
0
  6
Continuous
 62
               0
100
AcDb2dPolyline
 66
               1
 10
0.0
 20
0.0
 30
0.0
 75
               5
  0
VERTEX
  5
24E
100
AcDbEntity
  8
0
370
              -2
390
0
  6
Continuous
 62
               0
100
AcDbVertex
100
AcDb2dVertex
 10
80.417459071056101
 20
-1304.249810223617
 30
0.0
  0
VERTEX
  5
24F
100
AcDbEntity
  8
0
370
              -2
390
0
  6
Continuous
 62
               0
100
AcDbVertex
100
AcDb2dVertex
 10
115.61167847607891
 20
-1287.8384761922675
 30
0.0
  0
VERTEX
  5
250
100
AcDbEntity
  8
0
370
              -2
390
0
  6
Continuous
 62
               0
100
AcDbVertex
100
AcDb2dVertex
 10
93.338257420640602
 20
-1319.6482180759197
 30
0.0
  0
SEQEND
  5
251
100
AcDbEntity
  8
0
370
              -2
390
0
  6
Continuous
 62
               0
  0
WIPEOUT
  5
252
100
AcDbEntity
  8
寸法
370
              -2
390
0
  6
Continuous
 62
               0
 92
        0
100
AcDbWipeout
 90
        0
 10
250.55460301808915
 20
-1193.3802107157067
 30
0.0
 11
158.75
 21
0.0
 31
0.0
 12
0.0
 22
158.75
 32
0.0
 13
1.0
 23
1.0
340
0
 70
               7
280
               1
281
              50
282
              50
283
               0
360
0
 71
               2
 91
        5
 14
-0.5
 24
0.5
 14
0.5
 24
0.5
 14
0.5
 24
0.1
 14
-0.5
 24
0.1
 14
-0.5
 24
0.5
  0
MTEXT
  5
253
100
AcDbEntity
  8
寸法
390
0
 62
               0
100
AcDbMText
 10
250.55460301808915
 20
-1135.6249763407066
 30
0.0
 40
48.865234375000092
 41
0.0
 71
               1
 72
               1
  1
{\fＭＳ ゴシック|b0|i0|c128|p0;\lφ6.4}
 73
               1
 44
0.7828267384257843
  0
POINT
  5
254
100
AcDbEntity
  8
Defpoints
370
               0
390
0
 62
               0
100
AcDbPoint
 10
110.68366868071661
 20
-1291.921945239146
 30
0.0
  0
POINT
  5
255
100
AcDbEntity
  8
Defpoints
370
               0
390
0
 62
               0
100
AcDbPoint
 10
115.61167847607891
 20
-1287.8384761922675
 30
0.0
  0
ENDBLK
  5
256
100
AcDbEntity
  8
寸法
390
0
100
AcDbBlockEnd
  0
BLOCK
  5
257
100
AcDbEntity
  8
0
390
0
100
AcDbBlockBegin
  2
グループ-5
 70
               0
 10
0.0
 20
0.0
 30
0.0
  3
グループ-5
  1

  0
ARC
  5
258
100
AcDbEntity
  8
0
370
               0
390
0
  6
Continuous
 62
              30
100
AcDbCircle
 10
72.677298889927101
 20
-2148.0012039756948
 30
0.0
 40
1041.8355185009702
100
AcDbArc
 50
89.974131727249855
 51
98.798838971886212
  0
ARC
  5
259
100
AcDbEntity
  8
0
370
               0
390
0
  6
Continuous
 62
              30
100
AcDbCircle
 10
71.258475054681412
 20
-1362.049125867223
 30
0.0
 40
255.89030813370175
100
AcDbArc
 50
78.196497611486137
 51
89.576990288506067
  0
ARC
  5
25A
100
AcDbEntity
  8
0
370
               0
390
0
  6
Continuous
 62
              30
100
AcDbCircle
 10
121.14767357839855
 20
-1123.3159059915363
 30
0.0
 40
12.000000000000227
100
AcDbArc
 50
0.0
 51
78.196497611486507
  0
LINE
  5
25B
100
AcDbEntity
  8
0
370
               0
390
0
  6
Continuous
 62
              30
100
AcDbLine
 10
133.14767357839878
 20
-1123.3159059915363
 30
0.0
 11
133.14767357839878
 21
-1149.7557975177626
 31
0.0
  0
LINE
  5
25C
100
AcDbEntity
  8
0
370
               0
390
0
  6
Continuous
 62
              30
100
AcDbLine
 10
-84.852326421601333
 20
-1151.2557975177626
 30
0.0
 11
13.147673578399235
 21
-1151.2557975177626
 31
0.0
  0
ARC
  5
25D
100
AcDbEntity
  8
0
370
               0
390
0
  6
Continuous
 62
              30
100
AcDbCircle
 10
-84.852326421601333
 20
-1139.2557975177626
 30
0.0
 40
12.0
100
AcDbArc
 50
180.0
 51
270.00000000000108
  0
LINE
  5
25E
100
AcDbEntity
  8
0
370
               0
390
0
  6
Continuous
 62
              30
100
AcDbLine
 10
-96.852326421601333
 20
-1139.2557975177626
 30
0.0
 11
-96.852326421601333
 21
-1130.2853240193238
 31
0.0
  0
ARC
  5
25F
100
AcDbEntity
  8
0
370
               0
390
0
  6
Continuous
 62
              30
100
AcDbCircle
 10
-84.852326421601333
 20
-1130.2853240193238
 30
0.0
 40
12.000000000000417
100
AcDbArc
 50
98.798838971887804
 51
180.0
  0
CIRCLE
  5
260
100
AcDbEntity
  8
0
370
               0
390
0
  6
Continuous
 62
              30
100
AcDbCircle
 10
117.14767357839719
 20
-1125.7047173944441
 30
0.0
 40
8.4999999999998863
  0
CIRCLE
  5
261
100
AcDbEntity
  8
0
370
               0
390
0
  6
Continuous
 62
              30
100
AcDbCircle
 10
51.147673578397416
 20
-1121.392965469314
 30
0.0
 40
8.5
  0
CIRCLE
  5
262
100
AcDbEntity
  8
0
370
               0
390
0
  6
Continuous
 62
              30
100
AcDbCircle
 10
-14.852326421602697
 20
-1124.928839678267
 30
0.0
 40
8.5
  0
CIRCLE
  5
263
100
AcDbEntity
  8
0
370
               0
390
0
  6
Continuous
 62
              30
100
AcDbCircle
 10
73.06018825477031
 20
-1121.165757351155
 30
0.0
 40
8.4999999999998863
  0
CIRCLE
  5
264
100
AcDbEntity
  8
0
370
               0
390
0
  6
Continuous
 62
              30
100
AcDbCircle
 10
-36.852326421602697
 20
-1127.0644475775173
 30
0.0
 40
8.5
  0
CIRCLE
  5
265
100
AcDbEntity
  8
0
370
               0
390
0
  6
Continuous
 62
              30
100
AcDbCircle
 10
7.14767357839753
 20
-1123.2731690849034
 30
0.0
 40
8.5
  0
CIRCLE
  5
266
100
AcDbEntity
  8
0
370
               0
390
0
  6
Continuous
 62
              30
100
AcDbCircle
 10
29.147673578397416
 20
-1122.0950961736182
 30
0.0
 40
8.4999999999998863
  0
CIRCLE
  5
267
100
AcDbEntity
  8
0
370
               0
390
0
  6
Continuous
 62
              30
100
AcDbCircle
 10
95.147673578397075
 20
-1122.3820193979748
 30
0.0
 40
8.5
  0
CIRCLE
  5
268
100
AcDbEntity
  8
0
370
               0
390
0
  6
Continuous
 62
              30
100
AcDbCircle
 10
-80.852326421602697
 20
-1132.7082234982083
 30
0.0
 40
8.5
  0
CIRCLE
  5
269
100
AcDbEntity
  8
0
370
               0
390
0
  6
Continuous
 62
              30
100
AcDbCircle
 10
-58.852326421602697
 20
-1129.6244859972423
 30
0.0
 40
8.5
  0
LINE
  5
26A
100
AcDbEntity
  8
0
370
               0
390
0
  6
Continuous
 62
              30
100
AcDbLine
 10
23.147673578399235
 20
-1152.7557975177626
 30
0.0
 11
23.147673578399235
 21
-1149.7557975177626
 31
0.0
  0
LINE
  5
26B
100
AcDbEntity
  8
0
370
               0
390
0
  6
Continuous
 62
              30
100
AcDbLine
 10
123.1476735783981
 20
-1149.7557975177626
 30
0.0
 11
23.147673578399235
 21
-1149.7557975177626
 31
0.0
  0
LINE
  5
26C
100
AcDbEntity
  8
0
370
               0
390
0
  6
Continuous
 62
              30
100
AcDbLine
 10
123.1476735783981
 20
-1149.7557975177626
 30
0.0
 11
123.1476735783981
 21
-1152.7557975177626
 31
0.0
  0
LINE
  5
26D
100
AcDbEntity
  8
0
370
               0
390
0
  6
Continuous
 62
              30
100
AcDbLine
 10
23.147673578399235
 20
-1152.7557975177626
 30
0.0
 11
123.1476735783981
 21
-1152.7557975177626
 31
0.0
  0
LINE
  5
26E
100
AcDbEntity
  8
0
370
               0
390
0
  6
Continuous
 62
              30
100
AcDbLine
 10
133.1476735783981
 20
-1149.7557975177626
 30
0.0
 11
123.1476735783981
 21
-1149.7557975177626
 31
0.0
  0
LINE
  5
26F
100
AcDbEntity
  8
0
370
               0
390
0
  6
Continuous
 62
              30
100
AcDbLine
 10
133.1476735783981
 20
-1149.7557975177626
 30
0.0
 11
133.1476735783981
 21
-1152.7557975177626
 31
0.0
  0
LINE
  5
270
100
AcDbEntity
  8
0
370
               0
390
0
  6
Continuous
 62
              30
100
AcDbLine
 10
123.1476735783981
 20
-1152.7557975177626
 30
0.0
 11
133.1476735783981
 21
-1152.7557975177626
 31
0.0
  0
LINE
  5
271
100
AcDbEntity
  8
0
370
               0
390
0
  6
Continuous
 62
              30
100
AcDbLine
 10
13.147673578399235
 20
-1149.7557975177626
 30
0.0
 11
13.147673578399235
 21
-1152.7557975177626
 31
0.0
  0
LINE
  5
272
100
AcDbEntity
  8
0
370
               0
390
0
  6
Continuous
 62
              30
100
AcDbLine
 10
23.147673578399235
 20
-1149.7557975177626
 30
0.0
 11
13.147673578399235
 21
-1149.7557975177626
 31
0.0
  0
LINE
  5
273
100
AcDbEntity
  8
0
370
               0
390
0
  6
Continuous
 62
              30
100
AcDbLine
 10
13.147673578399235
 20
-1152.7557975177626
 30
0.0
 11
23.147673578399235
 21
-1152.7557975177626
 31
0.0
  0
ENDBLK
  5
274
100
AcDbEntity
  8
0
390
0
100
AcDbBlockEnd
  0
BLOCK
  5
275
100
AcDbEntity
  8
0
390
0
100
AcDbBlockBegin
  2
グループ-6
 70
               0
 10
0.0
 20
0.0
 30
0.0
  3
グループ-6
  1

  0
LINE
  5
276
100
AcDbEntity
  8
0
370
               0
390
0
  6
Continuous
 62
              30
100
AcDbLine
 10
-86.68791615392081
 20
-1284.3802107157067
 30
0.0
 11
-86.68791615392081
 21
-1280.3802107157067
 31
0.0
  0
LINE
  5
277
100
AcDbEntity
  8
0
370
               0
390
0
  6
Continuous
 62
              30
100
AcDbLine
 10
73.147673578360696
 20
-1280.3802107157067
 30
0.0
 11
73.147673578360696
 21
-1284.3802107157067
 31
0.0
  0
LINE
  5
278
100
AcDbEntity
  8
0
370
               0
390
0
  6
Continuous
 62
              30
100
AcDbLine
 10
73.147673578360696
 20
-1284.3802107157067
 30
0.0
 11
-86.68791615392081
 21
-1284.3802107157067
 31
0.0
  0
LINE
  5
279
100
AcDbEntity
  8
0
370
               0
390
0
  6
Continuous
 62
              30
100
AcDbLine
 10
-86.68791615392081
 20
-1280.3802107157067
 30
0.0
 11
73.147673578360696
 21
-1280.3802107157067
 31
0.0
  0
LINE
  5
27A
100
AcDbEntity
  8
0
370
               0
390
0
  6
Continuous
 62
              30
100
AcDbLine
 10
123.60234423286522
 20
-1280.3802107157067
 30
0.0
 11
123.60234423286522
 21
-1284.3802107157067
 31
0.0
  0
LINE
  5
27B
100
AcDbEntity
  8
0
370
               0
390
0
  6
Continuous
 62
              30
100
AcDbLine
 10
123.60234423286522
 20
-1284.3802107157067
 30
0.0
 11
73.147673578360696
 21
-1284.3802107157067
 31
0.0
  0
LINE
  5
27C
100
AcDbEntity
  8
0
370
               0
390
0
  6
Continuous
 62
              30
100
AcDbLine
 10
73.147673578360696
 20
-1280.3802107157067
 30
0.0
 11
123.60234423286522
 21
-1280.3802107157067
 31
0.0
  0
LINE
  5
27D
100
AcDbEntity
  8
0
370
               0
390
0
  6
Continuous
 62
              30
100
AcDbLine
 10
133.14767357839867
 20
-1284.3802107157067
 30
0.0
 11
133.14767357839867
 21
-1280.3802107157067
 31
0.0
  0
LINE
  5
27E
100
AcDbEntity
  8
0
370
               0
390
0
  6
Continuous
 62
              30
100
AcDbLine
 10
133.14767357839867
 20
-1284.3802107157067
 30
0.0
 11
123.60234423286522
 21
-1284.3802107157067
 31
0.0
  0
LINE
  5
27F
100
AcDbEntity
  8
0
370
               0
390
0
  6
Continuous
 62
              30
100
AcDbLine
 10
133.14767357839867
 20
-1280.3802107157067
 30
0.0
 11
123.60234423286522
 21
-1280.3802107157067
 31
0.0
  0
LINE
  5
280
100
AcDbEntity
  8
0
370
               0
390
0
  6
Continuous
 62
              30
100
AcDbLine
 10
-96.852326421601106
 20
-1284.3802107157067
 30
0.0
 11
-96.852326421601106
 21
-1280.3802107157067
 31
0.0
  0
LINE
  5
281
100
AcDbEntity
  8
0
370
               0
390
0
  6
Continuous
 62
              30
100
AcDbLine
 10
-86.68791615392081
 20
-1284.3802107157067
 30
0.0
 11
-96.852326421601106
 21
-1284.3802107157067
 31
0.0
  0
LINE
  5
282
100
AcDbEntity
  8
0
370
               0
390
0
  6
Continuous
 62
              30
100
AcDbLine
 10
-86.68791615392081
 20
-1280.3802107157067
 30
0.0
 11
-96.852326421601106
 21
-1280.3802107157067
 31
0.0
  0
LINE
  5
283
100
AcDbEntity
  8
0
370
               0
390
0
  6
Continuous
 62
              30
100
AcDbLine
 10
-86.68791615392081
 20
-1299.3802107157067
 30
0.0
 11
-86.68791615392081
 21
-1295.3802107157067
 31
0.0
  0
LINE
  5
284
100
AcDbEntity
  8
0
370
               0
390
0
  6
Continuous
 62
              30
100
AcDbLine
 10
73.147673578373997
 20
-1299.3802107157067
 30
0.0
 11
73.147673578373997
 21
-1295.3802107157067
 31
0.0
  0
LINE
  5
285
100
AcDbEntity
  8
0
370
               0
390
0
  6
Continuous
 62
              30
100
AcDbLine
 10
-86.68791615392081
 20
-1295.3802107157067
 30
0.0
 11
73.147673578373997
 21
-1295.3802107157067
 31
0.0
  0
LINE
  5
286
100
AcDbEntity
  8
0
370
               0
390
0
  6
Continuous
 62
              30
100
AcDbLine
 10
73.147673578373997
 20
-1299.3802107157067
 30
0.0
 11
-86.68791615392081
 21
-1299.3802107157067
 31
0.0
  0
LINE
  5
287
100
AcDbEntity
  8
0
370
               0
390
0
  6
Continuous
 62
              30
100
AcDbLine
 10
123.60234423286522
 20
-1295.3802107157067
 30
0.0
 11
123.60234423286522
 21
-1299.3802107157067
 31
0.0
  0
LINE
  5
288
100
AcDbEntity
  8
0
370
               0
390
0
  6
Continuous
 62
              30
100
AcDbLine
 10
73.147673578373997
 20
-1295.3802107157067
 30
0.0
 11
123.60234423286522
 21
-1295.3802107157067
 31
0.0
  0
LINE
  5
289
100
AcDbEntity
  8
0
370
               0
390
0
  6
Continuous
 62
              30
100
AcDbLine
 10
123.60234423286522
 20
-1299.3802107157067
 30
0.0
 11
73.147673578373997
 21
-1299.3802107157067
 31
0.0
  0
LINE
  5
28A
100
AcDbEntity
  8
0
370
               0
390
0
  6
Continuous
 62
              30
100
AcDbLine
 10
133.14767357839889
 20
-1295.3802107157067
 30
0.0
 11
133.14767357839889
 21
-1299.3802107157067
 31
0.0
  0
LINE
  5
28B
100
AcDbEntity
  8
0
370
               0
390
0
  6
Continuous
 62
              30
100
AcDbLine
 10
123.60234423286522
 20
-1295.3802107157067
 30
0.0
 11
133.14767357839889
 21
-1295.3802107157067
 31
0.0
  0
LINE
  5
28C
100
AcDbEntity
  8
0
370
               0
390
0
  6
Continuous
 62
              30
100
AcDbLine
 10
123.60234423286522
 20
-1299.3802107157067
 30
0.0
 11
133.14767357839889
 21
-1299.3802107157067
 31
0.0
  0
LINE
  5
28D
100
AcDbEntity
  8
0
370
               0
390
0
  6
Continuous
 62
              30
100
AcDbLine
 10
-96.852326421601106
 20
-1295.3802107157067
 30
0.0
 11
-96.852326421601106
 21
-1299.3802107157067
 31
0.0
  0
LINE
  5
28E
100
AcDbEntity
  8
0
370
               0
390
0
  6
Continuous
 62
              30
100
AcDbLine
 10
-96.852326421601106
 20
-1295.3802107157067
 30
0.0
 11
-86.68791615392081
 21
-1295.3802107157067
 31
0.0
  0
LINE
  5
28F
100
AcDbEntity
  8
0
370
               0
390
0
  6
Continuous
 62
              30
100
AcDbLine
 10
-96.852326421601106
 20
-1299.3802107157067
 30
0.0
 11
-86.68791615392081
 21
-1299.3802107157067
 31
0.0
  0
ARC
  5
290
100
AcDbEntity
  8
0
370
               0
390
0
  6
Continuous
 62
              30
100
AcDbCircle
 10
23.147673578399235
 20
-1300.8802107157067
 30
0.0
 40
10.0
100
AcDbArc
 50
180.0
 51
270.00000000000074
  0
LINE
  5
291
100
AcDbEntity
  8
0
370
               0
390
0
  6
Continuous
 62
              30
100
AcDbLine
 10
13.147673578399235
 20
-1278.8802107157067
 30
0.0
 11
13.147673578399235
 21
-1280.3802107157069
 31
0.0
  0
LINE
  5
292
100
AcDbEntity
  8
0
370
               0
390
0
  6
Continuous
 62
              30
100
AcDbLine
 10
13.147673578399235
 20
-1284.3802107157069
 30
0.0
 11
13.147673578399235
 21
-1295.3802107157069
 31
0.0
  0
LINE
  5
293
100
AcDbEntity
  8
0
370
               0
390
0
  6
Continuous
 62
              30
100
AcDbLine
 10
13.147673578399235
 20
-1299.3802107157069
 30
0.0
 11
13.147673578399235
 21
-1300.8802107157067
 31
0.0
  0
LINE
  5
294
100
AcDbEntity
  8
0
370
               0
390
0
  6
Continuous
 62
              30
100
AcDbLine
 10
23.147673578399235
 20
-1268.8802107157067
 30
0.0
 11
123.14767357839821
 21
-1268.8802107157067
 31
0.0
  0
ARC
  5
295
100
AcDbEntity
  8
0
370
               0
390
0
  6
Continuous
 62
              30
100
AcDbCircle
 10
123.14767357839821
 20
-1278.8802107157067
 30
0.0
 40
10.0
100
AcDbArc
 50
0.0
 51
90.0
  0
LINE
  5
296
100
AcDbEntity
  8
0
370
               0
390
0
  6
Continuous
 62
              30
100
AcDbLine
 10
133.14767357839821
 20
-1278.8802107157067
 30
0.0
 11
133.14767357839821
 21
-1280.3802107157069
 31
0.0
  0
LINE
  5
297
100
AcDbEntity
  8
0
370
               0
390
0
  6
Continuous
 62
              30
100
AcDbLine
 10
133.14767357839821
 20
-1284.3802107157069
 30
0.0
 11
133.14767357839821
 21
-1295.3802107157069
 31
0.0
  0
LINE
  5
298
100
AcDbEntity
  8
0
370
               0
390
0
  6
Continuous
 62
              30
100
AcDbLine
 10
133.14767357839821
 20
-1299.3802107157069
 30
0.0
 11
133.14767357839821
 21
-1300.8802107157067
 31
0.0
  0
ARC
  5
299
100
AcDbEntity
  8
0
370
               0
390
0
  6
Continuous
 62
              30
100
AcDbCircle
 10
123.14767357839821
 20
-1300.8802107157067
 30
0.0
 40
10.0
100
AcDbArc
 50
270.00000000000074
 51
0.0
  0
LINE
  5
29A
100
AcDbEntity
  8
0
370
               0
390
0
  6
Continuous
 62
              30
100
AcDbLine
 10
123.14767357839821
 20
-1310.8802107157067
 30
0.0
 11
23.147673578399235
 21
-1310.8802107157067
 31
0.0
  0
CIRCLE
  5
29B
100
AcDbEntity
  8
0
370
               0
390
0
  6
Continuous
 62
              30
100
AcDbCircle
 10
113.14767357839776
 20
-1289.8802107157067
 30
0.0
 40
3.2000000000000455
  0
CIRCLE
  5
29C
100
AcDbEntity
  8
0
370
               0
390
0
  6
Continuous
 62
              30
100
AcDbCircle
 10
33.147673578397075
 20
-1289.8802107157067
 30
0.0
 40
3.2000000000000455
  0
ARC
  5
29D
100
AcDbEntity
  8
0
370
               0
390
0
  6
Continuous
 62
              30
100
AcDbCircle
 10
23.147673578399235
 20
-1278.8802107157067
 30
0.0
 40
10.0
100
AcDbArc
 50
90.0
 51
180.0
  0
ENDBLK
  5
29E
100
AcDbEntity
  8
0
390
0
100
AcDbBlockEnd
  0
BLOCK
  5
29F
100
AcDbEntity
  8
0
390
0
100
AcDbBlockBegin
  2
グループ-7
 70
               0
 10
0.0
 20
0.0
 30
0.0
  3
グループ-7
  1

  0
DIMENSION
  5
2A0
100
AcDbEntity
  8
寸法
370
               0
390
0
  6
Continuous
 62
               2
100
AcDbDimension
  2
*D16
 10
-129.4453969819109
 20
-1280.3802107157085
 30
0.0
 11
-136.9453969819109
 21
-1280.3802107157085
 31
0.0
 70
             128
 71
               5
 72
               1
 41
1.0
 42
0.0
  3
HIBINO
100
AcDbAlignedDimension
 13
-96.852326421599287
 23
-1299.3802107157085
 33
0.0
 14
-96.852326421599287
 24
-1280.3802107157085
 34
0.0
 50
-90.0
100
AcDbRotatedDimension
1001
ACAD
1000
DSTYLE
1002
{
1070
             279
1070
               2
1070
             340
1005
60
1070
             147
1040
7.5
1002
}
  0
DIMENSION
  5
2A1
100
AcDbEntity
  8
寸法
370
               0
390
0
  6
Continuous
 62
               2
100
AcDbDimension
  2
*D17
 10
-96.852326421599287
 20
-1400.8802107157067
 30
0.0
 11
20.554603018089082
 21
-1393.3802107157067
 31
0.0
 70
             128
 71
               5
 72
               1
 41
1.0
 42
0.0
  3
HIBINO
100
AcDbAlignedDimension
 13
133.14767357839889
 23
-1299.3802107157067
 33
0.0
 14
-96.852326421599287
 24
-1299.3802107157085
 34
0.0
100
AcDbRotatedDimension
1001
ACAD
1000
DSTYLE
1002
{
1070
             279
1070
               2
1070
             340
1005
60
1070
             147
1040
7.5
1002
}
  0
DIMENSION
  5
2A2
100
AcDbEntity
  8
寸法
370
               0
390
0
  6
Continuous
 62
               2
100
AcDbDimension
  2
*D18
 10
270.5546030180891
 20
-1268.8802107157067
 30
0.0
 11
278.0546030180891
 21
-1275.8802107157067
 31
0.0
 70
             128
 71
               5
 72
               1
 41
1.0
 42
0.0
  3
HIBINO
100
AcDbAlignedDimension
 13
123.14767357839833
 23
-1310.8802107157067
 33
0.0
 14
123.14767357839821
 24
-1268.8802107157067
 34
0.0
 50
-90.0
100
AcDbRotatedDimension
1001
ACAD
1000
DSTYLE
1002
{
1070
             279
1070
               2
1070
             340
1005
60
1070
             147
1040
7.5
1002
}
  0
DIMENSION
  5
2A3
100
AcDbEntity
  8
寸法
370
               0
390
0
  6
Continuous
 62
               2
100
AcDbDimension
  2
*D19
 10
220.5546030180891
 20
-1152.7557975177626
 30
0.0
 11
228.0546030180891
 21
-1075.8802107157067
 31
0.0
 70
             128
 71
               5
 72
               1
 41
1.0
 42
0.0
  3
HIBINO
100
AcDbAlignedDimension
 13
70.459401664853374
 23
-1106.1680462474121
 33
0.0
 14
70.459401664853374
 24
-1152.7557975177626
 34
0.0
 50
-90.0
100
AcDbRotatedDimension
1001
ACAD
1000
DSTYLE
1002
{
1070
             271
1070
               0
1070
             279
1070
               2
1070
             340
1005
60
1070
             174
1070
               0
1070
             147
1040
7.5
1002
}
  0
INSERT
  5
2A4
100
AcDbEntity
  8
0
390
0
 62
               2
100
AcDbBlockReference
  2
グループ-4
 10
0.0
 20
0.0
 30
0.0
  0
DIMENSION
  5
2A5
100
AcDbEntity
  8
寸法
370
               0
390
0
  6
Continuous
 62
               2
100
AcDbDimension
  2
*D21
 10
-41.500067552751091
 20
-1134.1812237000206
 30
0.0
 11
75.55460301808786
 21
-1000.8802107157057
 31
0.0
 70
               3
 71
               5
 72
               1
 41
1.0
 42
0.0
  3
HIBINO
100
AcDbDiametricDimension
 15
-32.204585290454418
 25
-1119.9476714550142
 35
0.0
 40
142.20953404504948
1001
ACAD
1000
DSTYLE
1002
{
1070
             289
1070
               0
1070
             342
1005
76
1070
             340
1005
60
1070
              73
1070
               1
1070
              74
1070
               1
1070
              75
1070
               1
1070
              76
1070
               1
1070
               3
1000

1070
             174
1070
               0
1070
             147
1040
7.5
1002
}
  0
DIMENSION
  5
2A6
100
AcDbEntity
  8
寸法
370
               0
390
0
  6
Continuous
 62
               2
100
AcDbDimension
  2
*D22
 10
33.147673578397075
 20
-1250.8802107157067
 30
0.0
 11
73.147673578397416
 21
-1250.8802107157067
 31
0.0
 71
               5
 72
               1
 41
1.0
 42
0.0
  3
HIBINO
100
AcDbAlignedDimension
 13
113.14767357839776
 23
-1289.8802107157067
 33
0.0
 14
33.147673578397075
 24
-1289.8802107157067
 34
0.0
100
AcDbRotatedDimension
1001
ACAD
1000
DSTYLE
1002
{
1070
             279
1070
               2
1070
             340
1005
60
1070
             147
1040
7.5
1002
}
  0
DIMENSION
  5
2A7
100
AcDbEntity
  8
寸法
370
               0
390
0
  6
Continuous
 62
               2
100
AcDbDimension
  2
*D23
 10
110.68366868071661
 20
-1291.921945239146
 30
0.0
 11
250.55460301809214
 21
-1200.8802107157103
 31
0.0
 70
               3
 71
               5
 72
               1
 41
1.0
 42
0.0
  3
HIBINO
100
AcDbDiametricDimension
 15
115.61167847607891
 25
-1287.8384761922675
 35
0.0
 40
136.28924149074308
1001
ACAD
1000
DSTYLE
1002
{
1070
             289
1070
               0
1070
             342
1005
76
1070
             340
1005
60
1070
              73
1070
               1
1070
              74
1070
               1
1070
              75
1070
               1
1070
              76
1070
               1
1070
               3
1000

1070
             174
1070
               0
1070
             147
1040
7.5
1002
}
  0
INSERT
  5
2A8
100
AcDbEntity
  8
0
390
0
 62
               2
100
AcDbBlockReference
  2
グループ-5
 10
0.0
 20
0.0
 30
0.0
  0
INSERT
  5
2A9
100
AcDbEntity
  8
0
390
0
 62
               2
100
AcDbBlockReference
  2
グループ-6
 10
0.0
 20
0.0
 30
0.0
  0
ENDBLK
  5
2AA
100
AcDbEntity
  8
0
390
0
100
AcDbBlockEnd
  0
BLOCK
  5
2AB
100
AcDbEntity
  8
0
390
0
100
AcDbBlockBegin
  2
グループ-8
 70
               0
 10
0.0
 20
0.0
 30
0.0
  3
グループ-8
  1

  0
MTEXT
  5
2AC
100
AcDbEntity
  8
0
390
0
 62
               2
100
AcDbMText
 10
-804.07005167738475
 20
-929.87497634070667
 30
0.0
 40
48.865234375000092
 41
0.0
 71
               1
 72
               1
  1
{\fＭＳ ゴシック|b0|i0|c128|p0;\lGFA}
 73
               1
 44
0.7828267384257843
  0
INSERT
  5
2AD
100
AcDbEntity
  8
0
390
0
 62
               2
100
AcDbBlockReference
  2
グループ-7
 10
0.0
 20
0.0
 30
0.0
  0
ENDBLK
  5
2AE
100
AcDbEntity
  8
0
390
0
100
AcDbBlockEnd
  0
BLOCK
  5
2AF
100
AcDbEntity
  8
0
390
0
100
AcDbBlockBegin
  2
グループ-9
 70
               0
 10
0.0
 20
0.0
 30
0.0
  3
グループ-9
  1

  0
INSERT
  5
2B0
100
AcDbEntity
  8
0
390
0
 62
               2
100
AcDbBlockReference
  2
グループ-8
 10
0.0
 20
0.0
 30
0.0
  0
MTEXT
  5
2B1
100
AcDbEntity
  8
0
390
0
 62
               2
100
AcDbMText
 10
-813.5169094884543
 20
-1257.8182401035936
 30
0.0
 40
48.865234375000092
 41
0.0
 71
               1
 72
               1
  1
{\fＭＳ ゴシック|b0|i0|c128|p0;\l重量　約0.55kg}
 73
               1
 44
0.7828267384257843
  0
ENDBLK
  5
2B2
100
AcDbEntity
  8
0
390
0
100
AcDbBlockEnd
  0
BLOCK
  5
2B3
100
AcDbEntity
  8
0
390
0
100
AcDbBlockBegin
  2
グループ-10
 70
               0
 10
0.0
 20
0.0
 30
0.0
  3
グループ-10
  1

  0
LINE
  5
2B4
100
AcDbEntity
  8
0
370
               0
390
0
  6
Continuous
 62
              30
100
AcDbLine
 10
480.97200339523101
 20
1109.9508157470755
 30
0.0
 11
485.50354233041458
 21
1107.8377244383728
 31
0.0
  0
LINE
  5
2B5
100
AcDbEntity
  8
0
370
               0
390
0
  6
Continuous
 62
              30
100
AcDbLine
 10
480.54938513349157
 20
1109.0445079600386
 30
0.0
 11
480.97200339523101
 21
1109.9508157470755
 31
0.0
  0
LINE
  5
2B6
100
AcDbEntity
  8
0
370
               0
390
0
  6
Continuous
 62
              30
100
AcDbLine
 10
485.08092406867422
 20
1106.9314166513359
 30
0.0
 11
480.54938513349157
 21
1109.0445079600386
 31
0.0
  0
LINE
  5
2B7
100
AcDbEntity
  8
0
370
               0
390
0
  6
Continuous
 62
              30
100
AcDbLine
 10
485.50354233041458
 20
1107.8377244383728
 30
0.0
 11
485.08092406867422
 21
1106.9314166513359
 31
0.0
  0
LINE
  5
2B8
100
AcDbEntity
  8
0
370
               0
390
0
  6
Continuous
 62
              30
100
AcDbLine
 10
476.59760496073886
 20
1098.1870811687531
 30
0.0
 11
481.42723409218183
 21
1096.8929859432401
 31
0.0
  0
LINE
  5
2B9
100
AcDbEntity
  8
0
370
               0
390
0
  6
Continuous
 62
              30
100
AcDbLine
 10
476.33878591563553
 20
1097.221155342464
 30
0.0
 11
476.59760496073886
 21
1098.1870811687531
 31
0.0
  0
LINE
  5
2BA
100
AcDbEntity
  8
0
370
               0
390
0
  6
Continuous
 62
              30
100
AcDbLine
 10
481.16841504708009
 20
1095.9270601169519
 30
0.0
 11
476.33878591563553
 21
1097.221155342464
 31
0.0
  0
LINE
  5
2BB
100
AcDbEntity
  8
0
370
               0
390
0
  6
Continuous
 62
              30
100
AcDbLine
 10
481.42723409218183
 20
1096.8929859432401
 30
0.0
 11
481.16841504708009
 21
1095.9270601169519
 31
0.0
  0
LINE
  5
2BC
100
AcDbEntity
  8
0
370
               0
390
0
  6
Continuous
 62
              30
100
AcDbLine
 10
478.18597616275179
 20
1054.9135429991766
 30
0.0
 11
482.88443926668015
 21
1056.6236437158059
 31
0.0
  0
LINE
  5
2BD
100
AcDbEntity
  8
0
370
               0
390
0
  6
Continuous
 62
              30
100
AcDbLine
 10
478.52799630607728
 20
1053.973850378391
 30
0.0
 11
478.18597616275179
 21
1054.9135429991766
 31
0.0
  0
LINE
  5
2BE
100
AcDbEntity
  8
0
370
               0
390
0
  6
Continuous
 62
              30
100
AcDbLine
 10
483.22645941000678
 20
1055.6839510950194
 30
0.0
 11
478.52799630607728
 21
1053.973850378391
 31
0.0
  0
LINE
  5
2BF
100
AcDbEntity
  8
0
370
               0
390
0
  6
Continuous
 62
              30
100
AcDbLine
 10
482.88443926668015
 20
1056.6236437158059
 30
0.0
 11
483.22645941000678
 21
1055.6839510950194
 31
0.0
  0
LINE
  5
2C0
100
AcDbEntity
  8
0
370
               0
390
0
  6
Continuous
 62
              30
100
AcDbLine
 10
483.41102585851945
 20
1043.502159710124
 30
0.0
 11
487.74115287743984
 21
1046.0021597101249
 31
0.0
  0
LINE
  5
2C1
100
AcDbEntity
  8
0
370
               0
390
0
  6
Continuous
 62
              30
100
AcDbLine
 10
483.91102585851854
 20
1042.63613430634
 30
0.0
 11
483.41102585851945
 21
1043.502159710124
 31
0.0
  0
LINE
  5
2C2
100
AcDbEntity
  8
0
370
               0
390
0
  6
Continuous
 62
              30
100
AcDbLine
 10
488.24115287743984
 20
1045.13613430634
 30
0.0
 11
483.91102585851854
 21
1042.63613430634
 31
0.0
  0
LINE
  5
2C3
100
AcDbEntity
  8
0
370
               0
390
0
  6
Continuous
 62
              30
100
AcDbLine
 10
487.74115287743984
 20
1046.0021597101249
 30
0.0
 11
488.24115287743984
 21
1045.13613430634
 31
0.0
  0
LINE
  5
2C4
100
AcDbEntity
  8
0
370
               0
390
0
  6
Continuous
 62
              30
100
AcDbLine
 10
539.2415441041237
 20
1047.3867066169964
 30
0.0
 11
539.67732281786243
 21
1052.3676801074566
 31
0.0
  0
LINE
  5
2C5
100
AcDbEntity
  8
0
370
               0
390
0
  6
Continuous
 62
              30
100
AcDbLine
 10
540.23773880221574
 20
1047.2995508742492
 30
0.0
 11
539.2415441041237
 21
1047.3867066169964
 31
0.0
  0
LINE
  5
2C6
100
AcDbEntity
  8
0
370
               0
390
0
  6
Continuous
 62
              30
100
AcDbLine
 10
540.67351751595538
 20
1052.2805243647076
 30
0.0
 11
540.23773880221574
 21
1047.2995508742492
 31
0.0
  0
LINE
  5
2C7
100
AcDbEntity
  8
0
370
               0
390
0
  6
Continuous
 62
              30
100
AcDbLine
 10
539.67732281786243
 20
1052.3676801074566
 30
0.0
 11
540.67351751595538
 21
1052.2805243647076
 31
0.0
  0
LINE
  5
2C8
100
AcDbEntity
  8
0
370
               0
390
0
  6
Continuous
 62
              30
100
AcDbLine
 10
494.74961329497751
 20
1068.5110121533908
 30
0.0
 11
501.82068110684122
 21
1075.5820799652565
 31
0.0
  0
LINE
  5
2C9
100
AcDbEntity
  8
0
370
               0
390
0
  6
Continuous
 62
              30
100
AcDbLine
 10
495.45672007616213
 20
1067.803905372205
 30
0.0
 11
494.74961329497751
 21
1068.5110121533908
 31
0.0
  0
LINE
  5
2CA
100
AcDbEntity
  8
0
370
               0
390
0
  6
Continuous
 62
              30
100
AcDbLine
 10
502.5277878880288
 20
1074.8749731840699
 30
0.0
 11
495.45672007616213
 21
1067.803905372205
 31
0.0
  0
LINE
  5
2CB
100
AcDbEntity
  8
0
370
               0
390
0
  6
Continuous
 62
              30
100
AcDbLine
 10
501.82068110684122
 20
1075.5820799652565
 30
0.0
 11
502.5277878880288
 21
1074.8749731840699
 31
0.0
  0
LINE
  5
2CC
100
AcDbEntity
  8
0
370
               0
390
0
  6
Continuous
 62
              30
100
AcDbLine
 10
509.58184222910836
 20
1056.9653179357492
 30
0.0
 11
512.08184222910745
 21
1061.2954449546719
 31
0.0
  0
LINE
  5
2CD
100
AcDbEntity
  8
0
370
               0
390
0
  6
Continuous
 62
              30
100
AcDbLine
 10
510.44786763289153
 20
1056.4653179357497
 30
0.0
 11
509.58184222910836
 21
1056.9653179357492
 31
0.0
  0
LINE
  5
2CE
100
AcDbEntity
  8
0
370
               0
390
0
  6
Continuous
 62
              30
100
AcDbLine
 10
512.94786763289267
 20
1060.7954449546719
 30
0.0
 11
510.44786763289153
 21
1056.4653179357497
 31
0.0
  0
LINE
  5
2CF
100
AcDbEntity
  8
0
370
               0
390
0
  6
Continuous
 62
              30
100
AcDbLine
 10
512.08184222910745
 20
1061.2954449546719
 30
0.0
 11
512.94786763289267
 21
1060.7954449546719
 31
0.0
  0
LINE
  5
2D0
100
AcDbEntity
  8
0
370
               0
390
0
  6
Continuous
 62
              30
100
AcDbLine
 10
533.0197822624757
 20
1048.2498128801831
 30
0.0
 11
533.8880231508108
 21
1053.1738516452447
 31
0.0
  0
LINE
  5
2D1
100
AcDbEntity
  8
0
370
               0
390
0
  6
Continuous
 62
              30
100
AcDbLine
 10
534.00459001548825
 20
1048.076164702517
 30
0.0
 11
533.0197822624757
 21
1048.2498128801831
 31
0.0
  0
LINE
  5
2D2
100
AcDbEntity
  8
0
370
               0
390
0
  6
Continuous
 62
              30
100
AcDbLine
 10
534.87283090382334
 20
1053.0002034675776
 30
0.0
 11
534.00459001548825
 21
1048.076164702517
 31
0.0
  0
LINE
  5
2D3
100
AcDbEntity
  8
0
370
               0
390
0
  6
Continuous
 62
              30
100
AcDbLine
 10
533.8880231508108
 20
1053.1738516452447
 30
0.0
 11
534.87283090382334
 21
1053.0002034675776
 31
0.0
  0
LINE
  5
2D4
100
AcDbEntity
  8
0
370
               0
390
0
  6
Continuous
 62
              30
100
AcDbLine
 10
504.30777549158188
 20
1060.3769880375967
 30
0.0
 11
507.17565767333758
 21
1064.472748259042
 31
0.0
  0
LINE
  5
2D5
100
AcDbEntity
  8
0
370
               0
390
0
  6
Continuous
 62
              30
100
AcDbLine
 10
505.12692753586975
 20
1059.8034116012459
 30
0.0
 11
504.30777549158188
 21
1060.3769880375967
 31
0.0
  0
LINE
  5
2D6
100
AcDbEntity
  8
0
370
               0
390
0
  6
Continuous
 62
              30
100
AcDbLine
 10
507.99480971762478
 20
1063.8991718226912
 30
0.0
 11
505.12692753586975
 21
1059.8034116012459
 31
0.0
  0
LINE
  5
2D7
100
AcDbEntity
  8
0
370
               0
390
0
  6
Continuous
 62
              30
100
AcDbLine
 10
507.17565767333758
 20
1064.472748259042
 30
0.0
 11
507.99480971762478
 21
1063.8991718226912
 31
0.0
  0
LINE
  5
2D8
100
AcDbEntity
  8
0
370
               0
390
0
  6
Continuous
 62
              30
100
AcDbLine
 10
487.32269596036895
 20
1077.3620675688094
 30
0.0
 11
486.74911952401817
 21
1078.1812196130982
 31
0.0
  0
LINE
  5
2D9
100
AcDbEntity
  8
0
370
               0
390
0
  6
Continuous
 62
              30
100
AcDbLine
 10
491.41845618181287
 20
1080.2299497505637
 30
0.0
 11
487.32269596036895
 21
1077.3620675688094
 31
0.0
  0
LINE
  5
2DA
100
AcDbEntity
  8
0
370
               0
390
0
  6
Continuous
 62
              30
100
AcDbLine
 10
490.84487974546209
 20
1081.049101794853
 30
0.0
 11
491.41845618181287
 21
1080.2299497505637
 31
0.0
  0
LINE
  5
2DB
100
AcDbEntity
  8
0
370
               0
390
0
  6
Continuous
 62
              30
100
AcDbLine
 10
486.74911952401817
 20
1078.1812196130982
 30
0.0
 11
490.84487974546209
 21
1081.049101794853
 31
0.0
  0
LINE
  5
2DC
100
AcDbEntity
  8
0
370
               0
390
0
  6
Continuous
 62
              30
100
AcDbLine
 10
491.18104883127762
 20
1072.4054168892389
 30
0.0
 11
490.53826122159171
 21
1073.1714613323579
 31
0.0
  0
LINE
  5
2DD
100
AcDbEntity
  8
0
370
               0
390
0
  6
Continuous
 62
              30
100
AcDbLine
 10
495.01127104687203
 20
1075.6193549376708
 30
0.0
 11
491.18104883127762
 21
1072.4054168892389
 31
0.0
  0
LINE
  5
2DE
100
AcDbEntity
  8
0
370
               0
390
0
  6
Continuous
 62
              30
100
AcDbLine
 10
494.36848343718498
 20
1076.3853993807897
 30
0.0
 11
495.01127104687203
 21
1075.6193549376708
 31
0.0
  0
LINE
  5
2DF
100
AcDbEntity
  8
0
370
               0
390
0
  6
Continuous
 62
              30
100
AcDbLine
 10
490.53826122159171
 20
1073.1714613323579
 30
0.0
 11
494.36848343718498
 21
1076.3853993807897
 31
0.0
  0
LINE
  5
2E0
100
AcDbEntity
  8
0
370
               0
390
0
  6
Continuous
 62
              30
100
AcDbLine
 10
486.74911952401521
 20
1038.1812196131013
 30
0.0
 11
490.84487974546073
 21
1041.0491017948571
 31
0.0
  0
LINE
  5
2E1
100
AcDbEntity
  8
0
370
               0
390
0
  6
Continuous
 62
              30
100
AcDbLine
 10
487.32269596036599
 20
1037.3620675688126
 30
0.0
 11
486.74911952401521
 21
1038.1812196131013
 31
0.0
  0
LINE
  5
2E2
100
AcDbEntity
  8
0
370
               0
390
0
  6
Continuous
 62
              30
100
AcDbLine
 10
491.41845618181173
 20
1040.2299497505683
 30
0.0
 11
487.32269596036599
 21
1037.3620675688126
 31
0.0
  0
LINE
  5
2E3
100
AcDbEntity
  8
0
370
               0
390
0
  6
Continuous
 62
              30
100
AcDbLine
 10
490.84487974546073
 20
1041.0491017948571
 30
0.0
 11
491.41845618181173
 21
1040.2299497505683
 31
0.0
  0
LINE
  5
2E4
100
AcDbEntity
  8
0
370
               0
390
0
  6
Continuous
 62
              30
100
AcDbLine
 10
475.02187262528787
 20
1067.0588820927187
 30
0.0
 11
479.94591139034856
 21
1067.9271229810538
 31
0.0
  0
LINE
  5
2E5
100
AcDbEntity
  8
0
370
               0
390
0
  6
Continuous
 62
              30
100
AcDbLine
 10
475.19552080295284
 20
1066.0740743397064
 30
0.0
 11
475.02187262528787
 21
1067.0588820927187
 31
0.0
  0
LINE
  5
2E6
100
AcDbEntity
  8
0
370
               0
390
0
  6
Continuous
 62
              30
100
AcDbLine
 10
480.11955956801535
 20
1066.9423152280424
 30
0.0
 11
475.19552080295284
 21
1066.0740743397064
 31
0.0
  0
LINE
  5
2E7
100
AcDbEntity
  8
0
370
               0
390
0
  6
Continuous
 62
              30
100
AcDbLine
 10
479.94591139034856
 20
1067.9271229810538
 30
0.0
 11
480.11955956801535
 21
1066.9423152280424
 31
0.0
  0
LINE
  5
2E8
100
AcDbEntity
  8
0
370
               0
390
0
  6
Continuous
 62
              30
100
AcDbLine
 10
475.19552080295307
 20
1092.0642196767531
 30
0.0
 11
480.1195595680158
 21
1091.195978788418
 31
0.0
  0
LINE
  5
2E9
100
AcDbEntity
  8
0
370
               0
390
0
  6
Continuous
 62
              30
100
AcDbLine
 10
475.02187262528787
 20
1091.0794119237398
 30
0.0
 11
475.19552080295307
 21
1092.0642196767531
 31
0.0
  0
LINE
  5
2EA
100
AcDbEntity
  8
0
370
               0
390
0
  6
Continuous
 62
              30
100
AcDbLine
 10
479.94591139034969
 20
1090.2111710354056
 30
0.0
 11
475.02187262528787
 21
1091.0794119237398
 31
0.0
  0
LINE
  5
2EB
100
AcDbEntity
  8
0
370
               0
390
0
  6
Continuous
 62
              30
100
AcDbLine
 10
480.1195595680158
 20
1091.195978788418
 30
0.0
 11
479.94591139034969
 21
1090.2111710354056
 31
0.0
  0
ARC
  5
2EC
100
AcDbEntity
  8
0
370
               0
390
0
  6
Continuous
 62
              30
100
AcDbCircle
 10
546.01482946682495
 20
1079.069483762959
 30
0.0
 40
82.999999999999659
100
AcDbArc
 50
149.99999999999588
 51
225.00000000000037
  0
ARC
  5
2ED
100
AcDbEntity
  8
0
370
               0
390
0
  6
Continuous
 62
              30
100
AcDbCircle
 10
489.44628697190387
 20
1022.500941268037
 30
0.0
 40
3.0000000000003459
100
AcDbArc
 50
224.99999999997851
 51
45.000000000030695
  0
ARC
  5
2EE
100
AcDbEntity
  8
0
370
               0
390
0
  6
Continuous
 62
              30
100
AcDbCircle
 10
546.01482946682495
 20
1079.069483762959
 30
0.0
 40
76.99999999999784
100
AcDbArc
 50
149.99999999999673
 51
224.99999999999989
  0
ARC
  5
2EF
100
AcDbEntity
  8
0
370
               0
390
0
  6
Continuous
 62
              30
100
AcDbCircle
 10
476.7327971640716
 20
1119.0694837629608
 30
0.0
 40
3.0000000000015028
100
AcDbArc
 50
330.00000000005673
 51
149.99999999991448
  0
LINE
  5
2F0
100
AcDbEntity
  8
0
370
               0
390
0
  6
Continuous
 62
              30
100
AcDbLine
 10
556.01482946684587
 20
1077.1405515748042
 30
0.0
 11
556.01482946684587
 21
1120.998415951075
 31
0.0
  0
ARC
  5
2F1
100
AcDbEntity
  8
0
370
               0
390
0
  6
Continuous
 62
              30
100
AcDbCircle
 10
555.01482946684678
 20
1077.1405515748042
 30
0.0
 40
0.9999999999992042
100
AcDbArc
 50
224.99999999832343
 51
0.0
  0
LINE
  5
2F2
100
AcDbEntity
  8
0
370
               0
390
0
  6
Continuous
 62
              30
100
AcDbLine
 10
548.84325659157253
 20
1081.8979108877047
 30
0.0
 11
554.3077226856401
 21
1076.433444793639
 31
0.0
  0
ARC
  5
2F3
100
AcDbEntity
  8
0
370
               0
390
0
  6
Continuous
 62
              30
100
AcDbCircle
 10
546.01482946682495
 20
1079.069483762959
 30
0.0
 40
4.0000000000008358
100
AcDbArc
 50
44.999999999979273
 51
224.99999999999079
  0
LINE
  5
2F4
100
AcDbEntity
  8
0
370
               0
390
0
  6
Continuous
 62
              30
100
AcDbLine
 10
553.08589727869162
 20
1066.3415617016021
 30
0.0
 11
543.18640234207851
 21
1076.2410566382136
 31
0.0
  0
ARC
  5
2F5
100
AcDbEntity
  8
0
370
               0
390
0
  6
Continuous
 62
              30
100
AcDbCircle
 10
546.01482946682654
 20
1059.2704938897359
 30
0.0
 40
10.000000000019327
100
AcDbArc
 50
0.0000000000234496
 51
45.000000000004604
  0
LINE
  5
2F6
100
AcDbEntity
  8
0
370
               0
390
0
  6
Continuous
 62
              30
100
AcDbLine
 10
556.01482946684587
 20
1059.069483762958
 30
0.0
 11
556.01482946684587
 21
1059.27049388974
 31
0.0
  0
ARC
  5
2F7
100
AcDbEntity
  8
0
370
               0
390
0
  6
Continuous
 62
              30
100
AcDbCircle
 10
466.01482946683905
 20
1059.069483762958
 30
0.0
 40
90.00000000000685
100
AcDbArc
 50
352.2327056644649
 51
0.0
  0
ARC
  5
2F8
100
AcDbEntity
  8
0
370
               0
390
0
  6
Continuous
 62
              30
100
AcDbCircle
 10
515.5560868881546
 20
1052.3119832550956
 30
0.0
 40
39.999999999999119
100
AcDbArc
 50
278.0808763380038
 51
352.23270566446297
  0
ARC
  5
2F9
100
AcDbEntity
  8
0
370
               0
390
0
  6
Continuous
 62
              30
100
AcDbCircle
 10
506.01482946681404
 20
1119.5131366819428
 30
0.0
 40
107.87511042406327
100
AcDbArc
 50
261.91912366196601
 51
278.0808763380283
  0
ARC
  5
2FA
100
AcDbEntity
  8
0
370
               0
390
0
  6
Continuous
 62
              30
100
AcDbCircle
 10
496.47357204550235
 20
1052.3119832550929
 30
0.0
 40
40.000000000000384
100
AcDbArc
 50
187.76729433558799
 51
261.91912366193787
  0
ARC
  5
2FB
100
AcDbEntity
  8
0
370
               0
390
0
  6
Continuous
 62
              30
100
AcDbCircle
 10
546.0148294668486
 20
1059.069483762958
 30
0.0
 40
90.000000000019099
100
AcDbArc
 50
180.00000000000088
 51
187.76729433555744
  0
LINE
  5
2FC
100
AcDbEntity
  8
0
370
               0
390
0
  6
Continuous
 62
              30
100
AcDbLine
 10
456.01482946684609
 20
1329.1380262578846
 30
0.0
 11
456.01482946684609
 21
1059.069483762958
 31
0.0
  0
LINE
  5
2FD
100
AcDbEntity
  8
0
370
               0
390
0
  6
Continuous
 62
              30
100
AcDbLine
 10
456.01482946684609
 20
1329.1380262578846
 30
0.0
 11
460.51482946684609
 21
1329.1380262578846
 31
0.0
  0
LINE
  5
2FE
100
AcDbEntity
  8
0
370
               0
390
0
  6
Continuous
 62
              30
100
AcDbLine
 10
460.51482946684609
 20
1329.1380262578846
 30
0.0
 11
551.51482946684587
 21
1329.1380262578846
 31
0.0
  0
LINE
  5
2FF
100
AcDbEntity
  8
0
370
               0
390
0
  6
Continuous
 62
              30
100
AcDbLine
 10
551.51482946684587
 20
1329.1380262578846
 30
0.0
 11
556.01482946684587
 21
1329.1380262578846
 31
0.0
  0
LINE
  5
300
100
AcDbEntity
  8
0
370
               0
390
0
  6
Continuous
 62
              30
100
AcDbLine
 10
556.01482946684541
 20
1138.868473636157
 30
0.0
 11
556.01482946684587
 21
1329.1380262578846
 31
0.0
  0
ARC
  5
301
100
AcDbEntity
  8
0
370
               0
390
0
  6
Continuous
 62
              30
100
AcDbCircle
 10
546.01482946684473
 20
1138.868473636157
 30
0.0
 40
10.000000000000563
100
AcDbArc
 50
315.0000000000083
 51
0.0
  0
LINE
  5
302
100
AcDbEntity
  8
0
370
               0
390
0
  6
Continuous
 62
              30
100
AcDbLine
 10
543.18640234210375
 20
1121.8979108876847
 30
0.0
 11
553.0858972787114
 21
1131.7974058242921
 31
0.0
  0
ARC
  5
303
100
AcDbEntity
  8
0
370
               0
390
0
  6
Continuous
 62
              30
100
AcDbCircle
 10
546.01482946679243
 20
1119.0694837628821
 30
0.0
 40
3.9999999999992282
100
AcDbArc
 50
134.99999999884622
 51
315.00000000119519
  0
LINE
  5
304
100
AcDbEntity
  8
0
370
               0
390
0
  6
Continuous
 62
              30
100
AcDbLine
 10
554.30772268566102
 20
1121.7055227322594
 30
0.0
 11
548.84325659159708
 21
1116.2410566381955
 31
0.0
  0
ARC
  5
305
100
AcDbEntity
  8
0
370
               0
390
0
  6
Continuous
 62
              30
100
AcDbCircle
 10
555.01482946684746
 20
1120.9984159510727
 30
0.0
 40
1.0
100
AcDbArc
 50
0.0000000001302755
 51
134.99999999999079
  0
ARC
  5
306
100
AcDbEntity
  8
0
370
               0
390
0
  6
Continuous
 62
              30
100
AcDbCircle
 10
546.01482946682836
 20
1039.0694837629608
 30
0.0
 40
2.9999999999990905
100
AcDbArc
 50
270.00000000000864
 51
90.000000000026034
  0
ARC
  5
307
100
AcDbEntity
  8
0
370
               0
390
0
  6
Continuous
 62
              30
100
AcDbCircle
 10
546.01482946679243
 20
1119.0694837628821
 30
0.0
 40
76.999999999923119
100
AcDbArc
 50
209.99999999996854
 51
270.00000000002552
  0
ARC
  5
308
100
AcDbEntity
  8
0
370
               0
390
0
  6
Continuous
 62
              30
100
AcDbCircle
 10
476.73279716408138
 20
1079.0694837629594
 30
0.0
 40
2.9999999999999578
100
AcDbArc
 50
29.999999999970381
 51
210.00000000000696
  0
ARC
  5
309
100
AcDbEntity
  8
0
370
               0
390
0
  6
Continuous
 62
              30
100
AcDbCircle
 10
546.01482946679243
 20
1119.0694837628821
 30
0.0
 40
82.999999999922338
100
AcDbArc
 50
209.99999999997004
 51
270.00000000002512
  0
LINE
  5
30A
100
AcDbEntity
  8
0
370
               0
390
0
  6
Continuous
 62
              30
100
AcDbLine
 10
474.33241453976825
 20
1085.8424578351051
 30
0.0
 11
479.31338803022663
 21
1085.4066791213663
 31
0.0
  0
LINE
  5
30B
100
AcDbEntity
  8
0
370
               0
390
0
  6
Continuous
 62
              30
100
AcDbLine
 10
474.33241453976825
 20
1084.846263137013
 30
0.0
 11
474.33241453976825
 21
1085.8424578351051
 31
0.0
  0
LINE
  5
30C
100
AcDbEntity
  8
0
370
               0
390
0
  6
Continuous
 62
              30
100
AcDbLine
 10
479.22623228747943
 20
1084.4104844232743
 30
0.0
 11
474.33241453976825
 21
1084.846263137013
 31
0.0
  0
LINE
  5
30D
100
AcDbEntity
  8
0
370
               0
390
0
  6
Continuous
 62
              30
100
AcDbLine
 10
479.31338803022663
 20
1085.4066791213663
 30
0.0
 11
479.22623228747943
 21
1084.4104844232743
 31
0.0
  0
LINE
  5
30E
100
AcDbEntity
  8
0
370
               0
390
0
  6
Continuous
 62
              30
100
AcDbLine
 10
480.54938513348839
 20
1049.0937860564209
 30
0.0
 11
485.08092406867308
 21
1051.2068773651235
 31
0.0
  0
LINE
  5
30F
100
AcDbEntity
  8
0
370
               0
390
0
  6
Continuous
 62
              30
100
AcDbLine
 10
480.97200339522965
 20
1048.1874782693831
 30
0.0
 11
480.54938513348839
 21
1049.0937860564209
 31
0.0
  0
LINE
  5
310
100
AcDbEntity
  8
0
370
               0
390
0
  6
Continuous
 62
              30
100
AcDbLine
 10
485.50354233041526
 20
1050.3005695780867
 30
0.0
 11
480.97200339522965
 21
1048.1874782693831
 31
0.0
  0
LINE
  5
311
100
AcDbEntity
  8
0
370
               0
390
0
  6
Continuous
 62
              30
100
AcDbLine
 10
485.08092406867308
 20
1051.2068773651235
 30
0.0
 11
485.50354233041526
 21
1050.3005695780867
 31
0.0
  0
LINE
  5
312
100
AcDbEntity
  8
0
370
               0
390
0
  6
Continuous
 62
              30
100
AcDbLine
 10
494.7496132949741
 20
1028.5110121533944
 30
0.0
 11
501.82068110683917
 21
1035.5820799652602
 31
0.0
  0
LINE
  5
313
100
AcDbEntity
  8
0
370
               0
390
0
  6
Continuous
 62
              30
100
AcDbLine
 10
495.45672007615894
 20
1027.8039053722077
 30
0.0
 11
494.7496132949741
 21
1028.5110121533944
 31
0.0
  0
LINE
  5
314
100
AcDbEntity
  8
0
370
               0
390
0
  6
Continuous
 62
              30
100
AcDbLine
 10
502.52778788802493
 20
1034.8749731840735
 30
0.0
 11
495.45672007615894
 21
1027.8039053722077
 31
0.0
  0
LINE
  5
315
100
AcDbEntity
  8
0
370
               0
390
0
  6
Continuous
 62
              30
100
AcDbLine
 10
501.82068110683917
 20
1035.5820799652602
 30
0.0
 11
502.52778788802493
 21
1034.8749731840735
 31
0.0
  0
LINE
  5
316
100
AcDbEntity
  8
0
370
               0
390
0
  6
Continuous
 62
              30
100
AcDbLine
 10
483.9110258585215
 20
1082.6361343063368
 30
0.0
 11
483.4110258585215
 21
1083.5021597101213
 31
0.0
  0
LINE
  5
317
100
AcDbEntity
  8
0
370
               0
390
0
  6
Continuous
 62
              30
100
AcDbLine
 10
488.2411528774428
 20
1085.1361343063359
 30
0.0
 11
483.9110258585215
 21
1082.6361343063368
 31
0.0
  0
LINE
  5
318
100
AcDbEntity
  8
0
370
               0
390
0
  6
Continuous
 62
              30
100
AcDbLine
 10
487.74115287744257
 20
1086.0021597101208
 30
0.0
 11
488.2411528774428
 21
1085.1361343063359
 31
0.0
  0
LINE
  5
319
100
AcDbEntity
  8
0
370
               0
390
0
  6
Continuous
 62
              30
100
AcDbLine
 10
483.4110258585215
 20
1083.5021597101213
 30
0.0
 11
487.74115287744257
 21
1086.0021597101208
 31
0.0
  0
LINE
  5
31A
100
AcDbEntity
  8
0
370
               0
390
0
  6
Continuous
 62
              30
100
AcDbLine
 10
545.51485493100131
 20
1047.0691470082288
 30
0.0
 11
545.5148549310004
 21
1057.0691470082288
 31
0.0
  0
LINE
  5
31B
100
AcDbEntity
  8
0
370
               0
390
0
  6
Continuous
 62
              30
100
AcDbLine
 10
546.51485493100131
 20
1047.0691470082288
 30
0.0
 11
545.51485493100131
 21
1047.0691470082288
 31
0.0
  0
LINE
  5
31C
100
AcDbEntity
  8
0
370
               0
390
0
  6
Continuous
 62
              30
100
AcDbLine
 10
546.51485493100131
 20
1057.0691470082279
 30
0.0
 11
546.51485493100131
 21
1047.0691470082288
 31
0.0
  0
LINE
  5
31D
100
AcDbEntity
  8
0
370
               0
390
0
  6
Continuous
 62
              30
100
AcDbLine
 10
545.5148549310004
 20
1057.0691470082288
 30
0.0
 11
546.51485493100131
 21
1057.0691470082279
 31
0.0
  0
LINE
  5
31E
100
AcDbEntity
  8
0
370
               0
390
0
  6
Continuous
 62
              30
100
AcDbLine
 10
520.91955830115899
 20
1051.5822883833066
 30
0.0
 11
522.62965901778603
 21
1056.2807514872361
 31
0.0
  0
LINE
  5
31F
100
AcDbEntity
  8
0
370
               0
390
0
  6
Continuous
 62
              30
100
AcDbLine
 10
521.85925092194589
 20
1051.2402682399802
 30
0.0
 11
520.91955830115899
 21
1051.5822883833066
 31
0.0
  0
LINE
  5
320
100
AcDbEntity
  8
0
370
               0
390
0
  6
Continuous
 62
              30
100
AcDbLine
 10
523.56935163857179
 20
1055.9387313439106
 30
0.0
 11
521.85925092194589
 21
1051.2402682399802
 31
0.0
  0
LINE
  5
321
100
AcDbEntity
  8
0
370
               0
390
0
  6
Continuous
 62
              30
100
AcDbLine
 10
522.62965901778603
 20
1056.2807514872361
 30
0.0
 11
523.56935163857179
 21
1055.9387313439106
 31
0.0
  0
LINE
  5
322
100
AcDbEntity
  8
0
370
               0
390
0
  6
Continuous
 62
              30
100
AcDbLine
 10
515.13318619215147
 20
1054.0262954724608
 30
0.0
 11
517.24627750085551
 21
1058.5578344076434
 31
0.0
  0
LINE
  5
323
100
AcDbEntity
  8
0
370
               0
390
0
  6
Continuous
 62
              30
100
AcDbLine
 10
516.03949397918564
 20
1053.6036772107204
 30
0.0
 11
515.13318619215147
 21
1054.0262954724608
 31
0.0
  0
LINE
  5
324
100
AcDbEntity
  8
0
370
               0
390
0
  6
Continuous
 62
              30
100
AcDbLine
 10
518.15258528789036
 20
1058.1352161459035
 30
0.0
 11
516.03949397918564
 21
1053.6036772107204
 31
0.0
  0
LINE
  5
325
100
AcDbEntity
  8
0
370
               0
390
0
  6
Continuous
 62
              30
100
AcDbLine
 10
517.24627750085551
 20
1058.5578344076434
 30
0.0
 11
518.15258528789036
 21
1058.1352161459035
 31
0.0
  0
LINE
  5
326
100
AcDbEntity
  8
0
370
               0
390
0
  6
Continuous
 62
              30
100
AcDbLine
 10
526.89692077047471
 20
1049.651897037967
 30
0.0
 11
528.19101599598594
 21
1054.4815261694134
 31
0.0
  0
LINE
  5
327
100
AcDbEntity
  8
0
370
               0
390
0
  6
Continuous
 62
              30
100
AcDbLine
 10
527.86284659676357
 20
1049.3930779928646
 30
0.0
 11
526.89692077047471
 21
1049.651897037967
 31
0.0
  0
LINE
  5
328
100
AcDbEntity
  8
0
370
               0
390
0
  6
Continuous
 62
              30
100
AcDbLine
 10
529.15694182227594
 20
1054.2227071243092
 30
0.0
 11
527.86284659676357
 21
1049.3930779928646
 31
0.0
  0
LINE
  5
329
100
AcDbEntity
  8
0
370
               0
390
0
  6
Continuous
 62
              30
100
AcDbLine
 10
528.19101599598594
 20
1054.4815261694134
 30
0.0
 11
529.15694182227594
 21
1054.2227071243092
 31
0.0
  0
LINE
  5
32A
100
AcDbEntity
  8
0
370
               0
390
0
  6
Continuous
 62
              30
100
AcDbLine
 10
499.35112481201122
 20
1064.2353409085063
 30
0.0
 11
502.56506286044237
 21
1068.0655631241002
 31
0.0
  0
LINE
  5
32B
100
AcDbEntity
  8
0
370
               0
390
0
  6
Continuous
 62
              30
100
AcDbLine
 10
500.1171692551286
 20
1063.5925532988185
 30
0.0
 11
499.35112481201122
 21
1064.2353409085063
 31
0.0
  0
LINE
  5
32C
100
AcDbEntity
  8
0
370
               0
390
0
  6
Continuous
 62
              30
100
AcDbLine
 10
503.33110730356111
 20
1067.4227755144134
 30
0.0
 11
500.1171692551286
 21
1063.5925532988185
 31
0.0
  0
LINE
  5
32D
100
AcDbEntity
  8
0
370
               0
390
0
  6
Continuous
 62
              30
100
AcDbLine
 10
502.56506286044237
 20
1068.0655631241002
 30
0.0
 11
503.33110730356111
 21
1067.4227755144134
 31
0.0
  0
LINE
  5
32E
100
AcDbEntity
  8
0
370
               0
390
0
  6
Continuous
 62
              30
100
AcDbLine
 10
490.53826122158966
 20
1033.1714613323602
 30
0.0
 11
494.36848343718225
 21
1036.3853993807943
 31
0.0
  0
LINE
  5
32F
100
AcDbEntity
  8
0
370
               0
390
0
  6
Continuous
 62
              30
100
AcDbLine
 10
491.18104883127353
 20
1032.4054168892417
 30
0.0
 11
490.53826122158966
 21
1033.1714613323602
 31
0.0
  0
LINE
  5
330
100
AcDbEntity
  8
0
370
               0
390
0
  6
Continuous
 62
              30
100
AcDbLine
 10
495.01127104687021
 20
1035.6193549376749
 30
0.0
 11
491.18104883127353
 21
1032.4054168892417
 31
0.0
  0
LINE
  5
331
100
AcDbEntity
  8
0
370
               0
390
0
  6
Continuous
 62
              30
100
AcDbLine
 10
494.36848343718225
 20
1036.3853993807943
 30
0.0
 11
495.01127104687021
 21
1035.6193549376749
 31
0.0
  0
LINE
  5
332
100
AcDbEntity
  8
0
370
               0
390
0
  6
Continuous
 62
              30
100
AcDbLine
 10
476.33878591563439
 20
1060.9171386739954
 30
0.0
 11
481.16841504708168
 21
1062.2112338995066
 31
0.0
  0
LINE
  5
333
100
AcDbEntity
  8
0
370
               0
390
0
  6
Continuous
 62
              30
100
AcDbLine
 10
476.59760496073795
 20
1059.9512128477063
 30
0.0
 11
476.33878591563439
 21
1060.9171386739954
 31
0.0
  0
LINE
  5
334
100
AcDbEntity
  8
0
370
               0
390
0
  6
Continuous
 62
              30
100
AcDbLine
 10
481.42723409218138
 20
1061.2453080732193
 30
0.0
 11
476.59760496073795
 21
1059.9512128477063
 31
0.0
  0
LINE
  5
335
100
AcDbEntity
  8
0
370
               0
390
0
  6
Continuous
 62
              30
100
AcDbLine
 10
481.16841504708168
 20
1062.2112338995066
 30
0.0
 11
481.42723409218138
 21
1061.2453080732193
 31
0.0
  0
LINE
  5
336
100
AcDbEntity
  8
0
370
               0
390
0
  6
Continuous
 62
              30
100
AcDbLine
 10
478.52799630607592
 20
1104.1644436380684
 30
0.0
 11
483.22645941000633
 21
1102.4543429214409
 31
0.0
  0
LINE
  5
337
100
AcDbEntity
  8
0
370
               0
390
0
  6
Continuous
 62
              30
100
AcDbLine
 10
478.18597616275133
 20
1103.2247510172829
 30
0.0
 11
478.52799630607592
 21
1104.1644436380684
 31
0.0
  0
LINE
  5
338
100
AcDbEntity
  8
0
370
               0
390
0
  6
Continuous
 62
              30
100
AcDbLine
 10
482.88443926668083
 20
1101.5146503006536
 30
0.0
 11
478.18597616275133
 21
1103.2247510172829
 31
0.0
  0
LINE
  5
339
100
AcDbEntity
  8
0
370
               0
390
0
  6
Continuous
 62
              30
100
AcDbLine
 10
483.22645941000633
 20
1102.4543429214409
 30
0.0
 11
482.88443926668083
 21
1101.5146503006536
 31
0.0
  0
LINE
  5
33A
100
AcDbEntity
  8
0
370
               0
390
0
  6
Continuous
 62
              30
100
AcDbLine
 10
483.91102585851831
 20
1115.5021597101204
 30
0.0
 11
488.24115287744212
 21
1113.0021597101195
 31
0.0
  0
LINE
  5
33B
100
AcDbEntity
  8
0
370
               0
390
0
  6
Continuous
 62
              30
100
AcDbLine
 10
483.41102585851831
 20
1114.6361343063345
 30
0.0
 11
483.91102585851831
 21
1115.5021597101204
 31
0.0
  0
LINE
  5
33C
100
AcDbEntity
  8
0
370
               0
390
0
  6
Continuous
 62
              30
100
AcDbLine
 10
487.74115287744144
 20
1112.1361343063363
 30
0.0
 11
483.41102585851831
 21
1114.6361343063345
 31
0.0
  0
LINE
  5
33D
100
AcDbEntity
  8
0
370
               0
390
0
  6
Continuous
 62
              30
100
AcDbLine
 10
488.24115287744212
 20
1113.0021597101195
 30
0.0
 11
487.74115287744144
 21
1112.1361343063363
 31
0.0
  0
LINE
  5
33E
100
AcDbEntity
  8
0
370
               0
390
0
  6
Continuous
 62
              30
100
AcDbLine
 10
460.51482946684609
 20
1333.6380262578846
 30
0.0
 11
460.51482946684609
 21
1329.1380262578846
 31
0.0
  0
LINE
  5
33F
100
AcDbEntity
  8
0
370
               0
390
0
  6
Continuous
 62
              30
100
AcDbLine
 10
460.51482946684609
 20
1333.6380262578846
 30
0.0
 11
551.51482946684609
 21
1333.6380262578846
 31
0.0
  0
LINE
  5
340
100
AcDbEntity
  8
0
370
               0
390
0
  6
Continuous
 62
              30
100
AcDbLine
 10
551.51482946684587
 20
1329.1380262578846
 30
0.0
 11
551.51482946684609
 21
1333.6380262578846
 31
0.0
  0
ARC
  5
341
100
AcDbEntity
  8
0
370
               0
390
0
  6
Continuous
 62
              30
100
AcDbCircle
 10
460.51482946684609
 20
1329.1380262578846
 30
0.0
 40
1.5
100
AcDbArc
 50
90.0
 51
180.0
  0
ARC
  5
342
100
AcDbEntity
  8
0
370
               0
390
0
  6
Continuous
 62
              30
100
AcDbCircle
 10
460.51482946684609
 20
1329.1380262578846
 30
0.0
 40
4.5
100
AcDbArc
 50
90.0
 51
180.0
  0
ARC
  5
343
100
AcDbEntity
  8
0
370
               0
390
0
  6
Continuous
 62
              30
100
AcDbCircle
 10
551.51482946684609
 20
1329.1380262578846
 30
0.0
 40
4.5
100
AcDbArc
 50
0.0
 51
90.0
  0
ARC
  5
344
100
AcDbEntity
  8
0
370
               0
390
0
  6
Continuous
 62
              30
100
AcDbCircle
 10
551.51482946684609
 20
1329.1380262578846
 30
0.0
 40
1.5
100
AcDbArc
 50
0.0
 51
90.0
  0
ENDBLK
  5
345
100
AcDbEntity
  8
0
390
0
100
AcDbBlockEnd
  0
BLOCK
  5
346
100
AcDbEntity
  8
0
390
0
100
AcDbBlockBegin
  2
グループ-11
 70
               0
 10
0.0
 20
0.0
 30
0.0
  3
グループ-11
  1

  0
ARC
  5
347
100
AcDbEntity
  8
0
370
               0
390
0
  6
Continuous
 62
              30
100
AcDbCircle
 10
-460.66974950107488
 20
1321.2307586680199
 30
0.0
 40
4.5
100
AcDbArc
 50
0.0
 51
90.0
  0
LINE
  5
348
100
AcDbEntity
  8
0
370
               0
390
0
  6
Continuous
 62
              30
100
AcDbLine
 10
-456.16974950107488
 20
1312.7307586680199
 30
0.0
 11
-456.16974950107488
 21
1321.2307586680199
 31
0.0
  0
LINE
  5
349
100
AcDbEntity
  8
0
370
               0
390
0
  6
Continuous
 62
              30
100
AcDbLine
 10
-459.16974950107488
 20
1312.7307586680199
 30
0.0
 11
-456.16974950107488
 21
1312.7307586680199
 31
0.0
  0
LINE
  5
34A
100
AcDbEntity
  8
0
370
               0
390
0
  6
Continuous
 62
              30
100
AcDbLine
 10
-459.16974950107488
 20
1312.7307586680199
 30
0.0
 11
-459.16974950107488
 21
1321.2307586680199
 31
0.0
  0
ARC
  5
34B
100
AcDbEntity
  8
0
370
               0
390
0
  6
Continuous
 62
              30
100
AcDbCircle
 10
-460.66974950107488
 20
1321.2307586680199
 30
0.0
 40
1.5
100
AcDbArc
 50
0.0
 51
90.0
  0
LINE
  5
34C
100
AcDbEntity
  8
0
370
               0
390
0
  6
Continuous
 62
              30
100
AcDbLine
 10
-502.16974950107488
 20
1325.7307586680199
 30
0.0
 11
-502.16974950107488
 21
1322.7307586680199
 31
0.0
  0
LINE
  5
34D
100
AcDbEntity
  8
0
370
               0
390
0
  6
Continuous
 62
              30
100
AcDbLine
 10
-460.66974950107488
 20
1322.7307586680199
 30
0.0
 11
-502.16974950107488
 21
1322.7307586680199
 31
0.0
  0
LINE
  5
34E
100
AcDbEntity
  8
0
370
               0
390
0
  6
Continuous
 62
              30
100
AcDbLine
 10
-460.66974950107488
 20
1325.7307586680199
 30
0.0
 11
-502.16974950107488
 21
1325.7307586680199
 31
0.0
  0
ARC
  5
34F
100
AcDbEntity
  8
0
370
               0
390
0
  6
Continuous
 62
              30
100
AcDbCircle
 10
-551.66974950107488
 20
1321.2307586680199
 30
0.0
 40
1.5
100
AcDbArc
 50
90.0
 51
180.0
  0
LINE
  5
350
100
AcDbEntity
  8
0
370
               0
390
0
  6
Continuous
 62
              30
100
AcDbLine
 10
-553.16974950107488
 20
1321.2307586680199
 30
0.0
 11
-553.16974950107488
 21
1312.7307586680199
 31
0.0
  0
LINE
  5
351
100
AcDbEntity
  8
0
370
               0
390
0
  6
Continuous
 62
              30
100
AcDbLine
 10
-553.16974950107488
 20
1312.7307586680199
 30
0.0
 11
-556.16974950107488
 21
1312.7307586680199
 31
0.0
  0
LINE
  5
352
100
AcDbEntity
  8
0
370
               0
390
0
  6
Continuous
 62
              30
100
AcDbLine
 10
-556.16974950107488
 20
1321.2307586680199
 30
0.0
 11
-556.16974950107488
 21
1312.7307586680199
 31
0.0
  0
ARC
  5
353
100
AcDbEntity
  8
0
370
               0
390
0
  6
Continuous
 62
              30
100
AcDbCircle
 10
-551.66974950107488
 20
1321.2307586680199
 30
0.0
 40
4.5
100
AcDbArc
 50
90.0
 51
180.0
  0
LINE
  5
354
100
AcDbEntity
  8
0
370
               0
390
0
  6
Continuous
 62
              30
100
AcDbLine
 10
-510.16974950107488
 20
1322.7307586680199
 30
0.0
 11
-510.16974950107488
 21
1325.7307586680199
 31
0.0
  0
LINE
  5
355
100
AcDbEntity
  8
0
370
               0
390
0
  6
Continuous
 62
              30
100
AcDbLine
 10
-510.16974950107488
 20
1322.7307586680199
 30
0.0
 11
-551.66974950107488
 21
1322.7307586680199
 31
0.0
  0
LINE
  5
356
100
AcDbEntity
  8
0
370
               0
390
0
  6
Continuous
 62
              30
100
AcDbLine
 10
-510.16974950107488
 20
1325.7307586680199
 30
0.0
 11
-551.66974950107488
 21
1325.7307586680199
 31
0.0
  0
LINE
  5
357
100
AcDbEntity
  8
0
370
               0
390
0
  6
Continuous
 62
              30
100
AcDbLine
 10
-510.16974950107488
 20
1322.7307586680199
 30
0.0
 11
-502.16974950107488
 21
1322.7307586680199
 31
0.0
  0
LINE
  5
358
100
AcDbEntity
  8
0
370
               0
390
0
  6
Continuous
 62
              30
100
AcDbLine
 10
-502.16974950107488
 20
1325.7307586680199
 30
0.0
 11
-510.16974950107488
 21
1325.7307586680199
 31
0.0
  0
LINE
  5
359
100
AcDbEntity
  8
0
370
               0
390
0
  6
Continuous
 62
              30
100
AcDbLine
 10
-551.66974950107488
 20
1321.2307586680199
 30
0.0
 11
-460.66974950107488
 21
1321.2307586680199
 31
0.0
  0
LINE
  5
35A
100
AcDbEntity
  8
0
370
               0
390
0
  6
Continuous
 62
              30
100
AcDbLine
 10
-551.66974950107488
 20
1321.2307586680199
 30
0.0
 11
-551.66974950107488
 21
1322.7307586680199
 31
0.0
  0
LINE
  5
35B
100
AcDbEntity
  8
0
370
               0
390
0
  6
Continuous
 62
              30
100
AcDbLine
 10
-460.66974950107488
 20
1322.7307586680199
 30
0.0
 11
-460.66974950107488
 21
1321.2307586680199
 31
0.0
  0
ARC
  5
35C
100
AcDbEntity
  8
0
370
               0
390
0
  6
Continuous
 62
              30
100
AcDbCircle
 10
-546.16974950102167
 20
1111.1622161730174
 30
0.0
 40
76.999999999923148
100
AcDbArc
 50
269.99999999997425
 51
330.00000000003217
  0
ARC
  5
35D
100
AcDbEntity
  8
0
370
               0
390
0
  6
Continuous
 62
              30
100
AcDbCircle
 10
-546.16974950105714
 20
1031.1622161730961
 30
0.0
 40
3.0000000000013642
100
AcDbArc
 50
90.0
 51
269.99999999998261
  0
ARC
  5
35E
100
AcDbEntity
  8
0
370
               0
390
0
  6
Continuous
 62
              30
100
AcDbCircle
 10
-546.16974950102167
 20
1111.1622161730174
 30
0.0
 40
82.999999999922238
100
AcDbArc
 50
269.9999999999755
 51
330.00000000003092
  0
ARC
  5
35F
100
AcDbEntity
  8
0
370
               0
390
0
  6
Continuous
 62
              30
100
AcDbCircle
 10
-476.88771719831038
 20
1071.1622161730947
 30
0.0
 40
3.0000000000000799
100
AcDbArc
 50
329.99999999999085
 51
150.00000000003396
  0
ARC
  5
360
100
AcDbEntity
  8
0
370
               0
390
0
  6
Continuous
 62
              30
100
AcDbCircle
 10
-546.16974950102167
 20
1111.1622161730174
 30
0.0
 40
3.9999999999990679
100
AcDbArc
 50
224.99999999880708
 51
45.000000001156081
  0
LINE
  5
361
100
AcDbEntity
  8
0
370
               0
390
0
  6
Continuous
 62
              30
100
AcDbLine
 10
-543.34132237633321
 20
1113.99064329782
 30
0.0
 11
-553.24081731294064
 21
1123.8901382344279
 31
0.0
  0
ARC
  5
362
100
AcDbEntity
  8
0
370
               0
390
0
  6
Continuous
 62
              30
100
AcDbCircle
 10
-546.16974950107397
 20
1130.9612060462923
 30
0.0
 40
10.000000000000909
100
AcDbArc
 50
180.0
 51
224.99999999999261
  0
LINE
  5
363
100
AcDbEntity
  8
0
370
               0
390
0
  6
Continuous
 62
              30
100
AcDbLine
 10
-556.16974950107488
 20
1130.9612060462923
 30
0.0
 11
-556.16974950107488
 21
1312.7307586680199
 31
0.0
  0
LINE
  5
364
100
AcDbEntity
  8
0
370
               0
390
0
  6
Continuous
 62
              30
100
AcDbLine
 10
-553.16974950107578
 20
1321.2307586680199
 30
0.0
 11
-551.66974950107488
 21
1321.2307586680199
 31
0.0
  0
LINE
  5
365
100
AcDbEntity
  8
0
370
               0
390
0
  6
Continuous
 62
              30
100
AcDbLine
 10
-460.66974950107488
 20
1321.2307586680199
 30
0.0
 11
-459.16974950107578
 21
1321.2307586680199
 31
0.0
  0
ARC
  5
366
100
AcDbEntity
  8
0
370
               0
390
0
  6
Continuous
 62
              30
100
AcDbCircle
 10
-546.1697495010776
 20
1051.1622161730934
 30
0.0
 40
90.000000000019028
100
AcDbArc
 50
352.23270566444342
 51
0.0
  0
ARC
  5
367
100
AcDbEntity
  8
0
370
               0
390
0
  6
Continuous
 62
              30
100
AcDbCircle
 10
-496.62849207973159
 20
1044.4047156652282
 30
0.0
 40
40.000000000000433
100
AcDbArc
 50
278.08087633806338
 51
352.23270566441261
  0
ARC
  5
368
100
AcDbEntity
  8
0
370
               0
390
0
  6
Continuous
 62
              30
100
AcDbCircle
 10
-506.16974950104304
 20
1111.6058690920786
 30
0.0
 40
107.87511042406383
100
AcDbArc
 50
261.91912366197238
 51
278.08087633803467
  0
ARC
  5
369
100
AcDbEntity
  8
0
370
               0
390
0
  6
Continuous
 62
              30
100
AcDbCircle
 10
-515.71100692238315
 20
1044.4047156652309
 30
0.0
 40
39.999999999999261
100
AcDbArc
 50
187.76729433553763
 51
261.9191236619962
  0
ARC
  5
36A
100
AcDbEntity
  8
0
370
               0
390
0
  6
Continuous
 62
              30
100
AcDbCircle
 10
-466.16974950106851
 20
1051.1622161730934
 30
0.0
 40
90.000000000006366
100
AcDbArc
 50
180.00000000000054
 51
187.76729433553604
  0
LINE
  5
36B
100
AcDbEntity
  8
0
370
               0
390
0
  6
Continuous
 62
              30
100
AcDbLine
 10
-556.16974950107488
 20
1051.1622161730934
 30
0.0
 11
-556.16974950107488
 21
1051.3632262998754
 31
0.0
  0
ARC
  5
36C
100
AcDbEntity
  8
0
370
               0
390
0
  6
Continuous
 62
              30
100
AcDbCircle
 10
-546.16974950105578
 20
1051.3632262998713
 30
0.0
 40
10.000000000019696
100
AcDbArc
 50
134.99999999999631
 51
179.99999999997655
  0
LINE
  5
36D
100
AcDbEntity
  8
0
370
               0
390
0
  6
Continuous
 62
              30
100
AcDbLine
 10
-553.24081731292063
 20
1058.4342941117375
 30
0.0
 11
-543.34132237630774
 21
1068.3337890483494
 31
0.0
  0
ARC
  5
36E
100
AcDbEntity
  8
0
370
               0
390
0
  6
Continuous
 62
              30
100
AcDbCircle
 10
-546.16974950105396
 20
1071.1622161730943
 30
0.0
 40
4.0000000000003535
100
AcDbArc
 50
315.00000000001381
 51
135.00000000001845
  0
LINE
  5
36F
100
AcDbEntity
  8
0
370
               0
390
0
  6
Continuous
 62
              30
100
AcDbLine
 10
-548.99817662580153
 20
1073.9906432978401
 30
0.0
 11
-554.46264271986911
 21
1068.5261772037743
 31
0.0
  0
ARC
  5
370
100
AcDbEntity
  8
0
370
               0
390
0
  6
Continuous
 62
              30
100
AcDbCircle
 10
-555.16974950107578
 20
1069.2332839849391
 30
0.0
 40
0.9999999999990905
100
AcDbArc
 50
180.0
 51
315.00000000169496
  0
LINE
  5
371
100
AcDbEntity
  8
0
370
               0
390
0
  6
Continuous
 62
              30
100
AcDbLine
 10
-556.16974950107488
 20
1069.2332839849391
 30
0.0
 11
-556.16974950107488
 21
1113.0911483612103
 31
0.0
  0
ARC
  5
372
100
AcDbEntity
  8
0
370
               0
390
0
  6
Continuous
 62
              30
100
AcDbCircle
 10
-555.16974950107669
 20
1113.0911483612081
 30
0.0
 40
1.0000000000001688
100
AcDbArc
 50
45.0
 51
179.99999999986971
  0
LINE
  5
373
100
AcDbEntity
  8
0
370
               0
390
0
  6
Continuous
 62
              30
100
AcDbLine
 10
-554.46264271989003
 20
1113.7982551423947
 30
0.0
 11
-548.99817662582609
 21
1108.3337890483308
 31
0.0
  0
ARC
  5
374
100
AcDbEntity
  8
0
370
               0
390
0
  6
Continuous
 62
              30
100
AcDbCircle
 10
-489.60120700613288
 20
1014.5936736781723
 30
0.0
 40
3.0000000000027573
100
AcDbArc
 50
134.99999999996928
 51
315.0000000000307
  0
ARC
  5
375
100
AcDbEntity
  8
0
370
               0
390
0
  6
Continuous
 62
              30
100
AcDbCircle
 10
-546.16974950105396
 20
1071.1622161730943
 30
0.0
 40
83.000000000000838
100
AcDbArc
 50
315.00000000000068
 51
30.000000000004714
  0
ARC
  5
376
100
AcDbEntity
  8
0
370
               0
390
0
  6
Continuous
 62
              30
100
AcDbCircle
 10
-476.88771719830083
 20
1111.1622161730961
 30
0.0
 40
3.0000000000017324
100
AcDbArc
 50
30.000000000081183
 51
209.99999999994549
  0
ARC
  5
377
100
AcDbEntity
  8
0
370
               0
390
0
  6
Continuous
 62
              30
100
AcDbCircle
 10
-546.16974950105396
 20
1071.1622161730943
 30
0.0
 40
76.999999999997883
100
AcDbArc
 50
315.0000000000008
 51
30.000000000004096
  0
LINE
  5
378
100
AcDbEntity
  8
0
370
               0
390
0
  6
Continuous
 62
              30
100
AcDbLine
 10
-456.16974950107488
 20
1312.7307586680199
 30
0.0
 11
-456.16974950107488
 21
1051.1622161730934
 31
0.0
  0
HATCH
  5
379
100
AcDbEntity
  8
0
370
               0
390
0
  6
Continuous
 62
               7
100
AcDbHatch
 10
0.0
 20
0.0
 30
0.0
210
0.0
220
0.0
230
1.0
  2
ANSI32
 70
               0
 71
               0
 91
        1
 92
        1
 93
        8
 72
               1
 10
-551.66974950107351
 20
1322.7307586680199
 11
-510.16974950107351
 21
1322.7307586680199
 72
               1
 10
-510.16974950107351
 20
1322.7307586680199
 11
-510.16974950107351
 21
1325.7307586680199
 72
               1
 10
-510.16974950107351
 20
1325.7307586680199
 11
-551.66974950107351
 21
1325.7307586680199
 72
               2
 10
-551.66974950107397
 20
1321.2307586680199
 40
4.5
 50
90.0
 51
180.0
 73
               1
 72
               1
 10
-556.16974950107397
 20
1321.2307586680199
 11
-556.16974950107397
 21
1312.7307586680199
 72
               1
 10
-556.16974950107397
 20
1312.7307586680199
 11
-553.16974950107351
 21
1312.7307586680199
 72
               1
 10
-553.16974950107351
 20
1312.7307586680199
 11
-553.16974950107351
 21
1321.2307586680199
 72
               2
 10
-551.66974950107351
 20
1321.2307586680199
 40
1.5
 50
180.0
 51
270.0
 73
               0
 97
        0
 75
               0
 76
               2
 52
0.0
 41
1.0
 77
               0
 78
               2
 53
45.0
 43
271.44527624480457
 44
-292.14475190340676
 45
-33.675960454009328
 46
33.675960454009328
 79
               0
 53
45.0
 43
293.89592624480451
 44
-292.14475190340676
 45
-33.675960454009328
 46
33.675960454009328
 79
               0
 98
        1
 10
0.0
 20
0.0
  0
HATCH
  5
37A
100
AcDbEntity
  8
0
370
               0
390
0
  6
Continuous
 62
               7
100
AcDbHatch
 10
0.0
 20
0.0
 30
0.0
210
0.0
220
0.0
230
1.0
  2
ANSI32
 70
               0
 71
               0
 91
        1
 92
        1
 93
        8
 72
               1
 10
-460.66974950107351
 20
1325.7307586680199
 11
-502.16974950107397
 21
1325.7307586680199
 72
               1
 10
-502.16974950107397
 20
1325.7307586680199
 11
-502.16974950107351
 21
1322.7307586680199
 72
               1
 10
-502.16974950107351
 20
1322.7307586680199
 11
-460.66974950107351
 21
1322.7307586680204
 72
               2
 10
-460.66974950107351
 20
1321.2307586680204
 40
1.5
 50
270.0
 51
360.0
 73
               0
 72
               1
 10
-459.16974950107351
 20
1321.2307586680204
 11
-459.16974950107351
 21
1312.7307586680199
 72
               1
 10
-459.16974950107351
 20
1312.7307586680199
 11
-456.16974950107351
 21
1312.7307586680204
 72
               1
 10
-456.16974950107351
 20
1312.7307586680204
 11
-456.16974950107351
 21
1321.2307586680204
 72
               2
 10
-460.66974950107351
 20
1321.2307586680199
 40
4.5
 50
0.00000000000579
 51
90.0
 73
               1
 97
        0
 75
               0
 76
               2
 52
0.0
 41
1.0
 77
               0
 78
               2
 53
45.0
 43
271.44527624480457
 44
-292.14475190340676
 45
-33.675960454009328
 46
33.675960454009328
 79
               0
 53
45.0
 43
293.89592624480451
 44
-292.14475190340676
 45
-33.675960454009328
 46
33.675960454009328
 79
               0
 98
        1
 10
0.0
 20
0.0
  0
ENDBLK
  5
37B
100
AcDbEntity
  8
0
390
0
100
AcDbBlockEnd
  0
BLOCK
  5
37C
100
AcDbEntity
  8
0
390
0
100
AcDbBlockBegin
  2
グループ-12
 70
               0
 10
0.0
 20
0.0
 30
0.0
  3
グループ-12
  1

  0
LINE
  5
37D
100
AcDbEntity
  8
0
370
               0
390
0
  6
Continuous
 62
               1
100
AcDbLine
 10
-50.624292449143468
 20
743.79764000285968
 30
0.0
 11
-48.124292449143468
 21
743.79764000285968
 31
0.0
  0
LINE
  5
37E
100
AcDbEntity
  8
0
370
               0
390
0
  6
Continuous
 62
               1
100
AcDbLine
 10
-50.624292449143468
 20
743.79764000285968
 30
0.0
 11
-50.624292449143468
 21
746.29764000285968
 31
0.0
  0
LINE
  5
37F
100
AcDbEntity
  8
0
370
               0
390
0
  6
Continuous
 62
               1
100
AcDbLine
 10
-50.624292449143468
 20
743.79764000285968
 30
0.0
 11
-53.124292449143468
 21
743.79764000285968
 31
0.0
  0
LINE
  5
380
100
AcDbEntity
  8
0
370
               0
390
0
  6
Continuous
 62
               1
100
AcDbLine
 10
-50.624292449143468
 20
743.79764000285968
 30
0.0
 11
-50.624292449143468
 21
741.29764000285968
 31
0.0
  0
LINE
  5
381
100
AcDbEntity
  8
0
370
               0
390
0
  6
Continuous
 62
               1
100
AcDbLine
 10
-45.624292449143468
 20
743.79764000285968
 30
0.0
 11
-44.124292449143468
 21
743.79764000285968
 31
0.0
  0
LINE
  5
382
100
AcDbEntity
  8
0
370
               0
390
0
  6
Continuous
 62
               1
100
AcDbLine
 10
-50.624292449143468
 20
748.79764000285968
 30
0.0
 11
-50.624292449143468
 21
750.29764000285968
 31
0.0
  0
LINE
  5
383
100
AcDbEntity
  8
0
370
               0
390
0
  6
Continuous
 62
               1
100
AcDbLine
 10
-55.624292449143468
 20
743.79764000285968
 30
0.0
 11
-57.124292449143468
 21
743.79764000285968
 31
0.0
  0
LINE
  5
384
100
AcDbEntity
  8
0
370
               0
390
0
  6
Continuous
 62
               1
100
AcDbLine
 10
-50.624292449143468
 20
738.79764000285968
 30
0.0
 11
-50.624292449143468
 21
737.29764000285968
 31
0.0
  0
ENDBLK
  5
385
100
AcDbEntity
  8
0
390
0
100
AcDbBlockEnd
  0
BLOCK
  5
386
100
AcDbEntity
  8
0
390
0
100
AcDbBlockBegin
  2
グループ-13
 70
               0
 10
0.0
 20
0.0
 30
0.0
  3
グループ-13
  1

  0
LINE
  5
387
100
AcDbEntity
  8
0
370
               0
390
0
  6
Continuous
 62
               1
100
AcDbLine
 10
69.375707550856532
 20
743.79764000285968
 30
0.0
 11
71.875707550856532
 21
743.79764000285968
 31
0.0
  0
LINE
  5
388
100
AcDbEntity
  8
0
370
               0
390
0
  6
Continuous
 62
               1
100
AcDbLine
 10
69.375707550856532
 20
743.79764000285968
 30
0.0
 11
69.375707550856532
 21
746.29764000285968
 31
0.0
  0
LINE
  5
389
100
AcDbEntity
  8
0
370
               0
390
0
  6
Continuous
 62
               1
100
AcDbLine
 10
69.375707550856532
 20
743.79764000285968
 30
0.0
 11
66.875707550856532
 21
743.79764000285968
 31
0.0
  0
LINE
  5
38A
100
AcDbEntity
  8
0
370
               0
390
0
  6
Continuous
 62
               1
100
AcDbLine
 10
69.375707550856532
 20
743.79764000285968
 30
0.0
 11
69.375707550856532
 21
741.29764000285968
 31
0.0
  0
LINE
  5
38B
100
AcDbEntity
  8
0
370
               0
390
0
  6
Continuous
 62
               1
100
AcDbLine
 10
74.375707550856532
 20
743.79764000285968
 30
0.0
 11
75.875707550856532
 21
743.79764000285968
 31
0.0
  0
LINE
  5
38C
100
AcDbEntity
  8
0
370
               0
390
0
  6
Continuous
 62
               1
100
AcDbLine
 10
69.375707550856532
 20
748.79764000285968
 30
0.0
 11
69.375707550856532
 21
750.29764000285968
 31
0.0
  0
LINE
  5
38D
100
AcDbEntity
  8
0
370
               0
390
0
  6
Continuous
 62
               1
100
AcDbLine
 10
64.375707550856532
 20
743.79764000285968
 30
0.0
 11
62.875707550856532
 21
743.79764000285968
 31
0.0
  0
LINE
  5
38E
100
AcDbEntity
  8
0
370
               0
390
0
  6
Continuous
 62
               1
100
AcDbLine
 10
69.375707550856532
 20
738.79764000285968
 30
0.0
 11
69.375707550856532
 21
737.29764000285968
 31
0.0
  0
ENDBLK
  5
38F
100
AcDbEntity
  8
0
390
0
100
AcDbBlockEnd
  0
BLOCK
  5
390
100
AcDbEntity
  8
0
390
0
100
AcDbBlockBegin
  2
グループ-14
 70
               0
 10
0.0
 20
0.0
 30
0.0
  3
グループ-14
  1

  0
LINE
  5
391
100
AcDbEntity
  8
0
370
               0
390
0
  6
Continuous
 62
               1
100
AcDbLine
 10
129.37570755085653
 20
743.79764000285968
 30
0.0
 11
131.87570755085653
 21
743.79764000285968
 31
0.0
  0
LINE
  5
392
100
AcDbEntity
  8
0
370
               0
390
0
  6
Continuous
 62
               1
100
AcDbLine
 10
129.37570755085653
 20
743.79764000285968
 30
0.0
 11
129.37570755085653
 21
746.29764000285968
 31
0.0
  0
LINE
  5
393
100
AcDbEntity
  8
0
370
               0
390
0
  6
Continuous
 62
               1
100
AcDbLine
 10
129.37570755085653
 20
743.79764000285968
 30
0.0
 11
126.87570755085653
 21
743.79764000285968
 31
0.0
  0
LINE
  5
394
100
AcDbEntity
  8
0
370
               0
390
0
  6
Continuous
 62
               1
100
AcDbLine
 10
129.37570755085653
 20
743.79764000285968
 30
0.0
 11
129.37570755085653
 21
741.29764000285968
 31
0.0
  0
LINE
  5
395
100
AcDbEntity
  8
0
370
               0
390
0
  6
Continuous
 62
               1
100
AcDbLine
 10
134.37570755085653
 20
743.79764000285968
 30
0.0
 11
137.87570755085653
 21
743.79764000285968
 31
0.0
  0
LINE
  5
396
100
AcDbEntity
  8
0
370
               0
390
0
  6
Continuous
 62
               1
100
AcDbLine
 10
129.37570755085653
 20
748.79764000285968
 30
0.0
 11
129.37570755085653
 21
752.29764000285968
 31
0.0
  0
LINE
  5
397
100
AcDbEntity
  8
0
370
               0
390
0
  6
Continuous
 62
               1
100
AcDbLine
 10
124.37570755085653
 20
743.79764000285968
 30
0.0
 11
120.87570755085653
 21
743.79764000285968
 31
0.0
  0
LINE
  5
398
100
AcDbEntity
  8
0
370
               0
390
0
  6
Continuous
 62
               1
100
AcDbLine
 10
129.37570755085653
 20
738.79764000285968
 30
0.0
 11
129.37570755085653
 21
735.29764000285968
 31
0.0
  0
ENDBLK
  5
399
100
AcDbEntity
  8
0
390
0
100
AcDbBlockEnd
  0
BLOCK
  5
39A
100
AcDbEntity
  8
0
390
0
100
AcDbBlockBegin
  2
グループ-15
 70
               0
 10
0.0
 20
0.0
 30
0.0
  3
グループ-15
  1

  0
LINE
  5
39B
100
AcDbEntity
  8
0
370
               0
390
0
  6
Continuous
 62
               1
100
AcDbLine
 10
9.3757075508565322
 20
744.03986237077561
 30
0.0
 11
11.875707550856532
 21
744.03986237077561
 31
0.0
  0
LINE
  5
39C
100
AcDbEntity
  8
0
370
               0
390
0
  6
Continuous
 62
               1
100
AcDbLine
 10
9.3757075508565322
 20
744.03986237077561
 30
0.0
 11
9.3757075508565322
 21
746.53986237077561
 31
0.0
  0
LINE
  5
39D
100
AcDbEntity
  8
0
370
               0
390
0
  6
Continuous
 62
               1
100
AcDbLine
 10
9.3757075508565322
 20
744.03986237077561
 30
0.0
 11
6.8757075508565322
 21
744.03986237077561
 31
0.0
  0
LINE
  5
39E
100
AcDbEntity
  8
0
370
               0
390
0
  6
Continuous
 62
               1
100
AcDbLine
 10
9.3757075508565322
 20
744.03986237077561
 30
0.0
 11
9.3757075508565322
 21
741.53986237077561
 31
0.0
  0
LINE
  5
39F
100
AcDbEntity
  8
0
370
               0
390
0
  6
Continuous
 62
               1
100
AcDbLine
 10
14.375707550856532
 20
744.03986237077561
 30
0.0
 11
17.875707550856532
 21
744.03986237077561
 31
0.0
  0
LINE
  5
3A0
100
AcDbEntity
  8
0
370
               0
390
0
  6
Continuous
 62
               1
100
AcDbLine
 10
9.3757075508565322
 20
749.03986237077561
 30
0.0
 11
9.3757075508565322
 21
752.53986237077561
 31
0.0
  0
LINE
  5
3A1
100
AcDbEntity
  8
0
370
               0
390
0
  6
Continuous
 62
               1
100
AcDbLine
 10
4.3757075508565322
 20
744.03986237077561
 30
0.0
 11
0.8757075508565322
 21
744.03986237077561
 31
0.0
  0
LINE
  5
3A2
100
AcDbEntity
  8
0
370
               0
390
0
  6
Continuous
 62
               1
100
AcDbLine
 10
9.3757075508565322
 20
739.03986237077561
 30
0.0
 11
9.3757075508565322
 21
735.53986237077561
 31
0.0
  0
ENDBLK
  5
3A3
100
AcDbEntity
  8
0
390
0
100
AcDbBlockEnd
  0
BLOCK
  5
3A4
100
AcDbEntity
  8
0
390
0
100
AcDbBlockBegin
  2
グループ-16
 70
               0
 10
0.0
 20
0.0
 30
0.0
  3
グループ-16
  1

  0
LINE
  5
3A5
100
AcDbEntity
  8
0
370
               0
390
0
  6
Continuous
 62
               1
100
AcDbLine
 10
-110.62429244914347
 20
743.79764000285968
 30
0.0
 11
-108.12429244914347
 21
743.79764000285968
 31
0.0
  0
LINE
  5
3A6
100
AcDbEntity
  8
0
370
               0
390
0
  6
Continuous
 62
               1
100
AcDbLine
 10
-110.62429244914347
 20
743.79764000285968
 30
0.0
 11
-110.62429244914347
 21
746.29764000285968
 31
0.0
  0
LINE
  5
3A7
100
AcDbEntity
  8
0
370
               0
390
0
  6
Continuous
 62
               1
100
AcDbLine
 10
-110.62429244914347
 20
743.79764000285968
 30
0.0
 11
-113.12429244914347
 21
743.79764000285968
 31
0.0
  0
LINE
  5
3A8
100
AcDbEntity
  8
0
370
               0
390
0
  6
Continuous
 62
               1
100
AcDbLine
 10
-110.62429244914347
 20
743.79764000285968
 30
0.0
 11
-110.62429244914347
 21
741.29764000285968
 31
0.0
  0
LINE
  5
3A9
100
AcDbEntity
  8
0
370
               0
390
0
  6
Continuous
 62
               1
100
AcDbLine
 10
-105.62429244914347
 20
743.79764000285968
 30
0.0
 11
-102.12429244914347
 21
743.79764000285968
 31
0.0
  0
LINE
  5
3AA
100
AcDbEntity
  8
0
370
               0
390
0
  6
Continuous
 62
               1
100
AcDbLine
 10
-110.62429244914347
 20
748.79764000285968
 30
0.0
 11
-110.62429244914347
 21
752.29764000285968
 31
0.0
  0
LINE
  5
3AB
100
AcDbEntity
  8
0
370
               0
390
0
  6
Continuous
 62
               1
100
AcDbLine
 10
-115.62429244914347
 20
743.79764000285968
 30
0.0
 11
-119.12429244914347
 21
743.79764000285968
 31
0.0
  0
LINE
  5
3AC
100
AcDbEntity
  8
0
370
               0
390
0
  6
Continuous
 62
               1
100
AcDbLine
 10
-110.62429244914347
 20
738.79764000285968
 30
0.0
 11
-110.62429244914347
 21
735.29764000285968
 31
0.0
  0
ENDBLK
  5
3AD
100
AcDbEntity
  8
0
390
0
100
AcDbBlockEnd
  0
BLOCK
  5
3AE
100
AcDbEntity
  8
0
390
0
100
AcDbBlockBegin
  2
グループ-17
 70
               0
 10
0.0
 20
0.0
 30
0.0
  3
グループ-17
  1

  0
LINE
  5
3AF
100
AcDbEntity
  8
0
370
               0
390
0
  6
Continuous
 62
               1
100
AcDbLine
 10
249.37570755085676
 20
743.79764000285968
 30
0.0
 11
251.87570755085676
 21
743.79764000285968
 31
0.0
  0
LINE
  5
3B0
100
AcDbEntity
  8
0
370
               0
390
0
  6
Continuous
 62
               1
100
AcDbLine
 10
249.37570755085676
 20
743.79764000285968
 30
0.0
 11
249.37570755085676
 21
746.29764000285968
 31
0.0
  0
LINE
  5
3B1
100
AcDbEntity
  8
0
370
               0
390
0
  6
Continuous
 62
               1
100
AcDbLine
 10
249.37570755085676
 20
743.79764000285968
 30
0.0
 11
246.87570755085676
 21
743.79764000285968
 31
0.0
  0
LINE
  5
3B2
100
AcDbEntity
  8
0
370
               0
390
0
  6
Continuous
 62
               1
100
AcDbLine
 10
249.37570755085676
 20
743.79764000285968
 30
0.0
 11
249.37570755085676
 21
741.29764000285968
 31
0.0
  0
LINE
  5
3B3
100
AcDbEntity
  8
0
370
               0
390
0
  6
Continuous
 62
               1
100
AcDbLine
 10
254.37570755085676
 20
743.79764000285968
 30
0.0
 11
257.87570755085676
 21
743.79764000285968
 31
0.0
  0
LINE
  5
3B4
100
AcDbEntity
  8
0
370
               0
390
0
  6
Continuous
 62
               1
100
AcDbLine
 10
249.37570755085676
 20
748.79764000285968
 30
0.0
 11
249.37570755085676
 21
752.29764000285968
 31
0.0
  0
LINE
  5
3B5
100
AcDbEntity
  8
0
370
               0
390
0
  6
Continuous
 62
               1
100
AcDbLine
 10
244.37570755085676
 20
743.79764000285968
 30
0.0
 11
240.87570755085676
 21
743.79764000285968
 31
0.0
  0
LINE
  5
3B6
100
AcDbEntity
  8
0
370
               0
390
0
  6
Continuous
 62
               1
100
AcDbLine
 10
249.37570755085676
 20
738.79764000285968
 30
0.0
 11
249.37570755085676
 21
735.29764000285968
 31
0.0
  0
ENDBLK
  5
3B7
100
AcDbEntity
  8
0
390
0
100
AcDbBlockEnd
  0
BLOCK
  5
3B8
100
AcDbEntity
  8
0
390
0
100
AcDbBlockBegin
  2
グループ-18
 70
               0
 10
0.0
 20
0.0
 30
0.0
  3
グループ-18
  1

  0
LINE
  5
3B9
100
AcDbEntity
  8
0
370
               0
390
0
  6
Continuous
 62
               1
100
AcDbLine
 10
-230.62429244914347
 20
743.79764000285968
 30
0.0
 11
-228.12429244914347
 21
743.79764000285968
 31
0.0
  0
LINE
  5
3BA
100
AcDbEntity
  8
0
370
               0
390
0
  6
Continuous
 62
               1
100
AcDbLine
 10
-230.62429244914347
 20
743.79764000285968
 30
0.0
 11
-230.62429244914347
 21
746.29764000285968
 31
0.0
  0
LINE
  5
3BB
100
AcDbEntity
  8
0
370
               0
390
0
  6
Continuous
 62
               1
100
AcDbLine
 10
-230.62429244914347
 20
743.79764000285968
 30
0.0
 11
-233.12429244914347
 21
743.79764000285968
 31
0.0
  0
LINE
  5
3BC
100
AcDbEntity
  8
0
370
               0
390
0
  6
Continuous
 62
               1
100
AcDbLine
 10
-230.62429244914347
 20
743.79764000285968
 30
0.0
 11
-230.62429244914347
 21
741.29764000285968
 31
0.0
  0
LINE
  5
3BD
100
AcDbEntity
  8
0
370
               0
390
0
  6
Continuous
 62
               1
100
AcDbLine
 10
-225.62429244914347
 20
743.79764000285968
 30
0.0
 11
-222.12429244914347
 21
743.79764000285968
 31
0.0
  0
LINE
  5
3BE
100
AcDbEntity
  8
0
370
               0
390
0
  6
Continuous
 62
               1
100
AcDbLine
 10
-230.62429244914347
 20
748.79764000285968
 30
0.0
 11
-230.62429244914347
 21
752.29764000285968
 31
0.0
  0
LINE
  5
3BF
100
AcDbEntity
  8
0
370
               0
390
0
  6
Continuous
 62
               1
100
AcDbLine
 10
-235.62429244914347
 20
743.79764000285968
 30
0.0
 11
-239.12429244914347
 21
743.79764000285968
 31
0.0
  0
LINE
  5
3C0
100
AcDbEntity
  8
0
370
               0
390
0
  6
Continuous
 62
               1
100
AcDbLine
 10
-230.62429244914347
 20
738.79764000285968
 30
0.0
 11
-230.62429244914347
 21
735.29764000285968
 31
0.0
  0
ENDBLK
  5
3C1
100
AcDbEntity
  8
0
390
0
100
AcDbBlockEnd
  0
BLOCK
  5
3C2
100
AcDbEntity
  8
寸法
390
0
100
AcDbBlockBegin
  2
*D38
 70
               1
 10
0.0
 20
0.0
 30
0.0
  3
*D38
  1

  0
LINE
  5
3C3
100
AcDbEntity
  8
寸法
370
              -2
390
0
  6
Continuous
 62
               0
100
AcDbLine
 10
9.3757075508569869
 20
714.03986237077561
 30
0.0
 11
9.3757075508569869
 21
577.06118850060443
 31
0.0
  0
LINE
  5
3C4
100
AcDbEntity
  8
寸法
370
              -2
390
0
  6
Continuous
 62
               0
100
AcDbLine
 10
-50.624292449143468
 20
714.03986237077561
 30
0.0
 11
-50.624292449143468
 21
577.06118850060443
 31
0.0
  0
LINE
  5
3C5
100
AcDbEntity
  8
寸法
370
              -2
390
0
  6
Continuous
 62
               0
100
AcDbLine
 10
9.3757075508569869
 20
607.06118850060443
 30
0.0
 11
-50.624292449143468
 21
607.06118850060443
 31
0.0
  0
POLYLINE
  5
3C6
100
AcDbEntity
  8
0
370
              -2
390
0
  6
Continuous
 62
               0
100
AcDb2dPolyline
 66
               1
 10
0.0
 20
0.0
 30
0.0
 75
               5
  0
VERTEX
  5
3C7
100
AcDbEntity
  8
0
370
              -2
390
0
  6
Continuous
 62
               0
100
AcDbVertex
100
AcDb2dVertex
 10
-28.133630828049263
 20
617.11178542785808
 30
0.0
  0
VERTEX
  5
3C8
100
AcDbEntity
  8
0
370
              -2
390
0
  6
Continuous
 62
               0
100
AcDbVertex
100
AcDb2dVertex
 10
9.3757075508569869
 20
607.06118850060443
 30
0.0
  0
VERTEX
  5
3C9
100
AcDbEntity
  8
0
370
              -2
390
0
  6
Continuous
 62
               0
100
AcDbVertex
100
AcDb2dVertex
 10
-28.133630828049256
 20
597.01059157335078
 30
0.0
  0
SEQEND
  5
3CA
100
AcDbEntity
  8
0
370
              -2
390
0
  6
Continuous
 62
               0
  0
POLYLINE
  5
3CB
100
AcDbEntity
  8
0
370
              -2
390
0
  6
Continuous
 62
               0
100
AcDb2dPolyline
 66
               1
 10
0.0
 20
0.0
 30
0.0
 75
               5
  0
VERTEX
  5
3CC
100
AcDbEntity
  8
0
370
              -2
390
0
  6
Continuous
 62
               0
100
AcDbVertex
100
AcDb2dVertex
 10
-13.114954070237218
 20
597.01059157335078
 30
0.0
  0
VERTEX
  5
3CD
100
AcDbEntity
  8
0
370
              -2
390
0
  6
Continuous
 62
               0
100
AcDbVertex
100
AcDb2dVertex
 10
-50.624292449143468
 20
607.06118850060443
 30
0.0
  0
VERTEX
  5
3CE
100
AcDbEntity
  8
0
370
              -2
390
0
  6
Continuous
 62
               0
100
AcDbVertex
100
AcDb2dVertex
 10
-13.114954070237218
 20
617.11178542785808
 30
0.0
  0
SEQEND
  5
3CF
100
AcDbEntity
  8
0
370
              -2
390
0
  6
Continuous
 62
               0
  0
WIPEOUT
  5
3D0
100
AcDbEntity
  8
寸法
370
              -2
390
0
  6
Continuous
 62
               0
 92
        0
100
AcDbWipeout
 90
        0
 10
-57.374292449143468
 20
614.56118850060443
 30
0.0
 11
63.500000000000114
 21
0.0
 31
0.0
 12
0.0
 22
63.500000000000114
 32
0.0
 13
1.0
 23
1.0
340
0
 70
               7
280
               1
281
              50
282
              50
283
               0
360
0
 71
               2
 91
        5
 14
-0.5
 24
0.5
 14
0.4999999999999982
 24
0.5
 14
0.4999999999999982
 24
-0.5
 14
-0.5
 24
-0.5
 14
-0.5
 24
0.5
  0
MTEXT
  5
3D1
100
AcDbEntity
  8
寸法
390
0
 62
               0
100
AcDbMText
 10
-57.374292449143468
 20
672.31642287560453
 30
0.0
 40
48.865234375000092
 41
0.0
 71
               1
 72
               1
  1
{\fＭＳ ゴシック|b0|i0|c128|p0;\l60}
 73
               1
 44
0.7828267384257843
  0
POINT
  5
3D2
100
AcDbEntity
  8
Defpoints
370
               0
390
0
 62
               0
100
AcDbPoint
 10
-50.624292449143468
 20
744.03986237077561
 30
0.0
  0
POINT
  5
3D3
100
AcDbEntity
  8
Defpoints
370
               0
390
0
 62
               0
100
AcDbPoint
 10
9.3757075508569869
 20
744.03986237077561
 30
0.0
  0
POINT
  5
3D4
100
AcDbEntity
  8
Defpoints
370
               0
390
0
 62
               0
100
AcDbPoint
 10
9.3757075508569869
 20
607.06118850060443
 30
0.0
  0
ENDBLK
  5
3D5
100
AcDbEntity
  8
寸法
390
0
100
AcDbBlockEnd
  0
BLOCK
  5
3D6
100
AcDbEntity
  8
寸法
390
0
100
AcDbBlockBegin
  2
*D39
 70
               1
 10
0.0
 20
0.0
 30
0.0
  3
*D39
  1

  0
LINE
  5
3D7
100
AcDbEntity
  8
寸法
370
              -2
390
0
  6
Continuous
 62
               0
100
AcDbLine
 10
9.3757075508565322
 20
714.03986237077561
 30
0.0
 11
9.3757075508565322
 21
577.06118850060443
 31
0.0
  0
LINE
  5
3D8
100
AcDbEntity
  8
寸法
370
              -2
390
0
  6
Continuous
 62
               0
100
AcDbLine
 10
69.375707550856532
 20
713.79764000285968
 30
0.0
 11
69.375707550856532
 21
577.06118850060443
 31
0.0
  0
LINE
  5
3D9
100
AcDbEntity
  8
寸法
370
              -2
390
0
  6
Continuous
 62
               0
100
AcDbLine
 10
9.3757075508565322
 20
607.06118850060443
 30
0.0
 11
69.375707550856532
 21
607.06118850060443
 31
0.0
  0
POLYLINE
  5
3DA
100
AcDbEntity
  8
0
370
              -2
390
0
  6
Continuous
 62
               0
100
AcDb2dPolyline
 66
               1
 10
0.0
 20
0.0
 30
0.0
 75
               5
  0
VERTEX
  5
3DB
100
AcDbEntity
  8
0
370
              -2
390
0
  6
Continuous
 62
               0
100
AcDbVertex
100
AcDb2dVertex
 10
46.885045929762782
 20
597.01059157335078
 30
0.0
  0
VERTEX
  5
3DC
100
AcDbEntity
  8
0
370
              -2
390
0
  6
Continuous
 62
               0
100
AcDbVertex
100
AcDb2dVertex
 10
9.3757075508565322
 20
607.06118850060443
 30
0.0
  0
VERTEX
  5
3DD
100
AcDbEntity
  8
0
370
              -2
390
0
  6
Continuous
 62
               0
100
AcDbVertex
100
AcDb2dVertex
 10
46.885045929762782
 20
617.11178542785808
 30
0.0
  0
SEQEND
  5
3DE
100
AcDbEntity
  8
0
370
              -2
390
0
  6
Continuous
 62
               0
  0
POLYLINE
  5
3DF
100
AcDbEntity
  8
0
370
              -2
390
0
  6
Continuous
 62
               0
100
AcDb2dPolyline
 66
               1
 10
0.0
 20
0.0
 30
0.0
 75
               5
  0
VERTEX
  5
3E0
100
AcDbEntity
  8
0
370
              -2
390
0
  6
Continuous
 62
               0
100
AcDbVertex
100
AcDb2dVertex
 10
31.866369171950282
 20
617.11178542785808
 30
0.0
  0
VERTEX
  5
3E1
100
AcDbEntity
  8
0
370
              -2
390
0
  6
Continuous
 62
               0
100
AcDbVertex
100
AcDb2dVertex
 10
69.375707550856532
 20
607.06118850060443
 30
0.0
  0
VERTEX
  5
3E2
100
AcDbEntity
  8
0
370
              -2
390
0
  6
Continuous
 62
               0
100
AcDbVertex
100
AcDb2dVertex
 10
31.866369171950289
 20
597.01059157335078
 30
0.0
  0
SEQEND
  5
3E3
100
AcDbEntity
  8
0
370
              -2
390
0
  6
Continuous
 62
               0
  0
WIPEOUT
  5
3E4
100
AcDbEntity
  8
寸法
370
              -2
390
0
  6
Continuous
 62
               0
 92
        0
100
AcDbWipeout
 90
        0
 10
17.625707550856532
 20
614.56118850060443
 30
0.0
 11
63.500000000000114
 21
0.0
 31
0.0
 12
0.0
 22
63.500000000000114
 32
0.0
 13
1.0
 23
1.0
340
0
 70
               7
280
               1
281
              50
282
              50
283
               0
360
0
 71
               2
 91
        5
 14
-0.5
 24
0.5
 14
0.4999999999999982
 24
0.5
 14
0.4999999999999982
 24
-0.5
 14
-0.5
 24
-0.5
 14
-0.5
 24
0.5
  0
MTEXT
  5
3E5
100
AcDbEntity
  8
寸法
390
0
 62
               0
100
AcDbMText
 10
17.625707550856532
 20
672.31642287560453
 30
0.0
 40
48.865234375000092
 41
0.0
 71
               1
 72
               1
  1
{\fＭＳ ゴシック|b0|i0|c128|p0;\l60}
 73
               1
 44
0.7828267384257843
  0
POINT
  5
3E6
100
AcDbEntity
  8
Defpoints
370
               0
390
0
 62
               0
100
AcDbPoint
 10
69.375707550856532
 20
743.79764000285968
 30
0.0
  0
POINT
  5
3E7
100
AcDbEntity
  8
Defpoints
370
               0
390
0
 62
               0
100
AcDbPoint
 10
9.3757075508565322
 20
744.03986237077561
 30
0.0
  0
POINT
  5
3E8
100
AcDbEntity
  8
Defpoints
370
               0
390
0
 62
               0
100
AcDbPoint
 10
9.3757075508565322
 20
607.06118850060443
 30
0.0
  0
ENDBLK
  5
3E9
100
AcDbEntity
  8
寸法
390
0
100
AcDbBlockEnd
  0
BLOCK
  5
3EA
100
AcDbEntity
  8
寸法
390
0
100
AcDbBlockBegin
  2
*D40
 70
               1
 10
0.0
 20
0.0
 30
0.0
  3
*D40
  1

  0
LINE
  5
3EB
100
AcDbEntity
  8
寸法
370
              -2
390
0
  6
Continuous
 62
               0
100
AcDbLine
 10
-110.62429244914301
 20
713.79764000285968
 30
0.0
 11
-110.62429244914301
 21
477.06118850060443
 31
0.0
  0
LINE
  5
3EC
100
AcDbEntity
  8
寸法
370
              -2
390
0
  6
Continuous
 62
               0
100
AcDbLine
 10
9.3757075508565322
 20
713.79764000285968
 30
0.0
 11
9.3757075508565322
 21
477.06118850060443
 31
0.0
  0
LINE
  5
3ED
100
AcDbEntity
  8
寸法
370
              -2
390
0
  6
Continuous
 62
               0
100
AcDbLine
 10
-110.62429244914301
 20
507.06118850060443
 30
0.0
 11
9.3757075508565322
 21
507.06118850060443
 31
0.0
  0
POLYLINE
  5
3EE
100
AcDbEntity
  8
0
370
              -2
390
0
  6
Continuous
 62
               0
100
AcDb2dPolyline
 66
               1
 10
0.0
 20
0.0
 30
0.0
 75
               5
  0
VERTEX
  5
3EF
100
AcDbEntity
  8
0
370
              -2
390
0
  6
Continuous
 62
               0
100
AcDbVertex
100
AcDb2dVertex
 10
-73.114954070236763
 20
497.01059157335078
 30
0.0
  0
VERTEX
  5
3F0
100
AcDbEntity
  8
0
370
              -2
390
0
  6
Continuous
 62
               0
100
AcDbVertex
100
AcDb2dVertex
 10
-110.62429244914301
 20
507.06118850060443
 30
0.0
  0
VERTEX
  5
3F1
100
AcDbEntity
  8
0
370
              -2
390
0
  6
Continuous
 62
               0
100
AcDbVertex
100
AcDb2dVertex
 10
-73.114954070236763
 20
517.11178542785808
 30
0.0
  0
SEQEND
  5
3F2
100
AcDbEntity
  8
0
370
              -2
390
0
  6
Continuous
 62
               0
  0
POLYLINE
  5
3F3
100
AcDbEntity
  8
0
370
              -2
390
0
  6
Continuous
 62
               0
100
AcDb2dPolyline
 66
               1
 10
0.0
 20
0.0
 30
0.0
 75
               5
  0
VERTEX
  5
3F4
100
AcDbEntity
  8
0
370
              -2
390
0
  6
Continuous
 62
               0
100
AcDbVertex
100
AcDb2dVertex
 10
-28.133630828049718
 20
517.11178542785808
 30
0.0
  0
VERTEX
  5
3F5
100
AcDbEntity
  8
0
370
              -2
390
0
  6
Continuous
 62
               0
100
AcDbVertex
100
AcDb2dVertex
 10
9.3757075508565322
 20
507.06118850060443
 30
0.0
  0
VERTEX
  5
3F6
100
AcDbEntity
  8
0
370
              -2
390
0
  6
Continuous
 62
               0
100
AcDbVertex
100
AcDb2dVertex
 10
-28.133630828049711
 20
497.01059157335078
 30
0.0
  0
SEQEND
  5
3F7
100
AcDbEntity
  8
0
370
              -2
390
0
  6
Continuous
 62
               0
  0
WIPEOUT
  5
3F8
100
AcDbEntity
  8
寸法
370
              -2
390
0
  6
Continuous
 62
               0
 92
        0
100
AcDbWipeout
 90
        0
 10
-98.249292449143468
 20
514.56118850060443
 30
0.0
 11
95.25
 21
0.0
 31
0.0
 12
0.0
 22
95.25
 32
0.0
 13
1.0
 23
1.0
340
0
 70
               7
280
               1
281
              50
282
              50
283
               0
360
0
 71
               2
 91
        5
 14
-0.5
 24
0.5
 14
0.5
 24
0.5
 14
0.5
 24
-0.1666666666666679
 14
-0.5
 24
-0.1666666666666679
 14
-0.5
 24
0.5
  0
MTEXT
  5
3F9
100
AcDbEntity
  8
寸法
390
0
 62
               0
100
AcDbMText
 10
-98.249292449143468
 20
572.31642287560453
 30
0.0
 40
48.865234375000092
 41
0.0
 71
               1
 72
               1
  1
{\fＭＳ ゴシック|b0|i0|c128|p0;\l120}
 73
               1
 44
0.7828267384257843
  0
POINT
  5
3FA
100
AcDbEntity
  8
Defpoints
370
               0
390
0
 62
               0
100
AcDbPoint
 10
9.3757075508565322
 20
743.79764000285968
 30
0.0
  0
POINT
  5
3FB
100
AcDbEntity
  8
Defpoints
370
               0
390
0
 62
               0
100
AcDbPoint
 10
-110.62429244914301
 20
743.79764000285968
 30
0.0
  0
POINT
  5
3FC
100
AcDbEntity
  8
Defpoints
370
               0
390
0
 62
               0
100
AcDbPoint
 10
-110.62429244914301
 20
507.06118850060443
 30
0.0
  0
ENDBLK
  5
3FD
100
AcDbEntity
  8
寸法
390
0
100
AcDbBlockEnd
  0
BLOCK
  5
3FE
100
AcDbEntity
  8
寸法
390
0
100
AcDbBlockBegin
  2
*D41
 70
               1
 10
0.0
 20
0.0
 30
0.0
  3
*D41
  1

  0
LINE
  5
3FF
100
AcDbEntity
  8
寸法
370
              -2
390
0
  6
Continuous
 62
               0
100
AcDbLine
 10
9.3757075508565322
 20
713.79764000285968
 30
0.0
 11
9.3757075508565322
 21
477.06118850060443
 31
0.0
  0
LINE
  5
400
100
AcDbEntity
  8
寸法
370
              -2
390
0
  6
Continuous
 62
               0
100
AcDbLine
 10
129.37570755085699
 20
713.79764000285968
 30
0.0
 11
129.37570755085699
 21
477.06118850060443
 31
0.0
  0
LINE
  5
401
100
AcDbEntity
  8
寸法
370
              -2
390
0
  6
Continuous
 62
               0
100
AcDbLine
 10
9.3757075508565322
 20
507.06118850060443
 30
0.0
 11
129.37570755085699
 21
507.06118850060443
 31
0.0
  0
POLYLINE
  5
402
100
AcDbEntity
  8
0
370
              -2
390
0
  6
Continuous
 62
               0
100
AcDb2dPolyline
 66
               1
 10
0.0
 20
0.0
 30
0.0
 75
               5
  0
VERTEX
  5
403
100
AcDbEntity
  8
0
370
              -2
390
0
  6
Continuous
 62
               0
100
AcDbVertex
100
AcDb2dVertex
 10
46.885045929762782
 20
497.01059157335078
 30
0.0
  0
VERTEX
  5
404
100
AcDbEntity
  8
0
370
              -2
390
0
  6
Continuous
 62
               0
100
AcDbVertex
100
AcDb2dVertex
 10
9.3757075508565322
 20
507.06118850060443
 30
0.0
  0
VERTEX
  5
405
100
AcDbEntity
  8
0
370
              -2
390
0
  6
Continuous
 62
               0
100
AcDbVertex
100
AcDb2dVertex
 10
46.885045929762782
 20
517.11178542785808
 30
0.0
  0
SEQEND
  5
406
100
AcDbEntity
  8
0
370
              -2
390
0
  6
Continuous
 62
               0
  0
POLYLINE
  5
407
100
AcDbEntity
  8
0
370
              -2
390
0
  6
Continuous
 62
               0
100
AcDb2dPolyline
 66
               1
 10
0.0
 20
0.0
 30
0.0
 75
               5
  0
VERTEX
  5
408
100
AcDbEntity
  8
0
370
              -2
390
0
  6
Continuous
 62
               0
100
AcDbVertex
100
AcDb2dVertex
 10
91.866369171950737
 20
517.11178542785808
 30
0.0
  0
VERTEX
  5
409
100
AcDbEntity
  8
0
370
              -2
390
0
  6
Continuous
 62
               0
100
AcDbVertex
100
AcDb2dVertex
 10
129.37570755085699
 20
507.06118850060443
 30
0.0
  0
VERTEX
  5
40A
100
AcDbEntity
  8
0
370
              -2
390
0
  6
Continuous
 62
               0
100
AcDbVertex
100
AcDb2dVertex
 10
91.866369171950737
 20
497.01059157335078
 30
0.0
  0
SEQEND
  5
40B
100
AcDbEntity
  8
0
370
              -2
390
0
  6
Continuous
 62
               0
  0
WIPEOUT
  5
40C
100
AcDbEntity
  8
寸法
370
              -2
390
0
  6
Continuous
 62
               0
 92
        0
100
AcDbWipeout
 90
        0
 10
26.750707550856532
 20
514.56118850060443
 30
0.0
 11
95.25
 21
0.0
 31
0.0
 12
0.0
 22
95.25
 32
0.0
 13
1.0
 23
1.0
340
0
 70
               7
280
               1
281
              50
282
              50
283
               0
360
0
 71
               2
 91
        5
 14
-0.5
 24
0.5
 14
0.5
 24
0.5
 14
0.5
 24
-0.1666666666666679
 14
-0.5
 24
-0.1666666666666679
 14
-0.5
 24
0.5
  0
MTEXT
  5
40D
100
AcDbEntity
  8
寸法
390
0
 62
               0
100
AcDbMText
 10
26.750707550856532
 20
572.31642287560453
 30
0.0
 40
48.865234375000092
 41
0.0
 71
               1
 72
               1
  1
{\fＭＳ ゴシック|b0|i0|c128|p0;\l120}
 73
               1
 44
0.7828267384257843
  0
POINT
  5
40E
100
AcDbEntity
  8
Defpoints
370
               0
390
0
 62
               0
100
AcDbPoint
 10
129.37570755085699
 20
743.79764000285968
 30
0.0
  0
POINT
  5
40F
100
AcDbEntity
  8
Defpoints
370
               0
390
0
 62
               0
100
AcDbPoint
 10
9.3757075508565322
 20
743.79764000285968
 30
0.0
  0
POINT
  5
410
100
AcDbEntity
  8
Defpoints
370
               0
390
0
 62
               0
100
AcDbPoint
 10
9.3757075508565322
 20
507.06118850060443
 30
0.0
  0
ENDBLK
  5
411
100
AcDbEntity
  8
寸法
390
0
100
AcDbBlockEnd
  0
BLOCK
  5
412
100
AcDbEntity
  8
寸法
390
0
100
AcDbBlockBegin
  2
*D42
 70
               1
 10
0.0
 20
0.0
 30
0.0
  3
*D42
  1

  0
LINE
  5
413
100
AcDbEntity
  8
寸法
370
              -2
390
0
  6
Continuous
 62
               0
100
AcDbLine
 10
9.3757075508565322
 20
711.53986237077561
 30
0.0
 11
9.3757075508565322
 21
357.06118850060443
 31
0.0
  0
LINE
  5
414
100
AcDbEntity
  8
寸法
370
              -2
390
0
  6
Continuous
 62
               0
100
AcDbLine
 10
249.37570755085676
 20
713.79764000285968
 30
0.0
 11
249.37570755085676
 21
357.06118850060443
 31
0.0
  0
LINE
  5
415
100
AcDbEntity
  8
寸法
370
              -2
390
0
  6
Continuous
 62
               0
100
AcDbLine
 10
9.3757075508565322
 20
387.06118850060443
 30
0.0
 11
249.37570755085676
 21
387.06118850060443
 31
0.0
  0
POLYLINE
  5
416
100
AcDbEntity
  8
0
370
              -2
390
0
  6
Continuous
 62
               0
100
AcDb2dPolyline
 66
               1
 10
0.0
 20
0.0
 30
0.0
 75
               5
  0
VERTEX
  5
417
100
AcDbEntity
  8
0
370
              -2
390
0
  6
Continuous
 62
               0
100
AcDbVertex
100
AcDb2dVertex
 10
46.885045929762782
 20
377.01059157335078
 30
0.0
  0
VERTEX
  5
418
100
AcDbEntity
  8
0
370
              -2
390
0
  6
Continuous
 62
               0
100
AcDbVertex
100
AcDb2dVertex
 10
9.3757075508565322
 20
387.06118850060443
 30
0.0
  0
VERTEX
  5
419
100
AcDbEntity
  8
0
370
              -2
390
0
  6
Continuous
 62
               0
100
AcDbVertex
100
AcDb2dVertex
 10
46.885045929762782
 20
397.11178542785808
 30
0.0
  0
SEQEND
  5
41A
100
AcDbEntity
  8
0
370
              -2
390
0
  6
Continuous
 62
               0
  0
POLYLINE
  5
41B
100
AcDbEntity
  8
0
370
              -2
390
0
  6
Continuous
 62
               0
100
AcDb2dPolyline
 66
               1
 10
0.0
 20
0.0
 30
0.0
 75
               5
  0
VERTEX
  5
41C
100
AcDbEntity
  8
0
370
              -2
390
0
  6
Continuous
 62
               0
100
AcDbVertex
100
AcDb2dVertex
 10
211.86636917195051
 20
397.11178542785808
 30
0.0
  0
VERTEX
  5
41D
100
AcDbEntity
  8
0
370
              -2
390
0
  6
Continuous
 62
               0
100
AcDbVertex
100
AcDb2dVertex
 10
249.37570755085676
 20
387.06118850060443
 30
0.0
  0
VERTEX
  5
41E
100
AcDbEntity
  8
0
370
              -2
390
0
  6
Continuous
 62
               0
100
AcDbVertex
100
AcDb2dVertex
 10
211.86636917195051
 20
377.01059157335078
 30
0.0
  0
SEQEND
  5
41F
100
AcDbEntity
  8
0
370
              -2
390
0
  6
Continuous
 62
               0
  0
WIPEOUT
  5
420
100
AcDbEntity
  8
寸法
370
              -2
390
0
  6
Continuous
 62
               0
 92
        0
100
AcDbWipeout
 90
        0
 10
96.750707550856532
 20
394.56118850060443
 30
0.0
 11
95.25
 21
0.0
 31
0.0
 12
0.0
 22
95.25
 32
0.0
 13
1.0
 23
1.0
340
0
 70
               7
280
               1
281
              50
282
              50
283
               0
360
0
 71
               2
 91
        5
 14
-0.5
 24
0.5
 14
0.5
 24
0.5
 14
0.5
 24
-0.1666666666666679
 14
-0.5
 24
-0.1666666666666679
 14
-0.5
 24
0.5
  0
MTEXT
  5
421
100
AcDbEntity
  8
寸法
390
0
 62
               0
100
AcDbMText
 10
96.750707550856532
 20
452.31642287560453
 30
0.0
 40
48.865234375000092
 41
0.0
 71
               1
 72
               1
  1
{\fＭＳ ゴシック|b0|i0|c128|p0;\l240}
 73
               1
 44
0.7828267384257843
  0
POINT
  5
422
100
AcDbEntity
  8
Defpoints
370
               0
390
0
 62
               0
100
AcDbPoint
 10
249.37570755085676
 20
743.79764000285968
 30
0.0
  0
POINT
  5
423
100
AcDbEntity
  8
Defpoints
370
               0
390
0
 62
               0
100
AcDbPoint
 10
9.3757075508565322
 20
741.53986237077561
 30
0.0
  0
POINT
  5
424
100
AcDbEntity
  8
Defpoints
370
               0
390
0
 62
               0
100
AcDbPoint
 10
9.3757075508565322
 20
387.06118850060443
 30
0.0
  0
ENDBLK
  5
425
100
AcDbEntity
  8
寸法
390
0
100
AcDbBlockEnd
  0
BLOCK
  5
426
100
AcDbEntity
  8
寸法
390
0
100
AcDbBlockBegin
  2
*D43
 70
               1
 10
0.0
 20
0.0
 30
0.0
  3
*D43
  1

  0
LINE
  5
427
100
AcDbEntity
  8
寸法
370
              -2
390
0
  6
Continuous
 62
               0
100
AcDbLine
 10
-230.62429244914301
 20
713.79764000285968
 30
0.0
 11
-230.62429244914301
 21
357.06118850060443
 31
0.0
  0
LINE
  5
428
100
AcDbEntity
  8
寸法
370
              -2
390
0
  6
Continuous
 62
               0
100
AcDbLine
 10
9.3757075508565322
 20
713.79764000285968
 30
0.0
 11
9.3757075508565322
 21
357.06118850060443
 31
0.0
  0
LINE
  5
429
100
AcDbEntity
  8
寸法
370
              -2
390
0
  6
Continuous
 62
               0
100
AcDbLine
 10
-230.62429244914301
 20
387.06118850060443
 30
0.0
 11
9.3757075508565322
 21
387.06118850060443
 31
0.0
  0
POLYLINE
  5
42A
100
AcDbEntity
  8
0
370
              -2
390
0
  6
Continuous
 62
               0
100
AcDb2dPolyline
 66
               1
 10
0.0
 20
0.0
 30
0.0
 75
               5
  0
VERTEX
  5
42B
100
AcDbEntity
  8
0
370
              -2
390
0
  6
Continuous
 62
               0
100
AcDbVertex
100
AcDb2dVertex
 10
-193.11495407023676
 20
377.01059157335078
 30
0.0
  0
VERTEX
  5
42C
100
AcDbEntity
  8
0
370
              -2
390
0
  6
Continuous
 62
               0
100
AcDbVertex
100
AcDb2dVertex
 10
-230.62429244914301
 20
387.06118850060443
 30
0.0
  0
VERTEX
  5
42D
100
AcDbEntity
  8
0
370
              -2
390
0
  6
Continuous
 62
               0
100
AcDbVertex
100
AcDb2dVertex
 10
-193.11495407023676
 20
397.11178542785808
 30
0.0
  0
SEQEND
  5
42E
100
AcDbEntity
  8
0
370
              -2
390
0
  6
Continuous
 62
               0
  0
POLYLINE
  5
42F
100
AcDbEntity
  8
0
370
              -2
390
0
  6
Continuous
 62
               0
100
AcDb2dPolyline
 66
               1
 10
0.0
 20
0.0
 30
0.0
 75
               5
  0
VERTEX
  5
430
100
AcDbEntity
  8
0
370
              -2
390
0
  6
Continuous
 62
               0
100
AcDbVertex
100
AcDb2dVertex
 10
-28.133630828049718
 20
397.11178542785808
 30
0.0
  0
VERTEX
  5
431
100
AcDbEntity
  8
0
370
              -2
390
0
  6
Continuous
 62
               0
100
AcDbVertex
100
AcDb2dVertex
 10
9.3757075508565322
 20
387.06118850060443
 30
0.0
  0
VERTEX
  5
432
100
AcDbEntity
  8
0
370
              -2
390
0
  6
Continuous
 62
               0
100
AcDbVertex
100
AcDb2dVertex
 10
-28.133630828049711
 20
377.01059157335078
 30
0.0
  0
SEQEND
  5
433
100
AcDbEntity
  8
0
370
              -2
390
0
  6
Continuous
 62
               0
  0
WIPEOUT
  5
434
100
AcDbEntity
  8
寸法
370
              -2
390
0
  6
Continuous
 62
               0
 92
        0
100
AcDbWipeout
 90
        0
 10
-153.24929244914347
 20
394.56118850060443
 30
0.0
 11
95.25
 21
0.0
 31
0.0
 12
0.0
 22
95.25
 32
0.0
 13
1.0
 23
1.0
340
0
 70
               7
280
               1
281
              50
282
              50
283
               0
360
0
 71
               2
 91
        5
 14
-0.5
 24
0.5
 14
0.5
 24
0.5
 14
0.5
 24
-0.1666666666666679
 14
-0.5
 24
-0.1666666666666679
 14
-0.5
 24
0.5
  0
MTEXT
  5
435
100
AcDbEntity
  8
寸法
390
0
 62
               0
100
AcDbMText
 10
-153.24929244914347
 20
452.31642287560453
 30
0.0
 40
48.865234375000092
 41
0.0
 71
               1
 72
               1
  1
{\fＭＳ ゴシック|b0|i0|c128|p0;\l240}
 73
               1
 44
0.7828267384257843
  0
POINT
  5
436
100
AcDbEntity
  8
Defpoints
370
               0
390
0
 62
               0
100
AcDbPoint
 10
9.3757075508565322
 20
743.79764000285968
 30
0.0
  0
POINT
  5
437
100
AcDbEntity
  8
Defpoints
370
               0
390
0
 62
               0
100
AcDbPoint
 10
-230.62429244914301
 20
743.79764000285968
 30
0.0
  0
POINT
  5
438
100
AcDbEntity
  8
Defpoints
370
               0
390
0
 62
               0
100
AcDbPoint
 10
-230.62429244914301
 20
387.06118850060443
 30
0.0
  0
ENDBLK
  5
439
100
AcDbEntity
  8
寸法
390
0
100
AcDbBlockEnd
  0
BLOCK
  5
43A
100
AcDbEntity
  8
寸法
390
0
100
AcDbBlockBegin
  2
*D44
 70
               1
 10
0.0
 20
0.0
 30
0.0
  3
*D44
  1

  0
LINE
  5
43B
100
AcDbEntity
  8
寸法
370
              -2
390
0
  6
Continuous
 62
               0
100
AcDbLine
 10
-232.02693670430767
 20
749.63138572010303
 30
0.0
 11
-261.25080081300791
 21
871.17652552140623
 31
0.0
  0
LINE
  5
43C
100
AcDbEntity
  8
寸法
370
              -2
390
0
  6
Continuous
 62
               0
100
AcDbLine
 10
-261.25080081300791
 20
871.17652552140623
 30
0.0
 11
-418.25080081300791
 21
871.17652552140623
 31
0.0
  0
LINE
  5
43D
100
AcDbEntity
  8
寸法
370
              -2
390
0
  6
Continuous
 62
               0
100
AcDbLine
 10
-229.22164819397926
 20
737.96389428561656
 30
0.0
 11
-232.02693670430767
 21
749.63138572010303
 31
0.0
  0
POLYLINE
  5
43E
100
AcDbEntity
  8
0
370
              -2
390
0
  6
Continuous
 62
               0
100
AcDb2dPolyline
 66
               1
 10
0.0
 20
0.0
 30
0.0
 75
               5
  0
VERTEX
  5
43F
100
AcDbEntity
  8
0
370
              -2
390
0
  6
Continuous
 62
               0
100
AcDbVertex
100
AcDb2dVertex
 10
-227.86641263091659
 20
776.7727631274937
 30
0.0
  0
VERTEX
  5
440
100
AcDbEntity
  8
0
370
              -2
390
0
  6
Continuous
 62
               0
100
AcDbVertex
100
AcDb2dVertex
 10
-229.22164819397926
 20
737.96389428561656
 30
0.0
  0
VERTEX
  5
441
100
AcDbEntity
  8
0
370
              -2
390
0
  6
Continuous
 62
               0
100
AcDbVertex
100
AcDb2dVertex
 10
-247.45241418919343
 20
772.2509783763519
 30
0.0
  0
SEQEND
  5
442
100
AcDbEntity
  8
0
370
              -2
390
0
  6
Continuous
 62
               0
  0
POLYLINE
  5
443
100
AcDbEntity
  8
0
370
              -2
390
0
  6
Continuous
 62
               0
100
AcDb2dPolyline
 66
               1
 10
0.0
 20
0.0
 30
0.0
 75
               5
  0
VERTEX
  5
444
100
AcDbEntity
  8
0
370
              -2
390
0
  6
Continuous
 62
               0
100
AcDbVertex
100
AcDb2dVertex
 10
-232.70465770603019
 20
710.80477553506068
 30
0.0
  0
VERTEX
  5
445
100
AcDbEntity
  8
0
370
              -2
390
0
  6
Continuous
 62
               0
100
AcDbVertex
100
AcDb2dVertex
 10
-232.02693670430767
 20
749.63138572010303
 30
0.0
  0
VERTEX
  5
446
100
AcDbEntity
  8
0
370
              -2
390
0
  6
Continuous
 62
               0
100
AcDbVertex
100
AcDb2dVertex
 10
-213.20055521595643
 20
715.66769445615944
 30
0.0
  0
SEQEND
  5
447
100
AcDbEntity
  8
0
370
              -2
390
0
  6
Continuous
 62
               0
  0
WIPEOUT
  5
448
100
AcDbEntity
  8
寸法
370
              -2
390
0
  6
Continuous
 62
               0
 92
        0
100
AcDbWipeout
 90
        0
 10
-418.25080081300791
 20
878.67652552140635
 30
0.0
 11
127.0
 21
0.0
 31
0.0
 12
0.0
 22
127.0
 32
0.0
 13
1.0
 23
1.0
340
0
 70
               7
280
               1
281
              50
282
              50
283
               0
360
0
 71
               2
 91
        5
 14
-0.5
 24
0.5
 14
0.5
 24
0.5
 14
0.5
 24
-0.0000000000000009
 14
-0.5
 24
-0.0000000000000009
 14
-0.5
 24
0.5
  0
MTEXT
  5
449
100
AcDbEntity
  8
寸法
390
0
 62
               0
100
AcDbMText
 10
-418.25080081300791
 20
936.43175989640645
 30
0.0
 40
48.865234375000092
 41
0.0
 71
               1
 72
               1
  1
{\fＭＳ ゴシック|b0|i0|c128|p0;\lφ12}
 73
               1
 44
0.7828267384257843
  0
POINT
  5
44A
100
AcDbEntity
  8
Defpoints
370
               0
390
0
 62
               0
100
AcDbPoint
 10
-229.22164819397926
 20
737.96389428561656
 30
0.0
  0
POINT
  5
44B
100
AcDbEntity
  8
Defpoints
370
               0
390
0
 62
               0
100
AcDbPoint
 10
-232.02693670430767
 20
749.63138572010303
 30
0.0
  0
ENDBLK
  5
44C
100
AcDbEntity
  8
寸法
390
0
100
AcDbBlockEnd
  0
BLOCK
  5
44D
100
AcDbEntity
  8
寸法
390
0
100
AcDbBlockBegin
  2
*D45
 70
               1
 10
0.0
 20
0.0
 30
0.0
  3
*D45
  1

  0
LINE
  5
44E
100
AcDbEntity
  8
寸法
370
              -2
390
0
  6
Continuous
 62
               0
100
AcDbLine
 10
70.966418218013956
 20
747.46774076079441
 30
0.0
 11
113.74919918699212
 21
846.17652552140623
 31
0.0
  0
LINE
  5
44F
100
AcDbEntity
  8
寸法
370
              -2
390
0
  6
Continuous
 62
               0
100
AcDbLine
 10
113.74919918699212
 20
846.17652552140623
 30
0.0
 11
207.24919918699212
 21
846.17652552140623
 31
0.0
  0
LINE
  5
450
100
AcDbEntity
  8
寸法
370
              -2
390
0
  6
Continuous
 62
               0
100
AcDbLine
 10
67.784996883700089
 20
740.12753924492495
 30
0.0
 11
70.966418218013956
 21
747.46774076079441
 31
0.0
  0
POLYLINE
  5
451
100
AcDbEntity
  8
0
370
              -2
390
0
  6
Continuous
 62
               0
100
AcDb2dPolyline
 66
               1
 10
0.0
 20
0.0
 30
0.0
 75
               5
  0
VERTEX
  5
452
100
AcDbEntity
  8
0
370
              -2
390
0
  6
Continuous
 62
               0
100
AcDbVertex
100
AcDb2dVertex
 10
92.22309642941994
 20
770.30607888505494
 30
0.0
  0
VERTEX
  5
453
100
AcDbEntity
  8
0
370
              -2
390
0
  6
Continuous
 62
               0
100
AcDbVertex
100
AcDb2dVertex
 10
67.784996883700089
 20
740.12753924492495
 30
0.0
  0
VERTEX
  5
454
100
AcDbEntity
  8
0
370
              -2
390
0
  6
Continuous
 62
               0
100
AcDbVertex
100
AcDb2dVertex
 10
73.859742090441443
 20
778.48197099525316
 30
0.0
  0
SEQEND
  5
455
100
AcDbEntity
  8
0
370
              -2
390
0
  6
Continuous
 62
               0
  0
POLYLINE
  5
456
100
AcDbEntity
  8
0
370
              -2
390
0
  6
Continuous
 62
               0
100
AcDb2dPolyline
 66
               1
 10
0.0
 20
0.0
 30
0.0
 75
               5
  0
VERTEX
  5
457
100
AcDbEntity
  8
0
370
              -2
390
0
  6
Continuous
 62
               0
100
AcDbVertex
100
AcDb2dVertex
 10
47.058728852706729
 20
716.86729381259795
 30
0.0
  0
VERTEX
  5
458
100
AcDbEntity
  8
0
370
              -2
390
0
  6
Continuous
 62
               0
100
AcDbVertex
100
AcDb2dVertex
 10
70.966418218013956
 20
747.46774076079441
 30
0.0
  0
VERTEX
  5
459
100
AcDbEntity
  8
0
370
              -2
390
0
  6
Continuous
 62
               0
100
AcDbVertex
100
AcDb2dVertex
 10
65.561975355969054
 20
709.01313165384465
 30
0.0
  0
SEQEND
  5
45A
100
AcDbEntity
  8
0
370
              -2
390
0
  6
Continuous
 62
               0
  0
WIPEOUT
  5
45B
100
AcDbEntity
  8
寸法
370
              -2
390
0
  6
Continuous
 62
               0
 92
        0
100
AcDbWipeout
 90
        0
 10
143.74919918699212
 20
853.67652552140635
 30
0.0
 11
63.500000000000114
 21
0.0
 31
0.0
 12
0.0
 22
63.500000000000114
 32
0.0
 13
1.0
 23
1.0
340
0
 70
               7
280
               1
281
              50
282
              50
283
               0
360
0
 71
               2
 91
        5
 14
-0.5
 24
0.5
 14
0.4999999999999982
 24
0.5
 14
0.4999999999999982
 24
-0.5
 14
-0.5
 24
-0.5
 14
-0.5
 24
0.5
  0
MTEXT
  5
45C
100
AcDbEntity
  8
寸法
390
0
 62
               0
100
AcDbMText
 10
143.74919918699212
 20
911.43175989640645
 30
0.0
 40
48.865234375000092
 41
0.0
 71
               1
 72
               1
  1
{\fＭＳ ゴシック|b0|i0|c128|p0;\lM6}
 73
               1
 44
0.7828267384257843
  0
POINT
  5
45D
100
AcDbEntity
  8
Defpoints
370
               0
390
0
 62
               0
100
AcDbPoint
 10
67.784996883700089
 20
740.12753924492495
 30
0.0
  0
POINT
  5
45E
100
AcDbEntity
  8
Defpoints
370
               0
390
0
 62
               0
100
AcDbPoint
 10
70.966418218013956
 20
747.46774076079441
 30
0.0
  0
ENDBLK
  5
45F
100
AcDbEntity
  8
寸法
390
0
100
AcDbBlockEnd
  0
BLOCK
  5
460
100
AcDbEntity
  8
寸法
390
0
100
AcDbBlockBegin
  2
*D46
 70
               1
 10
0.0
 20
0.0
 30
0.0
  3
*D46
  1

  0
LINE
  5
461
100
AcDbEntity
  8
寸法
370
              -2
390
0
  6
Continuous
 62
               0
100
AcDbLine
 10
-330.62429244914347
 20
793.79764000285968
 30
0.0
 11
-405.52492754375447
 21
793.79764000285968
 31
0.0
  0
LINE
  5
462
100
AcDbEntity
  8
寸法
370
              -2
390
0
  6
Continuous
 62
               0
100
AcDbLine
 10
-330.62429244914347
 20
693.79764000285968
 30
0.0
 11
-405.52492754375447
 21
693.79764000285968
 31
0.0
  0
LINE
  5
463
100
AcDbEntity
  8
寸法
370
              -2
390
0
  6
Continuous
 62
               0
100
AcDbLine
 10
-375.52492754375447
 20
793.79764000285968
 30
0.0
 11
-375.52492754375447
 21
693.79764000285968
 31
0.0
  0
POLYLINE
  5
464
100
AcDbEntity
  8
0
370
              -2
390
0
  6
Continuous
 62
               0
100
AcDb2dPolyline
 66
               1
 10
0.0
 20
0.0
 30
0.0
 75
               5
  0
VERTEX
  5
465
100
AcDbEntity
  8
0
370
              -2
390
0
  6
Continuous
 62
               0
100
AcDbVertex
100
AcDb2dVertex
 10
-385.57552447100812
 20
756.28830162395343
 30
0.0
  0
VERTEX
  5
466
100
AcDbEntity
  8
0
370
              -2
390
0
  6
Continuous
 62
               0
100
AcDbVertex
100
AcDb2dVertex
 10
-375.52492754375447
 20
793.79764000285968
 30
0.0
  0
VERTEX
  5
467
100
AcDbEntity
  8
0
370
              -2
390
0
  6
Continuous
 62
               0
100
AcDbVertex
100
AcDb2dVertex
 10
-365.47433061650082
 20
756.28830162395343
 30
0.0
  0
SEQEND
  5
468
100
AcDbEntity
  8
0
370
              -2
390
0
  6
Continuous
 62
               0
  0
POLYLINE
  5
469
100
AcDbEntity
  8
0
370
              -2
390
0
  6
Continuous
 62
               0
100
AcDb2dPolyline
 66
               1
 10
0.0
 20
0.0
 30
0.0
 75
               5
  0
VERTEX
  5
46A
100
AcDbEntity
  8
0
370
              -2
390
0
  6
Continuous
 62
               0
100
AcDbVertex
100
AcDb2dVertex
 10
-365.47433061650082
 20
731.30697838176593
 30
0.0
  0
VERTEX
  5
46B
100
AcDbEntity
  8
0
370
              -2
390
0
  6
Continuous
 62
               0
100
AcDbVertex
100
AcDb2dVertex
 10
-375.52492754375447
 20
693.79764000285968
 30
0.0
  0
VERTEX
  5
46C
100
AcDbEntity
  8
0
370
              -2
390
0
  6
Continuous
 62
               0
100
AcDbVertex
100
AcDb2dVertex
 10
-385.57552447100812
 20
731.30697838176593
 30
0.0
  0
SEQEND
  5
46D
100
AcDbEntity
  8
0
370
              -2
390
0
  6
Continuous
 62
               0
  0
WIPEOUT
  5
46E
100
AcDbEntity
  8
寸法
370
              -2
390
0
  6
Continuous
 62
               0
 92
        0
100
AcDbWipeout
 90
        0
 10
-446.52492754375459
 20
702.92873816851193
 30
0.0
 11
95.25
 21
0.0
 31
0.0
 12
0.0
 22
95.25
 32
0.0
 13
1.0
 23
1.0
340
0
 70
               7
280
               1
281
              50
282
              50
283
               0
360
0
 71
               2
 91
        5
 14
0.1666666666666679
 24
0.5
 14
0.1666666666666679
 24
-0.5
 14
-0.5
 24
-0.5
 14
-0.5
 24
0.5
 14
0.1666666666666679
 24
0.5
  0
MTEXT
  5
46F
100
AcDbEntity
  8
寸法
390
0
 62
               0
100
AcDbMText
 10
-440.78016191875457
 20
702.92873816851193
 30
0.0
 40
48.865234375000092
 41
0.0
 71
               1
 72
               1
  1
{\fＭＳ ゴシック|b0|i0|c128|p0;\l100}
 11
0.0
 21
1.0
 31
0.0
 73
               1
 44
0.7828267384257843
  0
POINT
  5
470
100
AcDbEntity
  8
Defpoints
370
               0
390
0
 62
               0
100
AcDbPoint
 10
-300.62429244914347
 20
693.79764000285968
 30
0.0
  0
POINT
  5
471
100
AcDbEntity
  8
Defpoints
370
               0
390
0
 62
               0
100
AcDbPoint
 10
-300.62429244914347
 20
793.79764000285968
 30
0.0
  0
POINT
  5
472
100
AcDbEntity
  8
Defpoints
370
               0
390
0
 62
               0
100
AcDbPoint
 10
-375.52492754375447
 20
793.79764000285968
 30
0.0
  0
ENDBLK
  5
473
100
AcDbEntity
  8
寸法
390
0
100
AcDbBlockEnd
  0
BLOCK
  5
474
100
AcDbEntity
  8
0
390
0
100
AcDbBlockBegin
  2
グループ-19
 70
               0
 10
0.0
 20
0.0
 30
0.0
  3
グループ-19
  1

  0
LINE
  5
475
100
AcDbEntity
  8
0
370
               0
390
0
  6
Continuous
 62
              30
100
AcDbLine
 10
-296.12429244914347
 20
789.29764000285968
 30
0.0
 11
-296.12429244914347
 21
793.79764000285968
 31
0.0
  0
LINE
  5
476
100
AcDbEntity
  8
0
370
               0
390
0
  6
Continuous
 62
              30
100
AcDbLine
 10
334.87570755085676
 20
793.79764000285968
 30
0.0
 11
-296.12429244914347
 21
793.79764000285968
 31
0.0
  0
LINE
  5
477
100
AcDbEntity
  8
0
370
               0
390
0
  6
Continuous
 62
              30
100
AcDbLine
 10
334.87570755085676
 20
793.79764000285968
 30
0.0
 11
334.87570755085676
 21
789.29764000285968
 31
0.0
  0
LINE
  5
478
100
AcDbEntity
  8
0
370
               0
390
0
  6
Continuous
 62
              30
100
AcDbLine
 10
334.87570755085676
 20
789.29764000285968
 30
0.0
 11
-296.12429244914347
 21
789.29764000285968
 31
0.0
  0
LINE
  5
479
100
AcDbEntity
  8
0
370
               0
390
0
  6
Continuous
 62
              30
100
AcDbLine
 10
-296.12429244914347
 20
789.29764000285968
 30
0.0
 11
-296.12429244914347
 21
698.29764000285968
 31
0.0
  0
LINE
  5
47A
100
AcDbEntity
  8
0
370
               0
390
0
  6
Continuous
 62
              30
100
AcDbLine
 10
334.87570755085676
 20
698.29764000285968
 30
0.0
 11
334.87570755085676
 21
789.29764000285968
 31
0.0
  0
LINE
  5
47B
100
AcDbEntity
  8
0
370
               0
390
0
  6
Continuous
 62
              30
100
AcDbLine
 10
-296.12429244914347
 20
698.29764000285968
 30
0.0
 11
334.87570755085676
 21
698.29764000285968
 31
0.0
  0
CIRCLE
  5
47C
100
AcDbEntity
  8
0
370
               0
390
0
  6
Continuous
 62
              30
100
AcDbCircle
 10
-50.624292449143013
 20
743.79764000285968
 30
0.0
 40
4.0
  0
CIRCLE
  5
47D
100
AcDbEntity
  8
0
370
               0
390
0
  6
Continuous
 62
              30
100
AcDbCircle
 10
69.375707550856987
 20
743.79764000285968
 30
0.0
 40
4.0
  0
CIRCLE
  5
47E
100
AcDbEntity
  8
0
370
               0
390
0
  6
Continuous
 62
              30
100
AcDbCircle
 10
129.37570755085699
 20
743.79764000285968
 30
0.0
 40
6.0
  0
CIRCLE
  5
47F
100
AcDbEntity
  8
0
370
               0
390
0
  6
Continuous
 62
              30
100
AcDbCircle
 10
9.3757075508569869
 20
744.03986237077561
 30
0.0
 40
6.0
  0
CIRCLE
  5
480
100
AcDbEntity
  8
0
370
               0
390
0
  6
Continuous
 62
              30
100
AcDbCircle
 10
-110.62429244914301
 20
743.79764000285968
 30
0.0
 40
6.0
  0
CIRCLE
  5
481
100
AcDbEntity
  8
0
370
               0
390
0
  6
Continuous
 62
              30
100
AcDbCircle
 10
249.37570755085676
 20
743.79764000285968
 30
0.0
 40
6.0
  0
CIRCLE
  5
482
100
AcDbEntity
  8
0
370
               0
390
0
  6
Continuous
 62
              30
100
AcDbCircle
 10
-230.62429244914347
 20
743.79764000285968
 30
0.0
 40
6.0
  0
LINE
  5
483
100
AcDbEntity
  8
0
370
               0
390
0
  6
Continuous
 62
              30
100
AcDbLine
 10
339.37570755085676
 20
789.29764000285968
 30
0.0
 11
334.87570755085676
 21
789.29764000285968
 31
0.0
  0
LINE
  5
484
100
AcDbEntity
  8
0
370
               0
390
0
  6
Continuous
 62
              30
100
AcDbLine
 10
339.37570755085676
 20
698.29764000285968
 30
0.0
 11
339.37570755085676
 21
789.29764000285968
 31
0.0
  0
LINE
  5
485
100
AcDbEntity
  8
0
370
               0
390
0
  6
Continuous
 62
              30
100
AcDbLine
 10
334.87570755085676
 20
698.29764000285968
 30
0.0
 11
339.37570755085676
 21
698.29764000285968
 31
0.0
  0
LINE
  5
486
100
AcDbEntity
  8
0
370
               0
390
0
  6
Continuous
 62
              30
100
AcDbLine
 10
-296.12429244914347
 20
693.79764000285968
 30
0.0
 11
334.87570755085676
 21
693.79764000285968
 31
0.0
  0
LINE
  5
487
100
AcDbEntity
  8
0
370
               0
390
0
  6
Continuous
 62
              30
100
AcDbLine
 10
-296.12429244914347
 20
693.79764000285968
 30
0.0
 11
-296.12429244914347
 21
698.29764000285968
 31
0.0
  0
LINE
  5
488
100
AcDbEntity
  8
0
370
               0
390
0
  6
Continuous
 62
              30
100
AcDbLine
 10
334.87570755085676
 20
698.29764000285968
 30
0.0
 11
334.87570755085676
 21
693.79764000285968
 31
0.0
  0
LINE
  5
489
100
AcDbEntity
  8
0
370
               0
390
0
  6
Continuous
 62
              30
100
AcDbLine
 10
-296.12429244914347
 20
789.29764000285968
 30
0.0
 11
-300.62429244914347
 21
789.29764000285968
 31
0.0
  0
LINE
  5
48A
100
AcDbEntity
  8
0
370
               0
390
0
  6
Continuous
 62
              30
100
AcDbLine
 10
-300.62429244914347
 20
698.29764000285968
 30
0.0
 11
-296.12429244914347
 21
698.29764000285968
 31
0.0
  0
LINE
  5
48B
100
AcDbEntity
  8
0
370
               0
390
0
  6
Continuous
 62
              30
100
AcDbLine
 10
-300.62429244914347
 20
789.29764000285968
 30
0.0
 11
-300.62429244914347
 21
698.29764000285968
 31
0.0
  0
LINE
  5
48C
100
AcDbEntity
  8
0
370
               0
390
0
  6
Continuous
 62
              30
100
AcDbLine
 10
336.37570755085699
 20
793.79764000285968
 30
0.0
 11
336.37570755085699
 21
789.29764000285968
 31
0.0
  0
LINE
  5
48D
100
AcDbEntity
  8
0
370
               0
390
0
  6
Continuous
 62
              30
100
AcDbLine
 10
336.37570755085699
 20
793.79764000285968
 30
0.0
 11
339.37570755085676
 21
793.79764000285968
 31
0.0
  0
LINE
  5
48E
100
AcDbEntity
  8
0
370
               0
390
0
  6
Continuous
 62
              30
100
AcDbLine
 10
339.37570755085676
 20
789.29764000285968
 30
0.0
 11
339.37570755085676
 21
793.79764000285968
 31
0.0
  0
LINE
  5
48F
100
AcDbEntity
  8
0
370
               0
390
0
  6
Continuous
 62
              30
100
AcDbLine
 10
336.37570755085699
 20
693.79764000285968
 30
0.0
 11
339.37570755085676
 21
693.79764000285968
 31
0.0
  0
LINE
  5
490
100
AcDbEntity
  8
0
370
               0
390
0
  6
Continuous
 62
              30
100
AcDbLine
 10
336.37570755085699
 20
698.29764000285968
 30
0.0
 11
336.37570755085699
 21
693.79764000285968
 31
0.0
  0
LINE
  5
491
100
AcDbEntity
  8
0
370
               0
390
0
  6
Continuous
 62
              30
100
AcDbLine
 10
339.37570755085676
 20
693.79764000285968
 30
0.0
 11
339.37570755085676
 21
698.29764000285968
 31
0.0
  0
LINE
  5
492
100
AcDbEntity
  8
0
370
               0
390
0
  6
Continuous
 62
              30
100
AcDbLine
 10
-300.62429244914347
 20
793.79764000285968
 30
0.0
 11
-300.62429244914347
 21
789.29764000285968
 31
0.0
  0
LINE
  5
493
100
AcDbEntity
  8
0
370
               0
390
0
  6
Continuous
 62
              30
100
AcDbLine
 10
-297.62429244914347
 20
793.79764000285968
 30
0.0
 11
-300.62429244914347
 21
793.79764000285968
 31
0.0
  0
LINE
  5
494
100
AcDbEntity
  8
0
370
               0
390
0
  6
Continuous
 62
              30
100
AcDbLine
 10
-297.62429244914347
 20
789.29764000285968
 30
0.0
 11
-297.62429244914347
 21
793.79764000285968
 31
0.0
  0
LINE
  5
495
100
AcDbEntity
  8
0
370
               0
390
0
  6
Continuous
 62
              30
100
AcDbLine
 10
-297.62429244914347
 20
693.79764000285968
 30
0.0
 11
-300.62429244914347
 21
693.79764000285968
 31
0.0
  0
LINE
  5
496
100
AcDbEntity
  8
0
370
               0
390
0
  6
Continuous
 62
              30
100
AcDbLine
 10
-297.62429244914347
 20
693.79764000285968
 30
0.0
 11
-297.62429244914347
 21
698.29764000285968
 31
0.0
  0
LINE
  5
497
100
AcDbEntity
  8
0
370
               0
390
0
  6
Continuous
 62
              30
100
AcDbLine
 10
-300.62429244914347
 20
698.29764000285968
 30
0.0
 11
-300.62429244914347
 21
693.79764000285968
 31
0.0
  0
LINE
  5
498
100
AcDbEntity
  8
0
370
               0
390
0
  6
STYLE_02
 62
               1
100
AcDbLine
 10
9.3757075508565322
 20
682.62356912466703
 30
0.0
 11
9.3757075508565322
 21
817.76951400816097
 31
0.0
  0
INSERT
  5
499
100
AcDbEntity
  8
0
390
0
 62
               1
100
AcDbBlockReference
  2
グループ-12
 10
0.0
 20
0.0
 30
0.0
  0
INSERT
  5
49A
100
AcDbEntity
  8
0
390
0
 62
               1
100
AcDbBlockReference
  2
グループ-13
 10
0.0
 20
0.0
 30
0.0
  0
INSERT
  5
49B
100
AcDbEntity
  8
0
390
0
 62
               1
100
AcDbBlockReference
  2
グループ-14
 10
0.0
 20
0.0
 30
0.0
  0
INSERT
  5
49C
100
AcDbEntity
  8
0
390
0
 62
               1
100
AcDbBlockReference
  2
グループ-15
 10
0.0
 20
0.0
 30
0.0
  0
INSERT
  5
49D
100
AcDbEntity
  8
0
390
0
 62
               1
100
AcDbBlockReference
  2
グループ-16
 10
0.0
 20
0.0
 30
0.0
  0
INSERT
  5
49E
100
AcDbEntity
  8
0
390
0
 62
               1
100
AcDbBlockReference
  2
グループ-17
 10
0.0
 20
0.0
 30
0.0
  0
INSERT
  5
49F
100
AcDbEntity
  8
0
390
0
 62
               1
100
AcDbBlockReference
  2
グループ-18
 10
0.0
 20
0.0
 30
0.0
  0
DIMENSION
  5
4A0
100
AcDbEntity
  8
寸法
370
               0
390
0
  6
Continuous
 62
               2
100
AcDbDimension
  2
*D38
 10
9.3757075508569869
 20
607.06118850060443
 30
0.0
 11
-25.624292449143468
 21
614.56118850060443
 31
0.0
 70
             128
 71
               5
 72
               1
 41
1.0
 42
0.0
  3
HIBINO
100
AcDbAlignedDimension
 13
-50.624292449143468
 23
744.03986237077561
 33
0.0
 14
9.3757075508569869
 24
744.03986237077561
 34
0.0
100
AcDbRotatedDimension
1001
ACAD
1000
DSTYLE
1002
{
1070
             279
1070
               2
1070
             340
1005
60
1070
             147
1040
7.5
1002
}
  0
DIMENSION
  5
4A1
100
AcDbEntity
  8
寸法
370
               0
390
0
  6
Continuous
 62
               2
100
AcDbDimension
  2
*D39
 10
9.3757075508565322
 20
607.06118850060443
 30
0.0
 11
49.375707550856532
 21
614.56118850060443
 31
0.0
 70
             128
 71
               5
 72
               1
 41
1.0
 42
0.0
  3
HIBINO
100
AcDbAlignedDimension
 13
69.375707550856532
 23
743.79764000285968
 33
0.0
 14
9.3757075508565322
 24
744.03986237077561
 34
0.0
100
AcDbRotatedDimension
1001
ACAD
1000
DSTYLE
1002
{
1070
             279
1070
               2
1070
             340
1005
60
1070
             147
1040
7.5
1002
}
  0
DIMENSION
  5
4A2
100
AcDbEntity
  8
寸法
370
               0
390
0
  6
Continuous
 62
               2
100
AcDbDimension
  2
*D40
 10
-110.62429244914301
 20
507.06118850060443
 30
0.0
 11
-50.624292449143468
 21
514.56118850060443
 31
0.0
 70
             128
 71
               5
 72
               1
 41
1.0
 42
0.0
  3
HIBINO
100
AcDbAlignedDimension
 13
9.3757075508565322
 23
743.79764000285968
 33
0.0
 14
-110.62429244914301
 24
743.79764000285968
 34
0.0
100
AcDbRotatedDimension
1001
ACAD
1000
DSTYLE
1002
{
1070
             279
1070
               2
1070
             340
1005
60
1070
             147
1040
7.5
1002
}
  0
DIMENSION
  5
4A3
100
AcDbEntity
  8
寸法
370
               0
390
0
  6
Continuous
 62
               2
100
AcDbDimension
  2
*D41
 10
9.3757075508565322
 20
507.06118850060443
 30
0.0
 11
74.375707550856532
 21
514.56118850060443
 31
0.0
 70
             128
 71
               5
 72
               1
 41
1.0
 42
0.0
  3
HIBINO
100
AcDbAlignedDimension
 13
129.37570755085699
 23
743.79764000285968
 33
0.0
 14
9.3757075508565322
 24
743.79764000285968
 34
0.0
100
AcDbRotatedDimension
1001
ACAD
1000
DSTYLE
1002
{
1070
             279
1070
               2
1070
             340
1005
60
1070
             147
1040
7.5
1002
}
  0
DIMENSION
  5
4A4
100
AcDbEntity
  8
寸法
370
               0
390
0
  6
Continuous
 62
               2
100
AcDbDimension
  2
*D42
 10
9.3757075508565322
 20
387.06118850060443
 30
0.0
 11
144.37570755085653
 21
394.56118850060443
 31
0.0
 70
             128
 71
               5
 72
               1
 41
1.0
 42
0.0
  3
HIBINO
100
AcDbAlignedDimension
 13
249.37570755085676
 23
743.79764000285968
 33
0.0
 14
9.3757075508565322
 24
741.53986237077561
 34
0.0
100
AcDbRotatedDimension
1001
ACAD
1000
DSTYLE
1002
{
1070
             279
1070
               2
1070
             340
1005
60
1070
             147
1040
7.5
1002
}
  0
DIMENSION
  5
4A5
100
AcDbEntity
  8
寸法
370
               0
390
0
  6
Continuous
 62
               2
100
AcDbDimension
  2
*D43
 10
-230.62429244914301
 20
387.06118850060443
 30
0.0
 11
-105.62429244914348
 21
394.56118850060443
 31
0.0
 70
             128
 71
               5
 72
               1
 41
1.0
 42
0.0
  3
HIBINO
100
AcDbAlignedDimension
 13
9.3757075508565322
 23
743.79764000285968
 33
0.0
 14
-230.62429244914301
 24
743.79764000285968
 34
0.0
100
AcDbRotatedDimension
1001
ACAD
1000
DSTYLE
1002
{
1070
             279
1070
               2
1070
             340
1005
60
1070
             147
1040
7.5
1002
}
  0
DIMENSION
  5
4A6
100
AcDbEntity
  8
寸法
370
               0
390
0
  6
Continuous
 62
               2
100
AcDbDimension
  2
*D44
 10
-229.22164819397926
 20
737.96389428561656
 30
0.0
 11
-291.25080081300791
 21
871.17652552140623
 31
0.0
 70
               3
 71
               5
 72
               1
 41
1.0
 42
0.0
  3
HIBINO
100
AcDbDiametricDimension
 15
-232.02693670430767
 25
749.63138572010303
 35
0.0
 40
125.00902064556028
1001
ACAD
1000
DSTYLE
1002
{
1070
             289
1070
               0
1070
             342
1005
76
1070
             340
1005
60
1070
              73
1070
               1
1070
              74
1070
               1
1070
              75
1070
               1
1070
              76
1070
               1
1070
               3
1000

1070
             174
1070
               0
1070
             147
1040
7.5
1002
}
  0
DIMENSION
  5
4A7
100
AcDbEntity
  8
寸法
370
               0
390
0
  6
Continuous
 62
               2
100
AcDbDimension
  2
*D45
 10
67.784996883700089
 20
740.12753924492495
 30
0.0
 11
143.74919918699243
 21
846.17652552140612
 31
0.0
 70
               3
 71
               5
 72
               1
 41
1.0
 42
0.0
  1
M6
  3
HIBINO
100
AcDbDiametricDimension
 15
70.966418218013956
 25
747.46774076079441
 35
0.0
 40
107.58155295568265
1001
ACAD
1000
DSTYLE
1002
{
1070
             289
1070
               0
1070
             342
1005
76
1070
             340
1005
60
1070
              73
1070
               1
1070
              74
1070
               1
1070
              75
1070
               1
1070
              76
1070
               1
1070
             174
1070
               0
1070
             147
1040
7.5
1002
}
  0
DIMENSION
  5
4A8
100
AcDbEntity
  8
寸法
370
               0
390
0
  6
Continuous
 62
               2
100
AcDbDimension
  2
*D46
 10
-375.52492754375447
 20
793.79764000285968
 30
0.0
 11
-383.02492754375447
 21
750.55373816851204
 31
0.0
 70
             128
 71
               5
 72
               1
 41
1.0
 42
0.0
  3
HIBINO
100
AcDbAlignedDimension
 13
-300.62429244914347
 23
693.79764000285968
 33
0.0
 14
-300.62429244914347
 24
793.79764000285968
 34
0.0
 50
-90.0
100
AcDbRotatedDimension
1001
ACAD
1000
DSTYLE
1002
{
1070
             279
1070
               2
1070
             340
1005
60
1070
             147
1040
7.5
1002
}
  0
ENDBLK
  5
4A9
100
AcDbEntity
  8
0
390
0
100
AcDbBlockEnd
  0
BLOCK
  5
4AA
100
AcDbEntity
  8
寸法
390
0
100
AcDbBlockBegin
  2
*D48
 70
               1
 10
0.0
 20
0.0
 30
0.0
  3
*D48
  1

  0
LINE
  5
4AB
100
AcDbEntity
  8
寸法
370
              -2
390
0
  6
Continuous
 62
               0
100
AcDbLine
 10
-300.62429244914347
 20
1359.1380262578846
 30
0.0
 11
-300.62429244914347
 21
1421.3111885006047
 31
0.0
  0
LINE
  5
4AC
100
AcDbEntity
  8
寸法
370
              -2
390
0
  6
Continuous
 62
               0
100
AcDbLine
 10
339.37570755085676
 20
1359.1380262578846
 30
0.0
 11
339.37570755085676
 21
1421.3111885006047
 31
0.0
  0
LINE
  5
4AD
100
AcDbEntity
  8
寸法
370
              -2
390
0
  6
Continuous
 62
               0
100
AcDbLine
 10
-300.62429244914347
 20
1391.3111885006047
 30
0.0
 11
339.37570755085676
 21
1391.3111885006047
 31
0.0
  0
POLYLINE
  5
4AE
100
AcDbEntity
  8
0
370
              -2
390
0
  6
Continuous
 62
               0
100
AcDb2dPolyline
 66
               1
 10
0.0
 20
0.0
 30
0.0
 75
               5
  0
VERTEX
  5
4AF
100
AcDbEntity
  8
0
370
              -2
390
0
  6
Continuous
 62
               0
100
AcDbVertex
100
AcDb2dVertex
 10
-263.11495407023722
 20
1381.2605915733511
 30
0.0
  0
VERTEX
  5
4B0
100
AcDbEntity
  8
0
370
              -2
390
0
  6
Continuous
 62
               0
100
AcDbVertex
100
AcDb2dVertex
 10
-300.62429244914347
 20
1391.3111885006047
 30
0.0
  0
VERTEX
  5
4B1
100
AcDbEntity
  8
0
370
              -2
390
0
  6
Continuous
 62
               0
100
AcDbVertex
100
AcDb2dVertex
 10
-263.11495407023722
 20
1401.3617854278582
 30
0.0
  0
SEQEND
  5
4B2
100
AcDbEntity
  8
0
370
              -2
390
0
  6
Continuous
 62
               0
  0
POLYLINE
  5
4B3
100
AcDbEntity
  8
0
370
              -2
390
0
  6
Continuous
 62
               0
100
AcDb2dPolyline
 66
               1
 10
0.0
 20
0.0
 30
0.0
 75
               5
  0
VERTEX
  5
4B4
100
AcDbEntity
  8
0
370
              -2
390
0
  6
Continuous
 62
               0
100
AcDbVertex
100
AcDb2dVertex
 10
301.86636917195051
 20
1401.3617854278582
 30
0.0
  0
VERTEX
  5
4B5
100
AcDbEntity
  8
0
370
              -2
390
0
  6
Continuous
 62
               0
100
AcDbVertex
100
AcDb2dVertex
 10
339.37570755085676
 20
1391.3111885006047
 30
0.0
  0
VERTEX
  5
4B6
100
AcDbEntity
  8
0
370
              -2
390
0
  6
Continuous
 62
               0
100
AcDbVertex
100
AcDb2dVertex
 10
301.86636917195051
 20
1381.2605915733509
 30
0.0
  0
SEQEND
  5
4B7
100
AcDbEntity
  8
0
370
              -2
390
0
  6
Continuous
 62
               0
  0
WIPEOUT
  5
4B8
100
AcDbEntity
  8
寸法
370
              -2
390
0
  6
Continuous
 62
               0
 92
        0
100
AcDbWipeout
 90
        0
 10
-45.874292449143468
 20
1398.8111885006047
 30
0.0
 11
95.25
 21
0.0
 31
0.0
 12
0.0
 22
95.25
 32
0.0
 13
1.0
 23
1.0
340
0
 70
               7
280
               1
281
              50
282
              50
283
               0
360
0
 71
               2
 91
        5
 14
-0.5
 24
0.5
 14
0.5
 24
0.5
 14
0.5
 24
-0.1666666666666666
 14
-0.5
 24
-0.1666666666666666
 14
-0.5
 24
0.5
  0
MTEXT
  5
4B9
100
AcDbEntity
  8
寸法
390
0
 62
               0
100
AcDbMText
 10
-45.874292449143468
 20
1456.5664228756048
 30
0.0
 40
48.865234375000007
 41
0.0
 71
               1
 72
               1
  1
{\fＭＳ ゴシック|b0|i0|c128|p0;\l640}
 73
               1
 44
0.7828267384257843
  0
POINT
  5
4BA
100
AcDbEntity
  8
Defpoints
370
               0
390
0
 62
               0
100
AcDbPoint
 10
339.37570755085676
 20
1329.1380262578846
 30
0.0
  0
POINT
  5
4BB
100
AcDbEntity
  8
Defpoints
370
               0
390
0
 62
               0
100
AcDbPoint
 10
-300.62429244914347
 20
1329.1380262578846
 30
0.0
  0
POINT
  5
4BC
100
AcDbEntity
  8
Defpoints
370
               0
390
0
 62
               0
100
AcDbPoint
 10
-300.62429244914347
 20
1391.3111885006047
 30
0.0
  0
ENDBLK
  5
4BD
100
AcDbEntity
  8
寸法
390
0
100
AcDbBlockEnd
  0
BLOCK
  5
4BE
100
AcDbEntity
  8
寸法
390
0
100
AcDbBlockBegin
  2
*D49
 70
               1
 10
0.0
 20
0.0
 30
0.0
  3
*D49
  1

  0
LINE
  5
4BF
100
AcDbEntity
  8
寸法
370
              -2
390
0
  6
Continuous
 62
               0
100
AcDbLine
 10
-326.12429244914347
 20
1333.6380262578846
 30
0.0
 11
-366.25080081300791
 21
1333.6380262578846
 31
0.0
  0
LINE
  5
4C0
100
AcDbEntity
  8
寸法
370
              -2
390
0
  6
Continuous
 62
               0
100
AcDbLine
 10
-330.62429244914438
 20
1011.6380262578791
 30
0.0
 11
-366.25080081300791
 21
1011.6380262578791
 31
0.0
  0
LINE
  5
4C1
100
AcDbEntity
  8
寸法
370
              -2
390
0
  6
Continuous
 62
               0
100
AcDbLine
 10
-336.25080081300791
 20
1333.6380262578846
 30
0.0
 11
-336.25080081300791
 21
1011.6380262578791
 31
0.0
  0
POLYLINE
  5
4C2
100
AcDbEntity
  8
0
370
              -2
390
0
  6
Continuous
 62
               0
100
AcDb2dPolyline
 66
               1
 10
0.0
 20
0.0
 30
0.0
 75
               5
  0
VERTEX
  5
4C3
100
AcDbEntity
  8
0
370
              -2
390
0
  6
Continuous
 62
               0
100
AcDbVertex
100
AcDb2dVertex
 10
-346.30139774026156
 20
1296.1286878789783
 30
0.0
  0
VERTEX
  5
4C4
100
AcDbEntity
  8
0
370
              -2
390
0
  6
Continuous
 62
               0
100
AcDbVertex
100
AcDb2dVertex
 10
-336.25080081300791
 20
1333.6380262578846
 30
0.0
  0
VERTEX
  5
4C5
100
AcDbEntity
  8
0
370
              -2
390
0
  6
Continuous
 62
               0
100
AcDbVertex
100
AcDb2dVertex
 10
-326.20020388575426
 20
1296.1286878789783
 30
0.0
  0
SEQEND
  5
4C6
100
AcDbEntity
  8
0
370
              -2
390
0
  6
Continuous
 62
               0
  0
POLYLINE
  5
4C7
100
AcDbEntity
  8
0
370
              -2
390
0
  6
Continuous
 62
               0
100
AcDb2dPolyline
 66
               1
 10
0.0
 20
0.0
 30
0.0
 75
               5
  0
VERTEX
  5
4C8
100
AcDbEntity
  8
0
370
              -2
390
0
  6
Continuous
 62
               0
100
AcDbVertex
100
AcDb2dVertex
 10
-326.20020388575426
 20
1049.1473646367854
 30
0.0
  0
VERTEX
  5
4C9
100
AcDbEntity
  8
0
370
              -2
390
0
  6
Continuous
 62
               0
100
AcDbVertex
100
AcDb2dVertex
 10
-336.25080081300791
 20
1011.6380262578791
 30
0.0
  0
VERTEX
  5
4CA
100
AcDbEntity
  8
0
370
              -2
390
0
  6
Continuous
 62
               0
100
AcDbVertex
100
AcDb2dVertex
 10
-346.30139774026156
 20
1049.1473646367854
 30
0.0
  0
SEQEND
  5
4CB
100
AcDbEntity
  8
0
370
              -2
390
0
  6
Continuous
 62
               0
  0
WIPEOUT
  5
4CC
100
AcDbEntity
  8
寸法
370
              -2
390
0
  6
Continuous
 62
               0
 92
        0
100
AcDbWipeout
 90
        0
 10
-407.25080081300791
 20
1119.0840171155846
 30
0.0
 11
95.25
 21
0.0
 31
0.0
 12
0.0
 22
95.25
 32
0.0
 13
1.0
 23
1.0
340
0
 70
               7
280
               1
281
              50
282
              50
283
               0
360
0
 71
               2
 91
        5
 14
0.1666666666666666
 24
0.5
 14
0.1666666666666666
 24
-0.5
 14
-0.5
 24
-0.5
 14
-0.5
 24
0.5
 14
0.1666666666666666
 24
0.5
  0
MTEXT
  5
4CD
100
AcDbEntity
  8
寸法
390
0
 62
               0
100
AcDbMText
 10
-401.5060351880079
 20
1119.0840171155846
 30
0.0
 40
48.865234375000007
 41
0.0
 71
               1
 72
               1
  1
{\fＭＳ ゴシック|b0|i0|c128|p0;\l322}
 11
0.0
 21
1.0
 31
0.0
 73
               1
 44
0.7828267384257843
  0
POINT
  5
4CE
100
AcDbEntity
  8
Defpoints
370
               0
390
0
 62
               0
100
AcDbPoint
 10
-300.62429244914438
 20
1011.6380262578791
 30
0.0
  0
POINT
  5
4CF
100
AcDbEntity
  8
Defpoints
370
               0
390
0
 62
               0
100
AcDbPoint
 10
-296.12429244914347
 20
1333.6380262578846
 30
0.0
  0
POINT
  5
4D0
100
AcDbEntity
  8
Defpoints
370
               0
390
0
 62
               0
100
AcDbPoint
 10
-336.25080081300791
 20
1333.6380262578846
 30
0.0
  0
ENDBLK
  5
4D1
100
AcDbEntity
  8
寸法
390
0
100
AcDbBlockEnd
  0
BLOCK
  5
4D2
100
AcDbEntity
  8
寸法
390
0
100
AcDbBlockBegin
  2
*D50
 70
               1
 10
0.0
 20
0.0
 30
0.0
  3
*D50
  1

  0
LINE
  5
4D3
100
AcDbEntity
  8
寸法
370
              -2
390
0
  6
Continuous
 62
               0
100
AcDbLine
 10
336.3757075508579
 20
981.63802625788139
 30
0.0
 11
336.3757075508579
 21
911.17652552140623
 31
0.0
  0
LINE
  5
4D4
100
AcDbEntity
  8
寸法
370
              -2
390
0
  6
Continuous
 62
               0
100
AcDbLine
 10
339.3757075508579
 20
981.63802625788139
 30
0.0
 11
339.3757075508579
 21
911.17652552140623
 31
0.0
  0
LINE
  5
4D5
100
AcDbEntity
  8
寸法
370
              -2
390
0
  6
Continuous
 62
               0
100
AcDbLine
 10
339.3757075508579
 20
941.17652552140623
 30
0.0
 11
441.73786687253516
 21
941.17652552140623
 31
0.0
  0
LINE
  5
4D6
100
AcDbEntity
  8
寸法
370
              -2
390
0
  6
Continuous
 62
               0
100
AcDbLine
 10
336.3757075508579
 20
941.17652552140623
 30
0.0
 11
339.3757075508579
 21
941.17652552140623
 31
0.0
  0
POLYLINE
  5
4D7
100
AcDbEntity
  8
0
370
              -2
390
0
  6
Continuous
 62
               0
100
AcDb2dPolyline
 66
               1
 10
0.0
 20
0.0
 30
0.0
 75
               5
  0
VERTEX
  5
4D8
100
AcDbEntity
  8
0
370
              -2
390
0
  6
Continuous
 62
               0
100
AcDbVertex
100
AcDb2dVertex
 10
373.88504592976415
 20
931.12592859415258
 30
0.0
  0
VERTEX
  5
4D9
100
AcDbEntity
  8
0
370
              -2
390
0
  6
Continuous
 62
               0
100
AcDbVertex
100
AcDb2dVertex
 10
336.3757075508579
 20
941.17652552140623
 30
0.0
  0
VERTEX
  5
4DA
100
AcDbEntity
  8
0
370
              -2
390
0
  6
Continuous
 62
               0
100
AcDbVertex
100
AcDb2dVertex
 10
373.88504592976415
 20
951.22712244865988
 30
0.0
  0
SEQEND
  5
4DB
100
AcDbEntity
  8
0
370
              -2
390
0
  6
Continuous
 62
               0
  0
POLYLINE
  5
4DC
100
AcDbEntity
  8
0
370
              -2
390
0
  6
Continuous
 62
               0
100
AcDb2dPolyline
 66
               1
 10
0.0
 20
0.0
 30
0.0
 75
               5
  0
VERTEX
  5
4DD
100
AcDbEntity
  8
0
370
              -2
390
0
  6
Continuous
 62
               0
100
AcDbVertex
100
AcDb2dVertex
 10
301.86636917195165
 20
951.22712244865988
 30
0.0
  0
VERTEX
  5
4DE
100
AcDbEntity
  8
0
370
              -2
390
0
  6
Continuous
 62
               0
100
AcDbVertex
100
AcDb2dVertex
 10
339.3757075508579
 20
941.17652552140623
 30
0.0
  0
VERTEX
  5
4DF
100
AcDbEntity
  8
0
370
              -2
390
0
  6
Continuous
 62
               0
100
AcDbVertex
100
AcDb2dVertex
 10
301.86636917195165
 20
931.12592859415258
 30
0.0
  0
SEQEND
  5
4E0
100
AcDbEntity
  8
0
370
              -2
390
0
  6
Continuous
 62
               0
  0
WIPEOUT
  5
4E1
100
AcDbEntity
  8
寸法
370
              -2
390
0
  6
Continuous
 62
               0
 92
        0
100
AcDbWipeout
 90
        0
 10
409.98786687253516
 20
948.67652552140635
 30
0.0
 11
63.500000000000114
 21
0.0
 31
0.0
 12
0.0
 22
63.500000000000114
 32
0.0
 13
1.0
 23
1.0
340
0
 70
               7
280
               1
281
              50
282
              50
283
               0
360
0
 71
               2
 91
        5
 14
-0.5
 24
0.5
 14
-0.0000000000000009
 24
0.5
 14
-0.0000000000000009
 24
-0.5
 14
-0.5
 24
-0.5
 14
-0.5
 24
0.5
  0
MTEXT
  5
4E2
100
AcDbEntity
  8
寸法
390
0
 62
               0
100
AcDbMText
 10
409.98786687253516
 20
1006.4317598964064
 30
0.0
 40
48.865234375000092
 41
0.0
 71
               1
 72
               1
  1
{\fＭＳ ゴシック|b0|i0|c128|p0;\l3}
 73
               1
 44
0.7828267384257843
  0
POINT
  5
4E3
100
AcDbEntity
  8
Defpoints
370
               0
390
0
 62
               0
100
AcDbPoint
 10
339.3757075508579
 20
1011.6380262578814
 30
0.0
  0
POINT
  5
4E4
100
AcDbEntity
  8
Defpoints
370
               0
390
0
 62
               0
100
AcDbPoint
 10
336.3757075508579
 20
1011.6380262578814
 30
0.0
  0
POINT
  5
4E5
100
AcDbEntity
  8
Defpoints
370
               0
390
0
 62
               0
100
AcDbPoint
 10
336.3757075508579
 20
941.17652552140623
 30
0.0
  0
ENDBLK
  5
4E6
100
AcDbEntity
  8
寸法
390
0
100
AcDbBlockEnd
  0
BLOCK
  5
4E7
100
AcDbEntity
  8
0
390
0
100
AcDbBlockBegin
  2
グループ-20
 70
               0
 10
0.0
 20
0.0
 30
0.0
  3
グループ-20
  1

  0
LINE
  5
4E8
100
AcDbEntity
  8
0
370
               0
390
0
  6
Continuous
 62
              30
100
AcDbLine
 10
339.37570755085767
 20
1121.998415951075
 30
0.0
 11
336.37570755085767
 21
1121.998415951075
 31
0.0
  0
LINE
  5
4E9
100
AcDbEntity
  8
0
370
               0
390
0
  6
Continuous
 62
              30
100
AcDbLine
 10
-297.62429244914392
 20
1121.9984159510727
 30
0.0
 11
-300.62429244914438
 21
1121.9984159510727
 31
0.0
  0
LINE
  5
4EA
100
AcDbEntity
  8
0
370
               0
390
0
  6
Continuous
 62
              30
100
AcDbLine
 10
-300.62429244914438
 20
1076.1405515748042
 30
0.0
 11
-297.62429244914438
 21
1076.1405515748042
 31
0.0
  0
LINE
  5
4EB
100
AcDbEntity
  8
0
370
               0
390
0
  6
Continuous
 62
              30
100
AcDbLine
 10
336.37570755085767
 20
1076.1405515748065
 30
0.0
 11
339.37570755085767
 21
1076.1405515748065
 31
0.0
  0
LINE
  5
4EC
100
AcDbEntity
  8
0
370
               0
390
0
  6
Continuous
 62
              30
100
AcDbLine
 10
336.3757075508579
 20
1011.6380262578814
 30
0.0
 11
339.3757075508579
 21
1011.6380262578814
 31
0.0
  0
LINE
  5
4ED
100
AcDbEntity
  8
0
370
               0
390
0
  6
Continuous
 62
              30
100
AcDbLine
 10
-300.62429244914438
 20
1011.6380262578791
 30
0.0
 11
-297.62429244914438
 21
1011.6380262578791
 31
0.0
  0
LINE
  5
4EE
100
AcDbEntity
  8
0
370
               0
390
0
  6
Continuous
 62
              30
100
AcDbLine
 10
336.37570755085767
 20
1077.1405515748074
 30
0.0
 11
339.37570755085767
 21
1077.1405515748074
 31
0.0
  0
LINE
  5
4EF
100
AcDbEntity
  8
0
370
               0
390
0
  6
Continuous
 62
              30
100
AcDbLine
 10
336.37570755085767
 20
1120.998415951075
 30
0.0
 11
339.37570755085767
 21
1120.998415951075
 31
0.0
  0
LINE
  5
4F0
100
AcDbEntity
  8
0
370
               0
390
0
  6
Continuous
 62
              30
100
AcDbLine
 10
339.37570755085767
 20
1120.998415951075
 30
0.0
 11
339.37570755085767
 21
1077.1405515748074
 31
0.0
  0
LINE
  5
4F1
100
AcDbEntity
  8
0
370
               0
390
0
  6
Continuous
 62
              30
100
AcDbLine
 10
336.37570755085767
 20
1120.998415951075
 30
0.0
 11
336.37570755085767
 21
1077.1405515748074
 31
0.0
  0
LINE
  5
4F2
100
AcDbEntity
  8
0
370
               0
390
0
  6
Continuous
 62
              30
100
AcDbLine
 10
339.37570755085767
 20
1121.998415951075
 30
0.0
 11
339.37570755085767
 21
1120.998415951075
 31
0.0
  0
LINE
  5
4F3
100
AcDbEntity
  8
0
370
               0
390
0
  6
Continuous
 62
              30
100
AcDbLine
 10
336.37570755085767
 20
1121.998415951075
 30
0.0
 11
336.37570755085767
 21
1120.998415951075
 31
0.0
  0
LINE
  5
4F4
100
AcDbEntity
  8
0
370
               0
390
0
  6
Continuous
 62
              30
100
AcDbLine
 10
-297.62429244914392
 20
1120.998415951075
 30
0.0
 11
-297.62429244914392
 21
1121.9984159510727
 31
0.0
  0
LINE
  5
4F5
100
AcDbEntity
  8
0
370
               0
390
0
  6
Continuous
 62
              30
100
AcDbLine
 10
-297.62429244914392
 20
1120.998415951075
 30
0.0
 11
-300.62429244914438
 21
1120.998415951075
 31
0.0
  0
LINE
  5
4F6
100
AcDbEntity
  8
0
370
               0
390
0
  6
Continuous
 62
              30
100
AcDbLine
 10
-300.62429244914438
 20
1120.998415951075
 30
0.0
 11
-300.62429244914438
 21
1121.9984159510727
 31
0.0
  0
LINE
  5
4F7
100
AcDbEntity
  8
0
370
               0
390
0
  6
Continuous
 62
              30
100
AcDbLine
 10
-297.62429244914438
 20
1077.1405515748042
 30
0.0
 11
-300.62429244914438
 21
1077.1405515748042
 31
0.0
  0
LINE
  5
4F8
100
AcDbEntity
  8
0
370
               0
390
0
  6
Continuous
 62
              30
100
AcDbLine
 10
-297.62429244914438
 20
1076.1405515748042
 30
0.0
 11
-297.62429244914438
 21
1077.1405515748042
 31
0.0
  0
LINE
  5
4F9
100
AcDbEntity
  8
0
370
               0
390
0
  6
Continuous
 62
              30
100
AcDbLine
 10
-300.62429244914438
 20
1076.1405515748042
 30
0.0
 11
-300.62429244914438
 21
1077.1405515748042
 31
0.0
  0
LINE
  5
4FA
100
AcDbEntity
  8
0
370
               0
390
0
  6
Continuous
 62
              30
100
AcDbLine
 10
339.37570755085767
 20
1077.1405515748074
 30
0.0
 11
339.37570755085767
 21
1076.1405515748065
 31
0.0
  0
LINE
  5
4FB
100
AcDbEntity
  8
0
370
               0
390
0
  6
Continuous
 62
              30
100
AcDbLine
 10
336.37570755085767
 20
1077.1405515748074
 30
0.0
 11
336.37570755085767
 21
1076.1405515748065
 31
0.0
  0
LINE
  5
4FC
100
AcDbEntity
  8
0
370
               0
390
0
  6
Continuous
 62
              30
100
AcDbLine
 10
334.87570755085676
 20
1329.1380262578846
 30
0.0
 11
334.87570755085676
 21
1320.6380262578846
 31
0.0
  0
LINE
  5
4FD
100
AcDbEntity
  8
0
370
               0
390
0
  6
Continuous
 62
              30
100
AcDbLine
 10
334.87570755085676
 20
1320.6380262578846
 30
0.0
 11
-296.12429244914347
 21
1320.6380262578846
 31
0.0
  0
LINE
  5
4FE
100
AcDbEntity
  8
0
370
               0
390
0
  6
Continuous
 62
              30
100
AcDbLine
 10
-296.12429244914347
 20
1329.1380262578846
 30
0.0
 11
334.87570755085676
 21
1329.1380262578846
 31
0.0
  0
LINE
  5
4FF
100
AcDbEntity
  8
0
370
               0
390
0
  6
Continuous
 62
              30
100
AcDbLine
 10
-296.12429244914347
 20
1320.6380262578846
 30
0.0
 11
-296.12429244914347
 21
1329.1380262578846
 31
0.0
  0
LINE
  5
500
100
AcDbEntity
  8
0
370
               0
390
0
  6
Continuous
 62
              30
100
AcDbLine
 10
-296.12429244914347
 20
1333.6380262578846
 30
0.0
 11
334.87570755085676
 21
1333.6380262578846
 31
0.0
  0
LINE
  5
501
100
AcDbEntity
  8
0
370
               0
390
0
  6
Continuous
 62
              30
100
AcDbLine
 10
-296.12429244914347
 20
1329.1380262578846
 30
0.0
 11
-296.12429244914347
 21
1333.6380262578846
 31
0.0
  0
LINE
  5
502
100
AcDbEntity
  8
0
370
               0
390
0
  6
Continuous
 62
              30
100
AcDbLine
 10
334.87570755085676
 20
1333.6380262578846
 30
0.0
 11
334.87570755085676
 21
1329.1380262578846
 31
0.0
  0
LINE
  5
503
100
AcDbEntity
  8
0
370
               0
390
0
  6
Continuous
 62
              30
100
AcDbLine
 10
-297.62429244914438
 20
1059.069483762958
 30
0.0
 11
-300.62429244914438
 21
1059.069483762958
 31
0.0
  0
LINE
  5
504
100
AcDbEntity
  8
0
370
               0
390
0
  6
Continuous
 62
              30
100
AcDbLine
 10
-297.62429244914438
 20
1059.27049388974
 30
0.0
 11
-300.62429244914438
 21
1059.27049388974
 31
0.0
  0
LINE
  5
505
100
AcDbEntity
  8
0
370
               0
390
0
  6
Continuous
 62
              30
100
AcDbLine
 10
-297.62429244914438
 20
1059.069483762958
 30
0.0
 11
-297.62429244914438
 21
1059.27049388974
 31
0.0
  0
LINE
  5
506
100
AcDbEntity
  8
0
370
               0
390
0
  6
Continuous
 62
              30
100
AcDbLine
 10
-300.62429244914438
 20
1059.069483762958
 30
0.0
 11
-300.62429244914438
 21
1059.27049388974
 31
0.0
  0
LINE
  5
507
100
AcDbEntity
  8
0
370
               0
390
0
  6
Continuous
 62
              30
100
AcDbLine
 10
-297.62429244914438
 20
1046.9059828488021
 30
0.0
 11
-300.62429244914438
 21
1046.9059828488021
 31
0.0
  0
LINE
  5
508
100
AcDbEntity
  8
0
370
               0
390
0
  6
Continuous
 62
              30
100
AcDbLine
 10
-297.62429244914438
 20
1046.9059828488021
 30
0.0
 11
-297.62429244914438
 21
1059.069483762958
 31
0.0
  0
LINE
  5
509
100
AcDbEntity
  8
0
370
               0
390
0
  6
Continuous
 62
              30
100
AcDbLine
 10
-300.62429244914438
 20
1046.9059828488021
 30
0.0
 11
-300.62429244914438
 21
1059.069483762958
 31
0.0
  0
LINE
  5
50A
100
AcDbEntity
  8
0
370
               0
390
0
  6
Continuous
 62
              30
100
AcDbLine
 10
336.37570755085744
 20
1138.8684736361593
 30
0.0
 11
339.37570755085744
 21
1138.8684736361593
 31
0.0
  0
LINE
  5
50B
100
AcDbEntity
  8
0
370
               0
390
0
  6
Continuous
 62
              30
100
AcDbLine
 10
336.37570755085699
 20
1329.1380262578846
 30
0.0
 11
339.37570755085676
 21
1329.1380262578846
 31
0.0
  0
LINE
  5
50C
100
AcDbEntity
  8
0
370
               0
390
0
  6
Continuous
 62
              30
100
AcDbLine
 10
339.37570755085676
 20
1329.1380262578846
 30
0.0
 11
339.37570755085744
 21
1138.8684736361593
 31
0.0
  0
LINE
  5
50D
100
AcDbEntity
  8
0
370
               0
390
0
  6
Continuous
 62
              30
100
AcDbLine
 10
336.37570755085699
 20
1329.1380262578846
 30
0.0
 11
336.37570755085744
 21
1138.8684736361593
 31
0.0
  0
LINE
  5
50E
100
AcDbEntity
  8
0
370
               0
390
0
  6
Continuous
 62
              30
100
AcDbLine
 10
-297.62429244914392
 20
1138.868473636157
 30
0.0
 11
-300.62429244914392
 21
1138.868473636157
 31
0.0
  0
LINE
  5
50F
100
AcDbEntity
  8
0
370
               0
390
0
  6
Continuous
 62
              30
100
AcDbLine
 10
-297.62429244914347
 20
1329.1380262578846
 30
0.0
 11
-300.62429244914347
 21
1329.1380262578846
 31
0.0
  0
LINE
  5
510
100
AcDbEntity
  8
0
370
               0
390
0
  6
Continuous
 62
              30
100
AcDbLine
 10
-297.62429244914392
 20
1138.868473636157
 30
0.0
 11
-297.62429244914347
 21
1329.1380262578846
 31
0.0
  0
LINE
  5
511
100
AcDbEntity
  8
0
370
               0
390
0
  6
Continuous
 62
              30
100
AcDbLine
 10
-300.62429244914392
 20
1138.868473636157
 30
0.0
 11
-300.62429244914347
 21
1329.1380262578846
 31
0.0
  0
LINE
  5
512
100
AcDbEntity
  8
0
370
               0
390
0
  6
Continuous
 62
              30
100
AcDbLine
 10
-297.62429244914438
 20
1077.1405515748042
 30
0.0
 11
-297.62429244914392
 21
1120.998415951075
 31
0.0
  0
LINE
  5
513
100
AcDbEntity
  8
0
370
               0
390
0
  6
Continuous
 62
              30
100
AcDbLine
 10
-300.62429244914438
 20
1077.1405515748042
 30
0.0
 11
-300.62429244914438
 21
1120.998415951075
 31
0.0
  0
LINE
  5
514
100
AcDbEntity
  8
0
370
               0
390
0
  6
Continuous
 62
              30
100
AcDbLine
 10
-297.62429244914438
 20
1066.3415617016021
 30
0.0
 11
-300.62429244914438
 21
1066.3415617016021
 31
0.0
  0
LINE
  5
515
100
AcDbEntity
  8
0
370
               0
390
0
  6
Continuous
 62
              30
100
AcDbLine
 10
-297.62429244914438
 20
1059.27049388974
 30
0.0
 11
-297.62429244914438
 21
1066.3415617016021
 31
0.0
  0
LINE
  5
516
100
AcDbEntity
  8
0
370
               0
390
0
  6
Continuous
 62
              30
100
AcDbLine
 10
-300.62429244914438
 20
1059.27049388974
 30
0.0
 11
-300.62429244914438
 21
1066.3415617016021
 31
0.0
  0
LINE
  5
517
100
AcDbEntity
  8
0
370
               0
390
0
  6
Continuous
 62
              30
100
AcDbLine
 10
-297.62429244914392
 20
1131.7974058242921
 30
0.0
 11
-300.62429244914392
 21
1131.7974058242921
 31
0.0
  0
LINE
  5
518
100
AcDbEntity
  8
0
370
               0
390
0
  6
Continuous
 62
              30
100
AcDbLine
 10
-297.62429244914392
 20
1131.7974058242921
 30
0.0
 11
-297.62429244914392
 21
1138.868473636157
 31
0.0
  0
LINE
  5
519
100
AcDbEntity
  8
0
370
               0
390
0
  6
Continuous
 62
              30
100
AcDbLine
 10
-300.62429244914392
 20
1131.7974058242921
 30
0.0
 11
-300.62429244914392
 21
1138.868473636157
 31
0.0
  0
LINE
  5
51A
100
AcDbEntity
  8
0
370
               0
390
0
  6
Continuous
 62
              30
100
AcDbLine
 10
336.37570755085744
 20
1131.7974058242944
 30
0.0
 11
339.37570755085767
 21
1131.7974058242944
 31
0.0
  0
LINE
  5
51B
100
AcDbEntity
  8
0
370
               0
390
0
  6
Continuous
 62
              30
100
AcDbLine
 10
339.37570755085744
 20
1138.8684736361593
 30
0.0
 11
339.37570755085767
 21
1131.7974058242944
 31
0.0
  0
LINE
  5
51C
100
AcDbEntity
  8
0
370
               0
390
0
  6
Continuous
 62
              30
100
AcDbLine
 10
336.37570755085744
 20
1138.8684736361593
 30
0.0
 11
336.37570755085744
 21
1131.7974058242944
 31
0.0
  0
LINE
  5
51D
100
AcDbEntity
  8
0
370
               0
390
0
  6
Continuous
 62
              30
100
AcDbLine
 10
336.3757075508579
 20
1046.9059828488043
 30
0.0
 11
339.3757075508579
 21
1046.9059828488043
 31
0.0
  0
LINE
  5
51E
100
AcDbEntity
  8
0
370
               0
390
0
  6
Continuous
 62
              30
100
AcDbLine
 10
336.37570755085812
 20
1059.0694837629603
 30
0.0
 11
339.37570755085767
 21
1059.0694837629603
 31
0.0
  0
LINE
  5
51F
100
AcDbEntity
  8
0
370
               0
390
0
  6
Continuous
 62
              30
100
AcDbLine
 10
339.37570755085767
 20
1059.0694837629603
 30
0.0
 11
339.3757075508579
 21
1046.9059828488043
 31
0.0
  0
LINE
  5
520
100
AcDbEntity
  8
0
370
               0
390
0
  6
Continuous
 62
              30
100
AcDbLine
 10
336.37570755085812
 20
1059.0694837629603
 30
0.0
 11
336.3757075508579
 21
1046.9059828488043
 31
0.0
  0
LINE
  5
521
100
AcDbEntity
  8
0
370
               0
390
0
  6
Continuous
 62
              30
100
AcDbLine
 10
336.3757075508579
 20
1059.27049388974
 30
0.0
 11
339.37570755085767
 21
1059.27049388974
 31
0.0
  0
LINE
  5
522
100
AcDbEntity
  8
0
370
               0
390
0
  6
Continuous
 62
              30
100
AcDbLine
 10
339.37570755085767
 20
1059.27049388974
 30
0.0
 11
339.37570755085767
 21
1059.0694837629603
 31
0.0
  0
LINE
  5
523
100
AcDbEntity
  8
0
370
               0
390
0
  6
Continuous
 62
              30
100
AcDbLine
 10
336.3757075508579
 20
1059.27049388974
 30
0.0
 11
336.37570755085812
 21
1059.0694837629603
 31
0.0
  0
LINE
  5
524
100
AcDbEntity
  8
0
370
               0
390
0
  6
Continuous
 62
              30
100
AcDbLine
 10
336.37570755085767
 20
1066.3415617016035
 30
0.0
 11
339.37570755085767
 21
1066.3415617016035
 31
0.0
  0
LINE
  5
525
100
AcDbEntity
  8
0
370
               0
390
0
  6
Continuous
 62
              30
100
AcDbLine
 10
339.37570755085767
 20
1066.3415617016035
 30
0.0
 11
339.37570755085767
 21
1059.27049388974
 31
0.0
  0
LINE
  5
526
100
AcDbEntity
  8
0
370
               0
390
0
  6
Continuous
 62
              30
100
AcDbLine
 10
336.37570755085767
 20
1066.3415617016035
 30
0.0
 11
336.3757075508579
 21
1059.27049388974
 31
0.0
  0
LINE
  5
527
100
AcDbEntity
  8
0
370
               0
390
0
  6
Continuous
 62
              30
100
AcDbLine
 10
336.3757075508579
 20
1012.7091580032502
 30
0.0
 11
339.3757075508579
 21
1012.7091580032502
 31
0.0
  0
LINE
  5
528
100
AcDbEntity
  8
0
370
               0
390
0
  6
Continuous
 62
              30
100
AcDbLine
 10
339.3757075508579
 20
1046.9059828488043
 30
0.0
 11
339.3757075508579
 21
1012.7091580032502
 31
0.0
  0
LINE
  5
529
100
AcDbEntity
  8
0
370
               0
390
0
  6
Continuous
 62
              30
100
AcDbLine
 10
336.3757075508579
 20
1046.9059828488043
 30
0.0
 11
336.3757075508579
 21
1012.7091580032502
 31
0.0
  0
LINE
  5
52A
100
AcDbEntity
  8
0
370
               0
390
0
  6
Continuous
 62
              30
100
AcDbLine
 10
-297.62429244914347
 20
1012.7091580032479
 30
0.0
 11
-300.62429244914438
 21
1012.7091580032479
 31
0.0
  0
LINE
  5
52B
100
AcDbEntity
  8
0
370
               0
390
0
  6
Continuous
 62
              30
100
AcDbLine
 10
-297.62429244914347
 20
1012.7091580032479
 30
0.0
 11
-297.62429244914438
 21
1046.9059828488021
 31
0.0
  0
LINE
  5
52C
100
AcDbEntity
  8
0
370
               0
390
0
  6
Continuous
 62
              30
100
AcDbLine
 10
-300.62429244914438
 20
1012.7091580032479
 30
0.0
 11
-300.62429244914438
 21
1046.9059828488021
 31
0.0
  0
LINE
  5
52D
100
AcDbEntity
  8
0
370
               0
390
0
  6
Continuous
 62
              30
100
AcDbLine
 10
339.37570755085767
 20
1131.7974058242944
 30
0.0
 11
339.37570755085767
 21
1121.998415951075
 31
0.0
  0
LINE
  5
52E
100
AcDbEntity
  8
0
370
               0
390
0
  6
Continuous
 62
              30
100
AcDbLine
 10
336.37570755085744
 20
1131.7974058242944
 30
0.0
 11
336.37570755085767
 21
1121.998415951075
 31
0.0
  0
LINE
  5
52F
100
AcDbEntity
  8
0
370
               0
390
0
  6
Continuous
 62
              30
100
AcDbLine
 10
-297.62429244914392
 20
1121.9984159510727
 30
0.0
 11
-297.62429244914392
 21
1131.7974058242921
 31
0.0
  0
LINE
  5
530
100
AcDbEntity
  8
0
370
               0
390
0
  6
Continuous
 62
              30
100
AcDbLine
 10
-300.62429244914438
 20
1121.9984159510727
 30
0.0
 11
-300.62429244914392
 21
1131.7974058242921
 31
0.0
  0
LINE
  5
531
100
AcDbEntity
  8
0
370
               0
390
0
  6
Continuous
 62
              30
100
AcDbLine
 10
339.37570755085767
 20
1076.1405515748065
 30
0.0
 11
339.37570755085767
 21
1066.3415617016035
 31
0.0
  0
LINE
  5
532
100
AcDbEntity
  8
0
370
               0
390
0
  6
Continuous
 62
              30
100
AcDbLine
 10
336.37570755085767
 20
1076.1405515748065
 30
0.0
 11
336.37570755085767
 21
1066.3415617016035
 31
0.0
  0
LINE
  5
533
100
AcDbEntity
  8
0
370
               0
390
0
  6
Continuous
 62
              30
100
AcDbLine
 10
-297.62429244914438
 20
1066.3415617016021
 30
0.0
 11
-297.62429244914438
 21
1076.1405515748042
 31
0.0
  0
LINE
  5
534
100
AcDbEntity
  8
0
370
               0
390
0
  6
Continuous
 62
              30
100
AcDbLine
 10
-300.62429244914438
 20
1066.3415617016021
 30
0.0
 11
-300.62429244914438
 21
1076.1405515748042
 31
0.0
  0
ARC
  5
535
100
AcDbEntity
  8
0
370
               0
390
0
  6
Continuous
 62
              30
100
AcDbCircle
 10
-296.12429244914347
 20
1329.1380262578846
 30
0.0
 40
1.5
100
AcDbArc
 50
90.0
 51
180.0
  0
ARC
  5
536
100
AcDbEntity
  8
0
370
               0
390
0
  6
Continuous
 62
              30
100
AcDbCircle
 10
-296.12429244914347
 20
1329.1380262578846
 30
0.0
 40
4.5
100
AcDbArc
 50
90.0
 51
180.0
  0
ARC
  5
537
100
AcDbEntity
  8
0
370
               0
390
0
  6
Continuous
 62
              30
100
AcDbCircle
 10
334.87570755085676
 20
1329.1380262578846
 30
0.0
 40
1.5000000000002274
100
AcDbArc
 50
0.0
 51
90.0
  0
ARC
  5
538
100
AcDbEntity
  8
0
370
               0
390
0
  6
Continuous
 62
              30
100
AcDbCircle
 10
334.87570755085676
 20
1329.1380262578846
 30
0.0
 40
4.5
100
AcDbArc
 50
0.0
 51
90.0
  0
LINE
  5
539
100
AcDbEntity
  8
0
370
               0
390
0
  6
Continuous
 62
              30
100
AcDbLine
 10
339.3757075508579
 20
1012.7091580032502
 30
0.0
 11
339.3757075508579
 21
1011.6380262578814
 31
0.0
  0
LINE
  5
53A
100
AcDbEntity
  8
0
370
               0
390
0
  6
Continuous
 62
              30
100
AcDbLine
 10
336.3757075508579
 20
1012.7091580032502
 30
0.0
 11
336.3757075508579
 21
1011.6380262578814
 31
0.0
  0
LINE
  5
53B
100
AcDbEntity
  8
0
370
               0
390
0
  6
Continuous
 62
              30
100
AcDbLine
 10
-297.62429244914438
 20
1011.6380262578791
 30
0.0
 11
-297.62429244914347
 21
1012.7091580032479
 31
0.0
  0
LINE
  5
53C
100
AcDbEntity
  8
0
370
               0
390
0
  6
Continuous
 62
              30
100
AcDbLine
 10
-300.62429244914438
 20
1011.6380262578791
 30
0.0
 11
-300.62429244914438
 21
1012.7091580032479
 31
0.0
  0
DIMENSION
  5
53D
100
AcDbEntity
  8
寸法
370
               0
390
0
  6
Continuous
 62
               2
100
AcDbDimension
  2
*D48
 10
-300.62429244914347
 20
1391.3111885006047
 30
0.0
 11
1.7507075508565322
 21
1398.8111885006047
 31
0.0
 70
             128
 71
               5
 72
               1
 41
1.0
 42
0.0
  3
HIBINO
100
AcDbAlignedDimension
 13
339.37570755085676
 23
1329.1380262578846
 33
0.0
 14
-300.62429244914347
 24
1329.1380262578846
 34
0.0
100
AcDbRotatedDimension
1001
ACAD
1000
DSTYLE
1002
{
1070
             279
1070
               2
1070
             340
1005
60
1070
             140
1040
48.865234375000007
1070
             147
1040
7.5
1002
}
  0
DIMENSION
  5
53E
100
AcDbEntity
  8
寸法
370
               0
390
0
  6
Continuous
 62
               2
100
AcDbDimension
  2
*D49
 10
-336.25080081300791
 20
1333.6380262578846
 30
0.0
 11
-343.75080081300791
 21
1166.7090171155846
 31
0.0
 70
             128
 71
               5
 72
               1
 41
1.0
 42
0.0
  3
HIBINO
100
AcDbAlignedDimension
 13
-300.62429244914438
 23
1011.6380262578791
 33
0.0
 14
-296.12429244914347
 24
1333.6380262578846
 34
0.0
 50
-90.0
100
AcDbRotatedDimension
1001
ACAD
1000
DSTYLE
1002
{
1070
             279
1070
               2
1070
             340
1005
60
1070
             140
1040
48.865234375000007
1070
             147
1040
7.5
1002
}
  0
DIMENSION
  5
53F
100
AcDbEntity
  8
寸法
370
               0
390
0
  6
Continuous
 62
               2
100
AcDbDimension
  2
*D50
 10
336.3757075508579
 20
941.17652552140623
 30
0.0
 11
409.98786687253516
 21
948.67652552140623
 31
0.0
 70
             128
 71
               5
 72
               1
 41
1.0
 42
0.0
  3
HIBINO
100
AcDbAlignedDimension
 13
339.3757075508579
 23
1011.6380262578814
 33
0.0
 14
336.3757075508579
 24
1011.6380262578814
 34
0.0
100
AcDbRotatedDimension
1001
ACAD
1000
DSTYLE
1002
{
1070
             279
1070
               2
1070
             340
1005
60
1070
             174
1070
               0
1070
             147
1040
7.5
1002
}
  0
ENDBLK
  5
540
100
AcDbEntity
  8
0
390
0
100
AcDbBlockEnd
  0
BLOCK
  5
541
100
AcDbEntity
  8
0
390
0
100
AcDbBlockBegin
  2
グループ-21
 70
               0
 10
0.0
 20
0.0
 30
0.0
  3
グループ-21
  1

  0
INSERT
  5
542
100
AcDbEntity
  8
0
390
0
 62
               2
100
AcDbBlockReference
  2
グループ-10
 10
0.0
 20
0.0
 30
0.0
  0
INSERT
  5
543
100
AcDbEntity
  8
0
390
0
 62
               2
100
AcDbBlockReference
  2
グループ-11
 10
0.0
 20
0.0
 30
0.0
  0
INSERT
  5
544
100
AcDbEntity
  8
0
390
0
 62
               2
100
AcDbBlockReference
  2
グループ-19
 10
0.0
 20
0.0
 30
0.0
  0
INSERT
  5
545
100
AcDbEntity
  8
0
390
0
 62
               2
100
AcDbBlockReference
  2
グループ-20
 10
0.0
 20
0.0
 30
0.0
  0
ENDBLK
  5
546
100
AcDbEntity
  8
0
390
0
100
AcDbBlockEnd
  0
BLOCK
  5
547
100
AcDbEntity
  8
0
390
0
100
AcDbBlockBegin
  2
グループ-22
 70
               0
 10
0.0
 20
0.0
 30
0.0
  3
グループ-22
  1

  0
MTEXT
  5
548
100
AcDbEntity
  8
0
390
0
 62
               2
100
AcDbMText
 10
-837.9453969819109
 20
1385.1250236592934
 30
0.0
 40
48.865234375000092
 41
0.0
 71
               1
 72
               1
  1
{\fＭＳ ゴシック|b0|i0|c128|p0;\lA12HG}
 73
               1
 44
0.7828267384257843
  0
INSERT
  5
549
100
AcDbEntity
  8
0
390
0
 62
               2
100
AcDbBlockReference
  2
グループ-21
 10
0.0
 20
0.0
 30
0.0
  0
ENDBLK
  5
54A
100
AcDbEntity
  8
0
390
0
100
AcDbBlockEnd
  0
BLOCK
  5
54B
100
AcDbEntity
  8
0
390
0
100
AcDbBlockBegin
  2
Callout
 70
               2
 10
0.0
 20
0.0
 30
0.0
  3
Callout
  1

  0
MTEXT
  5
54C
100
AcDbEntity
  8
0
390
0
 62
               2
100
AcDbMText
 10
10.238654492877473
 20
-27.388941343179926
 30
0.0
 40
24.432617187500004
 41
127.254
 71
               1
 72
               1
  1
{\fＭＳ ゴシック|b0|i0|c128|p0;\lM6ナット}
 11
-0.1028996360979693
 21
-0.9946917436527286
 31
0.0
 73
               1
 44
0.7828267384257843
  0
LINE
  5
54D
100
AcDbEntity
  8
0
370
               0
390
0
  6
Continuous
 62
               2
100
AcDbLine
 10
-2.5724909024492453
 20
-24.867293591318212
 30
0.0
 11
0.0
 21
0.0
 31
0.0
  0
LINE
  5
54E
100
AcDbEntity
  8
0
370
               0
390
0
  6
Continuous
 62
               2
100
AcDbLine
 10
0.0
 20
0.0
 30
0.0
 11
64.489421146830409
 21
0.0
 31
0.0
  0
POLYLINE
  5
54F
100
AcDbEntity
  8
0
370
               0
390
0
  6
Continuous
 62
               2
100
AcDb2dPolyline
 66
               1
 10
0.0
 20
0.0
 30
0.0
 75
               5
  0
VERTEX
  5
550
100
AcDbEntity
  8
0
370
               0
390
0
  6
Continuous
 62
               2
100
AcDbVertex
100
AcDb2dVertex
 10
16.864421146830409
 20
12.76108028953222
 30
0.0
  0
VERTEX
  5
551
100
AcDbEntity
  8
0
370
               0
390
0
  6
Continuous
 62
               2
100
AcDbVertex
100
AcDb2dVertex
 10
64.489421146830409
 20
0.0
 30
0.0
  0
VERTEX
  5
552
100
AcDbEntity
  8
0
370
               0
390
0
  6
Continuous
 62
               2
100
AcDbVertex
100
AcDb2dVertex
 10
16.864421146830416
 20
-12.761080289532231
 30
0.0
  0
SEQEND
  5
553
100
AcDbEntity
  8
0
370
               0
390
0
  6
Continuous
 62
               2
  0
ENDBLK
  5
554
100
AcDbEntity
  8
0
390
0
100
AcDbBlockEnd
  0
BLOCK
  5
555
100
AcDbEntity
  8
0
390
0
100
AcDbBlockBegin
  2
グループ-23
 70
               0
 10
0.0
 20
0.0
 30
0.0
  3
グループ-23
  1

  0
LINE
  5
556
100
AcDbEntity
  8
0
370
               0
390
0
  6
Continuous
 62
               1
100
AcDbLine
 10
-879.23866019053696
 20
1044.3236348326295
 30
0.0
 11
-882.73865651242625
 21
1047.8236202891021
 31
0.0
  0
LINE
  5
557
100
AcDbEntity
  8
0
370
               0
390
0
  6
Continuous
 62
               1
100
AcDbLine
 10
-834.33737859530686
 20
1044.3236348326295
 30
0.0
 11
-840.3373795787835
 21
1050.3236171896547
 31
0.0
  0
LINE
  5
558
100
AcDbEntity
  8
0
370
               0
390
0
  6
Continuous
 62
               1
100
AcDbLine
 10
-901.68929726286126
 20
1044.3236348326295
 30
0.0
 11
-907.6893019716282
 21
1050.3236171896547
 31
0.0
  0
LINE
  5
559
100
AcDbEntity
  8
0
370
               0
390
0
  6
Continuous
 62
               1
100
AcDbLine
 10
-744.53481913013695
 20
1044.3236348326295
 30
0.0
 11
-750.53481638832329
 21
1050.3236171896547
 31
0.0
  0
LINE
  5
55A
100
AcDbEntity
  8
0
370
               0
390
0
  6
Continuous
 62
               1
100
AcDbLine
 10
-766.985459927752
 20
1044.3236348326295
 30
0.0
 11
-772.98545718593834
 21
1050.3236171896547
 31
0.0
  0
ENDBLK
  5
55B
100
AcDbEntity
  8
0
390
0
100
AcDbBlockEnd
  0
BLOCK
  5
55C
100
AcDbEntity
  8
0
390
0
100
AcDbBlockBegin
  2
グループ-24
 70
               0
 10
0.0
 20
0.0
 30
0.0
  3
グループ-24
  1

  0
ARC
  5
55D
100
AcDbEntity
  8
0
370
               0
390
0
  6
Continuous
 62
              30
100
AcDbCircle
 10
-726.88675759003911
 20
1041.3236192424529
 30
0.0
 40
3.000015590224689
100
AcDbArc
 50
359.9998970465449
 51
89.999676068025281
  0
LINE
  5
55E
100
AcDbEntity
  8
0
370
               0
390
0
  6
Continuous
 62
              30
100
AcDbLine
 10
-723.88674199981926
 20
1041.3236138517946
 30
0.0
 11
-723.88674199981926
 21
1024.3236241037939
 31
0.0
  0
LINE
  5
55F
100
AcDbEntity
  8
0
370
               0
390
0
  6
Continuous
 62
              30
100
AcDbLine
 10
-723.88674199981926
 20
1024.3236241037939
 30
0.0
 11
-717.88673729105233
 21
1024.3236241037939
 31
0.0
  0
LINE
  5
560
100
AcDbEntity
  8
0
370
               0
390
0
  6
Continuous
 62
              30
100
AcDbLine
 10
-717.88673729105233
 20
1041.3236138517946
 30
0.0
 11
-717.88673729105233
 21
1024.3236241037939
 31
0.0
  0
ARC
  5
561
100
AcDbEntity
  8
0
370
               0
390
0
  6
Continuous
 62
              30
100
AcDbCircle
 10
-726.88674590478024
 20
1041.3236085759263
 30
0.0
 40
9.000008613729916
100
AcDbArc
 50
0.0000335871883703
 51
89.999966412811617
  0
LINE
  5
562
100
AcDbEntity
  8
0
370
               0
390
0
  6
Continuous
 62
              30
100
AcDbLine
 10
-726.88674062891243
 20
1041.3236138517946
 30
0.0
 11
-726.88674062891243
 21
1044.3236348326295
 31
0.0
  0
LINE
  5
563
100
AcDbEntity
  8
0
370
               0
390
0
  6
Continuous
 62
              30
100
AcDbLine
 10
-723.88674199981926
 20
1041.3236138517946
 30
0.0
 11
-726.88674062891243
 21
1041.3236138517946
 31
0.0
  0
ENDBLK
  5
564
100
AcDbEntity
  8
0
390
0
100
AcDbBlockEnd
  0
BLOCK
  5
565
100
AcDbEntity
  8
0
390
0
100
AcDbBlockBegin
  2
グループ-25
 70
               0
 10
0.0
 20
0.0
 30
0.0
  3
グループ-25
  1

  0
LINE
  5
566
100
AcDbEntity
  8
0
370
               0
390
0
  6
Continuous
 62
              30
100
AcDbLine
 10
-723.88674199981926
 20
1024.3236241037939
 30
0.0
 11
-723.27411055965661
 21
1024.3236241037939
 31
0.0
  0
LINE
  5
567
100
AcDbEntity
  8
0
370
               0
390
0
  6
Continuous
 62
              30
100
AcDbLine
 10
-723.88674199981926
 20
1024.3236241037939
 30
0.0
 11
-723.88674199981926
 21
1041.3236138517946
 31
0.0
  0
ARC
  5
568
100
AcDbEntity
  8
0
370
               0
390
0
  6
Continuous
 62
              30
100
AcDbCircle
 10
-726.88675759003911
 20
1041.3236192424524
 30
0.0
 40
3.0000155902251437
100
AcDbArc
 50
359.99989704655366
 51
89.999676068025281
  0
LINE
  5
569
100
AcDbEntity
  8
0
370
               0
390
0
  6
Continuous
 62
              30
100
AcDbLine
 10
-809.88673840118884
 20
1050.3236171896547
 30
0.0
 11
-809.88673840118884
 21
1044.3236348326295
 31
0.0
  0
LINE
  5
56A
100
AcDbEntity
  8
0
370
               0
390
0
  6
Continuous
 62
              30
100
AcDbLine
 10
-726.88674062891243
 20
1044.3236348326295
 30
0.0
 11
-809.88673840118884
 21
1044.3236348326295
 31
0.0
  0
LINE
  5
56B
100
AcDbEntity
  8
0
370
               0
390
0
  6
Continuous
 62
              30
100
AcDbLine
 10
-726.88674062891243
 20
1050.3236171896547
 30
0.0
 11
-809.88673840118884
 21
1050.3236171896547
 31
0.0
  0
ARC
  5
56C
100
AcDbEntity
  8
0
370
               0
390
0
  6
Continuous
 62
              30
100
AcDbCircle
 10
-908.88671997229733
 20
1041.3236192424529
 30
0.0
 40
3.0000155902250456
100
AcDbArc
 50
90.000323931974705
 51
180.00010295345507
  0
LINE
  5
56D
100
AcDbEntity
  8
0
370
               0
390
0
  6
Continuous
 62
              30
100
AcDbLine
 10
-911.88673556251717
 20
1041.3236138517946
 30
0.0
 11
-911.88673556251717
 21
1024.3236241037939
 31
0.0
  0
LINE
  5
56E
100
AcDbEntity
  8
0
370
               0
390
0
  6
Continuous
 62
              30
100
AcDbLine
 10
-911.88673556251717
 20
1024.3236241037939
 30
0.0
 11
-917.88674027128411
 21
1024.3236241037939
 31
0.0
  0
LINE
  5
56F
100
AcDbEntity
  8
0
370
               0
390
0
  6
Continuous
 62
              30
100
AcDbLine
 10
-917.88674027128411
 20
1041.3236138517946
 30
0.0
 11
-917.88674027128411
 21
1024.3236241037939
 31
0.0
  0
ARC
  5
570
100
AcDbEntity
  8
0
370
               0
390
0
  6
Continuous
 62
              30
100
AcDbCircle
 10
-908.8867316575562
 20
1041.3236085759263
 30
0.0
 40
9.0000086137303708
100
AcDbArc
 50
90.000033587188369
 51
179.99996641281163
  0
LINE
  5
571
100
AcDbEntity
  8
0
370
               0
390
0
  6
Continuous
 62
              30
100
AcDbLine
 10
-825.88673916114806
 20
1044.3236348326295
 30
0.0
 11
-825.88673916114806
 21
1050.3236171896547
 31
0.0
  0
LINE
  5
572
100
AcDbEntity
  8
0
370
               0
390
0
  6
Continuous
 62
              30
100
AcDbLine
 10
-825.88673916114806
 20
1044.3236348326295
 30
0.0
 11
-908.886736933424
 21
1044.3236348326295
 31
0.0
  0
LINE
  5
573
100
AcDbEntity
  8
0
370
               0
390
0
  6
Continuous
 62
              30
100
AcDbLine
 10
-825.88673916114806
 20
1050.3236171896547
 30
0.0
 11
-908.886736933424
 21
1050.3236171896547
 31
0.0
  0
LINE
  5
574
100
AcDbEntity
  8
0
370
               0
390
0
  6
Continuous
 62
              30
100
AcDbLine
 10
-825.88673916114806
 20
1044.3236348326295
 30
0.0
 11
-809.88673840118884
 21
1044.3236348326295
 31
0.0
  0
LINE
  5
575
100
AcDbEntity
  8
0
370
               0
390
0
  6
Continuous
 62
              30
100
AcDbLine
 10
-809.88673840118884
 20
1050.3236171896547
 30
0.0
 11
-825.88673916114806
 21
1050.3236171896547
 31
0.0
  0
LINE
  5
576
100
AcDbEntity
  8
0
370
               0
390
0
  6
Continuous
 62
              30
100
AcDbLine
 10
-908.886736933424
 20
1041.3236138517946
 30
0.0
 11
-726.88674062891243
 21
1041.3236138517946
 31
0.0
  0
LINE
  5
577
100
AcDbEntity
  8
0
370
               0
390
0
  6
Continuous
 62
              30
100
AcDbLine
 10
-908.886736933424
 20
1041.3236138517946
 30
0.0
 11
-908.886736933424
 21
1044.3236348326295
 31
0.0
  0
LINE
  5
578
100
AcDbEntity
  8
0
370
               0
390
0
  6
Continuous
 62
              30
100
AcDbLine
 10
-726.88674062891243
 20
1044.3236348326295
 30
0.0
 11
-726.88674062891243
 21
1041.3236138517946
 31
0.0
  0
LINE
  5
579
100
AcDbEntity
  8
0
370
               0
390
0
  6
Continuous
 62
              30
100
AcDbLine
 10
-911.88673556251717
 20
1041.3236138517946
 30
0.0
 11
-908.886736933424
 21
1041.3236138517946
 31
0.0
  0
LINE
  5
57A
100
AcDbEntity
  8
0
370
               0
390
0
  6
Continuous
 62
              30
100
AcDbLine
 10
-726.88674062891243
 20
1041.3236138517946
 30
0.0
 11
-723.88674199981926
 21
1041.3236138517946
 31
0.0
  0
LINE
  5
57B
100
AcDbEntity
  8
0
370
               0
390
0
  6
STYLE_02
 62
               1
100
AcDbLine
 10
-809.88673878118573
 20
1050.3236202891026
 30
0.0
 11
-809.88673878118573
 21
1030.3236202891021
 31
0.0
  0
LINE
  5
57C
100
AcDbEntity
  8
0
370
               0
390
0
  6
STYLE_02
 62
               1
100
AcDbLine
 10
-825.88673878118527
 20
1050.3236202891026
 30
0.0
 11
-825.88673878118527
 21
1030.3236202891021
 31
0.0
  0
LINE
  5
57D
100
AcDbEntity
  8
0
370
               0
390
0
  6
STYLE_02
 62
               1
100
AcDbLine
 10
-825.88673878118527
 20
1030.3236202891021
 30
0.0
 11
-809.88673878118573
 21
1030.3236202891021
 31
0.0
  0
INSERT
  5
57E
100
AcDbEntity
  8
0
390
0
 62
               1
100
AcDbBlockReference
  2
グループ-23
 10
0.0
 20
0.0
 30
0.0
  0
INSERT
  5
57F
100
AcDbEntity
  8
0
390
0
 62
               2
100
AcDbBlockReference
  2
グループ-24
 10
0.0
 20
0.0
 30
0.0
  0
ENDBLK
  5
580
100
AcDbEntity
  8
0
390
0
100
AcDbBlockEnd
  0
BLOCK
  5
581
100
AcDbEntity
  8
0
390
0
100
AcDbBlockBegin
  2
グループ-26
 70
               0
 10
0.0
 20
0.0
 30
0.0
  3
グループ-26
  1

  0
INSERT
  5
582
100
AcDbEntity
  8
0
390
0
 62
               2
100
AcDbBlockReference
  2
グループ-25
 10
0.0
 20
0.0
 30
0.0
  0
CIRCLE
  5
583
100
AcDbEntity
  8
0
370
               0
390
0
  6
Continuous
 62
               2
100
AcDbCircle
 10
-823.38755343997025
 20
999.48781477076648
 30
0.0
 40
163.34167673790742
  0
LINE
  5
584
100
AcDbEntity
  8
0
370
               0
390
0
  6
Continuous
 62
               2
100
AcDbLine
 10
-725.62429244914347
 20
1130.3421160374444
 30
0.0
 11
-586.25080081300791
 21
1302.0611885006044
 31
0.0
  0
POLYLINE
  5
585
102
{ACAD_REACTORS
330
58A
102
}
100
AcDbEntity
  8
0
370
               0
390
0
  6
Continuous
 62
               7
100
AcDb2dPolyline
 66
               1
 10
0.0
 20
0.0
 30
0.0
 70
               1
 75
               5
  0
VERTEX
  5
586
100
AcDbEntity
  8
0
370
               0
390
0
  6
Continuous
 62
               7
100
AcDbVertex
100
AcDb2dVertex
 10
-626.13940644759452
 20
1273.0804201242429
 30
0.0
  0
VERTEX
  5
587
100
AcDbEntity
  8
0
370
               0
390
0
  6
Continuous
 62
               7
100
AcDbVertex
100
AcDb2dVertex
 10
-586.25080081300791
 20
1302.0611885006044
 30
0.0
  0
VERTEX
  5
588
100
AcDbEntity
  8
0
370
               0
390
0
  6
Continuous
 62
               7
100
AcDbVertex
100
AcDb2dVertex
 10
-606.30496242591835
 20
1257.0188040481894
 30
0.0
  0
SEQEND
  5
589
100
AcDbEntity
  8
0
370
               0
390
0
  6
Continuous
 62
               7
  0
HATCH
  5
58A
100
AcDbEntity
  8
0
370
               0
390
0
  6
Continuous
 62
               2
100
AcDbHatch
 10
0.0
 20
0.0
 30
0.0
210
0.0
220
0.0
230
1.0
  2
SOLID
 70
               1
 71
               1
 91
        1
 92
        1
 93
        3
 72
               1
 10
-626.13940644759452
 20
1273.0804201242429
 11
-586.25080081300791
 21
1302.0611885006044
 72
               1
 10
-586.25080081300791
 20
1302.0611885006044
 11
-606.30496242591835
 21
1257.0188040481894
 72
               1
 10
-606.30496242591835
 20
1257.0188040481894
 11
-626.13940644759452
 21
1273.0804201242429
 97
        1
330
585
 75
               0
 76
               1
 98
        1
 10
0.0
 20
0.0
  0
ENDBLK
  5
58B
100
AcDbEntity
  8
0
390
0
100
AcDbBlockEnd
  0
BLOCK
  5
58C
100
AcDbEntity
  8
0
390
0
100
AcDbBlockBegin
  2
グループ-27
 70
               0
 10
0.0
 20
0.0
 30
0.0
  3
グループ-27
  1

  0
INSERT
  5
58D
100
AcDbEntity
  8
0
390
0
 62
               2
100
AcDbBlockReference
  2
Callout
 10
-811.25080081300791
 20
966.17652552140623
 30
0.0
 50
95.906169051236262
  0
INSERT
  5
58E
100
AcDbEntity
  8
0
390
0
 62
               2
100
AcDbBlockReference
  2
グループ-26
 10
0.0
 20
0.0
 30
0.0
  0
ENDBLK
  5
58F
100
AcDbEntity
  8
0
390
0
100
AcDbBlockEnd
  0
BLOCK
  5
590
100
AcDbEntity
  8
0
390
0
100
AcDbBlockBegin
  2
グループ-28
 70
               0
 10
0.0
 20
0.0
 30
0.0
  3
グループ-28
  1

  0
INSERT
  5
591
100
AcDbEntity
  8
0
390
0
 62
               2
100
AcDbBlockReference
  2
グループ-22
 10
0.0
 20
0.0
 30
0.0
  0
MTEXT
  5
592
100
AcDbEntity
  8
0
390
0
 62
               2
100
AcDbMText
 10
-817.62580081300791
 20
648.93175989640622
 30
0.0
 40
48.865234375000092
 41
0.0
 71
               1
 72
               1
  1
{\fＭＳ ゴシック|b0|i0|c128|p0;\l重量　約3.5kg}
 73
               1
 44
0.7828267384257843
  0
INSERT
  5
593
100
AcDbEntity
  8
0
390
0
 62
               2
100
AcDbBlockReference
  2
グループ-27
 10
0.0
 20
0.0
 30
0.0
  0
ENDBLK
  5
594
100
AcDbEntity
  8
0
390
0
100
AcDbBlockEnd
  0
ENDSEC
  0
SECTION
  2
ENTITIES
  0
LINE
  5
595
100
AcDbEntity
  8
SPEC
370
               0
390
0
  6
Continuous
 62
               0
100
AcDbLine
 10
-1000.9046849989392
 20
2023.4089360338685
 30
0.0
 11
1211.595315001061
 21
2023.4089360338685
 31
0.0
  0
LINE
  5
596
100
AcDbEntity
  8
SPEC
370
               0
390
0
  6
Continuous
 62
               0
100
AcDbLine
 10
-1000.9046849989392
 20
1963.4089360338685
 30
0.0
 11
1211.595315001061
 21
1963.4089360338685
 31
0.0
  0
LINE
  5
597
100
AcDbEntity
  8
SPEC
370
               0
390
0
  6
Continuous
 62
               0
100
AcDbLine
 10
-1000.9046849989392
 20
2023.4089360338685
 30
0.0
 11
-1000.9030407090687
 21
1727.160346670717
 31
0.0
  0
MTEXT
  5
598
100
AcDbEntity
  8
SPEC
390
0
 62
               0
100
AcDbMText
 10
-982.15468499893916
 20
2076.648337596368
 30
0.0
 40
36.648925781250007
 41
0.0
 71
               1
 72
               1
  1
{\fＭＳ ゴシック|b0|i0|c128|p0;\l仕様}
 73
               1
 44
0.7828267384257843
  0
LINE
  5
599
100
AcDbEntity
  8
SPEC
370
               0
390
0
  6
Continuous
 62
               0
100
AcDbLine
 10
-513.40468499893916
 20
2023.4089360338685
 30
0.0
 11
-513.40468499893916
 21
1727.160346670717
 31
0.0
  0
LINE
  5
59A
100
AcDbEntity
  8
SPEC
370
               0
390
0
  6
Continuous
 62
               0
100
AcDbLine
 10
1211.595315001061
 20
2023.4089360338685
 30
0.0
 11
1211.5969592909314
 21
1727.160346670717
 31
0.0
  0
LINE
  5
59B
100
AcDbEntity
  8
SPEC
370
               0
390
0
  6
Continuous
 62
               0
100
AcDbLine
 10
-1000.9046849989392
 20
1903.4089360338685
 30
0.0
 11
1211.595315001061
 21
1903.4089360338685
 31
0.0
  0
LINE
  5
59C
100
AcDbEntity
  8
SPEC
370
               0
390
0
  6
Continuous
 62
               0
100
AcDbLine
 10
-1000.9046849989392
 20
1843.4089360338685
 30
0.0
 11
1211.595315001061
 21
1843.4089360338685
 31
0.0
  0
MTEXT
  5
59D
100
AcDbEntity
  8
SPEC
390
0
 62
               0
100
AcDbMText
 10
-499.63281594833109
 20
1884.9224005838755
 30
0.0
 40
28.504720052083346
 41
0.0
 71
               1
 72
               1
  1
{\fＭＳ ゴシック|b0|i0|c128|p0;\l図面表記をご参照ください。}
 73
               1
 44
0.7828267384257843
  0
MTEXT
  5
59E
100
AcDbEntity
  8
SPEC
390
0
 62
               0
100
AcDbMText
 10
-499.59066166206605
 20
1948.0958982298157
 30
0.0
 40
28.504720052083346
 41
0.0
 71
               1
 72
               1
  1
{\fＭＳ ゴシック|b0|i0|c128|p0;\l塗装 標準色：黒   ※特注色（RAL指定による）の場合もあり。}
 73
               1
 44
0.7828267384257843
  0
MTEXT
  5
59F
100
AcDbEntity
  8
SPEC
390
0
 62
               0
100
AcDbMText
 10
-988.99085633070956
 20
1948.8189258244738
 30
0.0
 40
28.504720052083346
 41
0.0
 71
               1
 72
               1
  1
{\fＭＳ ゴシック|b0|i0|c128|p0;\l仕上げ}
 73
               1
 44
0.7828267384257843
  0
MTEXT
  5
5A0
100
AcDbEntity
  8
SPEC
390
0
 62
               0
100
AcDbMText
 10
-988.45652764384033
 20
2005.1765916932704
 30
0.0
 40
28.504720052083346
 41
0.0
 71
               1
 72
               1
  1
{\fＭＳ ゴシック|b0|i0|c128|p0;\l形式}
 73
               1
 44
0.7828267384257843
  0
MTEXT
  5
5A1
100
AcDbEntity
  8
SPEC
390
0
 62
               0
100
AcDbMText
 10
-988.61849179264721
 20
1887.1673344167216
 30
0.0
 40
28.504720052083346
 41
0.0
 71
               1
 72
               1
  1
{\fＭＳ ゴシック|b0|i0|c128|p0;\l寸法}
 73
               1
 44
0.7828267384257843
  0
MTEXT
  5
5A2
100
AcDbEntity
  8
SPEC
390
0
 62
               0
100
AcDbMText
 10
-988.53949593078926
 20
1831.1253659689241
 30
0.0
 40
28.504720052083346
 41
0.0
 71
               1
 72
               1
  1
{\fＭＳ ゴシック|b0|i0|c128|p0;\l重量}
 73
               1
 44
0.7828267384257843
  0
MTEXT
  5
5A3
100
AcDbEntity
  8
SPEC
390
0
 62
               0
100
AcDbMText
 10
-503.09598434721613
 20
2003.8446802090016
 30
0.0
 40
28.504720052083346
 41
0.0
 71
               1
 72
               1
  1
{\fＭＳ ゴシック|b0|i0|c128|p0;\l固定設備及び仮設イベント向けGシリーズ用天吊り金具}
 73
               1
 44
0.7828267384257843
  0
LINE
  5
5A4
100
AcDbEntity
  8
SPEC
370
               0
390
0
  6
Continuous
 62
               0
100
AcDbLine
 10
-1000.9046849989392
 20
1787.1589360338685
 30
0.0
 11
1211.595315001061
 21
1787.1589360338685
 31
0.0
  0
MTEXT
  5
5A5
100
AcDbEntity
  8
SPEC
390
0
 62
               0
100
AcDbMText
 10
-499.08668732754052
 20
1773.2639847352352
 30
0.0
 40
27.224372509123548
 41
0.0
 71
               1
 72
               1
  1
{\fＭＳ ゴシック|b0|i0|c128|p0;\lスピーカーキャビネット取付ネジ（普通ネジ、\fＭＳ ゴシック|b0|i0|c128|p0;\H1.047x;\lハンドルネジが\fＭＳ ゴシック|b0|i0|c128|p0;\lA12HGは4個,A12VGは2個付属。}
 73
               1
 44
0.7828267384257843
  0
MTEXT
  5
5A6
100
AcDbEntity
  8
SPEC
390
0
 62
               0
100
AcDbMText
 10
-987.31245602996762
 20
1773.1534849035074
 30
0.0
 40
28.504720052083346
 41
0.0
 71
               1
 72
               1
  1
{\fＭＳ ゴシック|b0|i0|c128|p0;\l付属品}
 73
               1
 44
0.7828267384257843
  0
LINE
  5
5A7
100
AcDbEntity
  8
SPEC
370
               0
390
0
  6
Continuous
 62
               0
100
AcDbLine
 10
-1000.9030407090687
 20
1727.160346670717
 30
0.0
 11
1211.5969592909314
 21
1727.160346670717
 31
0.0
  0
LINE
  5
5A8
100
AcDbEntity
  8
一般
370
               0
390
0
  6
Continuous
 62
               4
100
AcDbLine
 10
-1239.5390770628428
 20
2175.8175790819014
 30
0.0
 11
1460.4609229371563
 21
2175.8175790819014
 31
0.0
  0
LINE
  5
5A9
100
AcDbEntity
  8
一般
370
               0
390
0
  6
Continuous
 62
               4
100
AcDbLine
 10
1460.4609229371563
 20
-1724.1824209180986
 30
0.0
 11
-1239.5390770628428
 21
-1724.1824209180986
 31
0.0
  0
LINE
  5
5AA
100
AcDbEntity
  8
一般
370
               0
390
0
  6
Continuous
 62
               4
100
AcDbLine
 10
-1239.5390770628428
 20
-1724.1824209180986
 30
0.0
 11
-1239.5390770628428
 21
2175.8175790819014
 31
0.0
  0
LINE
  5
5AB
100
AcDbEntity
  8
一般
370
               0
390
0
  6
Continuous
 62
               4
100
AcDbLine
 10
1460.4609229371563
 20
2175.8175790819014
 30
0.0
 11
1460.4609229371563
 21
-1724.1824209180986
 31
0.0
  0
LINE
  5
5AC
100
AcDbEntity
  8
一般
370
               0
390
0
  6
Continuous
 62
               4
100
AcDbLine
 10
110.46092293715662
 20
-1386.6824209180986
 30
0.0
 11
1460.4609229371563
 21
-1386.6824209180986
 31
0.0
  0
LINE
  5
5AD
100
AcDbEntity
  8
一般
370
               0
390
0
  6
Continuous
 62
               4
100
AcDbLine
 10
110.46092293715662
 20
-1724.1824209180986
 30
0.0
 11
110.46092293715662
 21
-1386.6824209180986
 31
0.0
  0
MTEXT
  5
5AE
100
AcDbEntity
  8
一般
390
0
 62
               2
100
AcDbMText
 10
123.96092293715662
 20
-1399.8802037305984
 30
0.0
 40
24.432617187499996
 41
0.0
 71
               1
 72
               1
  1
{\fＭＳ ゴシック|b0|i0|c128|p0;\lNOTE}
 73
               1
 44
0.7828267384257843
  0
LINE
  5
5AF
100
AcDbEntity
  8
一般
370
               0
390
0
  6
Continuous
 62
               2
100
AcDbLine
 10
635.46092293715662
 20
-1724.1824209180986
 30
0.0
 11
635.46092293715662
 21
-1386.6824209180986
 31
0.0
  0
MTEXT
  5
5B0
100
AcDbEntity
  8
一般
390
0
 62
               2
100
AcDbMText
 10
648.96092293715662
 20
-1399.8802037305984
 30
0.0
 40
24.432617187499996
 41
0.0
 71
               1
 72
               1
  1
{\fＭＳ ゴシック|b0|i0|c128|p0;\lTITLE}
 73
               1
 44
0.7828267384257843
  0
LINE
  5
5B1
100
AcDbEntity
  8
一般
370
               0
390
0
  6
Continuous
 62
               2
100
AcDbLine
 10
110.46092293715662
 20
-1574.1824209180986
 30
0.0
 11
1460.4609229371563
 21
-1574.1824209180986
 31
0.0
  0
MTEXT
  5
5B2
100
AcDbEntity
  8
一般
390
0
 62
               2
100
AcDbMText
 10
836.46092293715662
 20
-1586.5354037305985
 30
0.0
 40
24.432617187499996
 41
0.0
 71
               1
 72
               1
  1
{\fＭＳ ゴシック|b0|i0|c128|p0;\lDRAWN}
 73
               1
 44
0.7828267384257843
  0
MTEXT
  5
5B3
100
AcDbEntity
  8
一般
390
0
 62
               2
100
AcDbMText
 10
461.46092293715662
 20
-1586.5354037305985
 30
0.0
 40
24.432617187499996
 41
0.0
 71
               1
 72
               1
  1
{\fＭＳ ゴシック|b0|i0|c128|p0;\lDATE}
 73
               1
 44
0.7828267384257843
  0
MTEXT
  5
5B4
100
AcDbEntity
  8
一般
390
0
 62
               2
100
AcDbMText
 10
311.46092293715662
 20
-1586.5354037305985
 30
0.0
 40
24.432617187499996
 41
0.0
 71
               1
 72
               1
  1
{\fＭＳ ゴシック|b0|i0|c128|p0;\lSCALE}
 73
               1
 44
0.7828267384257843
  0
MTEXT
  5
5B5
100
AcDbEntity
  8
一般
390
0
 62
               2
100
AcDbMText
 10
648.96092293715662
 20
-1586.5354037305985
 30
0.0
 40
24.432617187499996
 41
0.0
 71
               1
 72
               1
  1
{\fＭＳ ゴシック|b0|i0|c128|p0;\lDESIGN}
 73
               1
 44
0.7828267384257843
  0
MTEXT
  5
5B6
100
AcDbEntity
  8
一般
390
0
 62
               2
100
AcDbMText
 10
1211.4609229371563
 20
-1586.5354037305985
 30
0.0
 40
24.432617187499996
 41
0.0
 71
               1
 72
               1
  1
{\fＭＳ ゴシック|b0|i0|c128|p0;\lDRAWING NO.}
 73
               1
 44
0.7828267384257843
  0
MTEXT
  5
5B7
100
AcDbEntity
  8
一般
390
0
 62
               2
100
AcDbMText
 10
1023.9609229371566
 20
-1586.5354037305985
 30
0.0
 40
24.432617187499996
 41
0.0
 71
               1
 72
               1
  1
{\fＭＳ ゴシック|b0|i0|c128|p0;\lCHECK}
 73
               1
 44
0.7828267384257843
  0
LINE
  5
5B8
100
AcDbEntity
  8
一般
370
               0
390
0
  6
Continuous
 62
               2
100
AcDbLine
 10
326.08592293715662
 20
-1705.4324209180986
 30
0.0
 11
382.33592293715662
 21
-1649.1824209180986
 31
0.0
  0
MTEXT
  5
5B9
100
AcDbEntity
  8
一般
390
0
 62
               2
100
AcDbMText
 10
316.71092293715662
 20
-1641.3839537305983
 30
0.0
 40
24.432617187499996
 41
0.0
 71
               1
 72
               1
  1
{\fＭＳ ゴシック|b0|i0|c128|p0;\l1}
 73
               1
 44
0.7828267384257843
  0
LINE
  5
5BA
100
AcDbEntity
  8
一般
370
               0
390
0
  6
Continuous
 62
               2
100
AcDbLine
 10
297.96092293715662
 20
-1724.1824209180986
 30
0.0
 11
297.96092293715662
 21
-1574.1824209180986
 31
0.0
  0
LINE
  5
5BB
100
AcDbEntity
  8
一般
370
               0
390
0
  6
Continuous
 62
               2
100
AcDbLine
 10
447.96092293715662
 20
-1724.1824209180986
 30
0.0
 11
447.96092293715662
 21
-1574.1824209180986
 31
0.0
  0
LINE
  5
5BC
100
AcDbEntity
  8
一般
370
               0
390
0
  6
Continuous
 62
               2
100
AcDbLine
 10
822.96092293715662
 20
-1574.1824209180986
 30
0.0
 11
822.96092293715662
 21
-1724.1824209180986
 31
0.0
  0
LINE
  5
5BD
100
AcDbEntity
  8
一般
370
               0
390
0
  6
Continuous
 62
               2
100
AcDbLine
 10
1197.9609229371567
 20
-1574.1824209180986
 30
0.0
 11
1197.9609229371567
 21
-1724.1824209180986
 31
0.0
  0
LINE
  5
5BE
100
AcDbEntity
  8
一般
370
               0
390
0
  6
Continuous
 62
               2
100
AcDbLine
 10
1010.4609229371566
 20
-1724.1824209180986
 30
0.0
 11
1010.4609229371566
 21
-1574.1824209180986
 31
0.0
  0
MTEXT
  5
5BF
100
AcDbEntity
  8
一般
390
0
 62
               2
100
AcDbMText
 10
480.80902293715656
 20
-1646.7951037305991
 30
0.0
 40
24.432617187499996
 41
0.0
 71
               1
 72
               1
  1
{\fＭＳ ゴシック|b0|i0|c128|p0;\l2014.08}
 73
               1
 44
0.7828267384257843
  0
MTEXT
  5
5C0
100
AcDbEntity
  8
一般
390
0
 62
               2
100
AcDbMText
 10
372.96092293715662
 20
-1669.5089537305983
 30
0.0
 40
24.432617187499996
 41
0.0
 71
               1
 72
               1
  1
{\fＭＳ ゴシック|b0|i0|c128|p0;\l15}
 73
               1
 44
0.7828267384257843
  0
MTEXT
  5
5C1
100
AcDbEntity
  8
一般
390
0
 62
               2
100
AcDbMText
 10
855.54807310267586
 20
-1636.7951037305991
 30
0.0
 40
24.432617187499996
 41
0.0
 71
               1
 72
               1
  1
{\fＭＳ ゴシック|b0|i0|c128|p0;\lKojima\P Shohei}
 73
               1
 44
0.7828267384257843
  0
MTEXT
  5
5C2
100
AcDbEntity
  8
一般
390
0
 62
               2
100
AcDbMText
 10
168.71092293715708
 20
-1645.6771865430985
 30
0.0
 40
48.865234374999993
 41
0.0
 71
               1
 72
               1
  1
{\fＭＳ ゴシック|b0|i0|c128|p0;\lA4}
 73
               1
 44
0.7828267384257843
  0
MTEXT
  5
5C3
100
AcDbEntity
  8
一般
390
0
 62
               2
100
AcDbMText
 10
124.83592293715662
 20
-1589.0416287305986
 30
0.0
 40
24.432617187499996
 41
0.0
 71
               1
 72
               1
  1
{\fＭＳ ゴシック|b0|i0|c128|p0;\lPAPER SIZE}
 73
               1
 44
0.7828267384257843
  0
MTEXT
  5
5C4
100
AcDbEntity
  8
一般
390
0
 62
               2
100
AcDbMText
 10
-1198.1445482094905
 20
-1767.6236871911592
 30
0.0
 40
52.937337239583329
 41
0.0
 71
               1
 72
               1
  1
{\fＭＳ ゴシック|b0|i0|c128|p0;\lHibino-Intersound Corporation}
 73
               1
 44
0.7828267384257843
  0
MTEXT
  5
5C5
100
AcDbEntity
  8
一般
390
0
 62
               2
100
AcDbMText
 10
413.17006814036506
 20
-1762.3573633918181
 30
0.0
 40
52.937337239583329
 41
0.0
 71
               1
 72
               1
  1
{\fＭＳ ゴシック|b0|i0|c128|p0;\lヒビノインタ ーサウンド株式会社}
 73
               1
 44
0.7828267384257843
  0
MTEXT
  5
5C6
100
AcDbEntity
  8
0
390
0
 62
               2
100
AcDbMText
 10
-1007.8195961689031
 20
-1421.0515018621129
 30
0.0
 40
48.865234375000092
 41
0.0
 71
               1
 72
               1
  1
{\fＭＳ ゴシック|b0|i0|c128|p0;\l(単位：mm）}
 73
               1
 44
0.7828267384257843
  0
MTEXT
  5
5C7
100
AcDbEntity
  8
0
390
0
 62
               2
100
AcDbMText
 10
736.37377277163682
 20
-1445.2003256055984
 30
0.0
 40
40.721028645833343
 41
0.0
 71
               1
 72
               1
  1
{\fＭＳ ゴシック|b0|i0|c128|p0;\lCODA AUDIO アクセサリー\PA12HG,A12VG,GFA}
 73
               1
 44
0.7828267384257843
  0
MTEXT
  5
5C8
100
AcDbEntity
  8
一般
390
0
 62
               2
100
AcDbMText
 10
-1105.6250403722129
 20
-1636.9973828125001
 30
0.0
 40
24.432617187500004
 41
0.0
 71
               1
 72
               1
  1
{\fＭＳ ゴシック|b0|i0|c128|p0;\l仕様および外観は予告なく変更されることがありますので、ご了承ください。}
 73
               1
 44
0.7828267384257843
  0
MTEXT
  5
5C9
100
AcDbEntity
  8
SPEC
390
0
 62
               0
100
AcDbMText
 10
-499.99999999999989
 20
1826.6488867187502
 30
0.0
 40
28.504720052083346
 41
0.0
 71
               1
 72
               1
  1
{\fＭＳ ゴシック|b0|i0|c128|p0;\l図面表記をご参照ください。}
 73
               1
 44
0.7828267384257843
  0
INSERT
  5
5CA
100
AcDbEntity
  8
0
390
0
 62
               2
100
AcDbBlockReference
  2
グループ-3
 10
111.25080081300791
 20
158.82347447859374
 30
0.0
  0
INSERT
  5
5CB
100
AcDbEntity
  8
0
390
0
 62
               2
100
AcDbBlockReference
  2
グループ-9
 10
111.25080081300791
 20
158.82347447859374
 30
0.0
  0
INSERT
  5
5CC
100
AcDbEntity
  8
0
390
0
 62
               2
100
AcDbBlockReference
  2
グループ-28
 10
111.25080081300791
 20
158.82347447859374
 30
0.0
  0
ENDSEC
  0
SECTION
  2
OBJECTS
  0
DICTIONARY
  5
19
100
AcDbDictionary
280
               0
281
               1
  3
ACAD_GROUP
350
1A
  3
ACAD_MLINESTYLE
350
1B
  3
ACAD_LAYOUT
350
1E
  3
ACAD_PLOTSETTINGS
350
22
  3
ACAD_PLOTSTYLENAME
350
1F
  3
ACAD_WIPEOUT_VARS
350
23
  0
DICTIONARY
  5
1A
102
{ACAD_REACTORS
330
19
102
}
100
AcDbDictionary
280
               0
281
               1
  0
DICTIONARY
  5
1B
102
{ACAD_REACTORS
330
19
102
}
100
AcDbDictionary
280
               0
281
               1
  3
Standard
350
1C
  0
MLINESTYLE
  5
1C
102
{ACAD_REACTORS
330
1B
102
}
100
AcDbMlineStyle
  2
Standard
 70
               0
  3

 62
               0
 51
90.0
 52
90.0
 71
               2
 49
0.5
 62
             256
  6
ByLayer
 49
-0.5
 62
             256
  6
ByLayer
  0
ACDBDICTIONARYWDFLT
  5
1F
102
{ACAD_REACTORS
330
19
102
}
100
AcDbDictionary
281
               1
  3
Normal
350
1D
100
AcDbDictionaryWithDefault
340
1D
  0
ACDBPLACEHOLDER
  5
1D
102
{ACAD_REACTORS
330
1F
102
}
  0
LAYOUT
  5
20
102
{ACAD_REACTORS
330
1E
102
}
100
AcDbPlotSettings
  1

  2

  4

  6

 40
0.0
 41
0.0
 42
0.0
 43
0.0
 44
0.0
 45
0.0
 46
0.0
 47
0.0
 48
0.0
 49
0.0
140
0.0
141
0.0
142
1.0
143
1.0
 70
            1024
 72
               0
 73
               0
 74
               0
  7
Gシリーズ用_A12HG_A12VG_GFA.ctb
 75
               0
147
1.0
148
0.0
149
0.0
100
AcDbLayout
  1
Model
 70
               0
 71
               0
 10
0.0
 20
0.0
 11
0.0
 21
0.0
 12
0.0
 22
0.0
 32
0.0
 14
0.0
 24
0.0
 34
0.0
 15
0.0
 25
0.0
 35
0.0
146
0.0
 13
0.0
 23
0.0
 33
0.0
 16
0.0
 26
0.0
 36
0.0
 17
0.0
 27
0.0
 37
0.0
 76
               0
330
A
331
0
345
0
346
0
  0
LAYOUT
  5
21
102
{ACAD_REACTORS
330
1E
102
}
100
AcDbPlotSettings
  1

  2

  4

  6

 40
0.0
 41
0.0
 42
0.0
 43
0.0
 44
0.0
 45
0.0
 46
0.0
 47
0.0
 48
0.0
 49
0.0
140
0.0
141
0.0
142
1.0
143
1.0
 70
               0
 72
               0
 73
               0
 74
               0
  7

 75
               0
147
1.0
148
0.0
149
0.0
100
AcDbLayout
  1
Layout1
 70
               0
 71
               0
 10
0.0
 20
0.0
 11
0.0
 21
0.0
 12
0.0
 22
0.0
 32
0.0
 14
0.0
 24
0.0
 34
0.0
 15
0.0
 25
0.0
 35
0.0
146
0.0
 13
0.0
 23
0.0
 33
0.0
 16
0.0
 26
0.0
 36
0.0
 17
0.0
 27
0.0
 37
0.0
 76
               0
330
B
331
0
345
0
346
0
  0
DICTIONARY
  5
1E
102
{ACAD_REACTORS
330
19
102
}
100
AcDbDictionary
280
               0
281
               1
  3
Layout1
350
21
  3
Model
350
20
  0
DICTIONARY
  5
22
102
{ACAD_REACTORS
330
19
102
}
100
AcDbDictionary
280
               0
281
               1
  0
WIPEOUTVARIABLES
  5
23
100
AcDbWipeoutVariables
 70
               0
  0
ENDSEC
  0
EOF
