  0
SECTION
  2
HEADER
  9
$ACADVER
  1
AC1015
  9
$ACADMAINTVER
 70
               6
  9
$DWGCODEPAGE
  3
ANSI_932
  9
$INSBASE
 10
0.0
 20
0.0
 30
0.0
  9
$EXTMIN
 10
-1225.8057182976218
 20
-1821.3077163090179
 30
-22.250399999999999
  9
$EXTMAX
 10
1474.1942817023773
 20
2184.7017205369593
 30
22.250399999999999
  9
$LIMMIN
 10
0.0
 20
0.0
  9
$LIMMAX
 10
0.0
 20
0.0
  9
$ORTHOMODE
 70
               0
  9
$REGENMODE
 70
               1
  9
$FILLMODE
 70
               1
  9
$QTEXTMODE
 70
               0
  9
$MIRRTEXT
 70
               1
  9
$LTSCALE
 40
76.199999999999989
  9
$ATTMODE
 70
               1
  9
$TEXTSIZE
 40
0.2
  9
$TRACEWID
 40
1.0
  9
$TEXTSTYLE
  7
Standard
  9
$CLAYER
  8
0
  9
$CELTYPE
  6
Continuous
  9
$CECOLOR
 62
             256
  9
$CELTSCALE
 40
1.0
  9
$DISPSILH
 70
               0
  9
$DIMSCALE
 40
1.0
  9
$DIMASZ
 40
37.50933837890625
  9
$DIMEXO
 40
29.999999999999996
  9
$DIMDLI
 40
4.9999999999999991
  9
$DIMRND
 40
0.0
  9
$DIMDLE
 40
0.0
  9
$DIMEXE
 40
29.999999999999996
  9
$DIMTP
 40
0.0
  9
$DIMTM
 40
0.0
  9
$DIMTXT
 40
48.865234375000092
  9
$DIMCEN
 40
0.0
  9
$DIMTSZ
 40
0.0
  9
$DIMTOL
 70
               0
  9
$DIMLIM
 70
               0
  9
$DIMTIH
 70
               0
  9
$DIMTOH
 70
               0
  9
$DIMSE1
 70
               0
  9
$DIMSE2
 70
               0
  9
$DIMTAD
 70
               1
  9
$DIMZIN
 70
              11
  9
$DIMBLK
  1
VW_EMPTYARROW
  9
$DIMASO
 70
               1
  9
$DIMSHO
 70
               1
  9
$DIMPOST
  1
<>
  9
$DIMAPOST
  1
[]
  9
$DIMALT
 70
               0
  9
$DIMALTD
 70
               2
  9
$DIMALTF
 40
1.0
  9
$DIMLFAC
 40
1.0
  9
$DIMTOFL
 70
               1
  9
$DIMTVP
 40
0.0
  9
$DIMTIX
 70
               1
  9
$DIMSOXD
 70
               0
  9
$DIMSAH
 70
               0
  9
$DIMBLK1
  1

  9
$DIMBLK2
  1

  9
$DIMSTYLE
  2
HIBINO
  9
$DIMCLRD
 70
               0
  9
$DIMCLRE
 70
               0
  9
$DIMCLRT
 70
               0
  9
$DIMTFAC
 40
1.0
  9
$DIMGAP
 40
0.4999999999999999
  9
$DIMJUST
 70
               0
  9
$DIMSD1
 70
               0
  9
$DIMSD2
 70
               0
  9
$DIMTOLJ
 70
               1
  9
$DIMTZIN
 70
              11
  9
$DIMALTZ
 70
              11
  9
$DIMALTTZ
 70
              11
  9
$DIMUPT
 70
               0
  9
$DIMDEC
 70
               2
  9
$DIMTDEC
 70
               2
  9
$DIMALTU
 70
               2
  9
$DIMALTTD
 70
               2
  9
$DIMTXSTY
  7
ＭＳ ゴシック
  9
$DIMAUNIT
 70
               0
  9
$DIMADEC
 70
               2
  9
$DIMALTRND
 40
0.0
  9
$DIMAZIN
 70
               0
  9
$DIMDSEP
 70
              46
  9
$DIMATFIT
 70
               0
  9
$DIMFRAC
 70
               2
  9
$DIMLDRBLK
  1

  9
$DIMLUNIT
 70
               2
  9
$DIMLWD
 70
              -2
  9
$DIMLWE
 70
              -2
  9
$DIMTMOVE
 70
               0
  9
$LUNITS
 70
               2
  9
$LUPREC
 70
               4
  9
$SKETCHINC
 40
0.1
  9
$FILLETRAD
 40
0.0
  9
$AUNITS
 70
               0
  9
$AUPREC
 70
               0
  9
$MENU
  1
acad
  9
$ELEVATION
 40
0.0
  9
$PELEVATION
 40
0.0
  9
$THICKNESS
 40
0.0
  9
$LIMCHECK
 70
               0
  9
$CHAMFERA
 40
0.0
  9
$CHAMFERB
 40
0.0
  9
$CHAMFERC
 40
0.0
  9
$CHAMFERD
 40
0.0
  9
$SKPOLY
 70
               0
  9
$TDCREATE
 40
2456889.743391204
  9
$TDUCREATE
 40
0.000000000
  9
$TDUPDATE
 40
2456889.743391204
  9
$TDUUPDATE
 40
0.000000000
  9
$TDINDWG
 40
0.0000000000
  9
$TDUSRTIMER
 40
0.0000000000
  9
$USRTIMER
 70
               1
  9
$ANGBASE
 50
0.0
  9
$ANGDIR
 70
               0
  9
$PDMODE
 70
               1
  9
$PDSIZE
 40
-2.0
  9
$PLINEWID
 40
0.0
  9
$SPLFRAME
 70
               0
  9
$SPLINETYPE
 70
               6
  9
$SPLINESEGS
 70
               8
  9
$HANDSEED
  5
592
  9
$SURFTAB1
 70
               6
  9
$SURFTAB2
 70
               6
  9
$SURFTYPE
 70
               6
  9
$SURFU
 70
               6
  9
$SURFV
 70
               6
  9
$UCSBASE
  2

  9
$UCSNAME
  2

  9
$UCSORG
 10
0.0
 20
0.0
 30
0.0
  9
$UCSXDIR
 10
1.0
 20
0.0
 30
0.0
  9
$UCSYDIR
 10
0.0
 20
1.0
 30
0.0
  9
$UCSORTHOREF
  2

  9
$UCSORTHOVIEW
 70
               0
  9
$UCSORGTOP
 10
0.0
 20
0.0
 30
0.0
  9
$UCSORGBOTTOM
 10
0.0
 20
0.0
 30
0.0
  9
$UCSORGLEFT
 10
0.0
 20
0.0
 30
0.0
  9
$UCSORGRIGHT
 10
0.0
 20
0.0
 30
0.0
  9
$UCSORGFRONT
 10
0.0
 20
0.0
 30
0.0
  9
$UCSORGBACK
 10
0.0
 20
0.0
 30
0.0
  9
$PUCSBASE
  2

  9
$PUCSNAME
  2

  9
$PUCSORG
 10
0.0
 20
0.0
 30
0.0
  9
$PUCSXDIR
 10
1.0
 20
0.0
 30
0.0
  9
$PUCSYDIR
 10
0.0
 20
1.0
 30
0.0
  9
$PUCSORTHOREF
  2

  9
$PUCSORTHOVIEW
 70
               0
  9
$PUCSORGTOP
 10
0.0
 20
0.0
 30
0.0
  9
$PUCSORGBOTTOM
 10
0.0
 20
0.0
 30
0.0
  9
$PUCSORGLEFT
 10
0.0
 20
0.0
 30
0.0
  9
$PUCSORGRIGHT
 10
0.0
 20
0.0
 30
0.0
  9
$PUCSORGFRONT
 10
0.0
 20
0.0
 30
0.0
  9
$PUCSORGBACK
 10
0.0
 20
0.0
 30
0.0
  9
$USERI1
 70
               0
  9
$USERI2
 70
               0
  9
$USERI3
 70
               0
  9
$USERI4
 70
               0
  9
$USERI5
 70
               0
  9
$USERR1
 40
0.0
  9
$USERR2
 40
0.0
  9
$USERR3
 40
0.0
  9
$USERR4
 40
0.0
  9
$USERR5
 40
0.0
  9
$WORLDVIEW
 70
               1
  9
$SHADEDGE
 70
               3
  9
$SHADEDIF
 70
              70
  9
$TILEMODE
 70
               1
  9
$MAXACTVP
 70
              64
  9
$PINSBASE
 10
0.0
 20
0.0
 30
0.0
  9
$PLIMCHECK
 70
               0
  9
$PEXTMIN
 10
1.0000000000000000E+20
 20
1.0000000000000000E+20
 30
1.0000000000000000E+20
  9
$PEXTMAX
 10
-1.0000000000000000E+20
 20
-1.0000000000000000E+20
 30
-1.0000000000000000E+20
  9
$PLIMMIN
 10
0.0
 20
0.0
  9
$PLIMMAX
 10
12.0
 20
9.0
  9
$UNITMODE
 70
               0
  9
$VISRETAIN
 70
               0
  9
$PLINEGEN
 70
               1
  9
$PSLTSCALE
 70
               0
  9
$TREEDEPTH
 70
            3020
  9
$CMLSTYLE
  2
Standard
  9
$CMLJUST
 70
               0
  9
$CMLSCALE
 40
1.0
  9
$PROXYGRAPHICS
 70
               0
  9
$MEASUREMENT
 70
               1
  9
$CELWEIGHT
370
               0
  9
$ENDCAPS
280
               0
  9
$JOINSTYLE
280
               0
  9
$LWDISPLAY
290
               0
  9
$INSUNITS
 70
               4
  9
$HYPERLINKBASE
  1

  9
$STYLESHEET
  1

  9
$XEDIT
290
               1
  9
$CEPSNTYPE
380
               0
  9
$PSTYLEMODE
290
               1
  9
$FINGERPRINTGUID
  2

  9
$VERSIONGUID
  2

  9
$EXTNAMES
290
               1
  9
$PSVPSCALE
 40
0.0
  0
ENDSEC
  0
SECTION
  2
CLASSES
  0
CLASS
  1
LWPOLYLINE
  2
AcDbPolyline
  3
AutoCAD 2000
 90
        0
280
               0
281
               1
  0
CLASS
  1
IMAGE
  2
AcDbRasterImage
  3
ISM
 90
      127
280
               0
281
               1
  0
CLASS
  1
OLE2FRAME
  2
AcDbOle2Frame
  3
AutoCAD 2000
 90
        0
280
               0
281
               1
  0
CLASS
  1
HATCH
  2
AcDbHatch
  3
AutoCAD 2000
 90
        0
280
               0
281
               1
  0
CLASS
  1
DICTIONARYVAR
  2
AcDbDictionaryVar
  3
AutoCAD 2000
 90
        0
280
               0
281
               0
  0
CLASS
  1
RASTERVARIABLES
  2
AcDbRasterVariables
  3
ISM
 90
        0
280
               0
281
               0
  0
CLASS
  1
IMAGEDEF
  2
AcDbRasterImageDef
  3
ISM
 90
        0
280
               0
281
               0
  0
CLASS
  1
IMAGEDEF_REACTOR
  2
AcDbRasterImageDefReactor
  3
ISM
 90
        1
280
               0
281
               0
  0
CLASS
  1
IDBUFFER
  2
AcDbIdBuffer
  3
AutoCAD 2000
 90
        0
280
               0
281
               0
  0
CLASS
  1
SPATIAL_FILTER
  2
AcDbSpatialFilter
  3
AutoCAD 2000
 90
        0
280
               0
281
               0
  0
CLASS
  1
XRECORD
  2
AcDbXrecord
  3
AutoCAD 2000
 90
        0
280
               0
281
               0
  0
CLASS
  1
SORTENTSTABLE
  2
AcDbSortentsTable
  3
AutoCAD 2000
 90
        0
280
               0
281
               0
  0
CLASS
  1
LAYER_INDEX
  2
AcDbLayerIndex
  3
AutoCAD 2000
 90
        0
280
               0
281
               0
  0
CLASS
  1
SPATIAL_INDEX
  2
AcDbSpatialIndex
  3
AutoCAD 2000
 90
        0
280
               0
281
               0
  0
CLASS
  1
OBJECT_PTR
  2
CAseDLPNTableRecord
  3
"ASE-LPNTableRecord"
 90
        1
280
               0
281
               0
  0
CLASS
  1
LAYOUT
  2
AcDbLayout
  3
AutoCAD 2000
 90
        0
280
               0
281
               0
  0
CLASS
  1
PLOTSETTINGS
  2
AcDbPlotSettings
  3
AutoCAD 2000
 90
        0
280
               0
281
               0
  0
CLASS
  1
ACDBDICTIONARYWDFLT
  2
AcDbDictionaryWithDefault
  3
AutoCAD 2000
 90
        0
280
               0
281
               0
  0
CLASS
  1
ACDBPLACEHOLDER
  2
AcDbPlaceHolder
  3
AutoCAD 2000
 90
        0
280
               0
281
               0
  0
CLASS
  1
VBA_PROJECT
  2
AcDbVbaProject
  3
acadvba
 90
        0
280
               0
281
               0
  0
CLASS
  1
WIPEOUT
  2
AcDbWipeout
  3
WipeOut|AutoCAD Express Tool|expresstools@autodesk.com
 90
      127
280
               0
281
               1
  0
CLASS
  1
WIPEOUTVARIABLES
  2
AcDbWipeoutVariables
  3
WipeOut|AutoCAD Express Tool|expresstools@autodesk.com
 90
        0
280
               0
281
               0
  0
CLASS
  1
RTEXT
  2
RText
  3
RText|AutoCAD Express Tool|expresstools@autodesk.com
 90
        0
280
               0
281
               1
  0
CLASS
  1
ARCALIGNEDTEXT
  2
AcDbArcAlignedText
  3
ATEXT|AutoCAD Express Tool|expresstools@autodesk.com
 90
        0
280
               0
281
               1
  0
ENDSEC
  0
SECTION
  2
TABLES
  0
TABLE
  2
VPORT
  5
7
100
AcDbSymbolTable
 70
               1
  0
VPORT
  5
15
100
AcDbSymbolTableRecord
100
AcDbViewportTableRecord
  2
*ACTIVE
 70
               0
 10
0.0
 20
0.0
 11
1.0
 21
1.0
 12
124.19428170237779
 22
181.69700211397071
 13
0.0
 23
0.0
 14
1.0
 24
1.0
 15
0.0
 25
0.0
 16
0.0
 26
0.0
 36
1.0
 17
0.0
 27
0.0
 37
0.0
 40
4006.0094368459772
 41
0.688564
 42
50.0
 43
0.0
 44
0.0
 50
0.0
 51
0.0
 71
               0
 72
            2000
 73
               1
 74
               1
 75
               0
 76
               0
 77
               0
 78
               0
281
               0
 65
               0
110
0.0
120
0.0
130
0.0
111
1.0
121
0.0
131
0.0
112
0.0
122
1.0
132
0.0
345
0
346
0
 79
               0
146
0.0
  0
ENDTAB
  0
TABLE
  2
LTYPE
  5
4
100
AcDbSymbolTable
 70
              13
  0
LTYPE
  5
11
100
AcDbSymbolTableRecord
100
AcDbLinetypeTableRecord
  2
ByBlock
 70
              64
  3

 72
              65
 73
               0
 40
0.0
  0
LTYPE
  5
12
100
AcDbSymbolTableRecord
100
AcDbLinetypeTableRecord
  2
ByLayer
 70
              64
  3

 72
              65
 73
               0
 40
0.0
  0
LTYPE
  5
13
100
AcDbSymbolTableRecord
100
AcDbLinetypeTableRecord
  2
Continuous
 70
              64
  3
Solid line
 72
              65
 73
               0
 40
0.0
  0
LTYPE
  5
5C
100
AcDbSymbolTableRecord
100
AcDbLinetypeTableRecord
  2
STYLE_01
 70
               0
  3

 72
              65
 73
               4
 40
0.1333333333333333
 49
0.0833333333333333
 74
               0
 49
-0.0166666666666667
 74
               0
 49
0.0166666666666667
 74
               0
 49
-0.0166666666666667
 74
               0
  0
LTYPE
  5
5D
100
AcDbSymbolTableRecord
100
AcDbLinetypeTableRecord
  2
STYLE_02
 70
               0
  3

 72
              65
 73
               4
 40
0.2666666666666667
 49
0.1666666666666667
 74
               0
 49
-0.0333333333333333
 74
               0
 49
0.0333333333333333
 74
               0
 49
-0.0333333333333333
 74
               0
  0
LTYPE
  5
5E
100
AcDbSymbolTableRecord
100
AcDbLinetypeTableRecord
  2
STYLE_03
 70
               0
  3

 72
              65
 73
               2
 40
1.25
 49
1.0416412353515625
 74
               0
 49
-0.2083587646484375
 74
               0
  0
LTYPE
  5
5F
100
AcDbSymbolTableRecord
100
AcDbLinetypeTableRecord
  2
STYLE_04
 70
               0
  3

 72
              65
 73
               2
 40
1.5277099609375
 49
1.319427490234375
 74
               0
 49
-0.208282470703125
 74
               0
  0
LTYPE
  5
60
100
AcDbSymbolTableRecord
100
AcDbLinetypeTableRecord
  2
STYLE_05
 70
               0
  3

 72
              65
 73
               2
 40
0.208282470703125
 49
0.069427490234375
 74
               0
 49
-0.13885498046875
 74
               0
  0
LTYPE
  5
61
100
AcDbSymbolTableRecord
100
AcDbLinetypeTableRecord
  2
STYLE_06
 70
               0
  3

 72
              65
 73
               4
 40
1.0416412353515625
 49
0.625
 74
               0
 49
-0.208282470703125
 74
               0
 49
0.069427490234375
 74
               0
 49
-0.1389312744140625
 74
               0
  0
LTYPE
  5
62
100
AcDbSymbolTableRecord
100
AcDbLinetypeTableRecord
  2
STYLE_07
 70
               0
  3

 72
              65
 73
               6
 40
1.875
 49
0.625
 74
               0
 49
-0.208282470703125
 74
               0
 49
0.625
 74
               0
 49
-0.2083587646484375
 74
               0
 49
0.069427490234375
 74
               0
 49
-0.1389312744140625
 74
               0
  0
LTYPE
  5
63
100
AcDbSymbolTableRecord
100
AcDbLinetypeTableRecord
  2
STYLE_08
 70
               0
  3

 72
              65
 73
               6
 40
1.25
 49
0.625
 74
               0
 49
-0.208282470703125
 74
               0
 49
0.069427490234375
 74
               0
 49
-0.1389312744140625
 74
               0
 49
0.069427490234375
 74
               0
 49
-0.1389312744140625
 74
               0
  0
LTYPE
  5
64
100
AcDbSymbolTableRecord
100
AcDbLinetypeTableRecord
  2
STYLE_09
 70
               0
  3

 72
              65
 73
               4
 40
5.0
 49
3.75
 74
               0
 49
-0.2777862548828125
 74
               0
 49
0.694427490234375
 74
               0
 49
-0.2777862548828125
 74
               0
  0
LTYPE
  5
65
100
AcDbSymbolTableRecord
100
AcDbLinetypeTableRecord
  2
STYLE_10
 70
               0
  3

 72
              65
 73
               6
 40
5.9375
 49
3.75
 74
               0
 49
-0.2777862548828125
 74
               0
 49
0.694427490234375
 74
               0
 49
-0.2777862548828125
 74
               0
 49
0.625
 74
               0
 49
-0.3125
 74
               0
  0
ENDTAB
  0
TABLE
  2
LAYER
  5
2
100
AcDbSymbolTable
 70
              12
  0
LAYER
  5
14
100
AcDbSymbolTableRecord
100
AcDbLayerTableRecord
  2
0
 70
               0
 62
               7
  6
Continuous
290
               1
370
               0
390
1D
  0
LAYER
  5
66
100
AcDbSymbolTableRecord
100
AcDbLayerTableRecord
  2
DATA
 70
               0
 62
               7
  6
Continuous
290
               1
370
               0
390
1D
  0
LAYER
  5
67
100
AcDbSymbolTableRecord
100
AcDbLayerTableRecord
  2
一般
 70
               0
 62
               7
  6
Continuous
290
               1
370
               0
390
1D
  0
LAYER
  5
68
100
AcDbSymbolTableRecord
100
AcDbLayerTableRecord
  2
寸法
 70
               0
 62
               7
  6
Continuous
290
               1
370
               0
390
1D
  0
LAYER
  5
69
100
AcDbSymbolTableRecord
100
AcDbLayerTableRecord
  2
HIBINO-BASE
 70
               0
 62
               7
  6
Continuous
290
               1
370
               0
390
1D
  0
LAYER
  5
6A
100
AcDbSymbolTableRecord
100
AcDbLayerTableRecord
  2
SPEC
 70
               0
 62
               7
  6
Continuous
290
               1
370
               0
390
1D
  0
LAYER
  5
6B
100
AcDbSymbolTableRecord
100
AcDbLayerTableRecord
  2
DIMNSIONS
 70
               0
 62
               7
  6
Continuous
290
               1
370
               0
390
1D
  0
LAYER
  5
6C
100
AcDbSymbolTableRecord
100
AcDbLayerTableRecord
  2
Layer1
 70
               0
 62
               3
  6
Continuous
290
               1
370
               0
390
1D
  0
LAYER
  5
6D
100
AcDbSymbolTableRecord
100
AcDbLayerTableRecord
  2
2D
 70
               0
 62
              82
  6
Continuous
290
               1
370
               0
390
1D
  0
LAYER
  5
6E
100
AcDbSymbolTableRecord
100
AcDbLayerTableRecord
  2
FORMAT
 70
               0
 62
               7
  6
Continuous
290
               1
370
               0
390
1D
  0
LAYER
  5
6F
100
AcDbSymbolTableRecord
100
AcDbLayerTableRecord
  2
Defpoints
 70
               0
 62
               7
  6
Continuous
290
               0
370
               0
390
1D
  0
LAYER
  5
70
100
AcDbSymbolTableRecord
100
AcDbLayerTableRecord
  2
5in
 70
               0
 62
               7
  6
Continuous
290
               1
370
               0
390
1D
  0
ENDTAB
  0
TABLE
  2
STYLE
  5
3
100
AcDbSymbolTable
 70
               2
  0
STYLE
  5
17
100
AcDbSymbolTableRecord
100
AcDbTextStyleTableRecord
  2
Standard
 70
               0
 40
0.0
 41
1.0
 50
0.0
 71
               0
 42
0.0
  3
txt
  4
BIGFONT.SHX
  0
STYLE
  5
5B
100
AcDbSymbolTableRecord
100
AcDbTextStyleTableRecord
  2
ＭＳ ゴシック
 70
               0
 40
0.0
 41
1.0
 50
0.0
 71
               0
 42
0.0
  3

  4
ＭＳ ゴシック
1001
ACAD
1000
ＭＳ ゴシック
1071
        0
  0
ENDTAB
  0
TABLE
  2
VIEW
  5
5
100
AcDbSymbolTable
 70
               0
  0
ENDTAB
  0
TABLE
  2
UCS
  5
6
100
AcDbSymbolTable
 70
               0
  0
ENDTAB
  0
TABLE
  2
APPID
  5
8
100
AcDbSymbolTable
 70
               1
  0
APPID
  5
16
100
AcDbSymbolTableRecord
100
AcDbRegAppTableRecord
  2
ACAD
 70
               0
  0
ENDTAB
  0
TABLE
  2
DIMSTYLE
  5
9
100
AcDbSymbolTable
 70
               2
100
AcDbDimStyleTable
 71
               0
  0
DIMSTYLE
105
18
100
AcDbSymbolTableRecord
100
AcDbDimStyleTableRecord
  2
Standard
 70
               0
  3

  4

 40
1.0
 41
0.18
 42
0.0625
 43
0.38
 44
0.18
 45
0.0
 46
0.0
 47
0.0
 48
0.0
 71
               0
 72
               0
 73
               1
 74
               1
 75
               0
 76
               0
 77
               0
 78
               0
 79
               0
140
0.18
141
0.09
142
0.0
143
25.399999999999999
144
1.0
145
0.0
146
1.0
147
0.09
148
0.0
170
               0
171
               2
172
               0
173
               0
174
               0
175
               0
176
               0
177
               0
178
               0
179
               0
271
               4
272
               4
273
               2
274
               2
275
               0
276
               0
277
               2
278
              46
279
               0
280
               0
281
               0
282
               0
283
               1
284
               0
285
               0
286
               0
288
               0
289
               3
340
17
341
0
342
0
343
0
344
0
371
              -2
372
              -2
  0
DIMSTYLE
105
7A
100
AcDbSymbolTableRecord
100
AcDbDimStyleTableRecord
  2
HIBINO
 70
               0
  3
<>
  4
[]
 40
1.0
 41
37.50933837890625
 42
29.999999999999996
 43
4.9999999999999991
 44
29.999999999999996
 45
0.0
 46
0.0
 47
0.0
 48
0.0
 71
               0
 72
               0
 73
               0
 74
               0
 75
               0
 76
               0
 77
               1
 78
              11
 79
               0
140
48.865234375000092
141
0.0
142
0.0
143
1.0
144
1.0
145
0.0
146
1.0
147
0.4999999999999999
148
0.0
170
               0
171
               2
172
               1
173
               0
174
               1
175
               0
176
               0
177
               0
178
               0
179
               2
271
               2
272
               2
273
               2
274
               2
275
               0
276
               2
277
               2
278
              46
279
               0
280
               0
281
               0
282
               0
283
               1
284
              11
285
              11
286
              11
288
               0
289
               0
340
5B
341
71
342
71
343
0
344
0
371
              -2
372
              -2
  0
ENDTAB
  0
TABLE
  2
BLOCK_RECORD
  5
1
100
AcDbSymbolTable
 70
              56
  0
BLOCK_RECORD
  5
A
100
AcDbSymbolTableRecord
100
AcDbBlockTableRecord
  2
*MODEL_SPACE
340
20
  0
BLOCK_RECORD
  5
B
100
AcDbSymbolTableRecord
100
AcDbBlockTableRecord
  2
*PAPER_SPACE
340
21
  0
BLOCK_RECORD
  5
71
100
AcDbSymbolTableRecord
100
AcDbBlockTableRecord
  2
VW_EMPTYARROW
340
0
  0
BLOCK_RECORD
  5
24
100
AcDbSymbolTableRecord
100
AcDbBlockTableRecord
  2
*D1
340
0
  0
BLOCK_RECORD
  5
25
100
AcDbSymbolTableRecord
100
AcDbBlockTableRecord
  2
*D2
340
0
  0
BLOCK_RECORD
  5
26
100
AcDbSymbolTableRecord
100
AcDbBlockTableRecord
  2
*D3
340
0
  0
BLOCK_RECORD
  5
27
100
AcDbSymbolTableRecord
100
AcDbBlockTableRecord
  2
*D4
340
0
  0
BLOCK_RECORD
  5
28
100
AcDbSymbolTableRecord
100
AcDbBlockTableRecord
  2
グループ
340
0
102
{BLKREFS
331
17B
102
}
  0
BLOCK_RECORD
  5
29
100
AcDbSymbolTableRecord
100
AcDbBlockTableRecord
  2
*D6
340
0
  0
BLOCK_RECORD
  5
2A
100
AcDbSymbolTableRecord
100
AcDbBlockTableRecord
  2
*D7
340
0
  0
BLOCK_RECORD
  5
2B
100
AcDbSymbolTableRecord
100
AcDbBlockTableRecord
  2
*D8
340
0
  0
BLOCK_RECORD
  5
2C
100
AcDbSymbolTableRecord
100
AcDbBlockTableRecord
  2
グループ-1
340
0
102
{BLKREFS
331
17F
102
}
  0
BLOCK_RECORD
  5
2D
100
AcDbSymbolTableRecord
100
AcDbBlockTableRecord
  2
グループ-2
340
0
102
{BLKREFS
331
180
102
}
  0
BLOCK_RECORD
  5
2E
100
AcDbSymbolTableRecord
100
AcDbBlockTableRecord
  2
グループ-3
340
0
102
{BLKREFS
331
184
102
}
  0
BLOCK_RECORD
  5
2F
100
AcDbSymbolTableRecord
100
AcDbBlockTableRecord
  2
グループ-4
340
0
102
{BLKREFS
331
58F
102
}
  0
BLOCK_RECORD
  5
30
100
AcDbSymbolTableRecord
100
AcDbBlockTableRecord
  2
*D13
340
0
  0
BLOCK_RECORD
  5
31
100
AcDbSymbolTableRecord
100
AcDbBlockTableRecord
  2
*D14
340
0
  0
BLOCK_RECORD
  5
32
100
AcDbSymbolTableRecord
100
AcDbBlockTableRecord
  2
*D15
340
0
  0
BLOCK_RECORD
  5
33
100
AcDbSymbolTableRecord
100
AcDbBlockTableRecord
  2
*D16
340
0
  0
BLOCK_RECORD
  5
34
100
AcDbSymbolTableRecord
100
AcDbBlockTableRecord
  2
*D17
340
0
  0
BLOCK_RECORD
  5
35
100
AcDbSymbolTableRecord
100
AcDbBlockTableRecord
  2
*D18
340
0
  0
BLOCK_RECORD
  5
36
100
AcDbSymbolTableRecord
100
AcDbBlockTableRecord
  2
*D19
340
0
  0
BLOCK_RECORD
  5
37
100
AcDbSymbolTableRecord
100
AcDbBlockTableRecord
  2
*D20
340
0
  0
BLOCK_RECORD
  5
38
100
AcDbSymbolTableRecord
100
AcDbBlockTableRecord
  2
*D21
340
0
  0
BLOCK_RECORD
  5
39
100
AcDbSymbolTableRecord
100
AcDbBlockTableRecord
  2
*D22
340
0
  0
BLOCK_RECORD
  5
3A
100
AcDbSymbolTableRecord
100
AcDbBlockTableRecord
  2
*D23
340
0
  0
BLOCK_RECORD
  5
3B
100
AcDbSymbolTableRecord
100
AcDbBlockTableRecord
  2
グループ-5
340
0
102
{BLKREFS
331
294
102
}
  0
BLOCK_RECORD
  5
3C
100
AcDbSymbolTableRecord
100
AcDbBlockTableRecord
  2
グループ-6
340
0
102
{BLKREFS
331
299
102
}
  0
BLOCK_RECORD
  5
3D
100
AcDbSymbolTableRecord
100
AcDbBlockTableRecord
  2
グループ-7
340
0
102
{BLKREFS
331
590
102
}
  0
BLOCK_RECORD
  5
3E
100
AcDbSymbolTableRecord
100
AcDbBlockTableRecord
  2
グループ-8
340
0
102
{BLKREFS
331
542
102
}
  0
BLOCK_RECORD
  5
3F
100
AcDbSymbolTableRecord
100
AcDbBlockTableRecord
  2
グループ-9
340
0
102
{BLKREFS
331
543
102
}
  0
BLOCK_RECORD
  5
40
100
AcDbSymbolTableRecord
100
AcDbBlockTableRecord
  2
グループ-10
340
0
102
{BLKREFS
331
544
102
}
  0
BLOCK_RECORD
  5
41
100
AcDbSymbolTableRecord
100
AcDbBlockTableRecord
  2
グループ-11
340
0
102
{BLKREFS
331
545
102
}
  0
BLOCK_RECORD
  5
42
100
AcDbSymbolTableRecord
100
AcDbBlockTableRecord
  2
グループ-12
340
0
102
{BLKREFS
331
546
102
}
  0
BLOCK_RECORD
  5
43
100
AcDbSymbolTableRecord
100
AcDbBlockTableRecord
  2
グループ-13
340
0
102
{BLKREFS
331
547
102
}
  0
BLOCK_RECORD
  5
44
100
AcDbSymbolTableRecord
100
AcDbBlockTableRecord
  2
グループ-14
340
0
102
{BLKREFS
331
548
102
}
  0
BLOCK_RECORD
  5
45
100
AcDbSymbolTableRecord
100
AcDbBlockTableRecord
  2
*D34
340
0
  0
BLOCK_RECORD
  5
46
100
AcDbSymbolTableRecord
100
AcDbBlockTableRecord
  2
グループ-15
340
0
102
{BLKREFS
331
54A
102
}
  0
BLOCK_RECORD
  5
47
100
AcDbSymbolTableRecord
100
AcDbBlockTableRecord
  2
グループ-16
340
0
102
{BLKREFS
331
54B
102
}
  0
BLOCK_RECORD
  5
48
100
AcDbSymbolTableRecord
100
AcDbBlockTableRecord
  2
*D37
340
0
  0
BLOCK_RECORD
  5
49
100
AcDbSymbolTableRecord
100
AcDbBlockTableRecord
  2
グループ-17
340
0
102
{BLKREFS
331
54D
102
}
  0
BLOCK_RECORD
  5
4A
100
AcDbSymbolTableRecord
100
AcDbBlockTableRecord
  2
*D39
340
0
  0
BLOCK_RECORD
  5
4B
100
AcDbSymbolTableRecord
100
AcDbBlockTableRecord
  2
*D40
340
0
  0
BLOCK_RECORD
  5
4C
100
AcDbSymbolTableRecord
100
AcDbBlockTableRecord
  2
*D41
340
0
  0
BLOCK_RECORD
  5
4D
100
AcDbSymbolTableRecord
100
AcDbBlockTableRecord
  2
*D42
340
0
  0
BLOCK_RECORD
  5
4E
100
AcDbSymbolTableRecord
100
AcDbBlockTableRecord
  2
*D43
340
0
  0
BLOCK_RECORD
  5
4F
100
AcDbSymbolTableRecord
100
AcDbBlockTableRecord
  2
*D44
340
0
  0
BLOCK_RECORD
  5
50
100
AcDbSymbolTableRecord
100
AcDbBlockTableRecord
  2
*D45
340
0
  0
BLOCK_RECORD
  5
51
100
AcDbSymbolTableRecord
100
AcDbBlockTableRecord
  2
*D46
340
0
  0
BLOCK_RECORD
  5
52
100
AcDbSymbolTableRecord
100
AcDbBlockTableRecord
  2
*D47
340
0
  0
BLOCK_RECORD
  5
53
100
AcDbSymbolTableRecord
100
AcDbBlockTableRecord
  2
*D48
340
0
  0
BLOCK_RECORD
  5
54
100
AcDbSymbolTableRecord
100
AcDbBlockTableRecord
  2
Callout
340
0
102
{BLKREFS
331
518
102
}
  0
BLOCK_RECORD
  5
55
100
AcDbSymbolTableRecord
100
AcDbBlockTableRecord
  2
グループ-18
340
0
102
{BLKREFS
331
509
102
}
  0
BLOCK_RECORD
  5
56
100
AcDbSymbolTableRecord
100
AcDbBlockTableRecord
  2
グループ-19
340
0
102
{BLKREFS
331
50A
102
}
  0
BLOCK_RECORD
  5
57
100
AcDbSymbolTableRecord
100
AcDbBlockTableRecord
  2
グループ-20
340
0
102
{BLKREFS
331
50D
102
}
  0
BLOCK_RECORD
  5
58
100
AcDbSymbolTableRecord
100
AcDbBlockTableRecord
  2
グループ-21
340
0
102
{BLKREFS
331
519
102
}
  0
BLOCK_RECORD
  5
59
100
AcDbSymbolTableRecord
100
AcDbBlockTableRecord
  2
グループ-22
340
0
102
{BLKREFS
331
558
102
}
  0
BLOCK_RECORD
  5
5A
100
AcDbSymbolTableRecord
100
AcDbBlockTableRecord
  2
グループ-23
340
0
102
{BLKREFS
331
591
102
}
  0
ENDTAB
  0
ENDSEC
  0
SECTION
  2
BLOCKS
  0
BLOCK
  5
D
100
AcDbEntity
  8
0
390
0
100
AcDbBlockBegin
  2
*MODEL_SPACE
 70
               0
 10
0.0
 20
0.0
 30
0.0
  3
*MODEL_SPACE
  1

  0
ENDBLK
  5
E
100
AcDbEntity
  8
0
390
0
100
AcDbBlockEnd
  0
BLOCK
  5
F
100
AcDbEntity
 67
               1
  8
0
390
0
100
AcDbBlockBegin
  2
*PAPER_SPACE
 70
               0
 10
0.0
 20
0.0
 30
0.0
  3
*PAPER_SPACE
  1

  0
ENDBLK
  5
10
100
AcDbEntity
 67
               1
  8
0
390
0
100
AcDbBlockEnd
  0
BLOCK
  5
72
100
AcDbEntity
  8
0
370
              -2
390
0
  6
ByBlock
 62
               0
100
AcDbBlockBegin
  2
VW_EMPTYARROW
 70
               0
 10
0.0
 20
0.0
 30
0.0
  3
VW_EMPTYARROW
  1

  0
LINE
  5
73
100
AcDbEntity
  8
0
370
              -2
390
0
  6
ByBlock
 62
               0
100
AcDbLine
 10
0.0
 20
0.0
 30
0.0
 11
-1.0
 21
0.0
 31
0.0
  0
POLYLINE
  5
74
100
AcDbEntity
  8
0
370
              -2
390
0
  6
Continuous
 62
               0
100
AcDb2dPolyline
 66
               1
 10
0.0
 20
0.0
 30
0.0
 75
               5
  0
VERTEX
  5
75
100
AcDbEntity
  8
0
370
              -2
390
0
  6
Continuous
 62
               0
100
AcDbVertex
100
AcDb2dVertex
 10
-0.99993896484375
 20
0.2679328381102957
 30
0.0
  0
VERTEX
  5
76
100
AcDbEntity
  8
0
370
              -2
390
0
  6
Continuous
 62
               0
100
AcDbVertex
100
AcDb2dVertex
 10
0.0
 20
0.0
 30
0.0
  0
VERTEX
  5
77
100
AcDbEntity
  8
0
370
              -2
390
0
  6
Continuous
 62
               0
100
AcDbVertex
100
AcDb2dVertex
 10
-0.9999389648437499
 20
-0.2679328381102959
 30
0.0
  0
SEQEND
  5
78
100
AcDbEntity
  8
0
370
              -2
390
0
  6
Continuous
 62
               0
  0
ENDBLK
  5
79
100
AcDbEntity
  8
0
390
0
100
AcDbBlockEnd
  0
BLOCK
  5
7B
100
AcDbEntity
  8
寸法
390
0
100
AcDbBlockBegin
  2
*D1
 70
               1
 10
0.0
 20
0.0
 30
0.0
  3
*D1
  1

  0
LINE
  5
7C
100
AcDbEntity
  8
寸法
370
              -2
390
0
  6
Continuous
 62
               0
100
AcDbLine
 10
-44.984159578227491
 20
-1260.3802107157085
 30
0.0
 11
-77.577230138539107
 21
-1260.3802107157085
 31
0.0
  0
LINE
  5
7D
100
AcDbEntity
  8
寸法
370
              -2
390
0
  6
Continuous
 62
               0
100
AcDbLine
 10
-44.984159578227491
 20
-1279.3802107157085
 30
0.0
 11
-77.577230138539107
 21
-1279.3802107157085
 31
0.0
  0
LINE
  5
7E
100
AcDbEntity
  8
寸法
370
              -2
390
0
  6
Continuous
 62
               0
100
AcDbLine
 10
-47.577230138539107
 20
-1260.3802107157085
 30
0.0
 11
-47.577230138539107
 21
-1279.3802107157085
 31
0.0
  0
POLYLINE
  5
7F
100
AcDbEntity
  8
0
370
              -2
390
0
  6
Continuous
 62
               0
100
AcDb2dPolyline
 66
               1
 10
0.0
 20
0.0
 30
0.0
 75
               5
  0
VERTEX
  5
80
100
AcDbEntity
  8
0
370
              -2
390
0
  6
Continuous
 62
               0
100
AcDbVertex
100
AcDb2dVertex
 10
-57.627827065792751
 20
-1297.8895490946147
 30
0.0
  0
VERTEX
  5
81
100
AcDbEntity
  8
0
370
              -2
390
0
  6
Continuous
 62
               0
100
AcDbVertex
100
AcDb2dVertex
 10
-47.577230138539107
 20
-1260.3802107157085
 30
0.0
  0
VERTEX
  5
82
100
AcDbEntity
  8
0
370
              -2
390
0
  6
Continuous
 62
               0
100
AcDbVertex
100
AcDb2dVertex
 10
-37.526633211285457
 20
-1297.8895490946147
 30
0.0
  0
SEQEND
  5
83
100
AcDbEntity
  8
0
370
              -2
390
0
  6
Continuous
 62
               0
  0
POLYLINE
  5
84
100
AcDbEntity
  8
0
370
              -2
390
0
  6
Continuous
 62
               0
100
AcDb2dPolyline
 66
               1
 10
0.0
 20
0.0
 30
0.0
 75
               5
  0
VERTEX
  5
85
100
AcDbEntity
  8
0
370
              -2
390
0
  6
Continuous
 62
               0
100
AcDbVertex
100
AcDb2dVertex
 10
-37.526633211285457
 20
-1241.8708723368022
 30
0.0
  0
VERTEX
  5
86
100
AcDbEntity
  8
0
370
              -2
390
0
  6
Continuous
 62
               0
100
AcDbVertex
100
AcDb2dVertex
 10
-47.577230138539107
 20
-1279.3802107157085
 30
0.0
  0
VERTEX
  5
87
100
AcDbEntity
  8
0
370
              -2
390
0
  6
Continuous
 62
               0
100
AcDbVertex
100
AcDb2dVertex
 10
-57.627827065792751
 20
-1241.8708723368022
 30
0.0
  0
SEQEND
  5
88
100
AcDbEntity
  8
0
370
              -2
390
0
  6
Continuous
 62
               0
  0
WIPEOUT
  5
89
100
AcDbEntity
  8
寸法
370
              -2
390
0
  6
Continuous
 62
               0
 92
        0
100
AcDbWipeout
 90
        0
 10
-118.57723013853922
 20
-1292.1302107157085
 30
0.0
 11
63.500000000000114
 21
0.0
 31
0.0
 12
0.0
 22
63.500000000000114
 32
0.0
 13
1.0
 23
1.0
340
0
 70
               7
280
               1
281
              50
282
              50
283
               0
360
0
 71
               2
 91
        5
 14
0.5
 24
0.5
 14
0.5
 24
-0.4999999999999982
 14
-0.5
 24
-0.4999999999999982
 14
-0.5
 24
0.5
 14
0.5
 24
0.5
  0
MTEXT
  5
8A
100
AcDbEntity
  8
寸法
390
0
 62
               0
100
AcDbMText
 10
-112.83246451353921
 20
-1292.1302107157085
 30
0.0
 40
48.865234375000092
 41
0.0
 71
               1
 72
               1
  1
{\fＭＳ ゴシック|b0|i0|c128|p0;\l19}
 11
0.0
 21
1.0
 31
0.0
 73
               1
 44
0.7828267384257843
  0
POINT
  5
8B
100
AcDbEntity
  8
Defpoints
370
               0
390
0
 62
               0
100
AcDbPoint
 10
-14.984159578227491
 20
-1279.3802107157085
 30
0.0
  0
POINT
  5
8C
100
AcDbEntity
  8
Defpoints
370
               0
390
0
 62
               0
100
AcDbPoint
 10
-14.984159578227491
 20
-1260.3802107157085
 30
0.0
  0
POINT
  5
8D
100
AcDbEntity
  8
Defpoints
370
               0
390
0
 62
               0
100
AcDbPoint
 10
-47.577230138539107
 20
-1260.3802107157085
 30
0.0
  0
ENDBLK
  5
8E
100
AcDbEntity
  8
寸法
390
0
100
AcDbBlockEnd
  0
BLOCK
  5
8F
100
AcDbEntity
  8
寸法
390
0
100
AcDbBlockBegin
  2
*D2
 70
               1
 10
0.0
 20
0.0
 30
0.0
  3
*D2
  1

  0
LINE
  5
90
100
AcDbEntity
  8
寸法
370
              -2
390
0
  6
Continuous
 62
               0
100
AcDbLine
 10
-14.984159578227491
 20
-1309.3802107157085
 30
0.0
 11
-14.984159578227491
 21
-1410.8802107157067
 31
0.0
  0
LINE
  5
91
100
AcDbEntity
  8
寸法
370
              -2
390
0
  6
Continuous
 62
               0
100
AcDbLine
 10
215.01584042177069
 20
-1309.3802107157067
 30
0.0
 11
215.01584042177069
 21
-1410.8802107157067
 31
0.0
  0
LINE
  5
92
100
AcDbEntity
  8
寸法
370
              -2
390
0
  6
Continuous
 62
               0
100
AcDbLine
 10
-14.984159578227491
 20
-1380.8802107157067
 30
0.0
 11
215.01584042177069
 21
-1380.8802107157067
 31
0.0
  0
POLYLINE
  5
93
100
AcDbEntity
  8
0
370
              -2
390
0
  6
Continuous
 62
               0
100
AcDb2dPolyline
 66
               1
 10
0.0
 20
0.0
 30
0.0
 75
               5
  0
VERTEX
  5
94
100
AcDbEntity
  8
0
370
              -2
390
0
  6
Continuous
 62
               0
100
AcDbVertex
100
AcDb2dVertex
 10
22.525178800678759
 20
-1390.9308076429602
 30
0.0
  0
VERTEX
  5
95
100
AcDbEntity
  8
0
370
              -2
390
0
  6
Continuous
 62
               0
100
AcDbVertex
100
AcDb2dVertex
 10
-14.984159578227491
 20
-1380.8802107157067
 30
0.0
  0
VERTEX
  5
96
100
AcDbEntity
  8
0
370
              -2
390
0
  6
Continuous
 62
               0
100
AcDbVertex
100
AcDb2dVertex
 10
22.525178800678759
 20
-1370.8296137884531
 30
0.0
  0
SEQEND
  5
97
100
AcDbEntity
  8
0
370
              -2
390
0
  6
Continuous
 62
               0
  0
POLYLINE
  5
98
100
AcDbEntity
  8
0
370
              -2
390
0
  6
Continuous
 62
               0
100
AcDb2dPolyline
 66
               1
 10
0.0
 20
0.0
 30
0.0
 75
               5
  0
VERTEX
  5
99
100
AcDbEntity
  8
0
370
              -2
390
0
  6
Continuous
 62
               0
100
AcDbVertex
100
AcDb2dVertex
 10
177.50650204286444
 20
-1370.8296137884531
 30
0.0
  0
VERTEX
  5
9A
100
AcDbEntity
  8
0
370
              -2
390
0
  6
Continuous
 62
               0
100
AcDbVertex
100
AcDb2dVertex
 10
215.01584042177069
 20
-1380.8802107157067
 30
0.0
  0
VERTEX
  5
9B
100
AcDbEntity
  8
0
370
              -2
390
0
  6
Continuous
 62
               0
100
AcDbVertex
100
AcDb2dVertex
 10
177.50650204286444
 20
-1390.9308076429604
 30
0.0
  0
SEQEND
  5
9C
100
AcDbEntity
  8
0
370
              -2
390
0
  6
Continuous
 62
               0
  0
WIPEOUT
  5
9D
100
AcDbEntity
  8
寸法
370
              -2
390
0
  6
Continuous
 62
               0
 92
        0
100
AcDbWipeout
 90
        0
 10
54.797769861460878
 20
-1373.3802107157067
 30
0.0
 11
95.250000000000014
 21
0.0
 31
0.0
 12
0.0
 22
95.250000000000014
 32
0.0
 13
1.0
 23
1.0
340
0
 70
               7
280
               1
281
              50
282
              50
283
               0
360
0
 71
               2
 91
        5
 14
-0.5
 24
0.5
 14
0.5
 24
0.5
 14
0.5
 24
-0.1666666666666665
 14
-0.5
 24
-0.1666666666666665
 14
-0.5
 24
0.5
  0
MTEXT
  5
9E
100
AcDbEntity
  8
寸法
390
0
 62
               0
100
AcDbMText
 10
54.797769861460878
 20
-1315.6249763407066
 30
0.0
 40
48.865234375000092
 41
0.0
 71
               1
 72
               1
  1
{\fＭＳ ゴシック|b0|i0|c128|p0;\l230}
 73
               1
 44
0.7828267384257843
  0
POINT
  5
9F
100
AcDbEntity
  8
Defpoints
370
               0
390
0
 62
               0
100
AcDbPoint
 10
215.01584042177069
 20
-1279.3802107157067
 30
0.0
  0
POINT
  5
A0
100
AcDbEntity
  8
Defpoints
370
               0
390
0
 62
               0
100
AcDbPoint
 10
-14.984159578227491
 20
-1279.3802107157085
 30
0.0
  0
POINT
  5
A1
100
AcDbEntity
  8
Defpoints
370
               0
390
0
 62
               0
100
AcDbPoint
 10
-14.984159578227491
 20
-1380.8802107157067
 30
0.0
  0
ENDBLK
  5
A2
100
AcDbEntity
  8
寸法
390
0
100
AcDbBlockEnd
  0
BLOCK
  5
A3
100
AcDbEntity
  8
寸法
390
0
100
AcDbBlockBegin
  2
*D3
 70
               1
 10
0.0
 20
0.0
 30
0.0
  3
*D3
  1

  0
LINE
  5
A4
100
AcDbEntity
  8
寸法
370
              -2
390
0
  6
Continuous
 62
               0
100
AcDbLine
 10
235.01584042177001
 20
-1248.8802107157067
 30
0.0
 11
382.42276986146089
 21
-1248.8802107157067
 31
0.0
  0
LINE
  5
A5
100
AcDbEntity
  8
寸法
370
              -2
390
0
  6
Continuous
 62
               0
100
AcDbLine
 10
235.01584042177012
 20
-1290.8802107157067
 30
0.0
 11
382.42276986146089
 21
-1290.8802107157067
 31
0.0
  0
LINE
  5
A6
100
AcDbEntity
  8
寸法
370
              -2
390
0
  6
Continuous
 62
               0
100
AcDbLine
 10
352.42276986146089
 20
-1248.8802107157067
 30
0.0
 11
352.42276986146089
 21
-1290.8802107157067
 31
0.0
  0
POLYLINE
  5
A7
100
AcDbEntity
  8
0
370
              -2
390
0
  6
Continuous
 62
               0
100
AcDb2dPolyline
 66
               1
 10
0.0
 20
0.0
 30
0.0
 75
               5
  0
VERTEX
  5
A8
100
AcDbEntity
  8
0
370
              -2
390
0
  6
Continuous
 62
               0
100
AcDbVertex
100
AcDb2dVertex
 10
342.37217293420724
 20
-1286.3895490946129
 30
0.0
  0
VERTEX
  5
A9
100
AcDbEntity
  8
0
370
              -2
390
0
  6
Continuous
 62
               0
100
AcDbVertex
100
AcDb2dVertex
 10
352.42276986146089
 20
-1248.8802107157067
 30
0.0
  0
VERTEX
  5
AA
100
AcDbEntity
  8
0
370
              -2
390
0
  6
Continuous
 62
               0
100
AcDbVertex
100
AcDb2dVertex
 10
362.47336678871454
 20
-1286.3895490946129
 30
0.0
  0
SEQEND
  5
AB
100
AcDbEntity
  8
0
370
              -2
390
0
  6
Continuous
 62
               0
  0
POLYLINE
  5
AC
100
AcDbEntity
  8
0
370
              -2
390
0
  6
Continuous
 62
               0
100
AcDb2dPolyline
 66
               1
 10
0.0
 20
0.0
 30
0.0
 75
               5
  0
VERTEX
  5
AD
100
AcDbEntity
  8
0
370
              -2
390
0
  6
Continuous
 62
               0
100
AcDbVertex
100
AcDb2dVertex
 10
362.47336678871454
 20
-1253.3708723368004
 30
0.0
  0
VERTEX
  5
AE
100
AcDbEntity
  8
0
370
              -2
390
0
  6
Continuous
 62
               0
100
AcDbVertex
100
AcDb2dVertex
 10
352.42276986146089
 20
-1290.8802107157067
 30
0.0
  0
VERTEX
  5
AF
100
AcDbEntity
  8
0
370
              -2
390
0
  6
Continuous
 62
               0
100
AcDbVertex
100
AcDb2dVertex
 10
342.37217293420724
 20
-1253.3708723368004
 30
0.0
  0
SEQEND
  5
B0
100
AcDbEntity
  8
0
370
              -2
390
0
  6
Continuous
 62
               0
  0
WIPEOUT
  5
B1
100
AcDbEntity
  8
寸法
370
              -2
390
0
  6
Continuous
 62
               0
 92
        0
100
AcDbWipeout
 90
        0
 10
281.42276986146078
 20
-1287.6302107157067
 30
0.0
 11
63.500000000000114
 21
0.0
 31
0.0
 12
0.0
 22
63.500000000000114
 32
0.0
 13
1.0
 23
1.0
340
0
 70
               7
280
               1
281
              50
282
              50
283
               0
360
0
 71
               2
 91
        5
 14
0.5
 24
0.5
 14
0.5
 24
-0.4999999999999982
 14
-0.5
 24
-0.4999999999999982
 14
-0.5
 24
0.5
 14
0.5
 24
0.5
  0
MTEXT
  5
B2
100
AcDbEntity
  8
寸法
390
0
 62
               0
100
AcDbMText
 10
287.16753548646079
 20
-1287.6302107157067
 30
0.0
 40
48.865234375000092
 41
0.0
 71
               1
 72
               1
  1
{\fＭＳ ゴシック|b0|i0|c128|p0;\l42}
 11
0.0
 21
1.0
 31
0.0
 73
               1
 44
0.7828267384257843
  0
POINT
  5
B3
100
AcDbEntity
  8
Defpoints
370
               0
390
0
 62
               0
100
AcDbPoint
 10
205.01584042177012
 20
-1290.8802107157067
 30
0.0
  0
POINT
  5
B4
100
AcDbEntity
  8
Defpoints
370
               0
390
0
 62
               0
100
AcDbPoint
 10
205.01584042177001
 20
-1248.8802107157067
 30
0.0
  0
POINT
  5
B5
100
AcDbEntity
  8
Defpoints
370
               0
390
0
 62
               0
100
AcDbPoint
 10
352.42276986146089
 20
-1248.8802107157067
 30
0.0
  0
ENDBLK
  5
B6
100
AcDbEntity
  8
寸法
390
0
100
AcDbBlockEnd
  0
BLOCK
  5
B7
100
AcDbEntity
  8
寸法
390
0
100
AcDbBlockBegin
  2
*D4
 70
               1
 10
0.0
 20
0.0
 30
0.0
  3
*D4
  1

  0
LINE
  5
B8
100
AcDbEntity
  8
寸法
370
              -2
390
0
  6
Continuous
 62
               0
100
AcDbLine
 10
182.32756850822523
 20
-1132.7557975177626
 30
0.0
 11
332.42276986146095
 21
-1132.7557975177626
 31
0.0
  0
LINE
  5
B9
100
AcDbEntity
  8
寸法
370
              -2
390
0
  6
Continuous
 62
               0
100
AcDbLine
 10
182.32756850822523
 20
-1086.1680462474121
 30
0.0
 11
332.42276986146095
 21
-1086.1680462474121
 31
0.0
  0
LINE
  5
BA
100
AcDbEntity
  8
寸法
370
              -2
390
0
  6
Continuous
 62
               0
100
AcDbLine
 10
302.42276986146095
 20
-1086.1680462474121
 30
0.0
 11
302.42276986146095
 21
-992.38021071570665
 31
0.0
  0
LINE
  5
BB
100
AcDbEntity
  8
寸法
370
              -2
390
0
  6
Continuous
 62
               0
100
AcDbLine
 10
302.42276986146095
 20
-1132.7557975177626
 30
0.0
 11
302.42276986146095
 21
-1086.1680462474121
 31
0.0
  0
POLYLINE
  5
BC
100
AcDbEntity
  8
0
370
              -2
390
0
  6
Continuous
 62
               0
100
AcDb2dPolyline
 66
               1
 10
0.0
 20
0.0
 30
0.0
 75
               5
  0
VERTEX
  5
BD
100
AcDbEntity
  8
0
370
              -2
390
0
  6
Continuous
 62
               0
100
AcDbVertex
100
AcDb2dVertex
 10
312.4733667887146
 20
-1095.2464591388564
 30
0.0
  0
VERTEX
  5
BE
100
AcDbEntity
  8
0
370
              -2
390
0
  6
Continuous
 62
               0
100
AcDbVertex
100
AcDb2dVertex
 10
302.42276986146095
 20
-1132.7557975177626
 30
0.0
  0
VERTEX
  5
BF
100
AcDbEntity
  8
0
370
              -2
390
0
  6
Continuous
 62
               0
100
AcDbVertex
100
AcDb2dVertex
 10
292.3721729342073
 20
-1095.2464591388564
 30
0.0
  0
SEQEND
  5
C0
100
AcDbEntity
  8
0
370
              -2
390
0
  6
Continuous
 62
               0
  0
POLYLINE
  5
C1
100
AcDbEntity
  8
0
370
              -2
390
0
  6
Continuous
 62
               0
100
AcDb2dPolyline
 66
               1
 10
0.0
 20
0.0
 30
0.0
 75
               5
  0
VERTEX
  5
C2
100
AcDbEntity
  8
0
370
              -2
390
0
  6
Continuous
 62
               0
100
AcDbVertex
100
AcDb2dVertex
 10
292.3721729342073
 20
-1123.6773846263184
 30
0.0
  0
VERTEX
  5
C3
100
AcDbEntity
  8
0
370
              -2
390
0
  6
Continuous
 62
               0
100
AcDbVertex
100
AcDb2dVertex
 10
302.42276986146095
 20
-1086.1680462474121
 30
0.0
  0
VERTEX
  5
C4
100
AcDbEntity
  8
0
370
              -2
390
0
  6
Continuous
 62
               0
100
AcDbVertex
100
AcDb2dVertex
 10
312.4733667887146
 20
-1123.6773846263184
 30
0.0
  0
SEQEND
  5
C5
100
AcDbEntity
  8
0
370
              -2
390
0
  6
Continuous
 62
               0
  0
WIPEOUT
  5
C6
100
AcDbEntity
  8
寸法
370
              -2
390
0
  6
Continuous
 62
               0
 92
        0
100
AcDbWipeout
 90
        0
 10
231.42276986146084
 20
-1055.8802107157067
 30
0.0
 11
63.500000000000114
 21
0.0
 31
0.0
 12
0.0
 22
63.500000000000114
 32
0.0
 13
1.0
 23
1.0
340
0
 70
               7
280
               1
281
              50
282
              50
283
               0
360
0
 71
               2
 91
        5
 14
0.5
 24
0.5
 14
0.5
 24
-0.4999999999999982
 14
-0.5
 24
-0.4999999999999982
 14
-0.5
 24
0.5
 14
0.5
 24
0.5
  0
MTEXT
  5
C7
100
AcDbEntity
  8
寸法
390
0
 62
               0
100
AcDbMText
 10
237.16753548646085
 20
-1055.8802107157067
 30
0.0
 40
48.865234375000092
 41
0.0
 71
               1
 72
               1
  1
{\fＭＳ ゴシック|b0|i0|c128|p0;\l47}
 11
0.0
 21
1.0
 31
0.0
 73
               1
 44
0.7828267384257843
  0
POINT
  5
C8
100
AcDbEntity
  8
Defpoints
370
               0
390
0
 62
               0
100
AcDbPoint
 10
152.32756850822523
 20
-1086.1680462474121
 30
0.0
  0
POINT
  5
C9
100
AcDbEntity
  8
Defpoints
370
               0
390
0
 62
               0
100
AcDbPoint
 10
152.32756850822523
 20
-1132.7557975177626
 30
0.0
  0
POINT
  5
CA
100
AcDbEntity
  8
Defpoints
370
               0
390
0
 62
               0
100
AcDbPoint
 10
302.42276986146095
 20
-1132.7557975177626
 30
0.0
  0
ENDBLK
  5
CB
100
AcDbEntity
  8
寸法
390
0
100
AcDbBlockEnd
  0
BLOCK
  5
CC
100
AcDbEntity
  8
0
390
0
100
AcDbBlockBegin
  2
グループ
 70
               0
 10
0.0
 20
0.0
 30
0.0
  3
グループ
  1

  0
LINE
  5
CD
100
AcDbEntity
  8
0
370
               0
390
0
  6
Continuous
 62
              30
100
AcDbLine
 10
-184.17515431592335
 20
-1264.3802107157067
 30
0.0
 11
-184.17515431592335
 21
-1260.3802107157067
 31
0.0
  0
LINE
  5
CE
100
AcDbEntity
  8
0
370
               0
390
0
  6
Continuous
 62
              30
100
AcDbLine
 10
-184.17515431592335
 20
-1279.3802107157067
 30
0.0
 11
-184.17515431592335
 21
-1275.3802107157067
 31
0.0
  0
LINE
  5
CF
100
AcDbEntity
  8
0
370
               0
390
0
  6
Continuous
 62
              30
100
AcDbLine
 10
-139.08504227288529
 20
-1260.3802107157067
 30
0.0
 11
-139.08504227288529
 21
-1264.3802107157067
 31
0.0
  0
LINE
  5
D0
100
AcDbEntity
  8
0
370
               0
390
0
  6
Continuous
 62
              30
100
AcDbLine
 10
-151.08504227288529
 20
-1260.3802107157067
 30
0.0
 11
-151.08504227288529
 21
-1264.3802107157067
 31
0.0
  0
LINE
  5
D1
100
AcDbEntity
  8
0
370
               0
390
0
  6
Continuous
 62
              30
100
AcDbLine
 10
-151.08504227288529
 20
-1264.3802107157067
 30
0.0
 11
-139.08504227288529
 21
-1264.3802107157067
 31
0.0
  0
LINE
  5
D2
100
AcDbEntity
  8
0
370
               0
390
0
  6
Continuous
 62
              30
100
AcDbLine
 10
-151.08504227288529
 20
-1260.3802107157067
 30
0.0
 11
-139.08504227288529
 21
-1260.3802107157067
 31
0.0
  0
LINE
  5
D3
100
AcDbEntity
  8
0
370
               0
390
0
  6
Continuous
 62
              30
100
AcDbLine
 10
-160.05551577132417
 20
-1264.3802107157067
 30
0.0
 11
-160.05551577132417
 21
-1260.3802107157067
 31
0.0
  0
LINE
  5
D4
100
AcDbEntity
  8
0
370
               0
390
0
  6
Continuous
 62
              30
100
AcDbLine
 10
-160.05551577132417
 20
-1264.3802107157067
 30
0.0
 11
-151.08504227288529
 21
-1264.3802107157067
 31
0.0
  0
LINE
  5
D5
100
AcDbEntity
  8
0
370
               0
390
0
  6
Continuous
 62
              30
100
AcDbLine
 10
-160.05551577132417
 20
-1260.3802107157067
 30
0.0
 11
-151.08504227288529
 21
-1260.3802107157067
 31
0.0
  0
LINE
  5
D6
100
AcDbEntity
  8
0
370
               0
390
0
  6
Continuous
 62
              30
100
AcDbLine
 10
-171.9142935470735
 20
-1264.3802107157067
 30
0.0
 11
-171.9142935470735
 21
-1260.3802107157067
 31
0.0
  0
LINE
  5
D7
100
AcDbEntity
  8
0
370
               0
390
0
  6
Continuous
 62
              30
100
AcDbLine
 10
-171.9142935470735
 20
-1264.3802107157067
 30
0.0
 11
-160.05551577132417
 21
-1264.3802107157067
 31
0.0
  0
LINE
  5
D8
100
AcDbEntity
  8
0
370
               0
390
0
  6
Continuous
 62
              30
100
AcDbLine
 10
-171.9142935470735
 20
-1260.3802107157067
 30
0.0
 11
-160.05551577132417
 21
-1260.3802107157067
 31
0.0
  0
LINE
  5
D9
100
AcDbEntity
  8
0
370
               0
390
0
  6
Continuous
 62
              30
100
AcDbLine
 10
-184.17515431592335
 20
-1264.3802107157067
 30
0.0
 11
-171.9142935470735
 21
-1264.3802107157067
 31
0.0
  0
LINE
  5
DA
100
AcDbEntity
  8
0
370
               0
390
0
  6
Continuous
 62
              30
100
AcDbLine
 10
-171.9142935470735
 20
-1260.3802107157067
 30
0.0
 11
-184.17515431592335
 21
-1260.3802107157067
 31
0.0
  0
LINE
  5
DB
100
AcDbEntity
  8
0
370
               0
390
0
  6
Continuous
 62
              30
100
AcDbLine
 10
-139.08504227288529
 20
-1275.3802107157067
 30
0.0
 11
-139.08504227288529
 21
-1279.3802107157067
 31
0.0
  0
LINE
  5
DC
100
AcDbEntity
  8
0
370
               0
390
0
  6
Continuous
 62
              30
100
AcDbLine
 10
-139.08504227288529
 20
-1275.3802107157067
 30
0.0
 11
-151.08504227288529
 21
-1275.3802107157067
 31
0.0
  0
LINE
  5
DD
100
AcDbEntity
  8
0
370
               0
390
0
  6
Continuous
 62
              30
100
AcDbLine
 10
-151.08504227288529
 20
-1275.3802107157067
 30
0.0
 11
-151.08504227288529
 21
-1279.3802107157067
 31
0.0
  0
LINE
  5
DE
100
AcDbEntity
  8
0
370
               0
390
0
  6
Continuous
 62
              30
100
AcDbLine
 10
-139.08504227288529
 20
-1279.3802107157067
 30
0.0
 11
-151.08504227288529
 21
-1279.3802107157067
 31
0.0
  0
LINE
  5
DF
100
AcDbEntity
  8
0
370
               0
390
0
  6
Continuous
 62
              30
100
AcDbLine
 10
-160.05551577132417
 20
-1275.3802107157067
 30
0.0
 11
-160.05551577132417
 21
-1279.3802107157067
 31
0.0
  0
LINE
  5
E0
100
AcDbEntity
  8
0
370
               0
390
0
  6
Continuous
 62
              30
100
AcDbLine
 10
-151.08504227288529
 20
-1279.3802107157067
 30
0.0
 11
-160.05551577132417
 21
-1279.3802107157067
 31
0.0
  0
LINE
  5
E1
100
AcDbEntity
  8
0
370
               0
390
0
  6
Continuous
 62
              30
100
AcDbLine
 10
-151.08504227288529
 20
-1275.3802107157067
 30
0.0
 11
-160.05551577132417
 21
-1275.3802107157067
 31
0.0
  0
LINE
  5
E2
100
AcDbEntity
  8
0
370
               0
390
0
  6
Continuous
 62
              30
100
AcDbLine
 10
-171.91429354707395
 20
-1279.3802107157067
 30
0.0
 11
-171.91429354707395
 21
-1275.3802107157067
 31
0.0
  0
LINE
  5
E3
100
AcDbEntity
  8
0
370
               0
390
0
  6
Continuous
 62
              30
100
AcDbLine
 10
-160.05551577132417
 20
-1279.3802107157067
 30
0.0
 11
-171.91429354707395
 21
-1279.3802107157067
 31
0.0
  0
LINE
  5
E4
100
AcDbEntity
  8
0
370
               0
390
0
  6
Continuous
 62
              30
100
AcDbLine
 10
-160.05551577132417
 20
-1275.3802107157067
 30
0.0
 11
-171.91429354707395
 21
-1275.3802107157067
 31
0.0
  0
LINE
  5
E5
100
AcDbEntity
  8
0
370
               0
390
0
  6
Continuous
 62
              30
100
AcDbLine
 10
-184.17515431592335
 20
-1279.3802107157067
 30
0.0
 11
-171.91429354707395
 21
-1279.3802107157067
 31
0.0
  0
LINE
  5
E6
100
AcDbEntity
  8
0
370
               0
390
0
  6
Continuous
 62
              30
100
AcDbLine
 10
-171.91429354707395
 20
-1275.3802107157067
 30
0.0
 11
-184.17515431592335
 21
-1275.3802107157067
 31
0.0
  0
LINE
  5
E7
100
AcDbEntity
  8
0
370
               0
390
0
  6
Continuous
 62
              30
100
AcDbLine
 10
-140.58504227288529
 20
-1280.8802107157067
 30
0.0
 11
-137.58504227288529
 21
-1280.8802107157067
 31
0.0
  0
LINE
  5
E8
100
AcDbEntity
  8
0
370
               0
390
0
  6
Continuous
 62
              30
100
AcDbLine
 10
-140.58504227288529
 20
-1290.8802107157067
 30
0.0
 11
-140.58504227288529
 21
-1280.8802107157067
 31
0.0
  0
LINE
  5
E9
100
AcDbEntity
  8
0
370
               0
390
0
  6
Continuous
 62
              30
100
AcDbLine
 10
-137.58504227288529
 20
-1290.8802107157067
 30
0.0
 11
-140.58504227288529
 21
-1290.8802107157067
 31
0.0
  0
LINE
  5
EA
100
AcDbEntity
  8
0
370
               0
390
0
  6
Continuous
 62
              30
100
AcDbLine
 10
-137.58504227288529
 20
-1280.8802107157067
 30
0.0
 11
-137.58504227288529
 21
-1290.8802107157067
 31
0.0
  0
LINE
  5
EB
100
AcDbEntity
  8
0
370
               0
390
0
  6
Continuous
 62
              30
100
AcDbLine
 10
-137.58504227288529
 20
-1258.8802107157067
 30
0.0
 11
-140.58504227288529
 21
-1258.8802107157067
 31
0.0
  0
LINE
  5
EC
100
AcDbEntity
  8
0
370
               0
390
0
  6
Continuous
 62
              30
100
AcDbLine
 10
-140.58504227288529
 20
-1258.8802107157067
 30
0.0
 11
-140.58504227288529
 21
-1260.3802107157067
 31
0.0
  0
LINE
  5
ED
100
AcDbEntity
  8
0
370
               0
390
0
  6
Continuous
 62
              30
100
AcDbLine
 10
-140.58504227288529
 20
-1264.3802107157067
 30
0.0
 11
-140.58504227288529
 21
-1275.3802107157067
 31
0.0
  0
LINE
  5
EE
100
AcDbEntity
  8
0
370
               0
390
0
  6
Continuous
 62
              30
100
AcDbLine
 10
-140.58504227288529
 20
-1279.3802107157067
 30
0.0
 11
-140.58504227288529
 21
-1280.8802107157067
 31
0.0
  0
LINE
  5
EF
100
AcDbEntity
  8
0
370
               0
390
0
  6
Continuous
 62
              30
100
AcDbLine
 10
-137.58504227288529
 20
-1258.8802107157067
 30
0.0
 11
-137.58504227288529
 21
-1280.8802107157067
 31
0.0
  0
LINE
  5
F0
100
AcDbEntity
  8
0
370
               0
390
0
  6
Continuous
 62
              30
100
AcDbLine
 10
-140.58504227288529
 20
-1248.8802107157067
 30
0.0
 11
-137.58504227288529
 21
-1248.8802107157067
 31
0.0
  0
LINE
  5
F1
100
AcDbEntity
  8
0
370
               0
390
0
  6
Continuous
 62
              30
100
AcDbLine
 10
-140.58504227288529
 20
-1258.8802107157067
 30
0.0
 11
-140.58504227288529
 21
-1248.8802107157067
 31
0.0
  0
LINE
  5
F2
100
AcDbEntity
  8
0
370
               0
390
0
  6
Continuous
 62
              30
100
AcDbLine
 10
-137.58504227288529
 20
-1248.8802107157067
 30
0.0
 11
-137.58504227288529
 21
-1258.8802107157067
 31
0.0
  0
ENDBLK
  5
F3
100
AcDbEntity
  8
0
390
0
100
AcDbBlockEnd
  0
BLOCK
  5
F4
100
AcDbEntity
  8
寸法
390
0
100
AcDbBlockBegin
  2
*D6
 70
               1
 10
0.0
 20
0.0
 30
0.0
  3
*D6
  1

  0
LINE
  5
F5
100
AcDbEntity
  8
寸法
370
              -2
390
0
  6
Continuous
 62
               0
100
AcDbLine
 10
49.663581552917435
 20
-1099.9476714550142
 30
0.0
 11
127.42276986146094
 21
-980.88021071570654
 31
0.0
  0
LINE
  5
F6
100
AcDbEntity
  8
寸法
370
              -2
390
0
  6
Continuous
 62
               0
100
AcDbLine
 10
127.42276986146094
 20
-980.88021071570654
 30
0.0
 11
284.42276986146095
 21
-980.88021071570654
 31
0.0
  0
LINE
  5
F7
100
AcDbEntity
  8
寸法
370
              -2
390
0
  6
Continuous
 62
               0
100
AcDbLine
 10
40.368099290620762
 20
-1114.1812237000206
 30
0.0
 11
49.663581552917435
 21
-1099.9476714550142
 31
0.0
  0
POLYLINE
  5
F8
100
AcDbEntity
  8
0
370
              -2
390
0
  6
Continuous
 62
               0
100
AcDb2dPolyline
 66
               1
 10
0.0
 20
0.0
 30
0.0
 75
               5
  0
VERTEX
  5
F9
100
AcDbEntity
  8
0
370
              -2
390
0
  6
Continuous
 62
               0
100
AcDbVertex
100
AcDb2dVertex
 10
69.675377605287593
 20
-1088.7047953395916
 30
0.0
  0
VERTEX
  5
FA
100
AcDbEntity
  8
0
370
              -2
390
0
  6
Continuous
 62
               0
100
AcDbVertex
100
AcDb2dVertex
 10
40.368099290620762
 20
-1114.1812237000206
 30
0.0
  0
VERTEX
  5
FB
100
AcDbEntity
  8
0
370
              -2
390
0
  6
Continuous
 62
               0
100
AcDbVertex
100
AcDb2dVertex
 10
53.010732646688538
 20
-1077.4643503848613
 30
0.0
  0
SEQEND
  5
FC
100
AcDbEntity
  8
0
370
              -2
390
0
  6
Continuous
 62
               0
  0
POLYLINE
  5
FD
100
AcDbEntity
  8
0
370
              -2
390
0
  6
Continuous
 62
               0
100
AcDb2dPolyline
 66
               1
 10
0.0
 20
0.0
 30
0.0
 75
               5
  0
VERTEX
  5
FE
100
AcDbEntity
  8
0
370
              -2
390
0
  6
Continuous
 62
               0
100
AcDbVertex
100
AcDb2dVertex
 10
20.805391861007472
 20
-1125.9317021647241
 30
0.0
  0
VERTEX
  5
FF
100
AcDbEntity
  8
0
370
              -2
390
0
  6
Continuous
 62
               0
100
AcDbVertex
100
AcDb2dVertex
 10
49.663581552917435
 20
-1099.9476714550142
 30
0.0
  0
VERTEX
  5
100
100
AcDbEntity
  8
0
370
              -2
390
0
  6
Continuous
 62
               0
100
AcDbVertex
100
AcDb2dVertex
 10
37.663671527348171
 20
-1136.8795969882931
 30
0.0
  0
SEQEND
  5
101
100
AcDbEntity
  8
0
370
              -2
390
0
  6
Continuous
 62
               0
  0
WIPEOUT
  5
102
100
AcDbEntity
  8
寸法
370
              -2
390
0
  6
Continuous
 62
               0
 92
        0
100
AcDbWipeout
 90
        0
 10
157.42276986146095
 20
-973.38021071570643
 30
0.0
 11
127.0
 21
0.0
 31
0.0
 12
0.0
 22
127.0
 32
0.0
 13
1.0
 23
1.0
340
0
 70
               7
280
               1
281
              50
282
              50
283
               0
360
0
 71
               2
 91
        5
 14
-0.5
 24
0.5
 14
0.5
 24
0.5
 14
0.5
 24
-0.0000000000000009
 14
-0.5
 24
-0.0000000000000009
 14
-0.5
 24
0.5
  0
MTEXT
  5
103
100
AcDbEntity
  8
寸法
390
0
 62
               0
100
AcDbMText
 10
157.42276986146095
 20
-915.62497634070633
 30
0.0
 40
48.865234375000092
 41
0.0
 71
               1
 72
               1
  1
{\fＭＳ ゴシック|b0|i0|c128|p0;\lφ17}
 73
               1
 44
0.7828267384257843
  0
POINT
  5
104
100
AcDbEntity
  8
Defpoints
370
               0
390
0
 62
               0
100
AcDbPoint
 10
40.368099290620762
 20
-1114.1812237000206
 30
0.0
  0
POINT
  5
105
100
AcDbEntity
  8
Defpoints
370
               0
390
0
 62
               0
100
AcDbPoint
 10
49.663581552917435
 20
-1099.9476714550142
 30
0.0
  0
ENDBLK
  5
106
100
AcDbEntity
  8
寸法
390
0
100
AcDbBlockEnd
  0
BLOCK
  5
107
100
AcDbEntity
  8
寸法
390
0
100
AcDbBlockBegin
  2
*D7
 70
               1
 10
0.0
 20
0.0
 30
0.0
  3
*D7
  1

  0
LINE
  5
108
100
AcDbEntity
  8
寸法
370
              -2
390
0
  6
Continuous
 62
               0
100
AcDbLine
 10
115.01584042176887
 20
-1239.8802107157067
 30
0.0
 11
115.01584042176887
 21
-1200.8802107157067
 31
0.0
  0
LINE
  5
109
100
AcDbEntity
  8
寸法
370
              -2
390
0
  6
Continuous
 62
               0
100
AcDbLine
 10
195.01584042176955
 20
-1239.8802107157067
 30
0.0
 11
195.01584042176955
 21
-1200.8802107157067
 31
0.0
  0
LINE
  5
10A
100
AcDbEntity
  8
寸法
370
              -2
390
0
  6
Continuous
 62
               0
100
AcDbLine
 10
115.01584042176887
 20
-1230.8802107157067
 30
0.0
 11
195.01584042176955
 21
-1230.8802107157067
 31
0.0
  0
POLYLINE
  5
10B
100
AcDbEntity
  8
0
370
              -2
390
0
  6
Continuous
 62
               0
100
AcDb2dPolyline
 66
               1
 10
0.0
 20
0.0
 30
0.0
 75
               5
  0
VERTEX
  5
10C
100
AcDbEntity
  8
0
370
              -2
390
0
  6
Continuous
 62
               0
100
AcDbVertex
100
AcDb2dVertex
 10
152.52517880067512
 20
-1240.9308076429602
 30
0.0
  0
VERTEX
  5
10D
100
AcDbEntity
  8
0
370
              -2
390
0
  6
Continuous
 62
               0
100
AcDbVertex
100
AcDb2dVertex
 10
115.01584042176887
 20
-1230.8802107157067
 30
0.0
  0
VERTEX
  5
10E
100
AcDbEntity
  8
0
370
              -2
390
0
  6
Continuous
 62
               0
100
AcDbVertex
100
AcDb2dVertex
 10
152.52517880067512
 20
-1220.8296137884531
 30
0.0
  0
SEQEND
  5
10F
100
AcDbEntity
  8
0
370
              -2
390
0
  6
Continuous
 62
               0
  0
POLYLINE
  5
110
100
AcDbEntity
  8
0
370
              -2
390
0
  6
Continuous
 62
               0
100
AcDb2dPolyline
 66
               1
 10
0.0
 20
0.0
 30
0.0
 75
               5
  0
VERTEX
  5
111
100
AcDbEntity
  8
0
370
              -2
390
0
  6
Continuous
 62
               0
100
AcDbVertex
100
AcDb2dVertex
 10
157.5065020428633
 20
-1220.8296137884531
 30
0.0
  0
VERTEX
  5
112
100
AcDbEntity
  8
0
370
              -2
390
0
  6
Continuous
 62
               0
100
AcDbVertex
100
AcDb2dVertex
 10
195.01584042176955
 20
-1230.8802107157067
 30
0.0
  0
VERTEX
  5
113
100
AcDbEntity
  8
0
370
              -2
390
0
  6
Continuous
 62
               0
100
AcDbVertex
100
AcDb2dVertex
 10
157.5065020428633
 20
-1240.9308076429604
 30
0.0
  0
SEQEND
  5
114
100
AcDbEntity
  8
0
370
              -2
390
0
  6
Continuous
 62
               0
  0
WIPEOUT
  5
115
100
AcDbEntity
  8
寸法
370
              -2
390
0
  6
Continuous
 62
               0
 92
        0
100
AcDbWipeout
 90
        0
 10
123.26584042176921
 20
-1223.3802107157067
 30
0.0
 11
63.5
 21
0.0
 31
0.0
 12
0.0
 22
63.5
 32
0.0
 13
1.0
 23
1.0
340
0
 70
               7
280
               1
281
              50
282
              50
283
               0
360
0
 71
               2
 91
        5
 14
-0.5
 24
0.5
 14
0.5
 24
0.5
 14
0.5
 24
-0.5
 14
-0.5
 24
-0.5
 14
-0.5
 24
0.5
  0
MTEXT
  5
116
100
AcDbEntity
  8
寸法
390
0
 62
               0
100
AcDbMText
 10
123.26584042176921
 20
-1165.6249763407066
 30
0.0
 40
48.865234375000092
 41
0.0
 71
               1
 72
               1
  1
{\fＭＳ ゴシック|b0|i0|c128|p0;\l80}
 73
               1
 44
0.7828267384257843
  0
POINT
  5
117
100
AcDbEntity
  8
Defpoints
370
               0
390
0
 62
               0
100
AcDbPoint
 10
195.01584042176955
 20
-1269.8802107157067
 30
0.0
  0
POINT
  5
118
100
AcDbEntity
  8
Defpoints
370
               0
390
0
 62
               0
100
AcDbPoint
 10
115.01584042176887
 20
-1269.8802107157067
 30
0.0
  0
POINT
  5
119
100
AcDbEntity
  8
Defpoints
370
               0
390
0
 62
               0
100
AcDbPoint
 10
115.01584042176887
 20
-1230.8802107157067
 30
0.0
  0
ENDBLK
  5
11A
100
AcDbEntity
  8
寸法
390
0
100
AcDbBlockEnd
  0
BLOCK
  5
11B
100
AcDbEntity
  8
寸法
390
0
100
AcDbBlockBegin
  2
*D8
 70
               1
 10
0.0
 20
0.0
 30
0.0
  3
*D8
  1

  0
LINE
  5
11C
100
AcDbEntity
  8
寸法
370
              -2
390
0
  6
Continuous
 62
               0
100
AcDbLine
 10
197.47984531945065
 20
-1267.8384761922675
 30
0.0
 11
302.42276986146089
 21
-1180.8802107157067
 31
0.0
  0
LINE
  5
11D
100
AcDbEntity
  8
寸法
370
              -2
390
0
  6
Continuous
 62
               0
100
AcDbLine
 10
302.42276986146089
 20
-1180.8802107157067
 30
0.0
 11
491.17276986146089
 21
-1180.8802107157067
 31
0.0
  0
LINE
  5
11E
100
AcDbEntity
  8
寸法
370
              -2
390
0
  6
Continuous
 62
               0
100
AcDbLine
 10
192.55183552408846
 20
-1271.921945239146
 30
0.0
 11
197.47984531945065
 21
-1267.8384761922675
 31
0.0
  0
POLYLINE
  5
11F
100
AcDbEntity
  8
0
370
              -2
390
0
  6
Continuous
 62
               0
100
AcDb2dPolyline
 66
               1
 10
0.0
 20
0.0
 30
0.0
 75
               5
  0
VERTEX
  5
120
100
AcDbEntity
  8
0
370
              -2
390
0
  6
Continuous
 62
               0
100
AcDbVertex
100
AcDb2dVertex
 10
228.02711195072197
 20
-1256.127334554759
 30
0.0
  0
VERTEX
  5
121
100
AcDbEntity
  8
0
370
              -2
390
0
  6
Continuous
 62
               0
100
AcDbVertex
100
AcDb2dVertex
 10
192.55183552408846
 20
-1271.921945239146
 30
0.0
  0
VERTEX
  5
122
100
AcDbEntity
  8
0
370
              -2
390
0
  6
Continuous
 62
               0
100
AcDbVertex
100
AcDb2dVertex
 10
215.37702077363485
 20
-1240.505772930265
 30
0.0
  0
SEQEND
  5
123
100
AcDbEntity
  8
0
370
              -2
390
0
  6
Continuous
 62
               0
  0
POLYLINE
  5
124
100
AcDbEntity
  8
0
370
              -2
390
0
  6
Continuous
 62
               0
100
AcDb2dPolyline
 66
               1
 10
0.0
 20
0.0
 30
0.0
 75
               5
  0
VERTEX
  5
125
100
AcDbEntity
  8
0
370
              -2
390
0
  6
Continuous
 62
               0
100
AcDbVertex
100
AcDb2dVertex
 10
162.28562591442784
 20
-1284.249810223617
 30
0.0
  0
VERTEX
  5
126
100
AcDbEntity
  8
0
370
              -2
390
0
  6
Continuous
 62
               0
100
AcDbVertex
100
AcDb2dVertex
 10
197.47984531945065
 20
-1267.8384761922675
 30
0.0
  0
VERTEX
  5
127
100
AcDbEntity
  8
0
370
              -2
390
0
  6
Continuous
 62
               0
100
AcDbVertex
100
AcDb2dVertex
 10
175.20642426401236
 20
-1299.6482180759197
 30
0.0
  0
SEQEND
  5
128
100
AcDbEntity
  8
0
370
              -2
390
0
  6
Continuous
 62
               0
  0
WIPEOUT
  5
129
100
AcDbEntity
  8
寸法
370
              -2
390
0
  6
Continuous
 62
               0
 92
        0
100
AcDbWipeout
 90
        0
 10
332.42276986146089
 20
-1173.3802107157067
 30
0.0
 11
158.75
 21
0.0
 31
0.0
 12
0.0
 22
158.75
 32
0.0
 13
1.0
 23
1.0
340
0
 70
               7
280
               1
281
              50
282
              50
283
               0
360
0
 71
               2
 91
        5
 14
-0.5
 24
0.5
 14
0.5
 24
0.5
 14
0.5
 24
0.1
 14
-0.5
 24
0.1
 14
-0.5
 24
0.5
  0
MTEXT
  5
12A
100
AcDbEntity
  8
寸法
390
0
 62
               0
100
AcDbMText
 10
332.42276986146089
 20
-1115.6249763407066
 30
0.0
 40
48.865234375000092
 41
0.0
 71
               1
 72
               1
  1
{\fＭＳ ゴシック|b0|i0|c128|p0;\lφ6.4}
 73
               1
 44
0.7828267384257843
  0
POINT
  5
12B
100
AcDbEntity
  8
Defpoints
370
               0
390
0
 62
               0
100
AcDbPoint
 10
192.55183552408846
 20
-1271.921945239146
 30
0.0
  0
POINT
  5
12C
100
AcDbEntity
  8
Defpoints
370
               0
390
0
 62
               0
100
AcDbPoint
 10
197.47984531945065
 20
-1267.8384761922675
 30
0.0
  0
ENDBLK
  5
12D
100
AcDbEntity
  8
寸法
390
0
100
AcDbBlockEnd
  0
BLOCK
  5
12E
100
AcDbEntity
  8
0
390
0
100
AcDbBlockBegin
  2
グループ-1
 70
               0
 10
0.0
 20
0.0
 30
0.0
  3
グループ-1
  1

  0
ARC
  5
12F
100
AcDbEntity
  8
0
370
               0
390
0
  6
Continuous
 62
              30
100
AcDbCircle
 10
154.5454657332989
 20
-2128.0012039756948
 30
0.0
 40
1041.8355185009702
100
AcDbArc
 50
89.974131727249855
 51
98.798838971886212
  0
ARC
  5
130
100
AcDbEntity
  8
0
370
               0
390
0
  6
Continuous
 62
              30
100
AcDbCircle
 10
153.12664189805321
 20
-1342.049125867223
 30
0.0
 40
255.89030813370175
100
AcDbArc
 50
78.196497611486137
 51
89.576990288506067
  0
ARC
  5
131
100
AcDbEntity
  8
0
370
               0
390
0
  6
Continuous
 62
              30
100
AcDbCircle
 10
203.01584042177035
 20
-1103.3159059915363
 30
0.0
 40
12.000000000000227
100
AcDbArc
 50
0.0
 51
78.196497611486507
  0
LINE
  5
132
100
AcDbEntity
  8
0
370
               0
390
0
  6
Continuous
 62
              30
100
AcDbLine
 10
215.01584042177058
 20
-1103.3159059915363
 30
0.0
 11
215.01584042177058
 21
-1129.7557975177626
 31
0.0
  0
LINE
  5
133
100
AcDbEntity
  8
0
370
               0
390
0
  6
Continuous
 62
              30
100
AcDbLine
 10
-2.9841595782295371
 20
-1131.2557975177626
 30
0.0
 11
95.015840421771031
 21
-1131.2557975177626
 31
0.0
  0
ARC
  5
134
100
AcDbEntity
  8
0
370
               0
390
0
  6
Continuous
 62
              30
100
AcDbCircle
 10
-2.9841595782295371
 20
-1119.2557975177626
 30
0.0
 40
12.0
100
AcDbArc
 50
180.0
 51
270.00000000000108
  0
LINE
  5
135
100
AcDbEntity
  8
0
370
               0
390
0
  6
Continuous
 62
              30
100
AcDbLine
 10
-14.984159578229537
 20
-1119.2557975177626
 30
0.0
 11
-14.984159578229537
 21
-1110.2853240193238
 31
0.0
  0
ARC
  5
136
100
AcDbEntity
  8
0
370
               0
390
0
  6
Continuous
 62
              30
100
AcDbCircle
 10
-2.9841595782295371
 20
-1110.2853240193238
 30
0.0
 40
12.000000000000417
100
AcDbArc
 50
98.798838971887804
 51
180.0
  0
CIRCLE
  5
137
100
AcDbEntity
  8
0
370
               0
390
0
  6
Continuous
 62
              30
100
AcDbCircle
 10
199.01584042176898
 20
-1105.7047173944441
 30
0.0
 40
8.4999999999998863
  0
CIRCLE
  5
138
100
AcDbEntity
  8
0
370
               0
390
0
  6
Continuous
 62
              30
100
AcDbCircle
 10
133.01584042176921
 20
-1101.392965469314
 30
0.0
 40
8.5
  0
CIRCLE
  5
139
100
AcDbEntity
  8
0
370
               0
390
0
  6
Continuous
 62
              30
100
AcDbCircle
 10
67.015840421769099
 20
-1104.928839678267
 30
0.0
 40
8.5
  0
CIRCLE
  5
13A
100
AcDbEntity
  8
0
370
               0
390
0
  6
Continuous
 62
              30
100
AcDbCircle
 10
154.92835509814211
 20
-1101.165757351155
 30
0.0
 40
8.4999999999998863
  0
CIRCLE
  5
13B
100
AcDbEntity
  8
0
370
               0
390
0
  6
Continuous
 62
              30
100
AcDbCircle
 10
45.015840421769099
 20
-1107.0644475775173
 30
0.0
 40
8.5
  0
CIRCLE
  5
13C
100
AcDbEntity
  8
0
370
               0
390
0
  6
Continuous
 62
              30
100
AcDbCircle
 10
89.015840421769326
 20
-1103.2731690849034
 30
0.0
 40
8.5
  0
CIRCLE
  5
13D
100
AcDbEntity
  8
0
370
               0
390
0
  6
Continuous
 62
              30
100
AcDbCircle
 10
111.01584042176921
 20
-1102.0950961736182
 30
0.0
 40
8.4999999999998863
  0
CIRCLE
  5
13E
100
AcDbEntity
  8
0
370
               0
390
0
  6
Continuous
 62
              30
100
AcDbCircle
 10
177.01584042176887
 20
-1102.3820193979748
 30
0.0
 40
8.5
  0
CIRCLE
  5
13F
100
AcDbEntity
  8
0
370
               0
390
0
  6
Continuous
 62
              30
100
AcDbCircle
 10
1.0158404217690986
 20
-1112.7082234982083
 30
0.0
 40
8.5
  0
CIRCLE
  5
140
100
AcDbEntity
  8
0
370
               0
390
0
  6
Continuous
 62
              30
100
AcDbCircle
 10
23.015840421769099
 20
-1109.6244859972423
 30
0.0
 40
8.5
  0
LINE
  5
141
100
AcDbEntity
  8
0
370
               0
390
0
  6
Continuous
 62
              30
100
AcDbLine
 10
105.01584042177103
 20
-1132.7557975177626
 30
0.0
 11
105.01584042177103
 21
-1129.7557975177626
 31
0.0
  0
LINE
  5
142
100
AcDbEntity
  8
0
370
               0
390
0
  6
Continuous
 62
              30
100
AcDbLine
 10
205.01584042176989
 20
-1129.7557975177626
 30
0.0
 11
105.01584042177103
 21
-1129.7557975177626
 31
0.0
  0
LINE
  5
143
100
AcDbEntity
  8
0
370
               0
390
0
  6
Continuous
 62
              30
100
AcDbLine
 10
205.01584042176989
 20
-1129.7557975177626
 30
0.0
 11
205.01584042176989
 21
-1132.7557975177626
 31
0.0
  0
LINE
  5
144
100
AcDbEntity
  8
0
370
               0
390
0
  6
Continuous
 62
              30
100
AcDbLine
 10
105.01584042177103
 20
-1132.7557975177626
 30
0.0
 11
205.01584042176989
 21
-1132.7557975177626
 31
0.0
  0
LINE
  5
145
100
AcDbEntity
  8
0
370
               0
390
0
  6
Continuous
 62
              30
100
AcDbLine
 10
215.01584042176989
 20
-1129.7557975177626
 30
0.0
 11
205.01584042176989
 21
-1129.7557975177626
 31
0.0
  0
LINE
  5
146
100
AcDbEntity
  8
0
370
               0
390
0
  6
Continuous
 62
              30
100
AcDbLine
 10
215.01584042176989
 20
-1129.7557975177626
 30
0.0
 11
215.01584042176989
 21
-1132.7557975177626
 31
0.0
  0
LINE
  5
147
100
AcDbEntity
  8
0
370
               0
390
0
  6
Continuous
 62
              30
100
AcDbLine
 10
205.01584042176989
 20
-1132.7557975177626
 30
0.0
 11
215.01584042176989
 21
-1132.7557975177626
 31
0.0
  0
LINE
  5
148
100
AcDbEntity
  8
0
370
               0
390
0
  6
Continuous
 62
              30
100
AcDbLine
 10
95.015840421771031
 20
-1129.7557975177626
 30
0.0
 11
95.015840421771031
 21
-1132.7557975177626
 31
0.0
  0
LINE
  5
149
100
AcDbEntity
  8
0
370
               0
390
0
  6
Continuous
 62
              30
100
AcDbLine
 10
105.01584042177103
 20
-1129.7557975177626
 30
0.0
 11
95.015840421771031
 21
-1129.7557975177626
 31
0.0
  0
LINE
  5
14A
100
AcDbEntity
  8
0
370
               0
390
0
  6
Continuous
 62
              30
100
AcDbLine
 10
95.015840421771031
 20
-1132.7557975177626
 30
0.0
 11
105.01584042177103
 21
-1132.7557975177626
 31
0.0
  0
ENDBLK
  5
14B
100
AcDbEntity
  8
0
390
0
100
AcDbBlockEnd
  0
BLOCK
  5
14C
100
AcDbEntity
  8
0
390
0
100
AcDbBlockBegin
  2
グループ-2
 70
               0
 10
0.0
 20
0.0
 30
0.0
  3
グループ-2
  1

  0
LINE
  5
14D
100
AcDbEntity
  8
0
370
               0
390
0
  6
Continuous
 62
              30
100
AcDbLine
 10
-4.8197493105490139
 20
-1264.3802107157067
 30
0.0
 11
-4.8197493105490139
 21
-1260.3802107157067
 31
0.0
  0
LINE
  5
14E
100
AcDbEntity
  8
0
370
               0
390
0
  6
Continuous
 62
              30
100
AcDbLine
 10
155.01584042173249
 20
-1260.3802107157067
 30
0.0
 11
155.01584042173249
 21
-1264.3802107157067
 31
0.0
  0
LINE
  5
14F
100
AcDbEntity
  8
0
370
               0
390
0
  6
Continuous
 62
              30
100
AcDbLine
 10
155.01584042173249
 20
-1264.3802107157067
 30
0.0
 11
-4.8197493105490139
 21
-1264.3802107157067
 31
0.0
  0
LINE
  5
150
100
AcDbEntity
  8
0
370
               0
390
0
  6
Continuous
 62
              30
100
AcDbLine
 10
-4.8197493105490139
 20
-1260.3802107157067
 30
0.0
 11
155.01584042173249
 21
-1260.3802107157067
 31
0.0
  0
LINE
  5
151
100
AcDbEntity
  8
0
370
               0
390
0
  6
Continuous
 62
              30
100
AcDbLine
 10
205.47051107623702
 20
-1260.3802107157067
 30
0.0
 11
205.47051107623702
 21
-1264.3802107157067
 31
0.0
  0
LINE
  5
152
100
AcDbEntity
  8
0
370
               0
390
0
  6
Continuous
 62
              30
100
AcDbLine
 10
205.47051107623702
 20
-1264.3802107157067
 30
0.0
 11
155.01584042173249
 21
-1264.3802107157067
 31
0.0
  0
LINE
  5
153
100
AcDbEntity
  8
0
370
               0
390
0
  6
Continuous
 62
              30
100
AcDbLine
 10
155.01584042173249
 20
-1260.3802107157067
 30
0.0
 11
205.47051107623702
 21
-1260.3802107157067
 31
0.0
  0
LINE
  5
154
100
AcDbEntity
  8
0
370
               0
390
0
  6
Continuous
 62
              30
100
AcDbLine
 10
215.01584042177046
 20
-1264.3802107157067
 30
0.0
 11
215.01584042177046
 21
-1260.3802107157067
 31
0.0
  0
LINE
  5
155
100
AcDbEntity
  8
0
370
               0
390
0
  6
Continuous
 62
              30
100
AcDbLine
 10
215.01584042177046
 20
-1264.3802107157067
 30
0.0
 11
205.47051107623702
 21
-1264.3802107157067
 31
0.0
  0
LINE
  5
156
100
AcDbEntity
  8
0
370
               0
390
0
  6
Continuous
 62
              30
100
AcDbLine
 10
215.01584042177046
 20
-1260.3802107157067
 30
0.0
 11
205.47051107623702
 21
-1260.3802107157067
 31
0.0
  0
LINE
  5
157
100
AcDbEntity
  8
0
370
               0
390
0
  6
Continuous
 62
              30
100
AcDbLine
 10
-14.98415957822931
 20
-1264.3802107157067
 30
0.0
 11
-14.98415957822931
 21
-1260.3802107157067
 31
0.0
  0
LINE
  5
158
100
AcDbEntity
  8
0
370
               0
390
0
  6
Continuous
 62
              30
100
AcDbLine
 10
-4.8197493105490139
 20
-1264.3802107157067
 30
0.0
 11
-14.98415957822931
 21
-1264.3802107157067
 31
0.0
  0
LINE
  5
159
100
AcDbEntity
  8
0
370
               0
390
0
  6
Continuous
 62
              30
100
AcDbLine
 10
-4.8197493105490139
 20
-1260.3802107157067
 30
0.0
 11
-14.98415957822931
 21
-1260.3802107157067
 31
0.0
  0
LINE
  5
15A
100
AcDbEntity
  8
0
370
               0
390
0
  6
Continuous
 62
              30
100
AcDbLine
 10
-4.8197493105490139
 20
-1279.3802107157067
 30
0.0
 11
-4.8197493105490139
 21
-1275.3802107157067
 31
0.0
  0
LINE
  5
15B
100
AcDbEntity
  8
0
370
               0
390
0
  6
Continuous
 62
              30
100
AcDbLine
 10
155.01584042174579
 20
-1279.3802107157067
 30
0.0
 11
155.01584042174579
 21
-1275.3802107157067
 31
0.0
  0
LINE
  5
15C
100
AcDbEntity
  8
0
370
               0
390
0
  6
Continuous
 62
              30
100
AcDbLine
 10
-4.8197493105490139
 20
-1275.3802107157067
 30
0.0
 11
155.01584042174579
 21
-1275.3802107157067
 31
0.0
  0
LINE
  5
15D
100
AcDbEntity
  8
0
370
               0
390
0
  6
Continuous
 62
              30
100
AcDbLine
 10
155.01584042174579
 20
-1279.3802107157067
 30
0.0
 11
-4.8197493105490139
 21
-1279.3802107157067
 31
0.0
  0
LINE
  5
15E
100
AcDbEntity
  8
0
370
               0
390
0
  6
Continuous
 62
              30
100
AcDbLine
 10
205.47051107623702
 20
-1275.3802107157067
 30
0.0
 11
205.47051107623702
 21
-1279.3802107157067
 31
0.0
  0
LINE
  5
15F
100
AcDbEntity
  8
0
370
               0
390
0
  6
Continuous
 62
              30
100
AcDbLine
 10
155.01584042174579
 20
-1275.3802107157067
 30
0.0
 11
205.47051107623702
 21
-1275.3802107157067
 31
0.0
  0
LINE
  5
160
100
AcDbEntity
  8
0
370
               0
390
0
  6
Continuous
 62
              30
100
AcDbLine
 10
205.47051107623702
 20
-1279.3802107157067
 30
0.0
 11
155.01584042174579
 21
-1279.3802107157067
 31
0.0
  0
LINE
  5
161
100
AcDbEntity
  8
0
370
               0
390
0
  6
Continuous
 62
              30
100
AcDbLine
 10
215.01584042177069
 20
-1275.3802107157067
 30
0.0
 11
215.01584042177069
 21
-1279.3802107157067
 31
0.0
  0
LINE
  5
162
100
AcDbEntity
  8
0
370
               0
390
0
  6
Continuous
 62
              30
100
AcDbLine
 10
205.47051107623702
 20
-1275.3802107157067
 30
0.0
 11
215.01584042177069
 21
-1275.3802107157067
 31
0.0
  0
LINE
  5
163
100
AcDbEntity
  8
0
370
               0
390
0
  6
Continuous
 62
              30
100
AcDbLine
 10
205.47051107623702
 20
-1279.3802107157067
 30
0.0
 11
215.01584042177069
 21
-1279.3802107157067
 31
0.0
  0
LINE
  5
164
100
AcDbEntity
  8
0
370
               0
390
0
  6
Continuous
 62
              30
100
AcDbLine
 10
-14.98415957822931
 20
-1275.3802107157067
 30
0.0
 11
-14.98415957822931
 21
-1279.3802107157067
 31
0.0
  0
LINE
  5
165
100
AcDbEntity
  8
0
370
               0
390
0
  6
Continuous
 62
              30
100
AcDbLine
 10
-14.98415957822931
 20
-1275.3802107157067
 30
0.0
 11
-4.8197493105490139
 21
-1275.3802107157067
 31
0.0
  0
LINE
  5
166
100
AcDbEntity
  8
0
370
               0
390
0
  6
Continuous
 62
              30
100
AcDbLine
 10
-14.98415957822931
 20
-1279.3802107157067
 30
0.0
 11
-4.8197493105490139
 21
-1279.3802107157067
 31
0.0
  0
ARC
  5
167
100
AcDbEntity
  8
0
370
               0
390
0
  6
Continuous
 62
              30
100
AcDbCircle
 10
105.01584042177103
 20
-1280.8802107157067
 30
0.0
 40
10.0
100
AcDbArc
 50
180.0
 51
270.00000000000074
  0
LINE
  5
168
100
AcDbEntity
  8
0
370
               0
390
0
  6
Continuous
 62
              30
100
AcDbLine
 10
95.015840421771031
 20
-1258.8802107157067
 30
0.0
 11
95.015840421771031
 21
-1260.3802107157069
 31
0.0
  0
LINE
  5
169
100
AcDbEntity
  8
0
370
               0
390
0
  6
Continuous
 62
              30
100
AcDbLine
 10
95.015840421771031
 20
-1264.3802107157069
 30
0.0
 11
95.015840421771031
 21
-1275.3802107157069
 31
0.0
  0
LINE
  5
16A
100
AcDbEntity
  8
0
370
               0
390
0
  6
Continuous
 62
              30
100
AcDbLine
 10
95.015840421771031
 20
-1279.3802107157069
 30
0.0
 11
95.015840421771031
 21
-1280.8802107157067
 31
0.0
  0
LINE
  5
16B
100
AcDbEntity
  8
0
370
               0
390
0
  6
Continuous
 62
              30
100
AcDbLine
 10
105.01584042177103
 20
-1248.8802107157067
 30
0.0
 11
205.01584042177001
 21
-1248.8802107157067
 31
0.0
  0
ARC
  5
16C
100
AcDbEntity
  8
0
370
               0
390
0
  6
Continuous
 62
              30
100
AcDbCircle
 10
205.01584042177001
 20
-1258.8802107157067
 30
0.0
 40
10.0
100
AcDbArc
 50
0.0
 51
90.0
  0
LINE
  5
16D
100
AcDbEntity
  8
0
370
               0
390
0
  6
Continuous
 62
              30
100
AcDbLine
 10
215.01584042177001
 20
-1258.8802107157067
 30
0.0
 11
215.01584042177001
 21
-1260.3802107157069
 31
0.0
  0
LINE
  5
16E
100
AcDbEntity
  8
0
370
               0
390
0
  6
Continuous
 62
              30
100
AcDbLine
 10
215.01584042177001
 20
-1264.3802107157069
 30
0.0
 11
215.01584042177001
 21
-1275.3802107157069
 31
0.0
  0
LINE
  5
16F
100
AcDbEntity
  8
0
370
               0
390
0
  6
Continuous
 62
              30
100
AcDbLine
 10
215.01584042177001
 20
-1279.3802107157069
 30
0.0
 11
215.01584042177001
 21
-1280.8802107157067
 31
0.0
  0
ARC
  5
170
100
AcDbEntity
  8
0
370
               0
390
0
  6
Continuous
 62
              30
100
AcDbCircle
 10
205.01584042177001
 20
-1280.8802107157067
 30
0.0
 40
10.0
100
AcDbArc
 50
270.00000000000074
 51
0.0
  0
LINE
  5
171
100
AcDbEntity
  8
0
370
               0
390
0
  6
Continuous
 62
              30
100
AcDbLine
 10
205.01584042177001
 20
-1290.8802107157067
 30
0.0
 11
105.01584042177103
 21
-1290.8802107157067
 31
0.0
  0
CIRCLE
  5
172
100
AcDbEntity
  8
0
370
               0
390
0
  6
Continuous
 62
              30
100
AcDbCircle
 10
195.01584042176955
 20
-1269.8802107157067
 30
0.0
 40
3.2000000000000455
  0
CIRCLE
  5
173
100
AcDbEntity
  8
0
370
               0
390
0
  6
Continuous
 62
              30
100
AcDbCircle
 10
115.01584042176887
 20
-1269.8802107157067
 30
0.0
 40
3.2000000000000455
  0
ARC
  5
174
100
AcDbEntity
  8
0
370
               0
390
0
  6
Continuous
 62
              30
100
AcDbCircle
 10
105.01584042177103
 20
-1258.8802107157067
 30
0.0
 40
10.0
100
AcDbArc
 50
90.0
 51
180.0
  0
ENDBLK
  5
175
100
AcDbEntity
  8
0
390
0
100
AcDbBlockEnd
  0
BLOCK
  5
176
100
AcDbEntity
  8
0
390
0
100
AcDbBlockBegin
  2
グループ-3
 70
               0
 10
0.0
 20
0.0
 30
0.0
  3
グループ-3
  1

  0
DIMENSION
  5
177
100
AcDbEntity
  8
寸法
370
               0
390
0
  6
Continuous
 62
               2
100
AcDbDimension
  2
*D1
 10
-47.577230138539107
 20
-1260.3802107157085
 30
0.0
 11
-55.077230138539107
 21
-1260.3802107157085
 31
0.0
 70
             128
 71
               5
 72
               1
 41
1.0
 42
0.0
  3
HIBINO
100
AcDbAlignedDimension
 13
-14.984159578227491
 23
-1279.3802107157085
 33
0.0
 14
-14.984159578227491
 24
-1260.3802107157085
 34
0.0
 50
-90.0
100
AcDbRotatedDimension
1001
ACAD
1000
DSTYLE
1002
{
1070
             279
1070
               2
1070
             340
1005
5B
1070
             147
1040
7.5
1002
}
  0
DIMENSION
  5
178
100
AcDbEntity
  8
寸法
370
               0
390
0
  6
Continuous
 62
               2
100
AcDbDimension
  2
*D2
 10
-14.984159578227491
 20
-1380.8802107157067
 30
0.0
 11
102.42276986146088
 21
-1373.3802107157067
 31
0.0
 70
             128
 71
               5
 72
               1
 41
1.0
 42
0.0
  3
HIBINO
100
AcDbAlignedDimension
 13
215.01584042177069
 23
-1279.3802107157067
 33
0.0
 14
-14.984159578227491
 24
-1279.3802107157085
 34
0.0
100
AcDbRotatedDimension
1001
ACAD
1000
DSTYLE
1002
{
1070
             279
1070
               2
1070
             340
1005
5B
1070
             147
1040
7.5
1002
}
  0
DIMENSION
  5
179
100
AcDbEntity
  8
寸法
370
               0
390
0
  6
Continuous
 62
               2
100
AcDbDimension
  2
*D3
 10
352.42276986146089
 20
-1248.8802107157067
 30
0.0
 11
359.92276986146089
 21
-1255.8802107157067
 31
0.0
 70
             128
 71
               5
 72
               1
 41
1.0
 42
0.0
  3
HIBINO
100
AcDbAlignedDimension
 13
205.01584042177012
 23
-1290.8802107157067
 33
0.0
 14
205.01584042177001
 24
-1248.8802107157067
 34
0.0
 50
-90.0
100
AcDbRotatedDimension
1001
ACAD
1000
DSTYLE
1002
{
1070
             279
1070
               2
1070
             340
1005
5B
1070
             147
1040
7.5
1002
}
  0
DIMENSION
  5
17A
100
AcDbEntity
  8
寸法
370
               0
390
0
  6
Continuous
 62
               2
100
AcDbDimension
  2
*D4
 10
302.42276986146095
 20
-1132.7557975177626
 30
0.0
 11
309.92276986146095
 21
-1055.8802107157067
 31
0.0
 70
             128
 71
               5
 72
               1
 41
1.0
 42
0.0
  3
HIBINO
100
AcDbAlignedDimension
 13
152.32756850822523
 23
-1086.1680462474121
 33
0.0
 14
152.32756850822523
 24
-1132.7557975177626
 34
0.0
 50
-90.0
100
AcDbRotatedDimension
1001
ACAD
1000
DSTYLE
1002
{
1070
             271
1070
               0
1070
             279
1070
               2
1070
             340
1005
5B
1070
             174
1070
               0
1070
             147
1040
7.5
1002
}
  0
INSERT
  5
17B
100
AcDbEntity
  8
0
390
0
 62
               2
100
AcDbBlockReference
  2
グループ
 10
0.0
 20
0.0
 30
0.0
  0
DIMENSION
  5
17C
100
AcDbEntity
  8
寸法
370
               0
390
0
  6
Continuous
 62
               2
100
AcDbDimension
  2
*D6
 10
40.368099290620762
 20
-1114.1812237000206
 30
0.0
 11
157.4227698614597
 21
-980.88021071570574
 31
0.0
 70
               3
 71
               5
 72
               1
 41
1.0
 42
0.0
  3
HIBINO
100
AcDbDiametricDimension
 15
49.663581552917435
 25
-1099.9476714550142
 35
0.0
 40
142.20953404504948
1001
ACAD
1000
DSTYLE
1002
{
1070
             289
1070
               0
1070
             342
1005
71
1070
             340
1005
5B
1070
              73
1070
               1
1070
              74
1070
               1
1070
              75
1070
               1
1070
              76
1070
               1
1070
               3
1000

1070
             174
1070
               0
1070
             147
1040
7.5
1002
}
  0
DIMENSION
  5
17D
100
AcDbEntity
  8
寸法
370
               0
390
0
  6
Continuous
 62
               2
100
AcDbDimension
  2
*D7
 10
115.01584042176887
 20
-1230.8802107157067
 30
0.0
 11
155.01584042176921
 21
-1230.8802107157067
 31
0.0
 71
               5
 72
               1
 41
1.0
 42
0.0
  3
HIBINO
100
AcDbAlignedDimension
 13
195.01584042176955
 23
-1269.8802107157067
 33
0.0
 14
115.01584042176887
 24
-1269.8802107157067
 34
0.0
100
AcDbRotatedDimension
1001
ACAD
1000
DSTYLE
1002
{
1070
             279
1070
               2
1070
             340
1005
5B
1070
             147
1040
7.5
1002
}
  0
DIMENSION
  5
17E
100
AcDbEntity
  8
寸法
370
               0
390
0
  6
Continuous
 62
               2
100
AcDbDimension
  2
*D8
 10
192.55183552408846
 20
-1271.921945239146
 30
0.0
 11
332.42276986146288
 21
-1180.8802107157092
 31
0.0
 70
               3
 71
               5
 72
               1
 41
1.0
 42
0.0
  3
HIBINO
100
AcDbDiametricDimension
 15
197.47984531945065
 25
-1267.8384761922675
 35
0.0
 40
136.28924149074308
1001
ACAD
1000
DSTYLE
1002
{
1070
             289
1070
               0
1070
             342
1005
71
1070
             340
1005
5B
1070
              73
1070
               1
1070
              74
1070
               1
1070
              75
1070
               1
1070
              76
1070
               1
1070
               3
1000

1070
             174
1070
               0
1070
             147
1040
7.5
1002
}
  0
INSERT
  5
17F
100
AcDbEntity
  8
0
390
0
 62
               2
100
AcDbBlockReference
  2
グループ-1
 10
0.0
 20
0.0
 30
0.0
  0
INSERT
  5
180
100
AcDbEntity
  8
0
390
0
 62
               2
100
AcDbBlockReference
  2
グループ-2
 10
0.0
 20
0.0
 30
0.0
  0
ENDBLK
  5
181
100
AcDbEntity
  8
0
390
0
100
AcDbBlockEnd
  0
BLOCK
  5
182
100
AcDbEntity
  8
0
390
0
100
AcDbBlockBegin
  2
グループ-4
 70
               0
 10
0.0
 20
0.0
 30
0.0
  3
グループ-4
  1

  0
MTEXT
  5
183
100
AcDbEntity
  8
0
390
0
 62
               2
100
AcDbMText
 10
-927.60915957822908
 20
-949.95238155865161
 30
0.0
 40
48.865234375000092
 41
0.0
 71
               1
 72
               1
  1
{\fＭＳ ゴシック|b0|i0|c128|p0;\lGFA}
 73
               1
 44
0.7828267384257843
  0
INSERT
  5
184
100
AcDbEntity
  8
0
390
0
 62
               2
100
AcDbBlockReference
  2
グループ-3
 10
0.0
 20
0.0
 30
0.0
  0
MTEXT
  5
185
100
AcDbEntity
  8
0
390
0
 62
               2
100
AcDbMText
 10
-745.36599273485717
 20
-1246.7023815586515
 30
0.0
 40
48.865234375000092
 41
0.0
 71
               1
 72
               1
  1
{\fＭＳ ゴシック|b0|i0|c128|p0;\l重量　約0.55kg}
 73
               1
 44
0.7828267384257843
  0
ENDBLK
  5
186
100
AcDbEntity
  8
0
390
0
100
AcDbBlockEnd
  0
BLOCK
  5
187
100
AcDbEntity
  8
寸法
390
0
100
AcDbBlockBegin
  2
*D13
 70
               1
 10
0.0
 20
0.0
 30
0.0
  3
*D13
  1

  0
LINE
  5
188
100
AcDbEntity
  8
寸法
370
              -2
390
0
  6
Continuous
 62
               0
100
AcDbLine
 10
-91.721372840558615
 20
136.89240221756381
 30
0.0
 11
-91.721372840558615
 21
176.80193512645758
 31
0.0
  0
LINE
  5
189
100
AcDbEntity
  8
寸法
370
              -2
390
0
  6
Continuous
 62
               0
100
AcDbLine
 10
354.27862715944127
 20
133.89240221756074
 30
0.0
 11
354.27862715944127
 21
176.80193512645758
 31
0.0
  0
LINE
  5
18A
100
AcDbEntity
  8
寸法
370
              -2
390
0
  6
Continuous
 62
               0
100
AcDbLine
 10
-91.721372840558615
 20
146.80193512645758
 30
0.0
 11
354.27862715944127
 21
146.80193512645758
 31
0.0
  0
POLYLINE
  5
18B
100
AcDbEntity
  8
0
370
              -2
390
0
  6
Continuous
 62
               0
100
AcDb2dPolyline
 66
               1
 10
0.0
 20
0.0
 30
0.0
 75
               5
  0
VERTEX
  5
18C
100
AcDbEntity
  8
0
370
              -2
390
0
  6
Continuous
 62
               0
100
AcDbVertex
100
AcDb2dVertex
 10
-54.212034461652365
 20
136.75133819920393
 30
0.0
  0
VERTEX
  5
18D
100
AcDbEntity
  8
0
370
              -2
390
0
  6
Continuous
 62
               0
100
AcDbVertex
100
AcDb2dVertex
 10
-91.721372840558615
 20
146.80193512645758
 30
0.0
  0
VERTEX
  5
18E
100
AcDbEntity
  8
0
370
              -2
390
0
  6
Continuous
 62
               0
100
AcDbVertex
100
AcDb2dVertex
 10
-54.212034461652365
 20
156.85253205371123
 30
0.0
  0
SEQEND
  5
18F
100
AcDbEntity
  8
0
370
              -2
390
0
  6
Continuous
 62
               0
  0
POLYLINE
  5
190
100
AcDbEntity
  8
0
370
              -2
390
0
  6
Continuous
 62
               0
100
AcDb2dPolyline
 66
               1
 10
0.0
 20
0.0
 30
0.0
 75
               5
  0
VERTEX
  5
191
100
AcDbEntity
  8
0
370
              -2
390
0
  6
Continuous
 62
               0
100
AcDbVertex
100
AcDb2dVertex
 10
316.76928878053502
 20
156.85253205371123
 30
0.0
  0
VERTEX
  5
192
100
AcDbEntity
  8
0
370
              -2
390
0
  6
Continuous
 62
               0
100
AcDbVertex
100
AcDb2dVertex
 10
354.27862715944127
 20
146.80193512645758
 30
0.0
  0
VERTEX
  5
193
100
AcDbEntity
  8
0
370
              -2
390
0
  6
Continuous
 62
               0
100
AcDbVertex
100
AcDb2dVertex
 10
316.76928878053502
 20
136.75133819920393
 30
0.0
  0
SEQEND
  5
194
100
AcDbEntity
  8
0
370
              -2
390
0
  6
Continuous
 62
               0
  0
MTEXT
  5
195
100
AcDbEntity
  8
寸法
390
0
 62
               0
100
AcDbMText
 10
83.653627159441328
 20
212.05716950145768
 30
0.0
 40
48.865234375000092
 41
0.0
 71
               1
 72
               1
  1
{\fＭＳ ゴシック|b0|i0|c128|p0;\l446}
 73
               1
 44
0.7828267384257843
  0
POINT
  5
196
100
AcDbEntity
  8
Defpoints
370
               0
390
0
 62
               0
100
AcDbPoint
 10
354.27862715944127
 20
103.89240221756074
 30
0.0
  0
POINT
  5
197
100
AcDbEntity
  8
Defpoints
370
               0
390
0
 62
               0
100
AcDbPoint
 10
-91.721372840558615
 20
106.89240221756381
 30
0.0
  0
POINT
  5
198
100
AcDbEntity
  8
Defpoints
370
               0
390
0
 62
               0
100
AcDbPoint
 10
-91.721372840558615
 20
146.80193512645758
 30
0.0
  0
ENDBLK
  5
199
100
AcDbEntity
  8
寸法
390
0
100
AcDbBlockEnd
  0
BLOCK
  5
19A
100
AcDbEntity
  8
寸法
390
0
100
AcDbBlockBegin
  2
*D14
 70
               1
 10
0.0
 20
0.0
 30
0.0
  3
*D14
  1

  0
LINE
  5
19B
100
AcDbEntity
  8
寸法
370
              -2
390
0
  6
Continuous
 62
               0
100
AcDbLine
 10
-255.98415957822897
 20
-351.10759778243903
 30
0.0
 11
-329.98415957822897
 21
-351.10759778243903
 31
0.0
  0
LINE
  5
19C
100
AcDbEntity
  8
寸法
370
              -2
390
0
  6
Continuous
 62
               0
100
AcDbLine
 10
-255.98415957822908
 20
103.89240221756074
 30
0.0
 11
-329.98415957822897
 21
103.89240221756074
 31
0.0
  0
LINE
  5
19D
100
AcDbEntity
  8
寸法
370
              -2
390
0
  6
Continuous
 62
               0
100
AcDbLine
 10
-299.98415957822897
 20
-351.10759778243903
 30
0.0
 11
-299.98415957822897
 21
103.89240221756074
 31
0.0
  0
POLYLINE
  5
19E
100
AcDbEntity
  8
0
370
              -2
390
0
  6
Continuous
 62
               0
100
AcDb2dPolyline
 66
               1
 10
0.0
 20
0.0
 30
0.0
 75
               5
  0
VERTEX
  5
19F
100
AcDbEntity
  8
0
370
              -2
390
0
  6
Continuous
 62
               0
100
AcDbVertex
100
AcDb2dVertex
 10
-289.93356265097532
 20
-313.59825940353278
 30
0.0
  0
VERTEX
  5
1A0
100
AcDbEntity
  8
0
370
              -2
390
0
  6
Continuous
 62
               0
100
AcDbVertex
100
AcDb2dVertex
 10
-299.98415957822897
 20
-351.10759778243903
 30
0.0
  0
VERTEX
  5
1A1
100
AcDbEntity
  8
0
370
              -2
390
0
  6
Continuous
 62
               0
100
AcDbVertex
100
AcDb2dVertex
 10
-310.03475650548262
 20
-313.59825940353278
 30
0.0
  0
SEQEND
  5
1A2
100
AcDbEntity
  8
0
370
              -2
390
0
  6
Continuous
 62
               0
  0
POLYLINE
  5
1A3
100
AcDbEntity
  8
0
370
              -2
390
0
  6
Continuous
 62
               0
100
AcDb2dPolyline
 66
               1
 10
0.0
 20
0.0
 30
0.0
 75
               5
  0
VERTEX
  5
1A4
100
AcDbEntity
  8
0
370
              -2
390
0
  6
Continuous
 62
               0
100
AcDbVertex
100
AcDb2dVertex
 10
-310.03475650548262
 20
66.383063838654493
 30
0.0
  0
VERTEX
  5
1A5
100
AcDbEntity
  8
0
370
              -2
390
0
  6
Continuous
 62
               0
100
AcDbVertex
100
AcDb2dVertex
 10
-299.98415957822897
 20
103.89240221756074
 30
0.0
  0
VERTEX
  5
1A6
100
AcDbEntity
  8
0
370
              -2
390
0
  6
Continuous
 62
               0
100
AcDbVertex
100
AcDb2dVertex
 10
-289.93356265097532
 20
66.383063838654493
 30
0.0
  0
SEQEND
  5
1A7
100
AcDbEntity
  8
0
370
              -2
390
0
  6
Continuous
 62
               0
  0
MTEXT
  5
1A8
100
AcDbEntity
  8
寸法
390
0
 62
               0
100
AcDbMText
 10
-365.23939395322907
 20
-171.23259778243914
 30
0.0
 40
48.865234375000092
 41
0.0
 71
               1
 72
               1
  1
{\fＭＳ ゴシック|b0|i0|c128|p0;\l455}
 11
0.0
 21
1.0
 31
0.0
 73
               1
 44
0.7828267384257843
  0
POINT
  5
1A9
100
AcDbEntity
  8
Defpoints
370
               0
390
0
 62
               0
100
AcDbPoint
 10
-225.98415957822908
 20
103.89240221756074
 30
0.0
  0
POINT
  5
1AA
100
AcDbEntity
  8
Defpoints
370
               0
390
0
 62
               0
100
AcDbPoint
 10
-225.98415957822897
 20
-351.10759778243903
 30
0.0
  0
POINT
  5
1AB
100
AcDbEntity
  8
Defpoints
370
               0
390
0
 62
               0
100
AcDbPoint
 10
-299.98415957822897
 20
-351.10759778243903
 30
0.0
  0
ENDBLK
  5
1AC
100
AcDbEntity
  8
寸法
390
0
100
AcDbBlockEnd
  0
BLOCK
  5
1AD
100
AcDbEntity
  8
寸法
390
0
100
AcDbBlockBegin
  2
*D15
 70
               1
 10
0.0
 20
0.0
 30
0.0
  3
*D15
  1

  0
LINE
  5
1AE
100
AcDbEntity
  8
寸法
370
              -2
390
0
  6
Continuous
 62
               0
100
AcDbLine
 10
-121.72137284055873
 20
103.89240221756381
 30
0.0
 11
-179.98415957822897
 21
103.89240221756381
 31
0.0
  0
LINE
  5
1AF
100
AcDbEntity
  8
寸法
370
              -2
390
0
  6
Continuous
 62
               0
100
AcDbLine
 10
-121.72137284055918
 20
-371.10759778243619
 30
0.0
 11
-179.98415957822897
 21
-371.10759778243619
 31
0.0
  0
LINE
  5
1B0
100
AcDbEntity
  8
寸法
370
              -2
390
0
  6
Continuous
 62
               0
100
AcDbLine
 10
-149.98415957822897
 20
103.89240221756381
 30
0.0
 11
-149.98415957822897
 21
-371.10759778243619
 31
0.0
  0
POLYLINE
  5
1B1
100
AcDbEntity
  8
0
370
              -2
390
0
  6
Continuous
 62
               0
100
AcDb2dPolyline
 66
               1
 10
0.0
 20
0.0
 30
0.0
 75
               5
  0
VERTEX
  5
1B2
100
AcDbEntity
  8
0
370
              -2
390
0
  6
Continuous
 62
               0
100
AcDbVertex
100
AcDb2dVertex
 10
-160.03475650548262
 20
66.383063838657563
 30
0.0
  0
VERTEX
  5
1B3
100
AcDbEntity
  8
0
370
              -2
390
0
  6
Continuous
 62
               0
100
AcDbVertex
100
AcDb2dVertex
 10
-149.98415957822897
 20
103.89240221756381
 30
0.0
  0
VERTEX
  5
1B4
100
AcDbEntity
  8
0
370
              -2
390
0
  6
Continuous
 62
               0
100
AcDbVertex
100
AcDb2dVertex
 10
-139.93356265097532
 20
66.383063838657563
 30
0.0
  0
SEQEND
  5
1B5
100
AcDbEntity
  8
0
370
              -2
390
0
  6
Continuous
 62
               0
  0
POLYLINE
  5
1B6
100
AcDbEntity
  8
0
370
              -2
390
0
  6
Continuous
 62
               0
100
AcDb2dPolyline
 66
               1
 10
0.0
 20
0.0
 30
0.0
 75
               5
  0
VERTEX
  5
1B7
100
AcDbEntity
  8
0
370
              -2
390
0
  6
Continuous
 62
               0
100
AcDbVertex
100
AcDb2dVertex
 10
-139.93356265097532
 20
-333.59825940352994
 30
0.0
  0
VERTEX
  5
1B8
100
AcDbEntity
  8
0
370
              -2
390
0
  6
Continuous
 62
               0
100
AcDbVertex
100
AcDb2dVertex
 10
-149.98415957822897
 20
-371.10759778243619
 30
0.0
  0
VERTEX
  5
1B9
100
AcDbEntity
  8
0
370
              -2
390
0
  6
Continuous
 62
               0
100
AcDbVertex
100
AcDb2dVertex
 10
-160.03475650548262
 20
-333.59825940352994
 30
0.0
  0
SEQEND
  5
1BA
100
AcDbEntity
  8
0
370
              -2
390
0
  6
Continuous
 62
               0
  0
MTEXT
  5
1BB
100
AcDbEntity
  8
寸法
390
0
 62
               0
100
AcDbMText
 10
-215.23939395322907
 20
-181.23259778243619
 30
0.0
 40
48.865234375000092
 41
0.0
 71
               1
 72
               1
  1
{\fＭＳ ゴシック|b0|i0|c128|p0;\l475}
 11
0.0
 21
1.0
 31
0.0
 73
               1
 44
0.7828267384257843
  0
POINT
  5
1BC
100
AcDbEntity
  8
Defpoints
370
               0
390
0
 62
               0
100
AcDbPoint
 10
-91.721372840559184
 20
-371.10759778243619
 30
0.0
  0
POINT
  5
1BD
100
AcDbEntity
  8
Defpoints
370
               0
390
0
 62
               0
100
AcDbPoint
 10
-91.721372840558729
 20
103.89240221756381
 30
0.0
  0
POINT
  5
1BE
100
AcDbEntity
  8
Defpoints
370
               0
390
0
 62
               0
100
AcDbPoint
 10
-149.98415957822897
 20
103.89240221756381
 30
0.0
  0
ENDBLK
  5
1BF
100
AcDbEntity
  8
寸法
390
0
100
AcDbBlockEnd
  0
BLOCK
  5
1C0
100
AcDbEntity
  8
寸法
390
0
100
AcDbBlockBegin
  2
*D16
 70
               1
 10
0.0
 20
0.0
 30
0.0
  3
*D16
  1

  0
LINE
  5
1C1
100
AcDbEntity
  8
寸法
370
              -2
390
0
  6
Continuous
 62
               0
100
AcDbLine
 10
344.27862715943536
 20
-401.10759778243926
 30
0.0
 11
344.27862715943536
 21
-435.02511786360702
 31
0.0
  0
LINE
  5
1C2
100
AcDbEntity
  8
寸法
370
              -2
390
0
  6
Continuous
 62
               0
100
AcDbLine
 10
354.27862715943536
 20
-401.10759778243926
 30
0.0
 11
354.27862715943536
 21
-435.02511786360702
 31
0.0
  0
LINE
  5
1C3
100
AcDbEntity
  8
寸法
370
              -2
390
0
  6
Continuous
 62
               0
100
AcDbLine
 10
354.27862715943536
 20
-405.02511786360702
 30
0.0
 11
602.9504389405347
 21
-405.02511786360702
 31
0.0
  0
LINE
  5
1C4
100
AcDbEntity
  8
寸法
370
              -2
390
0
  6
Continuous
 62
               0
100
AcDbLine
 10
344.27862715943536
 20
-405.02511786360702
 30
0.0
 11
354.27862715943536
 21
-405.02511786360702
 31
0.0
  0
POLYLINE
  5
1C5
100
AcDbEntity
  8
0
370
              -2
390
0
  6
Continuous
 62
               0
100
AcDb2dPolyline
 66
               1
 10
0.0
 20
0.0
 30
0.0
 75
               5
  0
VERTEX
  5
1C6
100
AcDbEntity
  8
0
370
              -2
390
0
  6
Continuous
 62
               0
100
AcDbVertex
100
AcDb2dVertex
 10
381.78796553834161
 20
-415.07571479086067
 30
0.0
  0
VERTEX
  5
1C7
100
AcDbEntity
  8
0
370
              -2
390
0
  6
Continuous
 62
               0
100
AcDbVertex
100
AcDb2dVertex
 10
344.27862715943536
 20
-405.02511786360702
 30
0.0
  0
VERTEX
  5
1C8
100
AcDbEntity
  8
0
370
              -2
390
0
  6
Continuous
 62
               0
100
AcDbVertex
100
AcDb2dVertex
 10
381.78796553834161
 20
-394.97452093635337
 30
0.0
  0
SEQEND
  5
1C9
100
AcDbEntity
  8
0
370
              -2
390
0
  6
Continuous
 62
               0
  0
POLYLINE
  5
1CA
100
AcDbEntity
  8
0
370
              -2
390
0
  6
Continuous
 62
               0
100
AcDb2dPolyline
 66
               1
 10
0.0
 20
0.0
 30
0.0
 75
               5
  0
VERTEX
  5
1CB
100
AcDbEntity
  8
0
370
              -2
390
0
  6
Continuous
 62
               0
100
AcDbVertex
100
AcDb2dVertex
 10
316.76928878052911
 20
-394.97452093635337
 30
0.0
  0
VERTEX
  5
1CC
100
AcDbEntity
  8
0
370
              -2
390
0
  6
Continuous
 62
               0
100
AcDbVertex
100
AcDb2dVertex
 10
354.27862715943536
 20
-405.02511786360702
 30
0.0
  0
VERTEX
  5
1CD
100
AcDbEntity
  8
0
370
              -2
390
0
  6
Continuous
 62
               0
100
AcDbVertex
100
AcDb2dVertex
 10
316.76928878052911
 20
-415.07571479086067
 30
0.0
  0
SEQEND
  5
1CE
100
AcDbEntity
  8
0
370
              -2
390
0
  6
Continuous
 62
               0
  0
MTEXT
  5
1CF
100
AcDbEntity
  8
寸法
390
0
 62
               0
100
AcDbMText
 10
539.4504389405347
 20
-339.76988348860692
 30
0.0
 40
48.865234375000092
 41
0.0
 71
               1
 72
               1
  1
{\fＭＳ ゴシック|b0|i0|c128|p0;\l10}
 73
               1
 44
0.7828267384257843
  0
POINT
  5
1D0
100
AcDbEntity
  8
Defpoints
370
               0
390
0
 62
               0
100
AcDbPoint
 10
354.27862715943536
 20
-371.10759778243926
 30
0.0
  0
POINT
  5
1D1
100
AcDbEntity
  8
Defpoints
370
               0
390
0
 62
               0
100
AcDbPoint
 10
344.27862715943536
 20
-371.10759778243926
 30
0.0
  0
POINT
  5
1D2
100
AcDbEntity
  8
Defpoints
370
               0
390
0
 62
               0
100
AcDbPoint
 10
344.27862715943536
 20
-405.02511786360702
 30
0.0
  0
ENDBLK
  5
1D3
100
AcDbEntity
  8
寸法
390
0
100
AcDbBlockEnd
  0
BLOCK
  5
1D4
100
AcDbEntity
  8
寸法
390
0
100
AcDbBlockBegin
  2
*D17
 70
               1
 10
0.0
 20
0.0
 30
0.0
  3
*D17
  1

  0
LINE
  5
1D5
100
AcDbEntity
  8
寸法
370
              -2
390
0
  6
Continuous
 62
               0
100
AcDbLine
 10
-121.72137284055918
 20
-522.14429371060032
 30
0.0
 11
-179.98415957822897
 21
-522.14429371060032
 31
0.0
  0
LINE
  5
1D6
100
AcDbEntity
  8
寸法
370
              -2
390
0
  6
Continuous
 62
               0
100
AcDbLine
 10
-121.72137284055918
 20
-562.14429371060032
 30
0.0
 11
-179.98415957822897
 21
-562.14429371060032
 31
0.0
  0
LINE
  5
1D7
100
AcDbEntity
  8
寸法
370
              -2
390
0
  6
Continuous
 62
               0
100
AcDbLine
 10
-149.98415957822897
 20
-522.14429371060032
 30
0.0
 11
-149.98415957822897
 21
-562.14429371060032
 31
0.0
  0
POLYLINE
  5
1D8
100
AcDbEntity
  8
0
370
              -2
390
0
  6
Continuous
 62
               0
100
AcDb2dPolyline
 66
               1
 10
0.0
 20
0.0
 30
0.0
 75
               5
  0
VERTEX
  5
1D9
100
AcDbEntity
  8
0
370
              -2
390
0
  6
Continuous
 62
               0
100
AcDbVertex
100
AcDb2dVertex
 10
-160.03475650548262
 20
-559.65363208950657
 30
0.0
  0
VERTEX
  5
1DA
100
AcDbEntity
  8
0
370
              -2
390
0
  6
Continuous
 62
               0
100
AcDbVertex
100
AcDb2dVertex
 10
-149.98415957822897
 20
-522.14429371060032
 30
0.0
  0
VERTEX
  5
1DB
100
AcDbEntity
  8
0
370
              -2
390
0
  6
Continuous
 62
               0
100
AcDbVertex
100
AcDb2dVertex
 10
-139.93356265097532
 20
-559.65363208950657
 30
0.0
  0
SEQEND
  5
1DC
100
AcDbEntity
  8
0
370
              -2
390
0
  6
Continuous
 62
               0
  0
POLYLINE
  5
1DD
100
AcDbEntity
  8
0
370
              -2
390
0
  6
Continuous
 62
               0
100
AcDb2dPolyline
 66
               1
 10
0.0
 20
0.0
 30
0.0
 75
               5
  0
VERTEX
  5
1DE
100
AcDbEntity
  8
0
370
              -2
390
0
  6
Continuous
 62
               0
100
AcDbVertex
100
AcDb2dVertex
 10
-139.93356265097532
 20
-524.63495533169407
 30
0.0
  0
VERTEX
  5
1DF
100
AcDbEntity
  8
0
370
              -2
390
0
  6
Continuous
 62
               0
100
AcDbVertex
100
AcDb2dVertex
 10
-149.98415957822897
 20
-562.14429371060032
 30
0.0
  0
VERTEX
  5
1E0
100
AcDbEntity
  8
0
370
              -2
390
0
  6
Continuous
 62
               0
100
AcDbVertex
100
AcDb2dVertex
 10
-160.03475650548262
 20
-524.63495533169407
 30
0.0
  0
SEQEND
  5
1E1
100
AcDbEntity
  8
0
370
              -2
390
0
  6
Continuous
 62
               0
  0
MTEXT
  5
1E2
100
AcDbEntity
  8
寸法
390
0
 62
               0
100
AcDbMText
 10
-215.23939395322907
 20
-584.45761593365182
 30
0.0
 40
48.865234375000092
 41
0.0
 71
               1
 72
               1
  1
{\fＭＳ ゴシック|b0|i0|c128|p0;\l40}
 11
0.0
 21
1.0
 31
0.0
 73
               1
 44
0.7828267384257843
  0
POINT
  5
1E3
100
AcDbEntity
  8
Defpoints
370
               0
390
0
 62
               0
100
AcDbPoint
 10
-91.721372840559184
 20
-562.14429371060032
 30
0.0
  0
POINT
  5
1E4
100
AcDbEntity
  8
Defpoints
370
               0
390
0
 62
               0
100
AcDbPoint
 10
-91.721372840559184
 20
-522.14429371060032
 30
0.0
  0
POINT
  5
1E5
100
AcDbEntity
  8
Defpoints
370
               0
390
0
 62
               0
100
AcDbPoint
 10
-149.98415957822897
 20
-522.14429371060032
 30
0.0
  0
ENDBLK
  5
1E6
100
AcDbEntity
  8
寸法
390
0
100
AcDbBlockEnd
  0
BLOCK
  5
1E7
100
AcDbEntity
  8
寸法
390
0
100
AcDbBlockBegin
  2
*D18
 70
               1
 10
0.0
 20
0.0
 30
0.0
  3
*D18
  1

  0
LINE
  5
1E8
100
AcDbEntity
  8
寸法
370
              -2
390
0
  6
Continuous
 62
               0
100
AcDbLine
 10
131.27862715944116
 20
-572.1442937106018
 30
0.0
 11
131.27862715944116
 21
-657.70761593365171
 31
0.0
  0
LINE
  5
1E9
100
AcDbEntity
  8
寸法
370
              -2
390
0
  6
Continuous
 62
               0
100
AcDbLine
 10
191.27862715944116
 20
-572.1442937106018
 30
0.0
 11
191.27862715944116
 21
-657.70761593365171
 31
0.0
  0
LINE
  5
1EA
100
AcDbEntity
  8
寸法
370
              -2
390
0
  6
Continuous
 62
               0
100
AcDbLine
 10
131.27862715944116
 20
-627.70761593365171
 30
0.0
 11
191.27862715944116
 21
-627.70761593365171
 31
0.0
  0
POLYLINE
  5
1EB
100
AcDbEntity
  8
0
370
              -2
390
0
  6
Continuous
 62
               0
100
AcDb2dPolyline
 66
               1
 10
0.0
 20
0.0
 30
0.0
 75
               5
  0
VERTEX
  5
1EC
100
AcDbEntity
  8
0
370
              -2
390
0
  6
Continuous
 62
               0
100
AcDbVertex
100
AcDb2dVertex
 10
168.78796553834741
 20
-637.75821286090536
 30
0.0
  0
VERTEX
  5
1ED
100
AcDbEntity
  8
0
370
              -2
390
0
  6
Continuous
 62
               0
100
AcDbVertex
100
AcDb2dVertex
 10
131.27862715944116
 20
-627.70761593365171
 30
0.0
  0
VERTEX
  5
1EE
100
AcDbEntity
  8
0
370
              -2
390
0
  6
Continuous
 62
               0
100
AcDbVertex
100
AcDb2dVertex
 10
168.78796553834741
 20
-617.65701900639806
 30
0.0
  0
SEQEND
  5
1EF
100
AcDbEntity
  8
0
370
              -2
390
0
  6
Continuous
 62
               0
  0
POLYLINE
  5
1F0
100
AcDbEntity
  8
0
370
              -2
390
0
  6
Continuous
 62
               0
100
AcDb2dPolyline
 66
               1
 10
0.0
 20
0.0
 30
0.0
 75
               5
  0
VERTEX
  5
1F1
100
AcDbEntity
  8
0
370
              -2
390
0
  6
Continuous
 62
               0
100
AcDbVertex
100
AcDb2dVertex
 10
153.76928878053491
 20
-617.65701900639806
 30
0.0
  0
VERTEX
  5
1F2
100
AcDbEntity
  8
0
370
              -2
390
0
  6
Continuous
 62
               0
100
AcDbVertex
100
AcDb2dVertex
 10
191.27862715944116
 20
-627.70761593365171
 30
0.0
  0
VERTEX
  5
1F3
100
AcDbEntity
  8
0
370
              -2
390
0
  6
Continuous
 62
               0
100
AcDbVertex
100
AcDb2dVertex
 10
153.76928878053491
 20
-637.75821286090536
 30
0.0
  0
SEQEND
  5
1F4
100
AcDbEntity
  8
0
370
              -2
390
0
  6
Continuous
 62
               0
  0
MTEXT
  5
1F5
100
AcDbEntity
  8
寸法
390
0
 62
               0
100
AcDbMText
 10
129.52862715944116
 20
-562.4523815586515
 30
0.0
 40
48.865234375000092
 41
0.0
 71
               1
 72
               1
  1
{\fＭＳ ゴシック|b0|i0|c128|p0;\l60}
 73
               1
 44
0.7828267384257843
  0
POINT
  5
1F6
100
AcDbEntity
  8
Defpoints
370
               0
390
0
 62
               0
100
AcDbPoint
 10
191.27862715944116
 20
-542.1442937106018
 30
0.0
  0
POINT
  5
1F7
100
AcDbEntity
  8
Defpoints
370
               0
390
0
 62
               0
100
AcDbPoint
 10
131.27862715944116
 20
-542.1442937106018
 30
0.0
  0
POINT
  5
1F8
100
AcDbEntity
  8
Defpoints
370
               0
390
0
 62
               0
100
AcDbPoint
 10
131.27862715944116
 20
-627.70761593365171
 30
0.0
  0
ENDBLK
  5
1F9
100
AcDbEntity
  8
寸法
390
0
100
AcDbBlockEnd
  0
BLOCK
  5
1FA
100
AcDbEntity
  8
寸法
390
0
100
AcDbBlockBegin
  2
*D19
 70
               1
 10
0.0
 20
0.0
 30
0.0
  3
*D19
  1

  0
LINE
  5
1FB
100
AcDbEntity
  8
寸法
370
              -2
390
0
  6
Continuous
 62
               0
100
AcDbLine
 10
131.27862715944116
 20
-572.1442937106018
 30
0.0
 11
131.27862715944116
 21
-657.70761593365171
 31
0.0
  0
LINE
  5
1FC
100
AcDbEntity
  8
寸法
370
              -2
390
0
  6
Continuous
 62
               0
100
AcDbLine
 10
71.278627159441157
 20
-572.14429371060191
 30
0.0
 11
71.278627159441157
 21
-657.70761593365171
 31
0.0
  0
LINE
  5
1FD
100
AcDbEntity
  8
寸法
370
              -2
390
0
  6
Continuous
 62
               0
100
AcDbLine
 10
131.27862715944116
 20
-627.70761593365171
 30
0.0
 11
71.278627159441157
 21
-627.70761593365171
 31
0.0
  0
POLYLINE
  5
1FE
100
AcDbEntity
  8
0
370
              -2
390
0
  6
Continuous
 62
               0
100
AcDb2dPolyline
 66
               1
 10
0.0
 20
0.0
 30
0.0
 75
               5
  0
VERTEX
  5
1FF
100
AcDbEntity
  8
0
370
              -2
390
0
  6
Continuous
 62
               0
100
AcDbVertex
100
AcDb2dVertex
 10
93.769288780534907
 20
-617.65701900639806
 30
0.0
  0
VERTEX
  5
200
100
AcDbEntity
  8
0
370
              -2
390
0
  6
Continuous
 62
               0
100
AcDbVertex
100
AcDb2dVertex
 10
131.27862715944116
 20
-627.70761593365171
 30
0.0
  0
VERTEX
  5
201
100
AcDbEntity
  8
0
370
              -2
390
0
  6
Continuous
 62
               0
100
AcDbVertex
100
AcDb2dVertex
 10
93.769288780534907
 20
-637.75821286090536
 30
0.0
  0
SEQEND
  5
202
100
AcDbEntity
  8
0
370
              -2
390
0
  6
Continuous
 62
               0
  0
POLYLINE
  5
203
100
AcDbEntity
  8
0
370
              -2
390
0
  6
Continuous
 62
               0
100
AcDb2dPolyline
 66
               1
 10
0.0
 20
0.0
 30
0.0
 75
               5
  0
VERTEX
  5
204
100
AcDbEntity
  8
0
370
              -2
390
0
  6
Continuous
 62
               0
100
AcDbVertex
100
AcDb2dVertex
 10
108.78796553834741
 20
-637.75821286090536
 30
0.0
  0
VERTEX
  5
205
100
AcDbEntity
  8
0
370
              -2
390
0
  6
Continuous
 62
               0
100
AcDbVertex
100
AcDb2dVertex
 10
71.278627159441157
 20
-627.70761593365171
 30
0.0
  0
VERTEX
  5
206
100
AcDbEntity
  8
0
370
              -2
390
0
  6
Continuous
 62
               0
100
AcDbVertex
100
AcDb2dVertex
 10
108.78796553834741
 20
-617.65701900639806
 30
0.0
  0
SEQEND
  5
207
100
AcDbEntity
  8
0
370
              -2
390
0
  6
Continuous
 62
               0
  0
MTEXT
  5
208
100
AcDbEntity
  8
寸法
390
0
 62
               0
100
AcDbMText
 10
69.528627159441157
 20
-562.4523815586515
 30
0.0
 40
48.865234375000092
 41
0.0
 71
               1
 72
               1
  1
{\fＭＳ ゴシック|b0|i0|c128|p0;\l60}
 73
               1
 44
0.7828267384257843
  0
POINT
  5
209
100
AcDbEntity
  8
Defpoints
370
               0
390
0
 62
               0
100
AcDbPoint
 10
71.278627159441157
 20
-542.14429371060191
 30
0.0
  0
POINT
  5
20A
100
AcDbEntity
  8
Defpoints
370
               0
390
0
 62
               0
100
AcDbPoint
 10
131.27862715944116
 20
-542.1442937106018
 30
0.0
  0
POINT
  5
20B
100
AcDbEntity
  8
Defpoints
370
               0
390
0
 62
               0
100
AcDbPoint
 10
131.27862715944116
 20
-627.70761593365171
 30
0.0
  0
ENDBLK
  5
20C
100
AcDbEntity
  8
寸法
390
0
100
AcDbBlockEnd
  0
BLOCK
  5
20D
100
AcDbEntity
  8
寸法
390
0
100
AcDbBlockBegin
  2
*D20
 70
               1
 10
0.0
 20
0.0
 30
0.0
  3
*D20
  1

  0
LINE
  5
20E
100
AcDbEntity
  8
寸法
370
              -2
390
0
  6
Continuous
 62
               0
100
AcDbLine
 10
131.27862715944116
 20
-572.1442937106018
 30
0.0
 11
131.27862715944116
 21
-757.70761593365171
 31
0.0
  0
LINE
  5
20F
100
AcDbEntity
  8
寸法
370
              -2
390
0
  6
Continuous
 62
               0
100
AcDbLine
 10
-8.7213728405588427
 20
-572.1442937106018
 30
0.0
 11
-8.7213728405588427
 21
-757.70761593365171
 31
0.0
  0
LINE
  5
210
100
AcDbEntity
  8
寸法
370
              -2
390
0
  6
Continuous
 62
               0
100
AcDbLine
 10
131.27862715944116
 20
-727.70761593365171
 30
0.0
 11
-8.7213728405588427
 21
-727.70761593365171
 31
0.0
  0
POLYLINE
  5
211
100
AcDbEntity
  8
0
370
              -2
390
0
  6
Continuous
 62
               0
100
AcDb2dPolyline
 66
               1
 10
0.0
 20
0.0
 30
0.0
 75
               5
  0
VERTEX
  5
212
100
AcDbEntity
  8
0
370
              -2
390
0
  6
Continuous
 62
               0
100
AcDbVertex
100
AcDb2dVertex
 10
93.769288780534907
 20
-717.65701900639806
 30
0.0
  0
VERTEX
  5
213
100
AcDbEntity
  8
0
370
              -2
390
0
  6
Continuous
 62
               0
100
AcDbVertex
100
AcDb2dVertex
 10
131.27862715944116
 20
-727.70761593365171
 30
0.0
  0
VERTEX
  5
214
100
AcDbEntity
  8
0
370
              -2
390
0
  6
Continuous
 62
               0
100
AcDbVertex
100
AcDb2dVertex
 10
93.769288780534907
 20
-737.75821286090536
 30
0.0
  0
SEQEND
  5
215
100
AcDbEntity
  8
0
370
              -2
390
0
  6
Continuous
 62
               0
  0
POLYLINE
  5
216
100
AcDbEntity
  8
0
370
              -2
390
0
  6
Continuous
 62
               0
100
AcDb2dPolyline
 66
               1
 10
0.0
 20
0.0
 30
0.0
 75
               5
  0
VERTEX
  5
217
100
AcDbEntity
  8
0
370
              -2
390
0
  6
Continuous
 62
               0
100
AcDbVertex
100
AcDb2dVertex
 10
28.787965538347407
 20
-737.75821286090536
 30
0.0
  0
VERTEX
  5
218
100
AcDbEntity
  8
0
370
              -2
390
0
  6
Continuous
 62
               0
100
AcDbVertex
100
AcDb2dVertex
 10
-8.7213728405588427
 20
-727.70761593365171
 30
0.0
  0
VERTEX
  5
219
100
AcDbEntity
  8
0
370
              -2
390
0
  6
Continuous
 62
               0
100
AcDbVertex
100
AcDb2dVertex
 10
28.787965538347407
 20
-717.65701900639806
 30
0.0
  0
SEQEND
  5
21A
100
AcDbEntity
  8
0
370
              -2
390
0
  6
Continuous
 62
               0
  0
MTEXT
  5
21B
100
AcDbEntity
  8
寸法
390
0
 62
               0
100
AcDbMText
 10
27.390840421771031
 20
-662.4523815586515
 30
0.0
 40
48.865234375000092
 41
0.0
 71
               1
 72
               1
  1
{\fＭＳ ゴシック|b0|i0|c128|p0;\l140}
 73
               1
 44
0.7828267384257843
  0
POINT
  5
21C
100
AcDbEntity
  8
Defpoints
370
               0
390
0
 62
               0
100
AcDbPoint
 10
-8.7213728405588427
 20
-542.1442937106018
 30
0.0
  0
POINT
  5
21D
100
AcDbEntity
  8
Defpoints
370
               0
390
0
 62
               0
100
AcDbPoint
 10
131.27862715944116
 20
-542.1442937106018
 30
0.0
  0
POINT
  5
21E
100
AcDbEntity
  8
Defpoints
370
               0
390
0
 62
               0
100
AcDbPoint
 10
131.27862715944116
 20
-727.70761593365171
 30
0.0
  0
ENDBLK
  5
21F
100
AcDbEntity
  8
寸法
390
0
100
AcDbBlockEnd
  0
BLOCK
  5
220
100
AcDbEntity
  8
寸法
390
0
100
AcDbBlockBegin
  2
*D21
 70
               1
 10
0.0
 20
0.0
 30
0.0
  3
*D21
  1

  0
LINE
  5
221
100
AcDbEntity
  8
寸法
370
              -2
390
0
  6
Continuous
 62
               0
100
AcDbLine
 10
131.27862715944116
 20
-572.1442937106018
 30
0.0
 11
131.27862715944116
 21
-757.70761593365171
 31
0.0
  0
LINE
  5
222
100
AcDbEntity
  8
寸法
370
              -2
390
0
  6
Continuous
 62
               0
100
AcDbLine
 10
271.27862715944116
 20
-572.1442937106018
 30
0.0
 11
271.27862715944116
 21
-757.70761593365171
 31
0.0
  0
LINE
  5
223
100
AcDbEntity
  8
寸法
370
              -2
390
0
  6
Continuous
 62
               0
100
AcDbLine
 10
131.27862715944116
 20
-727.70761593365171
 30
0.0
 11
271.27862715944116
 21
-727.70761593365171
 31
0.0
  0
POLYLINE
  5
224
100
AcDbEntity
  8
0
370
              -2
390
0
  6
Continuous
 62
               0
100
AcDb2dPolyline
 66
               1
 10
0.0
 20
0.0
 30
0.0
 75
               5
  0
VERTEX
  5
225
100
AcDbEntity
  8
0
370
              -2
390
0
  6
Continuous
 62
               0
100
AcDbVertex
100
AcDb2dVertex
 10
168.78796553834741
 20
-737.75821286090536
 30
0.0
  0
VERTEX
  5
226
100
AcDbEntity
  8
0
370
              -2
390
0
  6
Continuous
 62
               0
100
AcDbVertex
100
AcDb2dVertex
 10
131.27862715944116
 20
-727.70761593365171
 30
0.0
  0
VERTEX
  5
227
100
AcDbEntity
  8
0
370
              -2
390
0
  6
Continuous
 62
               0
100
AcDbVertex
100
AcDb2dVertex
 10
168.78796553834741
 20
-717.65701900639806
 30
0.0
  0
SEQEND
  5
228
100
AcDbEntity
  8
0
370
              -2
390
0
  6
Continuous
 62
               0
  0
POLYLINE
  5
229
100
AcDbEntity
  8
0
370
              -2
390
0
  6
Continuous
 62
               0
100
AcDb2dPolyline
 66
               1
 10
0.0
 20
0.0
 30
0.0
 75
               5
  0
VERTEX
  5
22A
100
AcDbEntity
  8
0
370
              -2
390
0
  6
Continuous
 62
               0
100
AcDbVertex
100
AcDb2dVertex
 10
233.76928878053491
 20
-717.65701900639806
 30
0.0
  0
VERTEX
  5
22B
100
AcDbEntity
  8
0
370
              -2
390
0
  6
Continuous
 62
               0
100
AcDbVertex
100
AcDb2dVertex
 10
271.27862715944116
 20
-727.70761593365171
 30
0.0
  0
VERTEX
  5
22C
100
AcDbEntity
  8
0
370
              -2
390
0
  6
Continuous
 62
               0
100
AcDbVertex
100
AcDb2dVertex
 10
233.76928878053491
 20
-737.75821286090536
 30
0.0
  0
SEQEND
  5
22D
100
AcDbEntity
  8
0
370
              -2
390
0
  6
Continuous
 62
               0
  0
MTEXT
  5
22E
100
AcDbEntity
  8
寸法
390
0
 62
               0
100
AcDbMText
 10
152.39084042177103
 20
-662.4523815586515
 30
0.0
 40
48.865234375000092
 41
0.0
 71
               1
 72
               1
  1
{\fＭＳ ゴシック|b0|i0|c128|p0;\l140}
 73
               1
 44
0.7828267384257843
  0
POINT
  5
22F
100
AcDbEntity
  8
Defpoints
370
               0
390
0
 62
               0
100
AcDbPoint
 10
271.27862715944116
 20
-542.1442937106018
 30
0.0
  0
POINT
  5
230
100
AcDbEntity
  8
Defpoints
370
               0
390
0
 62
               0
100
AcDbPoint
 10
131.27862715944116
 20
-542.1442937106018
 30
0.0
  0
POINT
  5
231
100
AcDbEntity
  8
Defpoints
370
               0
390
0
 62
               0
100
AcDbPoint
 10
131.27862715944116
 20
-727.70761593365171
 30
0.0
  0
ENDBLK
  5
232
100
AcDbEntity
  8
寸法
390
0
100
AcDbBlockEnd
  0
BLOCK
  5
233
100
AcDbEntity
  8
寸法
390
0
100
AcDbBlockBegin
  2
*D22
 70
               1
 10
0.0
 20
0.0
 30
0.0
  3
*D22
  1

  0
LINE
  5
234
100
AcDbEntity
  8
寸法
370
              -2
390
0
  6
Continuous
 62
               0
100
AcDbLine
 10
-13.997060040692276
 20
-539.28647556272222
 30
0.0
 11
-99.984159578228969
 21
-492.70761593365171
 31
0.0
  0
LINE
  5
235
100
AcDbEntity
  8
寸法
370
              -2
390
0
  6
Continuous
 62
               0
100
AcDbLine
 10
-99.984159578228969
 20
-492.70761593365171
 30
0.0
 11
-256.98415957822897
 21
-492.70761593365171
 31
0.0
  0
LINE
  5
236
100
AcDbEntity
  8
寸法
370
              -2
390
0
  6
Continuous
 62
               0
100
AcDbLine
 10
-3.4456856404254381
 20
-545.00211185848138
 30
0.0
 11
-13.997060040692276
 21
-539.28647556272222
 31
0.0
  0
POLYLINE
  5
237
100
AcDbEntity
  8
0
370
              -2
390
0
  6
Continuous
 62
               0
100
AcDb2dPolyline
 66
               1
 10
0.0
 20
0.0
 30
0.0
 75
               5
  0
VERTEX
  5
238
100
AcDbEntity
  8
0
370
              -2
390
0
  6
Continuous
 62
               0
100
AcDbVertex
100
AcDb2dVertex
 10
-31.379466108826072
 20
-518.02677362222175
 30
0.0
  0
VERTEX
  5
239
100
AcDbEntity
  8
0
370
              -2
390
0
  6
Continuous
 62
               0
100
AcDbVertex
100
AcDb2dVertex
 10
-3.4456856404254381
 20
-545.00211185848138
 30
0.0
  0
VERTEX
  5
23A
100
AcDbEntity
  8
0
370
              -2
390
0
  6
Continuous
 62
               0
100
AcDbVertex
100
AcDb2dVertex
 10
-41.124718267927769
 20
-535.60767390440321
 30
0.0
  0
SEQEND
  5
23B
100
AcDbEntity
  8
0
370
              -2
390
0
  6
Continuous
 62
               0
  0
POLYLINE
  5
23C
100
AcDbEntity
  8
0
370
              -2
390
0
  6
Continuous
 62
               0
100
AcDb2dPolyline
 66
               1
 10
0.0
 20
0.0
 30
0.0
 75
               5
  0
VERTEX
  5
23D
100
AcDbEntity
  8
0
370
              -2
390
0
  6
Continuous
 62
               0
100
AcDbVertex
100
AcDb2dVertex
 10
14.403250544325122
 20
-565.77019363424608
 30
0.0
  0
VERTEX
  5
23E
100
AcDbEntity
  8
0
370
              -2
390
0
  6
Continuous
 62
               0
100
AcDbVertex
100
AcDb2dVertex
 10
-13.997060040692276
 20
-539.28647556272222
 30
0.0
  0
VERTEX
  5
23F
100
AcDbEntity
  8
0
370
              -2
390
0
  6
Continuous
 62
               0
100
AcDbVertex
100
AcDb2dVertex
 10
23.840189437062804
 20
-548.02189290681815
 30
0.0
  0
SEQEND
  5
240
100
AcDbEntity
  8
0
370
              -2
390
0
  6
Continuous
 62
               0
  0
MTEXT
  5
241
100
AcDbEntity
  8
寸法
390
0
 62
               0
100
AcDbMText
 10
-256.98415957822897
 20
-427.45238155865161
 30
0.0
 40
48.865234375000092
 41
0.0
 71
               1
 72
               1
  1
{\fＭＳ ゴシック|b0|i0|c128|p0;\lφ12}
 73
               1
 44
0.7828267384257843
  0
POINT
  5
242
100
AcDbEntity
  8
Defpoints
370
               0
390
0
 62
               0
100
AcDbPoint
 10
-3.4456856404254381
 20
-545.00211185848138
 30
0.0
  0
POINT
  5
243
100
AcDbEntity
  8
Defpoints
370
               0
390
0
 62
               0
100
AcDbPoint
 10
-13.997060040692276
 20
-539.28647556272222
 30
0.0
  0
ENDBLK
  5
244
100
AcDbEntity
  8
寸法
390
0
100
AcDbBlockEnd
  0
BLOCK
  5
245
100
AcDbEntity
  8
寸法
390
0
100
AcDbBlockBegin
  2
*D23
 70
               1
 10
0.0
 20
0.0
 30
0.0
  3
*D23
  1

  0
LINE
  5
246
100
AcDbEntity
  8
寸法
370
              -2
390
0
  6
Continuous
 62
               0
100
AcDbLine
 10
193.72451779997988
 20
-541.6269746847338
 30
0.0
 11
425.01584042177103
 21
-492.70761593365171
 31
0.0
  0
LINE
  5
247
100
AcDbEntity
  8
寸法
370
              -2
390
0
  6
Continuous
 62
               0
100
AcDbLine
 10
425.01584042177103
 20
-492.70761593365171
 30
0.0
 11
518.51584042177103
 21
-492.70761593365171
 31
0.0
  0
LINE
  5
248
100
AcDbEntity
  8
寸法
370
              -2
390
0
  6
Continuous
 62
               0
100
AcDbLine
 10
188.83273651890244
 20
-542.66161273646981
 30
0.0
 11
193.72451779997988
 21
-541.6269746847338
 31
0.0
  0
POLYLINE
  5
249
100
AcDbEntity
  8
0
370
              -2
390
0
  6
Continuous
 62
               0
100
AcDb2dPolyline
 66
               1
 10
0.0
 20
0.0
 30
0.0
 75
               5
  0
VERTEX
  5
24A
100
AcDbEntity
  8
0
370
              -2
390
0
  6
Continuous
 62
               0
100
AcDbVertex
100
AcDb2dVertex
 10
227.57066700739739
 20
-545.37043271681955
 30
0.0
  0
VERTEX
  5
24B
100
AcDbEntity
  8
0
370
              -2
390
0
  6
Continuous
 62
               0
100
AcDbVertex
100
AcDb2dVertex
 10
188.83273651890244
 20
-542.66161273646981
 30
0.0
  0
VERTEX
  5
24C
100
AcDbEntity
  8
0
370
              -2
390
0
  6
Continuous
 62
               0
100
AcDbVertex
100
AcDb2dVertex
 10
223.7351784021497
 20
-525.63855440948407
 30
0.0
  0
SEQEND
  5
24D
100
AcDbEntity
  8
0
370
              -2
390
0
  6
Continuous
 62
               0
  0
POLYLINE
  5
24E
100
AcDbEntity
  8
0
370
              -2
390
0
  6
Continuous
 62
               0
100
AcDb2dPolyline
 66
               1
 10
0.0
 20
0.0
 30
0.0
 75
               5
  0
VERTEX
  5
24F
100
AcDbEntity
  8
0
370
              -2
390
0
  6
Continuous
 62
               0
100
AcDbVertex
100
AcDb2dVertex
 10
154.94521185866719
 20
-539.59463737821193
 30
0.0
  0
VERTEX
  5
250
100
AcDbEntity
  8
0
370
              -2
390
0
  6
Continuous
 62
               0
100
AcDbVertex
100
AcDb2dVertex
 10
193.72451779997988
 20
-541.6269746847338
 30
0.0
  0
VERTEX
  5
251
100
AcDbEntity
  8
0
370
              -2
390
0
  6
Continuous
 62
               0
100
AcDbVertex
100
AcDb2dVertex
 10
159.12448506041335
 20
-559.25657191888342
 30
0.0
  0
SEQEND
  5
252
100
AcDbEntity
  8
0
370
              -2
390
0
  6
Continuous
 62
               0
  0
MTEXT
  5
253
100
AcDbEntity
  8
寸法
390
0
 62
               0
100
AcDbMText
 10
455.01584042177103
 20
-427.45238155865161
 30
0.0
 40
48.865234375000092
 41
0.0
 71
               1
 72
               1
  1
{\fＭＳ ゴシック|b0|i0|c128|p0;\lM6}
 73
               1
 44
0.7828267384257843
  0
POINT
  5
254
100
AcDbEntity
  8
Defpoints
370
               0
390
0
 62
               0
100
AcDbPoint
 10
188.83273651890244
 20
-542.66161273646981
 30
0.0
  0
POINT
  5
255
100
AcDbEntity
  8
Defpoints
370
               0
390
0
 62
               0
100
AcDbPoint
 10
193.72451779997988
 20
-541.6269746847338
 30
0.0
  0
ENDBLK
  5
256
100
AcDbEntity
  8
寸法
390
0
100
AcDbBlockEnd
  0
BLOCK
  5
257
100
AcDbEntity
  8
0
390
0
100
AcDbBlockBegin
  2
グループ-5
 70
               0
 10
0.0
 20
0.0
 30
0.0
  3
グループ-5
  1

  0
LINE
  5
258
100
AcDbEntity
  8
0
370
               0
390
0
  6
Continuous
 62
               0
100
AcDbLine
 10
344.27862715944104
 20
93.892402217561198
 30
0.0
 11
344.27862715943536
 21
-371.10759778243926
 31
0.0
  0
LINE
  5
259
100
AcDbEntity
  8
0
370
               0
390
0
  6
Continuous
 62
               0
100
AcDbLine
 10
354.27862715944104
 20
103.8924022175612
 30
0.0
 11
354.27862715943536
 21
-371.10759778243926
 31
0.0
  0
LINE
  5
25A
100
AcDbEntity
  8
0
370
               0
390
0
  6
Continuous
 62
               0
100
AcDbLine
 10
344.27862715943536
 20
-371.10759778243926
 30
0.0
 11
354.27862715943536
 21
-371.10759778243926
 31
0.0
  0
LINE
  5
25B
100
AcDbEntity
  8
0
370
               0
390
0
  6
Continuous
 62
               0
100
AcDbLine
 10
344.27862715944104
 20
93.892402217561198
 30
0.0
 11
354.27862715944104
 21
103.8924022175612
 31
0.0
  0
LINE
  5
25C
100
AcDbEntity
  8
0
370
               0
390
0
  6
Continuous
 62
               0
100
AcDbLine
 10
-91.721372840558843
 20
103.89240221756432
 30
0.0
 11
-91.721372840559184
 21
-371.10759778243619
 31
0.0
  0
LINE
  5
25D
100
AcDbEntity
  8
0
370
               0
390
0
  6
Continuous
 62
               0
100
AcDbLine
 10
-91.721372840558843
 20
103.89240221756432
 30
0.0
 11
-81.721372840558843
 21
93.892402217564154
 31
0.0
  0
LINE
  5
25E
100
AcDbEntity
  8
0
370
               0
390
0
  6
Continuous
 62
               0
100
AcDbLine
 10
-81.721372840558843
 20
93.892402217564154
 30
0.0
 11
-81.721372840559184
 21
-371.10759778243619
 31
0.0
  0
LINE
  5
25F
100
AcDbEntity
  8
0
370
               0
390
0
  6
Continuous
 62
               0
100
AcDbLine
 10
-91.721372840559184
 20
-371.10759778243619
 30
0.0
 11
-81.721372840559184
 21
-371.10759778243619
 31
0.0
  0
LINE
  5
260
100
AcDbEntity
  8
0
370
               0
390
0
  6
Continuous
 62
               0
100
AcDbLine
 10
-81.721372840558843
 20
93.892402217563756
 30
0.0
 11
344.27862715944104
 21
93.892402217560857
 31
0.0
  0
LINE
  5
261
100
AcDbEntity
  8
0
370
               0
390
0
  6
Continuous
 62
               0
100
AcDbLine
 10
-91.721372840558729
 20
103.89240221756381
 30
0.0
 11
354.27862715944127
 21
103.89240221756074
 31
0.0
  0
LINE
  5
262
100
AcDbEntity
  8
0
370
               0
390
0
  6
Continuous
 62
               0
100
AcDbLine
 10
344.27862715944104
 20
93.892402217560857
 30
0.0
 11
354.27862715944127
 21
103.89240221756074
 31
0.0
  0
LINE
  5
263
100
AcDbEntity
  8
0
370
               0
390
0
  6
Continuous
 62
               0
100
AcDbLine
 10
-81.721372840558843
 20
93.892402217563756
 30
0.0
 11
-91.721372840558729
 21
103.89240221756381
 31
0.0
  0
LINE
  5
264
100
AcDbEntity
  8
0
370
               0
390
0
  6
Continuous
 62
               0
100
AcDbLine
 10
-245.98415957822908
 20
103.89240221756137
 30
0.0
 11
-245.98415957822908
 21
-371.10759778243926
 31
0.0
  0
LINE
  5
265
100
AcDbEntity
  8
0
370
               0
390
0
  6
Continuous
 62
               0
100
AcDbLine
 10
-245.98415957822908
 20
103.89240221756137
 30
0.0
 11
-205.98415957822908
 21
103.89240221756137
 31
0.0
  0
LINE
  5
266
100
AcDbEntity
  8
0
370
               0
390
0
  6
Continuous
 62
               0
100
AcDbLine
 10
-205.98415957822908
 20
103.89240221756137
 30
0.0
 11
-205.98415957822908
 21
-371.10759778243926
 31
0.0
  0
LINE
  5
267
100
AcDbEntity
  8
0
370
               0
390
0
  6
Continuous
 62
               0
100
AcDbLine
 10
-245.98415957822908
 20
-371.10759778243926
 30
0.0
 11
-205.98415957822908
 21
-371.10759778243926
 31
0.0
  0
CIRCLE
  5
268
100
AcDbEntity
  8
0
370
               0
390
0
  6
Continuous
 62
               0
100
AcDbCircle
 10
-225.98415957822897
 20
-351.10759778243903
 30
0.0
 40
4.0000000000001137
  0
LINE
  5
269
100
AcDbEntity
  8
0
370
               0
390
0
  6
Continuous
 62
               0
100
AcDbLine
 10
-245.98415957822908
 20
103.89240221756074
 30
0.0
 11
-205.98415957822908
 21
103.89240221756074
 31
0.0
  0
CIRCLE
  5
26A
100
AcDbEntity
  8
0
370
               0
390
0
  6
Continuous
 62
               0
100
AcDbCircle
 10
71.278627159441157
 20
-542.1442937106018
 30
0.0
 40
2.5
  0
CIRCLE
  5
26B
100
AcDbEntity
  8
0
370
               0
390
0
  6
Continuous
 62
               0
100
AcDbCircle
 10
71.278627159441157
 20
-542.1442937106018
 30
0.0
 40
5.5
  0
CIRCLE
  5
26C
100
AcDbEntity
  8
0
370
               0
390
0
  6
Continuous
 62
               0
100
AcDbCircle
 10
71.278627159441157
 20
-542.14429371060191
 30
0.0
 40
6.0
  0
CIRCLE
  5
26D
100
AcDbEntity
  8
0
370
               0
390
0
  6
Continuous
 62
               0
100
AcDbCircle
 10
191.27862715944116
 20
-542.1442937106018
 30
0.0
 40
6.0
  0
CIRCLE
  5
26E
100
AcDbEntity
  8
0
370
               0
390
0
  6
Continuous
 62
               0
100
AcDbCircle
 10
191.27862715944116
 20
-542.1442937106018
 30
0.0
 40
2.5
  0
CIRCLE
  5
26F
100
AcDbEntity
  8
0
370
               0
390
0
  6
Continuous
 62
               0
100
AcDbCircle
 10
191.27862715944116
 20
-542.1442937106018
 30
0.0
 40
5.5
  0
LINE
  5
270
100
AcDbEntity
  8
0
370
               0
390
0
  6
Continuous
 62
               0
100
AcDbLine
 10
352.77862715943536
 20
-523.6442937106001
 30
0.0
 11
352.77862715943536
 21
-560.64429371060021
 31
0.0
  0
LINE
  5
271
100
AcDbEntity
  8
0
370
               0
390
0
  6
Continuous
 62
               0
100
AcDbLine
 10
345.77862715943536
 20
-523.6442937106001
 30
0.0
 11
352.77862715943536
 21
-523.6442937106001
 31
0.0
  0
LINE
  5
272
100
AcDbEntity
  8
0
370
               0
390
0
  6
Continuous
 62
               0
100
AcDbLine
 10
345.77862715943536
 20
-560.6442937106001
 30
0.0
 11
345.77862715943536
 21
-523.6442937106001
 31
0.0
  0
LINE
  5
273
100
AcDbEntity
  8
0
370
               0
390
0
  6
Continuous
 62
               0
100
AcDbLine
 10
352.77862715943536
 20
-560.64429371060021
 30
0.0
 11
345.77862715943536
 21
-560.6442937106001
 31
0.0
  0
LINE
  5
274
100
AcDbEntity
  8
0
370
               0
390
0
  6
Continuous
 62
               0
100
AcDbLine
 10
344.27862715943536
 20
-562.14429371060021
 30
0.0
 11
344.27862715943536
 21
-522.1442937106001
 31
0.0
  0
LINE
  5
275
100
AcDbEntity
  8
0
370
               0
390
0
  6
Continuous
 62
               0
100
AcDbLine
 10
344.27862715943536
 20
-522.1442937106001
 30
0.0
 11
354.27862715943536
 21
-522.1442937106001
 31
0.0
  0
LINE
  5
276
100
AcDbEntity
  8
0
370
               0
390
0
  6
Continuous
 62
               0
100
AcDbLine
 10
354.27862715943536
 20
-522.1442937106001
 30
0.0
 11
354.27862715943536
 21
-562.14429371060021
 31
0.0
  0
LINE
  5
277
100
AcDbEntity
  8
0
370
               0
390
0
  6
Continuous
 62
               0
100
AcDbLine
 10
354.27862715943536
 20
-562.14429371060021
 30
0.0
 11
344.27862715943536
 21
-562.14429371060021
 31
0.0
  0
LINE
  5
278
100
AcDbEntity
  8
0
370
               0
390
0
  6
Continuous
 62
               0
100
AcDbLine
 10
-90.221372840559184
 20
-560.64429371060032
 30
0.0
 11
-90.221372840559184
 21
-523.64429371060032
 31
0.0
  0
LINE
  5
279
100
AcDbEntity
  8
0
370
               0
390
0
  6
Continuous
 62
               0
100
AcDbLine
 10
-83.221372840559184
 20
-523.64429371060032
 30
0.0
 11
-83.221372840559297
 21
-560.64429371060044
 31
0.0
  0
LINE
  5
27A
100
AcDbEntity
  8
0
370
               0
390
0
  6
Continuous
 62
               0
100
AcDbLine
 10
-90.221372840559184
 20
-523.64429371060032
 30
0.0
 11
-83.221372840559184
 21
-523.64429371060032
 31
0.0
  0
LINE
  5
27B
100
AcDbEntity
  8
0
370
               0
390
0
  6
Continuous
 62
               0
100
AcDbLine
 10
-81.721372840559184
 20
-522.14429371060032
 30
0.0
 11
-81.721372840559297
 21
-562.14429371060032
 31
0.0
  0
LINE
  5
27C
100
AcDbEntity
  8
0
370
               0
390
0
  6
Continuous
 62
               0
100
AcDbLine
 10
-91.721372840559184
 20
-562.14429371060032
 30
0.0
 11
-91.721372840559184
 21
-522.14429371060032
 31
0.0
  0
LINE
  5
27D
100
AcDbEntity
  8
0
370
               0
390
0
  6
Continuous
 62
               0
100
AcDbLine
 10
-91.721372840559184
 20
-522.14429371060032
 30
0.0
 11
-81.721372840559184
 21
-522.14429371060032
 31
0.0
  0
LINE
  5
27E
100
AcDbEntity
  8
0
370
               0
390
0
  6
Continuous
 62
               0
100
AcDbLine
 10
-81.721372840558843
 20
-522.14429371060169
 30
0.0
 11
344.27862715944104
 21
-522.14429371060169
 31
0.0
  0
CIRCLE
  5
27F
100
AcDbEntity
  8
0
370
               0
390
0
  6
Continuous
 62
               0
100
AcDbCircle
 10
131.27862715944116
 20
-542.1442937106018
 30
0.0
 40
6.0
  0
CIRCLE
  5
280
100
AcDbEntity
  8
0
370
               0
390
0
  6
Continuous
 62
               0
100
AcDbCircle
 10
271.27862715944116
 20
-542.1442937106018
 30
0.0
 40
6.0
  0
CIRCLE
  5
281
100
AcDbEntity
  8
0
370
               0
390
0
  6
Continuous
 62
               0
100
AcDbCircle
 10
-8.7213728405588427
 20
-542.1442937106018
 30
0.0
 40
6.0000000000001137
  0
CIRCLE
  5
282
100
AcDbEntity
  8
0
370
               0
390
0
  6
Continuous
 62
               0
100
AcDbCircle
 10
71.278627159441157
 20
-542.1442937106018
 30
0.0
 40
10.0
  0
CIRCLE
  5
283
100
AcDbEntity
  8
0
370
               0
390
0
  6
Continuous
 62
               0
100
AcDbCircle
 10
191.27862715944116
 20
-542.1442937106018
 30
0.0
 40
10.0
  0
LINE
  5
284
100
AcDbEntity
  8
0
370
               0
390
0
  6
Continuous
 62
               0
100
AcDbLine
 10
-81.721372840558843
 20
-562.1442937106018
 30
0.0
 11
344.27862715944104
 21
-562.1442937106018
 31
0.0
  0
DIMENSION
  5
285
100
AcDbEntity
  8
寸法
370
               0
390
0
  6
Continuous
 62
               1
100
AcDbDimension
  2
*D14
 10
-299.98415957822897
 20
-351.10759778243903
 30
0.0
 11
-299.98415957822897
 21
-123.60759778243914
 31
0.0
 71
               5
 72
               1
 41
1.0
 42
0.0
  3
HIBINO
100
AcDbAlignedDimension
 13
-225.98415957822908
 23
103.89240221756074
 33
0.0
 14
-225.98415957822897
 24
-351.10759778243903
 34
0.0
 50
-90.0
100
AcDbRotatedDimension
1001
ACAD
1000
DSTYLE
1002
{
1070
             279
1070
               2
1070
             340
1005
5B
1070
             147
1040
7.5
1002
}
  0
DIMENSION
  5
286
100
AcDbEntity
  8
寸法
370
               0
390
0
  6
Continuous
 62
               1
100
AcDbDimension
  2
*D15
 10
-149.98415957822897
 20
103.89240221756381
 30
0.0
 11
-149.98415957822897
 21
-133.60759778243619
 31
0.0
 71
               5
 72
               1
 41
1.0
 42
0.0
  3
HIBINO
100
AcDbAlignedDimension
 13
-91.721372840559184
 23
-371.10759778243619
 33
0.0
 14
-91.721372840558729
 24
103.89240221756381
 34
0.0
 50
-90.0
100
AcDbRotatedDimension
1001
ACAD
1000
DSTYLE
1002
{
1070
             279
1070
               2
1070
             340
1005
5B
1070
             147
1040
7.5
1002
}
  0
DIMENSION
  5
287
100
AcDbEntity
  8
寸法
370
               0
390
0
  6
Continuous
 62
               1
100
AcDbDimension
  2
*D16
 10
344.27862715943536
 20
-405.02511786360702
 30
0.0
 11
539.4504389405347
 21
-397.52511786360702
 31
0.0
 70
             128
 71
               5
 72
               1
 41
1.0
 42
0.0
  3
HIBINO
100
AcDbAlignedDimension
 13
354.27862715943536
 23
-371.10759778243926
 33
0.0
 14
344.27862715943536
 24
-371.10759778243926
 34
0.0
100
AcDbRotatedDimension
1001
ACAD
1000
DSTYLE
1002
{
1070
             279
1070
               2
1070
             340
1005
5B
1070
             174
1070
               0
1070
             147
1040
7.5
1002
}
  0
LINE
  5
288
100
AcDbEntity
  8
0
370
               0
390
0
  6
Continuous
 62
               0
100
AcDbLine
 10
-90.221372840559184
 20
-560.36488942684991
 30
0.0
 11
-83.221372840559184
 21
-560.36488942684991
 31
0.0
  0
LINE
  5
289
100
AcDbEntity
  8
0
370
               0
390
0
  6
Continuous
 62
               0
100
AcDbLine
 10
-91.721372840559184
 20
-562.14429371060032
 30
0.0
 11
-81.721372840559184
 21
-562.14429371060032
 31
0.0
  0
DIMENSION
  5
28A
100
AcDbEntity
  8
寸法
370
               0
390
0
  6
Continuous
 62
               1
100
AcDbDimension
  2
*D17
 10
-149.98415957822897
 20
-522.14429371060032
 30
0.0
 11
-157.48415957822897
 21
-552.70761593365171
 31
0.0
 70
             128
 71
               5
 72
               1
 41
1.0
 42
0.0
  3
HIBINO
100
AcDbAlignedDimension
 13
-91.721372840559184
 23
-562.14429371060032
 33
0.0
 14
-91.721372840559184
 24
-522.14429371060032
 34
0.0
 50
-90.0
100
AcDbRotatedDimension
1001
ACAD
1000
DSTYLE
1002
{
1070
             279
1070
               2
1070
             340
1005
5B
1070
             147
1040
7.5
1002
}
  0
DIMENSION
  5
28B
100
AcDbEntity
  8
寸法
370
               0
390
0
  6
Continuous
 62
               1
100
AcDbDimension
  2
*D18
 10
131.27862715944116
 20
-627.70761593365171
 30
0.0
 11
161.27862715944116
 21
-627.70761593365171
 31
0.0
 71
               5
 72
               1
 41
1.0
 42
0.0
  3
HIBINO
100
AcDbAlignedDimension
 13
191.27862715944116
 23
-542.1442937106018
 33
0.0
 14
131.27862715944116
 24
-542.1442937106018
 34
0.0
100
AcDbRotatedDimension
1001
ACAD
1000
DSTYLE
1002
{
1070
             279
1070
               2
1070
             340
1005
5B
1070
             147
1040
7.5
1002
}
  0
DIMENSION
  5
28C
100
AcDbEntity
  8
寸法
370
               0
390
0
  6
Continuous
 62
               1
100
AcDbDimension
  2
*D19
 10
131.27862715944116
 20
-627.70761593365171
 30
0.0
 11
101.27862715944116
 21
-627.70761593365171
 31
0.0
 71
               5
 72
               1
 41
1.0
 42
0.0
  3
HIBINO
100
AcDbAlignedDimension
 13
71.278627159441157
 23
-542.14429371060191
 33
0.0
 14
131.27862715944116
 24
-542.1442937106018
 34
0.0
100
AcDbRotatedDimension
1001
ACAD
1000
DSTYLE
1002
{
1070
             279
1070
               2
1070
             340
1005
5B
1070
             147
1040
7.5
1002
}
  0
DIMENSION
  5
28D
100
AcDbEntity
  8
寸法
370
               0
390
0
  6
Continuous
 62
               1
100
AcDbDimension
  2
*D20
 10
131.27862715944116
 20
-727.70761593365171
 30
0.0
 11
75.015840421771031
 21
-720.20761593365171
 31
0.0
 70
             128
 71
               5
 72
               1
 41
1.0
 42
0.0
  3
HIBINO
100
AcDbAlignedDimension
 13
-8.7213728405588427
 23
-542.1442937106018
 33
0.0
 14
131.27862715944116
 24
-542.1442937106018
 34
0.0
100
AcDbRotatedDimension
1001
ACAD
1000
DSTYLE
1002
{
1070
             279
1070
               2
1070
             340
1005
5B
1070
             147
1040
7.5
1002
}
  0
DIMENSION
  5
28E
100
AcDbEntity
  8
寸法
370
               0
390
0
  6
Continuous
 62
               1
100
AcDbDimension
  2
*D21
 10
131.27862715944116
 20
-727.70761593365171
 30
0.0
 11
200.01584042177103
 21
-720.20761593365171
 31
0.0
 70
             128
 71
               5
 72
               1
 41
1.0
 42
0.0
  3
HIBINO
100
AcDbAlignedDimension
 13
271.27862715944116
 23
-542.1442937106018
 33
0.0
 14
131.27862715944116
 24
-542.1442937106018
 34
0.0
100
AcDbRotatedDimension
1001
ACAD
1000
DSTYLE
1002
{
1070
             279
1070
               2
1070
             340
1005
5B
1070
             147
1040
7.5
1002
}
  0
DIMENSION
  5
28F
100
AcDbEntity
  8
寸法
370
               0
390
0
  6
Continuous
 62
               1
100
AcDbDimension
  2
*D22
 10
-3.4456856404254381
 20
-545.00211185848138
 30
0.0
 11
-129.98415957822883
 21
-492.70761593365137
 31
0.0
 70
               3
 71
               5
 72
               1
 41
1.0
 42
0.0
  3
HIBINO
100
AcDbDiametricDimension
 15
-13.997060040692276
 25
-539.28647556272222
 35
0.0
 40
97.792491793710312
1001
ACAD
1000
DSTYLE
1002
{
1070
             289
1070
               0
1070
             342
1005
71
1070
             340
1005
5B
1070
              73
1070
               1
1070
              74
1070
               1
1070
              75
1070
               1
1070
              76
1070
               1
1070
               3
1000

1070
             174
1070
               0
1070
             147
1040
7.5
1002
}
  0
DIMENSION
  5
290
100
AcDbEntity
  8
寸法
370
               0
390
0
  6
Continuous
 62
               1
100
AcDbDimension
  2
*D23
 10
188.83273651890244
 20
-542.66161273646981
 30
0.0
 11
455.01584042177103
 21
-492.70761593365177
 31
0.0
 70
               3
 71
               5
 72
               1
 41
1.0
 42
0.0
  1
M6
  3
HIBINO
100
AcDbDiametricDimension
 15
193.72451779997988
 25
-541.6269746847338
 35
0.0
 40
236.40807850146442
1001
ACAD
1000
DSTYLE
1002
{
1070
             289
1070
               0
1070
             342
1005
71
1070
             340
1005
5B
1070
              73
1070
               1
1070
              74
1070
               1
1070
              75
1070
               1
1070
              76
1070
               1
1070
             174
1070
               0
1070
             147
1040
7.5
1002
}
  0
ENDBLK
  5
291
100
AcDbEntity
  8
0
390
0
100
AcDbBlockEnd
  0
BLOCK
  5
292
100
AcDbEntity
  8
0
390
0
100
AcDbBlockBegin
  2
グループ-6
 70
               0
 10
0.0
 20
0.0
 30
0.0
  3
グループ-6
  1

  0
DIMENSION
  5
293
100
AcDbEntity
  8
寸法
370
               0
390
0
  6
Continuous
 62
               1
100
AcDbDimension
  2
*D13
 10
-91.721372840558615
 20
146.80193512645758
 30
0.0
 11
131.27862715944133
 21
146.80193512645758
 31
0.0
 71
               5
 72
               1
 41
1.0
 42
0.0
  3
HIBINO
100
AcDbAlignedDimension
 13
354.27862715944127
 23
103.89240221756074
 33
0.0
 14
-91.721372840558615
 24
106.89240221756381
 34
0.0
100
AcDbRotatedDimension
1001
ACAD
1000
DSTYLE
1002
{
1070
             279
1070
               2
1070
             340
1005
5B
1070
             147
1040
7.5
1002
}
  0
INSERT
  5
294
100
AcDbEntity
  8
0
390
0
 62
               1
100
AcDbBlockReference
  2
グループ-5
 10
0.0
 20
0.0
 30
0.0
  0
ENDBLK
  5
295
100
AcDbEntity
  8
0
390
0
100
AcDbBlockEnd
  0
BLOCK
  5
296
100
AcDbEntity
  8
0
390
0
100
AcDbBlockBegin
  2
グループ-7
 70
               0
 10
0.0
 20
0.0
 30
0.0
  3
グループ-7
  1

  0
MTEXT
  5
297
100
AcDbEntity
  8
0
390
0
 62
               2
100
AcDbMText
 10
-796.35915957822897
 20
-429.63066491712141
 30
0.0
 40
48.865234375000092
 41
0.0
 71
               1
 72
               1
  1
{\fＭＳ ゴシック|b0|i0|c128|p0;\l重量　約1.5kg}
 73
               1
 44
0.7828267384257843
  0
MTEXT
  5
298
100
AcDbEntity
  8
0
390
0
 62
               2
100
AcDbMText
 10
-954.35915957822908
 20
165.04761844134845
 30
0.0
 40
48.865234375000092
 41
0.0
 71
               1
 72
               1
  1
{\fＭＳ ゴシック|b0|i0|c128|p0;\lA15VG}
 73
               1
 44
0.7828267384257843
  0
INSERT
  5
299
100
AcDbEntity
  8
0
390
0
 62
               1
100
AcDbBlockReference
  2
グループ-6
 10
0.0
 20
0.0
 30
0.0
  0
ENDBLK
  5
29A
100
AcDbEntity
  8
0
390
0
100
AcDbBlockEnd
  0
BLOCK
  5
29B
100
AcDbEntity
  8
0
390
0
100
AcDbBlockBegin
  2
グループ-8
 70
               0
 10
0.0
 20
0.0
 30
0.0
  3
グループ-8
  1

  0
LINE
  5
29C
100
AcDbEntity
  8
0
370
               0
390
0
  6
Continuous
 62
               1
100
AcDbLine
 10
-51.278433757440013
 20
656.35658070443469
 30
0.0
 11
-48.778433757440013
 21
656.35658070443469
 31
0.0
  0
LINE
  5
29D
100
AcDbEntity
  8
0
370
               0
390
0
  6
Continuous
 62
               1
100
AcDbLine
 10
-51.278433757440013
 20
656.35658070443469
 30
0.0
 11
-51.278433757440013
 21
658.85658070443469
 31
0.0
  0
LINE
  5
29E
100
AcDbEntity
  8
0
370
               0
390
0
  6
Continuous
 62
               1
100
AcDbLine
 10
-51.278433757440013
 20
656.35658070443469
 30
0.0
 11
-53.778433757440013
 21
656.35658070443469
 31
0.0
  0
LINE
  5
29F
100
AcDbEntity
  8
0
370
               0
390
0
  6
Continuous
 62
               1
100
AcDbLine
 10
-51.278433757440013
 20
656.35658070443469
 30
0.0
 11
-51.278433757440013
 21
653.85658070443469
 31
0.0
  0
LINE
  5
2A0
100
AcDbEntity
  8
0
370
               0
390
0
  6
Continuous
 62
               1
100
AcDbLine
 10
-46.278433757440013
 20
656.35658070443469
 30
0.0
 11
-44.778433757440013
 21
656.35658070443469
 31
0.0
  0
LINE
  5
2A1
100
AcDbEntity
  8
0
370
               0
390
0
  6
Continuous
 62
               1
100
AcDbLine
 10
-51.278433757440013
 20
661.35658070443469
 30
0.0
 11
-51.278433757440013
 21
662.85658070443469
 31
0.0
  0
LINE
  5
2A2
100
AcDbEntity
  8
0
370
               0
390
0
  6
Continuous
 62
               1
100
AcDbLine
 10
-56.278433757439984
 20
656.35658070443469
 30
0.0
 11
-57.778433757439984
 21
656.35658070443469
 31
0.0
  0
LINE
  5
2A3
100
AcDbEntity
  8
0
370
               0
390
0
  6
Continuous
 62
               1
100
AcDbLine
 10
-51.278433757440013
 20
651.35658070443469
 30
0.0
 11
-51.278433757440013
 21
649.85658070443469
 31
0.0
  0
ENDBLK
  5
2A4
100
AcDbEntity
  8
0
390
0
100
AcDbBlockEnd
  0
BLOCK
  5
2A5
100
AcDbEntity
  8
0
390
0
100
AcDbBlockBegin
  2
グループ-9
 70
               0
 10
0.0
 20
0.0
 30
0.0
  3
グループ-9
  1

  0
LINE
  5
2A6
100
AcDbEntity
  8
0
370
               0
390
0
  6
Continuous
 62
               1
100
AcDbLine
 10
68.721566242559987
 20
656.35658070443469
 30
0.0
 11
71.221566242559987
 21
656.35658070443469
 31
0.0
  0
LINE
  5
2A7
100
AcDbEntity
  8
0
370
               0
390
0
  6
Continuous
 62
               1
100
AcDbLine
 10
68.721566242559987
 20
656.35658070443469
 30
0.0
 11
68.721566242559987
 21
658.85658070443469
 31
0.0
  0
LINE
  5
2A8
100
AcDbEntity
  8
0
370
               0
390
0
  6
Continuous
 62
               1
100
AcDbLine
 10
68.721566242559987
 20
656.35658070443469
 30
0.0
 11
66.221566242559987
 21
656.35658070443469
 31
0.0
  0
LINE
  5
2A9
100
AcDbEntity
  8
0
370
               0
390
0
  6
Continuous
 62
               1
100
AcDbLine
 10
68.721566242559987
 20
656.35658070443469
 30
0.0
 11
68.721566242559987
 21
653.85658070443469
 31
0.0
  0
LINE
  5
2AA
100
AcDbEntity
  8
0
370
               0
390
0
  6
Continuous
 62
               1
100
AcDbLine
 10
73.721566242559987
 20
656.35658070443469
 30
0.0
 11
75.221566242559987
 21
656.35658070443469
 31
0.0
  0
LINE
  5
2AB
100
AcDbEntity
  8
0
370
               0
390
0
  6
Continuous
 62
               1
100
AcDbLine
 10
68.721566242559987
 20
661.35658070443469
 30
0.0
 11
68.721566242559987
 21
662.8565807044348
 31
0.0
  0
LINE
  5
2AC
100
AcDbEntity
  8
0
370
               0
390
0
  6
Continuous
 62
               1
100
AcDbLine
 10
63.721566242559987
 20
656.35658070443469
 30
0.0
 11
62.221566242559987
 21
656.35658070443469
 31
0.0
  0
LINE
  5
2AD
100
AcDbEntity
  8
0
370
               0
390
0
  6
Continuous
 62
               1
100
AcDbLine
 10
68.721566242559987
 20
651.35658070443469
 30
0.0
 11
68.721566242559987
 21
649.85658070443469
 31
0.0
  0
ENDBLK
  5
2AE
100
AcDbEntity
  8
0
390
0
100
AcDbBlockEnd
  0
BLOCK
  5
2AF
100
AcDbEntity
  8
0
390
0
100
AcDbBlockBegin
  2
グループ-10
 70
               0
 10
0.0
 20
0.0
 30
0.0
  3
グループ-10
  1

  0
LINE
  5
2B0
100
AcDbEntity
  8
0
370
               0
390
0
  6
Continuous
 62
               1
100
AcDbLine
 10
128.72156624255999
 20
656.35658070443469
 30
0.0
 11
131.22156624255999
 21
656.35658070443469
 31
0.0
  0
LINE
  5
2B1
100
AcDbEntity
  8
0
370
               0
390
0
  6
Continuous
 62
               1
100
AcDbLine
 10
128.72156624255999
 20
656.35658070443469
 30
0.0
 11
128.72156624255999
 21
658.85658070443469
 31
0.0
  0
LINE
  5
2B2
100
AcDbEntity
  8
0
370
               0
390
0
  6
Continuous
 62
               1
100
AcDbLine
 10
128.72156624255999
 20
656.35658070443469
 30
0.0
 11
126.22156624255999
 21
656.35658070443469
 31
0.0
  0
LINE
  5
2B3
100
AcDbEntity
  8
0
370
               0
390
0
  6
Continuous
 62
               1
100
AcDbLine
 10
128.72156624255999
 20
656.35658070443469
 30
0.0
 11
128.72156624255999
 21
653.85658070443469
 31
0.0
  0
LINE
  5
2B4
100
AcDbEntity
  8
0
370
               0
390
0
  6
Continuous
 62
               1
100
AcDbLine
 10
133.72156624255999
 20
656.35658070443469
 30
0.0
 11
137.22156624255987
 21
656.35658070443469
 31
0.0
  0
LINE
  5
2B5
100
AcDbEntity
  8
0
370
               0
390
0
  6
Continuous
 62
               1
100
AcDbLine
 10
128.72156624255999
 20
661.35658070443469
 30
0.0
 11
128.72156624255999
 21
664.85658070443469
 31
0.0
  0
LINE
  5
2B6
100
AcDbEntity
  8
0
370
               0
390
0
  6
Continuous
 62
               1
100
AcDbLine
 10
123.72156624255999
 20
656.35658070443469
 30
0.0
 11
120.22156624255999
 21
656.35658070443469
 31
0.0
  0
LINE
  5
2B7
100
AcDbEntity
  8
0
370
               0
390
0
  6
Continuous
 62
               1
100
AcDbLine
 10
128.72156624255999
 20
651.35658070443469
 30
0.0
 11
128.72156624255999
 21
647.8565807044348
 31
0.0
  0
ENDBLK
  5
2B8
100
AcDbEntity
  8
0
390
0
100
AcDbBlockEnd
  0
BLOCK
  5
2B9
100
AcDbEntity
  8
0
390
0
100
AcDbBlockBegin
  2
グループ-11
 70
               0
 10
0.0
 20
0.0
 30
0.0
  3
グループ-11
  1

  0
LINE
  5
2BA
100
AcDbEntity
  8
0
370
               0
390
0
  6
Continuous
 62
               1
100
AcDbLine
 10
8.72156624255976
 20
656.35658070443469
 30
0.0
 11
11.22156624255976
 21
656.35658070443469
 31
0.0
  0
LINE
  5
2BB
100
AcDbEntity
  8
0
370
               0
390
0
  6
Continuous
 62
               1
100
AcDbLine
 10
8.72156624255976
 20
656.35658070443469
 30
0.0
 11
8.72156624255976
 21
658.85658070443469
 31
0.0
  0
LINE
  5
2BC
100
AcDbEntity
  8
0
370
               0
390
0
  6
Continuous
 62
               1
100
AcDbLine
 10
8.72156624255976
 20
656.35658070443469
 30
0.0
 11
6.22156624255976
 21
656.35658070443469
 31
0.0
  0
LINE
  5
2BD
100
AcDbEntity
  8
0
370
               0
390
0
  6
Continuous
 62
               1
100
AcDbLine
 10
8.72156624255976
 20
656.35658070443469
 30
0.0
 11
8.72156624255976
 21
653.85658070443469
 31
0.0
  0
LINE
  5
2BE
100
AcDbEntity
  8
0
370
               0
390
0
  6
Continuous
 62
               1
100
AcDbLine
 10
13.72156624255976
 20
656.35658070443469
 30
0.0
 11
17.22156624255976
 21
656.35658070443469
 31
0.0
  0
LINE
  5
2BF
100
AcDbEntity
  8
0
370
               0
390
0
  6
Continuous
 62
               1
100
AcDbLine
 10
8.72156624255976
 20
661.35658070443469
 30
0.0
 11
8.72156624255976
 21
664.85658070443469
 31
0.0
  0
LINE
  5
2C0
100
AcDbEntity
  8
0
370
               0
390
0
  6
Continuous
 62
               1
100
AcDbLine
 10
3.72156624255976
 20
656.35658070443469
 30
0.0
 11
0.2215662425598737
 21
656.35658070443469
 31
0.0
  0
LINE
  5
2C1
100
AcDbEntity
  8
0
370
               0
390
0
  6
Continuous
 62
               1
100
AcDbLine
 10
8.72156624255976
 20
651.35658070443469
 30
0.0
 11
8.72156624255976
 21
647.8565807044348
 31
0.0
  0
ENDBLK
  5
2C2
100
AcDbEntity
  8
0
390
0
100
AcDbBlockEnd
  0
BLOCK
  5
2C3
100
AcDbEntity
  8
0
390
0
100
AcDbBlockBegin
  2
グループ-12
 70
               0
 10
0.0
 20
0.0
 30
0.0
  3
グループ-12
  1

  0
LINE
  5
2C4
100
AcDbEntity
  8
0
370
               0
390
0
  6
Continuous
 62
               1
100
AcDbLine
 10
-111.27843375744021
 20
656.35658070443469
 30
0.0
 11
-108.77843375744021
 21
656.35658070443469
 31
0.0
  0
LINE
  5
2C5
100
AcDbEntity
  8
0
370
               0
390
0
  6
Continuous
 62
               1
100
AcDbLine
 10
-111.27843375744021
 20
656.35658070443469
 30
0.0
 11
-111.27843375744021
 21
658.85658070443469
 31
0.0
  0
LINE
  5
2C6
100
AcDbEntity
  8
0
370
               0
390
0
  6
Continuous
 62
               1
100
AcDbLine
 10
-111.27843375744021
 20
656.35658070443469
 30
0.0
 11
-113.77843375744021
 21
656.35658070443469
 31
0.0
  0
LINE
  5
2C7
100
AcDbEntity
  8
0
370
               0
390
0
  6
Continuous
 62
               1
100
AcDbLine
 10
-111.27843375744021
 20
656.35658070443469
 30
0.0
 11
-111.27843375744021
 21
653.85658070443469
 31
0.0
  0
LINE
  5
2C8
100
AcDbEntity
  8
0
370
               0
390
0
  6
Continuous
 62
               1
100
AcDbLine
 10
-106.27843375744021
 20
656.35658070443469
 30
0.0
 11
-102.77843375744021
 21
656.35658070443469
 31
0.0
  0
LINE
  5
2C9
100
AcDbEntity
  8
0
370
               0
390
0
  6
Continuous
 62
               1
100
AcDbLine
 10
-111.27843375744021
 20
661.35658070443469
 30
0.0
 11
-111.27843375744021
 21
664.85658070443469
 31
0.0
  0
LINE
  5
2CA
100
AcDbEntity
  8
0
370
               0
390
0
  6
Continuous
 62
               1
100
AcDbLine
 10
-116.27843375744021
 20
656.35658070443469
 30
0.0
 11
-119.77843375744021
 21
656.35658070443469
 31
0.0
  0
LINE
  5
2CB
100
AcDbEntity
  8
0
370
               0
390
0
  6
Continuous
 62
               1
100
AcDbLine
 10
-111.27843375744021
 20
651.35658070443469
 30
0.0
 11
-111.27843375744021
 21
647.85658070443469
 31
0.0
  0
ENDBLK
  5
2CC
100
AcDbEntity
  8
0
390
0
100
AcDbBlockEnd
  0
BLOCK
  5
2CD
100
AcDbEntity
  8
0
390
0
100
AcDbBlockBegin
  2
グループ-13
 70
               0
 10
0.0
 20
0.0
 30
0.0
  3
グループ-13
  1

  0
LINE
  5
2CE
100
AcDbEntity
  8
0
370
               0
390
0
  6
Continuous
 62
               1
100
AcDbLine
 10
248.7215662425599
 20
656.3565807044348
 30
0.0
 11
251.2215662425599
 21
656.3565807044348
 31
0.0
  0
LINE
  5
2CF
100
AcDbEntity
  8
0
370
               0
390
0
  6
Continuous
 62
               1
100
AcDbLine
 10
248.7215662425599
 20
656.3565807044348
 30
0.0
 11
248.7215662425599
 21
658.8565807044348
 31
0.0
  0
LINE
  5
2D0
100
AcDbEntity
  8
0
370
               0
390
0
  6
Continuous
 62
               1
100
AcDbLine
 10
248.7215662425599
 20
656.3565807044348
 30
0.0
 11
246.2215662425599
 21
656.3565807044348
 31
0.0
  0
LINE
  5
2D1
100
AcDbEntity
  8
0
370
               0
390
0
  6
Continuous
 62
               1
100
AcDbLine
 10
248.7215662425599
 20
656.3565807044348
 30
0.0
 11
248.7215662425599
 21
653.8565807044348
 31
0.0
  0
LINE
  5
2D2
100
AcDbEntity
  8
0
370
               0
390
0
  6
Continuous
 62
               1
100
AcDbLine
 10
253.7215662425599
 20
656.3565807044348
 30
0.0
 11
257.2215662425599
 21
656.3565807044348
 31
0.0
  0
LINE
  5
2D3
100
AcDbEntity
  8
0
370
               0
390
0
  6
Continuous
 62
               1
100
AcDbLine
 10
248.7215662425599
 20
661.35658070443469
 30
0.0
 11
248.7215662425599
 21
664.85658070443469
 31
0.0
  0
LINE
  5
2D4
100
AcDbEntity
  8
0
370
               0
390
0
  6
Continuous
 62
               1
100
AcDbLine
 10
243.7215662425599
 20
656.3565807044348
 30
0.0
 11
240.22156624256002
 21
656.3565807044348
 31
0.0
  0
LINE
  5
2D5
100
AcDbEntity
  8
0
370
               0
390
0
  6
Continuous
 62
               1
100
AcDbLine
 10
248.7215662425599
 20
651.3565807044348
 30
0.0
 11
248.7215662425599
 21
647.8565807044348
 31
0.0
  0
ENDBLK
  5
2D6
100
AcDbEntity
  8
0
390
0
100
AcDbBlockEnd
  0
BLOCK
  5
2D7
100
AcDbEntity
  8
0
390
0
100
AcDbBlockBegin
  2
グループ-14
 70
               0
 10
0.0
 20
0.0
 30
0.0
  3
グループ-14
  1

  0
LINE
  5
2D8
100
AcDbEntity
  8
0
370
               0
390
0
  6
Continuous
 62
               1
100
AcDbLine
 10
-231.2784337574401
 20
656.35658070443469
 30
0.0
 11
-228.7784337574401
 21
656.35658070443469
 31
0.0
  0
LINE
  5
2D9
100
AcDbEntity
  8
0
370
               0
390
0
  6
Continuous
 62
               1
100
AcDbLine
 10
-231.2784337574401
 20
656.35658070443469
 30
0.0
 11
-231.2784337574401
 21
658.85658070443469
 31
0.0
  0
LINE
  5
2DA
100
AcDbEntity
  8
0
370
               0
390
0
  6
Continuous
 62
               1
100
AcDbLine
 10
-231.2784337574401
 20
656.35658070443469
 30
0.0
 11
-233.7784337574401
 21
656.35658070443469
 31
0.0
  0
LINE
  5
2DB
100
AcDbEntity
  8
0
370
               0
390
0
  6
Continuous
 62
               1
100
AcDbLine
 10
-231.2784337574401
 20
656.35658070443469
 30
0.0
 11
-231.2784337574401
 21
653.85658070443469
 31
0.0
  0
LINE
  5
2DC
100
AcDbEntity
  8
0
370
               0
390
0
  6
Continuous
 62
               1
100
AcDbLine
 10
-226.2784337574401
 20
656.35658070443469
 30
0.0
 11
-222.77843375743998
 21
656.35658070443469
 31
0.0
  0
LINE
  5
2DD
100
AcDbEntity
  8
0
370
               0
390
0
  6
Continuous
 62
               1
100
AcDbLine
 10
-231.2784337574401
 20
661.35658070443469
 30
0.0
 11
-231.2784337574401
 21
664.85658070443469
 31
0.0
  0
LINE
  5
2DE
100
AcDbEntity
  8
0
370
               0
390
0
  6
Continuous
 62
               1
100
AcDbLine
 10
-236.2784337574401
 20
656.35658070443469
 30
0.0
 11
-239.77843375744021
 21
656.35658070443469
 31
0.0
  0
LINE
  5
2DF
100
AcDbEntity
  8
0
370
               0
390
0
  6
Continuous
 62
               1
100
AcDbLine
 10
-231.2784337574401
 20
651.35658070443469
 30
0.0
 11
-231.2784337574401
 21
647.85658070443469
 31
0.0
  0
ENDBLK
  5
2E0
100
AcDbEntity
  8
0
390
0
100
AcDbBlockEnd
  0
BLOCK
  5
2E1
100
AcDbEntity
  8
寸法
390
0
100
AcDbBlockBegin
  2
*D34
 70
               1
 10
0.0
 20
0.0
 30
0.0
  3
*D34
  1

  0
LINE
  5
2E2
100
AcDbEntity
  8
寸法
370
              -2
390
0
  6
Continuous
 62
               0
100
AcDbLine
 10
-346.2784337574401
 20
1323.7896993695979
 30
0.0
 11
-346.2784337574401
 21
1452.2923840663484
 31
0.0
  0
LINE
  5
2E3
100
AcDbEntity
  8
寸法
370
              -2
390
0
  6
Continuous
 62
               0
100
AcDbLine
 10
363.7215662425599
 20
1323.7896993695977
 30
0.0
 11
363.7215662425599
 21
1452.2923840663484
 31
0.0
  0
LINE
  5
2E4
100
AcDbEntity
  8
寸法
370
              -2
390
0
  6
Continuous
 62
               0
100
AcDbLine
 10
-346.2784337574401
 20
1422.2923840663484
 30
0.0
 11
363.7215662425599
 21
1422.2923840663484
 31
0.0
  0
POLYLINE
  5
2E5
100
AcDbEntity
  8
0
370
              -2
390
0
  6
Continuous
 62
               0
100
AcDb2dPolyline
 66
               1
 10
0.0
 20
0.0
 30
0.0
 75
               5
  0
VERTEX
  5
2E6
100
AcDbEntity
  8
0
370
              -2
390
0
  6
Continuous
 62
               0
100
AcDbVertex
100
AcDb2dVertex
 10
-308.76909537853385
 20
1412.2417871390949
 30
0.0
  0
VERTEX
  5
2E7
100
AcDbEntity
  8
0
370
              -2
390
0
  6
Continuous
 62
               0
100
AcDbVertex
100
AcDb2dVertex
 10
-346.2784337574401
 20
1422.2923840663484
 30
0.0
  0
VERTEX
  5
2E8
100
AcDbEntity
  8
0
370
              -2
390
0
  6
Continuous
 62
               0
100
AcDbVertex
100
AcDb2dVertex
 10
-308.76909537853385
 20
1432.3429809936019
 30
0.0
  0
SEQEND
  5
2E9
100
AcDbEntity
  8
0
370
              -2
390
0
  6
Continuous
 62
               0
  0
POLYLINE
  5
2EA
100
AcDbEntity
  8
0
370
              -2
390
0
  6
Continuous
 62
               0
100
AcDb2dPolyline
 66
               1
 10
0.0
 20
0.0
 30
0.0
 75
               5
  0
VERTEX
  5
2EB
100
AcDbEntity
  8
0
370
              -2
390
0
  6
Continuous
 62
               0
100
AcDbVertex
100
AcDb2dVertex
 10
326.21222786365365
 20
1432.3429809936019
 30
0.0
  0
VERTEX
  5
2EC
100
AcDbEntity
  8
0
370
              -2
390
0
  6
Continuous
 62
               0
100
AcDbVertex
100
AcDb2dVertex
 10
363.7215662425599
 20
1422.2923840663484
 30
0.0
  0
VERTEX
  5
2ED
100
AcDbEntity
  8
0
370
              -2
390
0
  6
Continuous
 62
               0
100
AcDbVertex
100
AcDb2dVertex
 10
326.21222786365365
 20
1412.2417871390946
 30
0.0
  0
SEQEND
  5
2EE
100
AcDbEntity
  8
0
370
              -2
390
0
  6
Continuous
 62
               0
  0
WIPEOUT
  5
2EF
100
AcDbEntity
  8
寸法
370
              -2
390
0
  6
Continuous
 62
               0
 92
        0
100
AcDbWipeout
 90
        0
 10
-38.903433757440098
 20
1429.7923840663484
 30
0.0
 11
95.25
 21
0.0
 31
0.0
 12
0.0
 22
95.25
 32
0.0
 13
1.0
 23
1.0
340
0
 70
               7
280
               1
281
              50
282
              50
283
               0
360
0
 71
               2
 91
        5
 14
-0.5
 24
0.5
 14
0.5
 24
0.5
 14
0.5
 24
-0.1666666666666666
 14
-0.5
 24
-0.1666666666666666
 14
-0.5
 24
0.5
  0
MTEXT
  5
2F0
100
AcDbEntity
  8
寸法
390
0
 62
               0
100
AcDbMText
 10
-38.903433757440098
 20
1487.5476184413485
 30
0.0
 40
48.865234375000092
 41
0.0
 71
               1
 72
               1
  1
{\fＭＳ ゴシック|b0|i0|c128|p0;\l710}
 73
               1
 44
0.7828267384257843
  0
POINT
  5
2F1
100
AcDbEntity
  8
Defpoints
370
               0
390
0
 62
               0
100
AcDbPoint
 10
363.7215662425599
 20
1293.7896993695977
 30
0.0
  0
POINT
  5
2F2
100
AcDbEntity
  8
Defpoints
370
               0
390
0
 62
               0
100
AcDbPoint
 10
-346.2784337574401
 20
1293.7896993695979
 30
0.0
  0
POINT
  5
2F3
100
AcDbEntity
  8
Defpoints
370
               0
390
0
 62
               0
100
AcDbPoint
 10
-346.2784337574401
 20
1422.2923840663484
 30
0.0
  0
ENDBLK
  5
2F4
100
AcDbEntity
  8
寸法
390
0
100
AcDbBlockEnd
  0
BLOCK
  5
2F5
100
AcDbEntity
  8
0
390
0
100
AcDbBlockBegin
  2
グループ-15
 70
               0
 10
0.0
 20
0.0
 30
0.0
  3
グループ-15
  1

  0
ARC
  5
2F6
100
AcDbEntity
  8
0
370
               0
390
0
  6
Continuous
 62
              30
100
AcDbCircle
 10
-503.82975024996767
 20
1291.3656425850581
 30
0.0
 40
4.5
100
AcDbArc
 50
0.0
 51
90.0
  0
LINE
  5
2F7
100
AcDbEntity
  8
0
370
               0
390
0
  6
Continuous
 62
              30
100
AcDbLine
 10
-499.32975024996756
 20
1282.8656425850581
 30
0.0
 11
-499.32975024996767
 21
1291.3656425850581
 31
0.0
  0
ARC
  5
2F8
100
AcDbEntity
  8
0
370
               0
390
0
  6
Continuous
 62
              30
100
AcDbCircle
 10
-503.82975024996767
 20
1291.3656425850581
 30
0.0
 40
1.5
100
AcDbArc
 50
0.0
 51
90.0
  0
ARC
  5
2F9
100
AcDbEntity
  8
0
370
               0
390
0
  6
Continuous
 62
              30
100
AcDbCircle
 10
-594.82975024996779
 20
1291.3656425850581
 30
0.0
 40
1.5
100
AcDbArc
 50
90.0
 51
180.0
  0
LINE
  5
2FA
100
AcDbEntity
  8
0
370
               0
390
0
  6
Continuous
 62
              30
100
AcDbLine
 10
-599.32975024996767
 20
1282.8656425850581
 30
0.0
 11
-599.32975024996756
 21
1291.3656425850581
 31
0.0
  0
ARC
  5
2FB
100
AcDbEntity
  8
0
370
               0
390
0
  6
Continuous
 62
              30
100
AcDbCircle
 10
-594.82975024996779
 20
1291.3656425850581
 30
0.0
 40
4.5
100
AcDbArc
 50
90.0
 51
180.0
  0
LINE
  5
2FC
100
AcDbEntity
  8
0
370
               0
390
0
  6
Continuous
 62
              30
100
AcDbLine
 10
-503.82975024996767
 20
1295.8656425850581
 30
0.0
 11
-594.82975024996779
 21
1295.8656425850581
 31
0.0
  0
LINE
  5
2FD
100
AcDbEntity
  8
0
370
               0
390
0
  6
Continuous
 62
              30
100
AcDbLine
 10
-599.32975024996779
 20
1291.3656425850581
 30
0.0
 11
-499.32975024996767
 21
1291.3656425850581
 31
0.0
  0
LINE
  5
2FE
100
AcDbEntity
  8
0
370
               0
390
0
  6
Continuous
 62
              30
100
AcDbLine
 10
-594.82975024996779
 20
1291.3656425850581
 30
0.0
 11
-594.82975024996779
 21
1295.8656425850581
 31
0.0
  0
LINE
  5
2FF
100
AcDbEntity
  8
0
370
               0
390
0
  6
Continuous
 62
              30
100
AcDbLine
 10
-503.82975024996767
 20
1295.8656425850581
 30
0.0
 11
-503.82975024996767
 21
1291.3656425850581
 31
0.0
  0
ARC
  5
300
100
AcDbEntity
  8
0
370
               0
390
0
  6
Continuous
 62
              30
100
AcDbCircle
 10
-589.32975024995051
 20
963.29710009013911
 30
0.0
 40
3.0000000000011369
100
AcDbArc
 50
89.999999999973966
 51
269.99999999998477
  0
ARC
  5
301
100
AcDbEntity
  8
0
370
               0
390
0
  6
Continuous
 62
              30
100
AcDbCircle
 10
-589.32975024991481
 20
1043.2971000900602
 30
0.0
 40
82.999999999923375
100
AcDbArc
 50
269.99999999997556
 51
330.00000000003087
  0
ARC
  5
302
100
AcDbEntity
  8
0
370
               0
390
0
  6
Continuous
 62
              30
100
AcDbCircle
 10
-520.04771794720364
 20
1003.2971000901375
 30
0.0
 40
3.000000000000163
100
AcDbArc
 50
329.99999999999676
 51
150.00000000002802
  0
ARC
  5
303
100
AcDbEntity
  8
0
370
               0
390
0
  6
Continuous
 62
              30
100
AcDbCircle
 10
-589.32975024991481
 20
1043.2971000900602
 30
0.0
 40
76.999999999923034
100
AcDbArc
 50
269.9999999999751
 51
330.0000000000324
  0
ARC
  5
304
100
AcDbEntity
  8
0
370
               0
390
0
  6
Continuous
 62
              30
100
AcDbCircle
 10
-589.32975024994892
 20
983.49811021691426
 30
0.0
 40
10.000000000000082
100
AcDbArc
 50
134.99999999999724
 51
179.99999999999088
  0
LINE
  5
305
100
AcDbEntity
  8
0
370
               0
390
0
  6
Continuous
 62
              30
100
AcDbLine
 10
-586.50132312520111
 20
1000.4686729653922
 30
0.0
 11
-596.40081806181399
 21
990.56917802878036
 31
0.0
  0
ARC
  5
306
100
AcDbEntity
  8
0
370
               0
390
0
  6
Continuous
 62
              30
100
AcDbCircle
 10
-589.32975024994732
 20
1003.2971000901373
 30
0.0
 40
4.0000000000005951
100
AcDbArc
 50
315.00000000001046
 51
135.00000000001845
  0
LINE
  5
307
100
AcDbEntity
  8
0
370
               0
390
0
  6
Continuous
 62
              30
100
AcDbLine
 10
-597.62264346876179
 20
1000.6610611208168
 30
0.0
 11
-592.15817737469479
 21
1006.1255272148832
 31
0.0
  0
ARC
  5
308
100
AcDbEntity
  8
0
370
               0
390
0
  6
Continuous
 62
              30
100
AcDbCircle
 10
-598.32975024996915
 20
1001.3681679019822
 30
0.0
 40
0.9999999999997726
100
AcDbArc
 50
179.99999999993486
 51
315.00000000169041
  0
LINE
  5
309
100
AcDbEntity
  8
0
370
               0
390
0
  6
Continuous
 62
              30
100
AcDbLine
 10
-599.32975024996892
 20
1001.3681679019835
 30
0.0
 11
-599.32975024996983
 21
1045.2260322782511
 31
0.0
  0
ARC
  5
30A
100
AcDbEntity
  8
0
370
               0
390
0
  6
Continuous
 62
              30
100
AcDbCircle
 10
-598.32975024996983
 20
1045.2260322782511
 30
0.0
 40
1.0000000000001688
100
AcDbArc
 50
45.0
 51
180.0
  0
LINE
  5
30B
100
AcDbEntity
  8
0
370
               0
390
0
  6
Continuous
 62
              30
100
AcDbLine
 10
-592.15817737471934
 20
1040.4686729653738
 30
0.0
 11
-597.62264346878317
 21
1045.9331390594375
 31
0.0
  0
ARC
  5
30C
100
AcDbEntity
  8
0
370
               0
390
0
  6
Continuous
 62
              30
100
AcDbCircle
 10
-589.32975024991481
 20
1043.2971000900602
 30
0.0
 40
3.9999999999991482
100
AcDbArc
 50
224.99999999880592
 51
45.000000001158412
  0
LINE
  5
30D
100
AcDbEntity
  8
0
370
               0
390
0
  6
Continuous
 62
              30
100
AcDbLine
 10
-596.400818061834
 20
1056.0250221514707
 30
0.0
 11
-586.50132312522635
 21
1046.125527214863
 31
0.0
  0
ARC
  5
30E
100
AcDbEntity
  8
0
370
               0
390
0
  6
Continuous
 62
              30
100
AcDbCircle
 10
-589.32975024996722
 20
1063.0960899633353
 30
0.0
 40
10.000000000000341
100
AcDbArc
 50
180.00000000000131
 51
224.99999999999218
  0
LINE
  5
30F
100
AcDbEntity
  8
0
370
               0
390
0
  6
Continuous
 62
              30
100
AcDbLine
 10
-599.32975024996756
 20
1063.0960899633353
 30
0.0
 11
-599.32975024996756
 21
1282.8656425850581
 31
0.0
  0
LINE
  5
310
100
AcDbEntity
  8
0
370
               0
390
0
  6
Continuous
 62
              30
100
AcDbLine
 10
-499.32975024996722
 20
1282.8656425850581
 30
0.0
 11
-499.32975024995164
 21
983.29710009013638
 31
0.0
  0
ARC
  5
311
100
AcDbEntity
  8
0
370
               0
390
0
  6
Continuous
 62
              30
100
AcDbCircle
 10
-589.32975024997074
 20
983.29710009013627
 30
0.0
 40
90.000000000019014
100
AcDbArc
 50
352.23270566444353
 51
0.0000000000000568
  0
ARC
  5
312
100
AcDbEntity
  8
0
370
               0
390
0
  6
Continuous
 62
              30
100
AcDbCircle
 10
-539.78849282862473
 20
976.53959958227097
 30
0.0
 40
40.000000000000384
100
AcDbArc
 50
278.08087633806298
 51
352.23270566441295
  0
ARC
  5
313
100
AcDbEntity
  8
0
370
               0
390
0
  6
Continuous
 62
              30
100
AcDbCircle
 10
-549.32975024993641
 20
1043.7407530091214
 30
0.0
 40
107.87511042406383
100
AcDbArc
 50
261.91912366197238
 51
278.08087633803484
  0
ARC
  5
314
100
AcDbEntity
  8
0
370
               0
390
0
  6
Continuous
 62
              30
100
AcDbCircle
 10
-558.87100767127663
 20
976.53959958227369
 30
0.0
 40
39.999999999999822
100
AcDbArc
 50
187.76729433553749
 51
261.91912366199631
  0
ARC
  5
315
100
AcDbEntity
  8
0
370
               0
390
0
  6
Continuous
 62
              30
100
AcDbCircle
 10
-509.32975024996165
 20
983.29710009013638
 30
0.0
 40
90.000000000006025
100
AcDbArc
 50
180.00000000000088
 51
187.76729433553587
  0
LINE
  5
316
100
AcDbEntity
  8
0
370
               0
390
0
  6
Continuous
 62
              30
100
AcDbLine
 10
-599.32975024996756
 20
983.29710009013638
 30
0.0
 11
-599.32975024994903
 21
983.49811021691607
 31
0.0
  0
ARC
  5
317
100
AcDbEntity
  8
0
370
               0
390
0
  6
Continuous
 62
              30
100
AcDbCircle
 10
-589.32975024994732
 20
1003.2971000901373
 30
0.0
 40
83.000000000000909
100
AcDbArc
 50
315.00000000000051
 51
30.00000000000421
  0
ARC
  5
318
100
AcDbEntity
  8
0
370
               0
390
0
  6
Continuous
 62
              30
100
AcDbCircle
 10
-520.04771794719397
 20
1043.2971000901391
 30
0.0
 40
3.0000000000015881
100
AcDbArc
 50
30.000000000067732
 51
209.9999999999433
  0
ARC
  5
319
100
AcDbEntity
  8
0
370
               0
390
0
  6
Continuous
 62
              30
100
AcDbCircle
 10
-589.32975024994732
 20
1003.2971000901373
 30
0.0
 40
76.999999999997883
100
AcDbArc
 50
315.0000000000008
 51
30.000000000004267
  0
ARC
  5
31A
100
AcDbEntity
  8
0
370
               0
390
0
  6
Continuous
 62
              30
100
AcDbCircle
 10
-532.76120775502625
 20
946.72855759521531
 30
0.0
 40
3.0000000000003459
100
AcDbArc
 50
134.99999999997237
 51
315.00000000002763
  0
ENDBLK
  5
31B
100
AcDbEntity
  8
0
390
0
100
AcDbBlockEnd
  0
BLOCK
  5
31C
100
AcDbEntity
  8
0
390
0
100
AcDbBlockBegin
  2
グループ-16
 70
               0
 10
0.0
 20
0.0
 30
0.0
  3
グループ-16
  1

  0
LINE
  5
31D
100
AcDbEntity
  8
0
370
               0
390
0
  6
Continuous
 62
              30
100
AcDbLine
 10
-343.27843375744101
 20
1048.6500890627908
 30
0.0
 11
-346.27843375744101
 21
1048.6500890627908
 31
0.0
  0
LINE
  5
31E
100
AcDbEntity
  8
0
370
               0
390
0
  6
Continuous
 62
              30
100
AcDbLine
 10
363.72156624256081
 20
1048.6500890627908
 30
0.0
 11
360.72156624256081
 21
1048.6500890627908
 31
0.0
  0
LINE
  5
31F
100
AcDbEntity
  8
0
370
               0
390
0
  6
Continuous
 62
              30
100
AcDbLine
 10
-346.27843375744112
 20
1002.7922246865221
 30
0.0
 11
-343.27843375744112
 21
1002.7922246865221
 31
0.0
  0
LINE
  5
320
100
AcDbEntity
  8
0
370
               0
390
0
  6
Continuous
 62
              30
100
AcDbLine
 10
360.72156624256081
 20
1002.7922246865221
 30
0.0
 11
363.72156624256081
 21
1002.7922246865221
 31
0.0
  0
LINE
  5
321
100
AcDbEntity
  8
0
370
               0
390
0
  6
Continuous
 62
              30
100
AcDbLine
 10
-346.27843375744135
 20
938.2896993695972
 30
0.0
 11
-343.27843375744135
 21
938.2896993695972
 31
0.0
  0
LINE
  5
322
100
AcDbEntity
  8
0
370
               0
390
0
  6
Continuous
 62
              30
100
AcDbLine
 10
360.72156624256127
 20
938.2896993695972
 30
0.0
 11
363.72156624256127
 21
938.2896993695972
 31
0.0
  0
LINE
  5
323
100
AcDbEntity
  8
0
370
               0
390
0
  6
Continuous
 62
              30
100
AcDbLine
 10
-343.27843375744101
 20
1047.6500890627906
 30
0.0
 11
-346.27843375744101
 21
1047.6500890627906
 31
0.0
  0
LINE
  5
324
100
AcDbEntity
  8
0
370
               0
390
0
  6
Continuous
 62
              30
100
AcDbLine
 10
-343.27843375744112
 20
1003.792224686523
 30
0.0
 11
-346.27843375744112
 21
1003.792224686523
 31
0.0
  0
LINE
  5
325
100
AcDbEntity
  8
0
370
               0
390
0
  6
Continuous
 62
              30
100
AcDbLine
 10
-343.27843375744112
 20
1003.792224686523
 30
0.0
 11
-343.27843375744101
 21
1047.6500890627906
 31
0.0
  0
LINE
  5
326
100
AcDbEntity
  8
0
370
               0
390
0
  6
Continuous
 62
              30
100
AcDbLine
 10
-346.27843375744112
 20
1003.792224686523
 30
0.0
 11
-346.27843375744101
 21
1047.6500890627906
 31
0.0
  0
LINE
  5
327
100
AcDbEntity
  8
0
370
               0
390
0
  6
Continuous
 62
              30
100
AcDbLine
 10
-343.27843375744101
 20
1048.6500890627908
 30
0.0
 11
-343.27843375744101
 21
1047.6500890627906
 31
0.0
  0
LINE
  5
328
100
AcDbEntity
  8
0
370
               0
390
0
  6
Continuous
 62
              30
100
AcDbLine
 10
-346.27843375744101
 20
1048.6500890627908
 30
0.0
 11
-346.27843375744101
 21
1047.6500890627906
 31
0.0
  0
LINE
  5
329
100
AcDbEntity
  8
0
370
               0
390
0
  6
Continuous
 62
              30
100
AcDbLine
 10
363.72156624256081
 20
1047.6500890627906
 30
0.0
 11
363.72156624256081
 21
1048.6500890627908
 31
0.0
  0
LINE
  5
32A
100
AcDbEntity
  8
0
370
               0
390
0
  6
Continuous
 62
              30
100
AcDbLine
 10
360.72156624256081
 20
1047.6500890627906
 30
0.0
 11
363.72156624256081
 21
1047.6500890627906
 31
0.0
  0
LINE
  5
32B
100
AcDbEntity
  8
0
370
               0
390
0
  6
Continuous
 62
              30
100
AcDbLine
 10
360.72156624256081
 20
1047.6500890627906
 30
0.0
 11
360.72156624256081
 21
1048.6500890627908
 31
0.0
  0
LINE
  5
32C
100
AcDbEntity
  8
0
370
               0
390
0
  6
Continuous
 62
              30
100
AcDbLine
 10
-343.27843375744112
 20
1003.792224686523
 30
0.0
 11
-343.27843375744112
 21
1002.7922246865221
 31
0.0
  0
LINE
  5
32D
100
AcDbEntity
  8
0
370
               0
390
0
  6
Continuous
 62
              30
100
AcDbLine
 10
-346.27843375744112
 20
1003.792224686523
 30
0.0
 11
-346.27843375744112
 21
1002.7922246865221
 31
0.0
  0
LINE
  5
32E
100
AcDbEntity
  8
0
370
               0
390
0
  6
Continuous
 62
              30
100
AcDbLine
 10
360.72156624256081
 20
1003.792224686523
 30
0.0
 11
363.72156624256081
 21
1003.7922246865219
 31
0.0
  0
LINE
  5
32F
100
AcDbEntity
  8
0
370
               0
390
0
  6
Continuous
 62
              30
100
AcDbLine
 10
360.72156624256081
 20
1002.7922246865221
 30
0.0
 11
360.72156624256081
 21
1003.792224686523
 31
0.0
  0
LINE
  5
330
100
AcDbEntity
  8
0
370
               0
390
0
  6
Continuous
 62
              30
100
AcDbLine
 10
363.72156624256081
 20
1002.7922246865221
 30
0.0
 11
363.72156624256081
 21
1003.7922246865219
 31
0.0
  0
LINE
  5
331
100
AcDbEntity
  8
0
370
               0
390
0
  6
Continuous
 62
              30
100
AcDbLine
 10
359.2215662425599
 20
1293.7896993695977
 30
0.0
 11
-341.77843375744021
 21
1293.7896993695977
 31
0.0
  0
LINE
  5
332
100
AcDbEntity
  8
0
370
               0
390
0
  6
Continuous
 62
              30
100
AcDbLine
 10
359.2215662425599
 20
1293.7896993695977
 30
0.0
 11
359.2215662425599
 21
1285.2896993695977
 31
0.0
  0
LINE
  5
333
100
AcDbEntity
  8
0
370
               0
390
0
  6
Continuous
 62
              30
100
AcDbLine
 10
359.2215662425599
 20
1285.2896993695977
 30
0.0
 11
-341.77843375744021
 21
1285.2896993695977
 31
0.0
  0
LINE
  5
334
100
AcDbEntity
  8
0
370
               0
390
0
  6
Continuous
 62
              30
100
AcDbLine
 10
-341.77843375744021
 20
1285.2896993695977
 30
0.0
 11
-341.77843375744021
 21
1293.7896993695977
 31
0.0
  0
LINE
  5
335
100
AcDbEntity
  8
0
370
               0
390
0
  6
Continuous
 62
              30
100
AcDbLine
 10
359.2215662425599
 20
1298.2896993695977
 30
0.0
 11
359.2215662425599
 21
1293.7896993695977
 31
0.0
  0
LINE
  5
336
100
AcDbEntity
  8
0
370
               0
390
0
  6
Continuous
 62
              30
100
AcDbLine
 10
-341.77843375744021
 20
1298.2896993695977
 30
0.0
 11
359.2215662425599
 21
1298.2896993695977
 31
0.0
  0
LINE
  5
337
100
AcDbEntity
  8
0
370
               0
390
0
  6
Continuous
 62
              30
100
AcDbLine
 10
-341.77843375744021
 20
1293.7896993695977
 30
0.0
 11
-341.77843375744021
 21
1298.2896993695977
 31
0.0
  0
LINE
  5
338
100
AcDbEntity
  8
0
370
               0
390
0
  6
Continuous
 62
              30
100
AcDbLine
 10
-343.27843375744123
 20
985.7211568746759
 30
0.0
 11
-346.27843375744123
 21
985.7211568746759
 31
0.0
  0
LINE
  5
339
100
AcDbEntity
  8
0
370
               0
390
0
  6
Continuous
 62
              30
100
AcDbLine
 10
-343.27843375744123
 20
973.55765596051992
 30
0.0
 11
-346.27843375744123
 21
973.55765596051992
 31
0.0
  0
LINE
  5
33A
100
AcDbEntity
  8
0
370
               0
390
0
  6
Continuous
 62
              30
100
AcDbLine
 10
-343.27843375744123
 20
985.7211568746759
 30
0.0
 11
-343.27843375744123
 21
973.55765596051992
 31
0.0
  0
LINE
  5
33B
100
AcDbEntity
  8
0
370
               0
390
0
  6
Continuous
 62
              30
100
AcDbLine
 10
-346.27843375744123
 20
985.7211568746759
 30
0.0
 11
-346.27843375744123
 21
973.55765596051992
 31
0.0
  0
LINE
  5
33C
100
AcDbEntity
  8
0
370
               0
390
0
  6
Continuous
 62
              30
100
AcDbLine
 10
360.72156624256081
 20
1065.5201467478751
 30
0.0
 11
363.72156624256081
 21
1065.5201467478751
 31
0.0
  0
LINE
  5
33D
100
AcDbEntity
  8
0
370
               0
390
0
  6
Continuous
 62
              30
100
AcDbLine
 10
360.7215662425599
 20
1293.7896993695977
 30
0.0
 11
363.7215662425599
 21
1293.7896993695977
 31
0.0
  0
LINE
  5
33E
100
AcDbEntity
  8
0
370
               0
390
0
  6
Continuous
 62
              30
100
AcDbLine
 10
360.7215662425599
 20
1293.7896993695977
 30
0.0
 11
360.72156624256081
 21
1065.5201467478751
 31
0.0
  0
LINE
  5
33F
100
AcDbEntity
  8
0
370
               0
390
0
  6
Continuous
 62
              30
100
AcDbLine
 10
363.7215662425599
 20
1293.7896993695977
 30
0.0
 11
363.72156624256081
 21
1065.5201467478751
 31
0.0
  0
LINE
  5
340
100
AcDbEntity
  8
0
370
               0
390
0
  6
Continuous
 62
              30
100
AcDbLine
 10
-343.27843375744123
 20
985.92216700145548
 30
0.0
 11
-346.27843375744123
 21
985.92216700145548
 31
0.0
  0
LINE
  5
341
100
AcDbEntity
  8
0
370
               0
390
0
  6
Continuous
 62
              30
100
AcDbLine
 10
-343.27843375744123
 20
985.7211568746759
 30
0.0
 11
-343.27843375744123
 21
985.92216700145548
 31
0.0
  0
LINE
  5
342
100
AcDbEntity
  8
0
370
               0
390
0
  6
Continuous
 62
              30
100
AcDbLine
 10
-346.27843375744123
 20
985.7211568746759
 30
0.0
 11
-346.27843375744123
 21
985.92216700145548
 31
0.0
  0
LINE
  5
343
100
AcDbEntity
  8
0
370
               0
390
0
  6
Continuous
 62
              30
100
AcDbLine
 10
-343.27843375744089
 20
1065.5201467478748
 30
0.0
 11
-346.27843375744089
 21
1065.5201467478748
 31
0.0
  0
LINE
  5
344
100
AcDbEntity
  8
0
370
               0
390
0
  6
Continuous
 62
              30
100
AcDbLine
 10
-343.2784337574401
 20
1293.7896993695977
 30
0.0
 11
-346.2784337574401
 21
1293.7896993695979
 31
0.0
  0
LINE
  5
345
100
AcDbEntity
  8
0
370
               0
390
0
  6
Continuous
 62
              30
100
AcDbLine
 10
-343.27843375744089
 20
1065.5201467478748
 30
0.0
 11
-343.2784337574401
 21
1293.7896993695977
 31
0.0
  0
LINE
  5
346
100
AcDbEntity
  8
0
370
               0
390
0
  6
Continuous
 62
              30
100
AcDbLine
 10
-346.27843375744089
 20
1065.5201467478748
 30
0.0
 11
-346.2784337574401
 21
1293.7896993695979
 31
0.0
  0
LINE
  5
347
100
AcDbEntity
  8
0
370
               0
390
0
  6
Continuous
 62
              30
100
AcDbLine
 10
360.72156624256081
 20
1058.4490789360102
 30
0.0
 11
363.72156624256081
 21
1058.4490789360102
 31
0.0
  0
LINE
  5
348
100
AcDbEntity
  8
0
370
               0
390
0
  6
Continuous
 62
              30
100
AcDbLine
 10
360.72156624256081
 20
1058.4490789360102
 30
0.0
 11
360.72156624256081
 21
1065.5201467478751
 31
0.0
  0
LINE
  5
349
100
AcDbEntity
  8
0
370
               0
390
0
  6
Continuous
 62
              30
100
AcDbLine
 10
363.72156624256081
 20
1058.4490789360102
 30
0.0
 11
363.72156624256081
 21
1065.5201467478751
 31
0.0
  0
LINE
  5
34A
100
AcDbEntity
  8
0
370
               0
390
0
  6
Continuous
 62
              30
100
AcDbLine
 10
360.72156624256081
 20
985.92216700145389
 30
0.0
 11
363.72156624256081
 21
985.92216700145389
 31
0.0
  0
LINE
  5
34B
100
AcDbEntity
  8
0
370
               0
390
0
  6
Continuous
 62
              30
100
AcDbLine
 10
360.72156624256081
 20
992.99323481331987
 30
0.0
 11
363.72156624256081
 21
992.99323481331987
 31
0.0
  0
LINE
  5
34C
100
AcDbEntity
  8
0
370
               0
390
0
  6
Continuous
 62
              30
100
AcDbLine
 10
360.72156624256081
 20
985.92216700145389
 30
0.0
 11
360.72156624256081
 21
992.99323481331987
 31
0.0
  0
LINE
  5
34D
100
AcDbEntity
  8
0
370
               0
390
0
  6
Continuous
 62
              30
100
AcDbLine
 10
363.72156624256081
 20
985.92216700145389
 30
0.0
 11
363.72156624256081
 21
992.99323481331987
 31
0.0
  0
LINE
  5
34E
100
AcDbEntity
  8
0
370
               0
390
0
  6
Continuous
 62
              30
100
AcDbLine
 10
360.72156624256081
 20
1047.6500890627906
 30
0.0
 11
360.72156624256081
 21
1003.792224686523
 31
0.0
  0
LINE
  5
34F
100
AcDbEntity
  8
0
370
               0
390
0
  6
Continuous
 62
              30
100
AcDbLine
 10
363.72156624256081
 20
1047.6500890627906
 30
0.0
 11
363.72156624256081
 21
1003.7922246865219
 31
0.0
  0
LINE
  5
350
100
AcDbEntity
  8
0
370
               0
390
0
  6
Continuous
 62
              30
100
AcDbLine
 10
360.72156624256081
 20
985.7211568746759
 30
0.0
 11
363.72156624256081
 21
985.7211568746759
 31
0.0
  0
LINE
  5
351
100
AcDbEntity
  8
0
370
               0
390
0
  6
Continuous
 62
              30
100
AcDbLine
 10
360.72156624256081
 20
985.92216700145389
 30
0.0
 11
360.72156624256081
 21
985.7211568746759
 31
0.0
  0
LINE
  5
352
100
AcDbEntity
  8
0
370
               0
390
0
  6
Continuous
 62
              30
100
AcDbLine
 10
363.72156624256081
 20
985.92216700145389
 30
0.0
 11
363.72156624256081
 21
985.7211568746759
 31
0.0
  0
LINE
  5
353
100
AcDbEntity
  8
0
370
               0
390
0
  6
Continuous
 62
              30
100
AcDbLine
 10
-343.27843375744089
 20
1058.4490789360102
 30
0.0
 11
-346.27843375744089
 21
1058.4490789360102
 31
0.0
  0
LINE
  5
354
100
AcDbEntity
  8
0
370
               0
390
0
  6
Continuous
 62
              30
100
AcDbLine
 10
-343.27843375744089
 20
1065.5201467478748
 30
0.0
 11
-343.27843375744089
 21
1058.4490789360102
 31
0.0
  0
LINE
  5
355
100
AcDbEntity
  8
0
370
               0
390
0
  6
Continuous
 62
              30
100
AcDbLine
 10
-346.27843375744089
 20
1065.5201467478748
 30
0.0
 11
-346.27843375744089
 21
1058.4490789360102
 31
0.0
  0
LINE
  5
356
100
AcDbEntity
  8
0
370
               0
390
0
  6
Continuous
 62
              30
100
AcDbLine
 10
360.72156624256127
 20
973.55765596052004
 30
0.0
 11
363.72156624256081
 21
973.55765596052004
 31
0.0
  0
LINE
  5
357
100
AcDbEntity
  8
0
370
               0
390
0
  6
Continuous
 62
              30
100
AcDbLine
 10
360.72156624256127
 20
973.55765596052004
 30
0.0
 11
360.72156624256081
 21
985.7211568746759
 31
0.0
  0
LINE
  5
358
100
AcDbEntity
  8
0
370
               0
390
0
  6
Continuous
 62
              30
100
AcDbLine
 10
363.72156624256081
 20
973.55765596052004
 30
0.0
 11
363.72156624256081
 21
985.7211568746759
 31
0.0
  0
LINE
  5
359
100
AcDbEntity
  8
0
370
               0
390
0
  6
Continuous
 62
              30
100
AcDbLine
 10
-343.27843375744123
 20
992.99323481331987
 30
0.0
 11
-346.27843375744123
 21
992.99323481331987
 31
0.0
  0
LINE
  5
35A
100
AcDbEntity
  8
0
370
               0
390
0
  6
Continuous
 62
              30
100
AcDbLine
 10
-343.27843375744123
 20
992.99323481331987
 30
0.0
 11
-343.27843375744123
 21
985.92216700145548
 31
0.0
  0
LINE
  5
35B
100
AcDbEntity
  8
0
370
               0
390
0
  6
Continuous
 62
              30
100
AcDbLine
 10
-346.27843375744123
 20
992.99323481331987
 30
0.0
 11
-346.27843375744123
 21
985.92216700145548
 31
0.0
  0
LINE
  5
35C
100
AcDbEntity
  8
0
370
               0
390
0
  6
Continuous
 62
              30
100
AcDbLine
 10
-343.27843375744112
 20
939.36083111496589
 30
0.0
 11
-346.27843375744135
 21
939.36083111496589
 31
0.0
  0
LINE
  5
35D
100
AcDbEntity
  8
0
370
               0
390
0
  6
Continuous
 62
              30
100
AcDbLine
 10
-343.27843375744123
 20
973.55765596051992
 30
0.0
 11
-343.27843375744112
 21
939.36083111496589
 31
0.0
  0
LINE
  5
35E
100
AcDbEntity
  8
0
370
               0
390
0
  6
Continuous
 62
              30
100
AcDbLine
 10
-346.27843375744123
 20
973.55765596051992
 30
0.0
 11
-346.27843375744135
 21
939.36083111496589
 31
0.0
  0
LINE
  5
35F
100
AcDbEntity
  8
0
370
               0
390
0
  6
Continuous
 62
              30
100
AcDbLine
 10
360.72156624256081
 20
939.36083111496589
 30
0.0
 11
363.72156624256127
 21
939.36083111496589
 31
0.0
  0
LINE
  5
360
100
AcDbEntity
  8
0
370
               0
390
0
  6
Continuous
 62
              30
100
AcDbLine
 10
360.72156624256081
 20
939.36083111496589
 30
0.0
 11
360.72156624256127
 21
973.55765596052004
 31
0.0
  0
LINE
  5
361
100
AcDbEntity
  8
0
370
               0
390
0
  6
Continuous
 62
              30
100
AcDbLine
 10
363.72156624256127
 20
939.36083111496589
 30
0.0
 11
363.72156624256081
 21
973.55765596052004
 31
0.0
  0
LINE
  5
362
100
AcDbEntity
  8
0
370
               0
390
0
  6
Continuous
 62
              30
100
AcDbLine
 10
-343.27843375744089
 20
1058.4490789360102
 30
0.0
 11
-343.27843375744101
 21
1048.6500890627908
 31
0.0
  0
LINE
  5
363
100
AcDbEntity
  8
0
370
               0
390
0
  6
Continuous
 62
              30
100
AcDbLine
 10
-346.27843375744089
 20
1058.4490789360102
 30
0.0
 11
-346.27843375744101
 21
1048.6500890627908
 31
0.0
  0
LINE
  5
364
100
AcDbEntity
  8
0
370
               0
390
0
  6
Continuous
 62
              30
100
AcDbLine
 10
360.72156624256081
 20
1048.6500890627908
 30
0.0
 11
360.72156624256081
 21
1058.4490789360102
 31
0.0
  0
LINE
  5
365
100
AcDbEntity
  8
0
370
               0
390
0
  6
Continuous
 62
              30
100
AcDbLine
 10
363.72156624256081
 20
1048.6500890627908
 30
0.0
 11
363.72156624256081
 21
1058.4490789360102
 31
0.0
  0
LINE
  5
366
100
AcDbEntity
  8
0
370
               0
390
0
  6
Continuous
 62
              30
100
AcDbLine
 10
-343.27843375744101
 20
1002.7922246865221
 30
0.0
 11
-343.27843375744123
 21
992.99323481331987
 31
0.0
  0
LINE
  5
367
100
AcDbEntity
  8
0
370
               0
390
0
  6
Continuous
 62
              30
100
AcDbLine
 10
-346.27843375744112
 20
1002.7922246865221
 30
0.0
 11
-346.27843375744123
 21
992.99323481331987
 31
0.0
  0
LINE
  5
368
100
AcDbEntity
  8
0
370
               0
390
0
  6
Continuous
 62
              30
100
AcDbLine
 10
360.72156624256081
 20
992.99323481331987
 30
0.0
 11
360.72156624256081
 21
1002.7922246865221
 31
0.0
  0
LINE
  5
369
100
AcDbEntity
  8
0
370
               0
390
0
  6
Continuous
 62
              30
100
AcDbLine
 10
363.72156624256081
 20
992.99323481331987
 30
0.0
 11
363.72156624256081
 21
1002.7922246865221
 31
0.0
  0
ARC
  5
36A
100
AcDbEntity
  8
0
370
               0
390
0
  6
Continuous
 62
              30
100
AcDbCircle
 10
359.2215662425599
 20
1293.7896993695977
 30
0.0
 40
4.5
100
AcDbArc
 50
0.0
 51
90.0
  0
ARC
  5
36B
100
AcDbEntity
  8
0
370
               0
390
0
  6
Continuous
 62
              30
100
AcDbCircle
 10
359.2215662425599
 20
1293.7896993695977
 30
0.0
 40
1.5
100
AcDbArc
 50
0.0
 51
90.0
  0
ARC
  5
36C
100
AcDbEntity
  8
0
370
               0
390
0
  6
Continuous
 62
              30
100
AcDbCircle
 10
-341.77843375744021
 20
1293.7896993695977
 30
0.0
 40
1.5
100
AcDbArc
 50
90.0
 51
180.0
  0
ARC
  5
36D
100
AcDbEntity
  8
0
370
               0
390
0
  6
Continuous
 62
              30
100
AcDbCircle
 10
-341.77843375744021
 20
1293.7896993695977
 30
0.0
 40
4.5
100
AcDbArc
 50
90.0
 51
180.0
  0
LINE
  5
36E
100
AcDbEntity
  8
0
370
               0
390
0
  6
Continuous
 62
              30
100
AcDbLine
 10
-343.27843375744112
 20
939.36083111496589
 30
0.0
 11
-343.27843375744112
 21
938.2896993695972
 31
0.0
  0
LINE
  5
36F
100
AcDbEntity
  8
0
370
               0
390
0
  6
Continuous
 62
              30
100
AcDbLine
 10
-346.27843375744135
 20
939.36083111496589
 30
0.0
 11
-346.27843375744135
 21
938.2896993695972
 31
0.0
  0
LINE
  5
370
100
AcDbEntity
  8
0
370
               0
390
0
  6
Continuous
 62
              30
100
AcDbLine
 10
360.72156624256127
 20
938.2896993695972
 30
0.0
 11
360.72156624256081
 21
939.36083111496589
 31
0.0
  0
LINE
  5
371
100
AcDbEntity
  8
0
370
               0
390
0
  6
Continuous
 62
              30
100
AcDbLine
 10
363.72156624256127
 20
938.2896993695972
 30
0.0
 11
363.72156624256127
 21
939.36083111496589
 31
0.0
  0
ENDBLK
  5
372
100
AcDbEntity
  8
0
390
0
100
AcDbBlockEnd
  0
BLOCK
  5
373
100
AcDbEntity
  8
寸法
390
0
100
AcDbBlockBegin
  2
*D37
 70
               1
 10
0.0
 20
0.0
 30
0.0
  3
*D37
  1

  0
LINE
  5
374
100
AcDbEntity
  8
寸法
370
              -2
390
0
  6
Continuous
 62
               0
100
AcDbLine
 10
-373.27843375744135
 20
938.2896993695972
 30
0.0
 11
-429.98415957822897
 21
938.2896993695972
 31
0.0
  0
LINE
  5
375
100
AcDbEntity
  8
寸法
370
              -2
390
0
  6
Continuous
 62
               0
100
AcDbLine
 10
-371.77843375744021
 20
1298.2896993695977
 30
0.0
 11
-429.98415957822897
 21
1298.2896993695977
 31
0.0
  0
LINE
  5
376
100
AcDbEntity
  8
寸法
370
              -2
390
0
  6
Continuous
 62
               0
100
AcDbLine
 10
-399.98415957822897
 20
938.2896993695972
 30
0.0
 11
-399.98415957822897
 21
1298.2896993695977
 31
0.0
  0
POLYLINE
  5
377
100
AcDbEntity
  8
0
370
              -2
390
0
  6
Continuous
 62
               0
100
AcDb2dPolyline
 66
               1
 10
0.0
 20
0.0
 30
0.0
 75
               5
  0
VERTEX
  5
378
100
AcDbEntity
  8
0
370
              -2
390
0
  6
Continuous
 62
               0
100
AcDbVertex
100
AcDb2dVertex
 10
-389.93356265097532
 20
975.79903774850345
 30
0.0
  0
VERTEX
  5
379
100
AcDbEntity
  8
0
370
              -2
390
0
  6
Continuous
 62
               0
100
AcDbVertex
100
AcDb2dVertex
 10
-399.98415957822897
 20
938.2896993695972
 30
0.0
  0
VERTEX
  5
37A
100
AcDbEntity
  8
0
370
              -2
390
0
  6
Continuous
 62
               0
100
AcDbVertex
100
AcDb2dVertex
 10
-410.03475650548262
 20
975.79903774850345
 30
0.0
  0
SEQEND
  5
37B
100
AcDbEntity
  8
0
370
              -2
390
0
  6
Continuous
 62
               0
  0
POLYLINE
  5
37C
100
AcDbEntity
  8
0
370
              -2
390
0
  6
Continuous
 62
               0
100
AcDb2dPolyline
 66
               1
 10
0.0
 20
0.0
 30
0.0
 75
               5
  0
VERTEX
  5
37D
100
AcDbEntity
  8
0
370
              -2
390
0
  6
Continuous
 62
               0
100
AcDbVertex
100
AcDb2dVertex
 10
-410.03475650548262
 20
1260.7803609906914
 30
0.0
  0
VERTEX
  5
37E
100
AcDbEntity
  8
0
370
              -2
390
0
  6
Continuous
 62
               0
100
AcDbVertex
100
AcDb2dVertex
 10
-399.98415957822897
 20
1298.2896993695977
 30
0.0
  0
VERTEX
  5
37F
100
AcDbEntity
  8
0
370
              -2
390
0
  6
Continuous
 62
               0
100
AcDbVertex
100
AcDb2dVertex
 10
-389.93356265097532
 20
1260.7803609906914
 30
0.0
  0
SEQEND
  5
380
100
AcDbEntity
  8
0
370
              -2
390
0
  6
Continuous
 62
               0
  0
MTEXT
  5
381
100
AcDbEntity
  8
寸法
390
0
 62
               0
100
AcDbMText
 10
-465.23939395322907
 20
1070.6646993695974
 30
0.0
 40
48.865234375000092
 41
0.0
 71
               1
 72
               1
  1
{\fＭＳ ゴシック|b0|i0|c128|p0;\l360}
 11
0.0
 21
1.0
 31
0.0
 73
               1
 44
0.7828267384257843
  0
POINT
  5
382
100
AcDbEntity
  8
Defpoints
370
               0
390
0
 62
               0
100
AcDbPoint
 10
-341.77843375744021
 20
1298.2896993695977
 30
0.0
  0
POINT
  5
383
100
AcDbEntity
  8
Defpoints
370
               0
390
0
 62
               0
100
AcDbPoint
 10
-343.27843375744135
 20
938.2896993695972
 30
0.0
  0
POINT
  5
384
100
AcDbEntity
  8
Defpoints
370
               0
390
0
 62
               0
100
AcDbPoint
 10
-399.98415957822897
 20
938.2896993695972
 30
0.0
  0
ENDBLK
  5
385
100
AcDbEntity
  8
寸法
390
0
100
AcDbBlockEnd
  0
BLOCK
  5
386
100
AcDbEntity
  8
0
390
0
100
AcDbBlockBegin
  2
グループ-17
 70
               0
 10
0.0
 20
0.0
 30
0.0
  3
グループ-17
  1

  0
LINE
  5
387
100
AcDbEntity
  8
0
370
               0
390
0
  6
Continuous
 62
              30
100
AcDbLine
 10
478.78775898710023
 20
993.71055520443178
 30
0.0
 11
483.71179775216092
 21
994.57879609276688
 31
0.0
  0
LINE
  5
388
100
AcDbEntity
  8
0
370
               0
390
0
  6
Continuous
 62
              30
100
AcDbLine
 10
478.96140716476498
 20
992.72574745141947
 30
0.0
 11
478.78775898710023
 21
993.71055520443178
 31
0.0
  0
LINE
  5
389
100
AcDbEntity
  8
0
370
               0
390
0
  6
Continuous
 62
              30
100
AcDbLine
 10
483.88544592982748
 20
993.59398833975536
 30
0.0
 11
478.96140716476498
 21
992.72574745141947
 31
0.0
  0
LINE
  5
38A
100
AcDbEntity
  8
0
370
               0
390
0
  6
Continuous
 62
              30
100
AcDbLine
 10
483.71179775216092
 20
994.57879609276688
 30
0.0
 11
483.88544592982748
 21
993.59398833975536
 31
0.0
  0
LINE
  5
38B
100
AcDbEntity
  8
0
370
               0
390
0
  6
Continuous
 62
              30
100
AcDbLine
 10
484.73788975704315
 20
1036.6024888587885
 30
0.0
 11
489.26942869222671
 21
1034.4893975500859
 31
0.0
  0
LINE
  5
38C
100
AcDbEntity
  8
0
370
               0
390
0
  6
Continuous
 62
              30
100
AcDbLine
 10
484.3152714953037
 20
1035.6961810717517
 30
0.0
 11
484.73788975704315
 21
1036.6024888587885
 31
0.0
  0
LINE
  5
38D
100
AcDbEntity
  8
0
370
               0
390
0
  6
Continuous
 62
              30
100
AcDbLine
 10
488.84681043048636
 20
1033.583089763049
 30
0.0
 11
484.3152714953037
 21
1035.6961810717517
 31
0.0
  0
LINE
  5
38E
100
AcDbEntity
  8
0
370
               0
390
0
  6
Continuous
 62
              30
100
AcDbLine
 10
489.26942869222671
 20
1034.4893975500859
 30
0.0
 11
488.84681043048636
 21
1033.583089763049
 31
0.0
  0
LINE
  5
38F
100
AcDbEntity
  8
0
370
               0
390
0
  6
Continuous
 62
              30
100
AcDbLine
 10
480.36349132255123
 20
1024.8387542804662
 30
0.0
 11
485.19312045399397
 21
1023.5446590549531
 31
0.0
  0
LINE
  5
390
100
AcDbEntity
  8
0
370
               0
390
0
  6
Continuous
 62
              30
100
AcDbLine
 10
480.10467227744789
 20
1023.8728284541771
 30
0.0
 11
480.36349132255123
 21
1024.8387542804662
 31
0.0
  0
LINE
  5
391
100
AcDbEntity
  8
0
370
               0
390
0
  6
Continuous
 62
              30
100
AcDbLine
 10
484.934301408892
 20
1022.578733228665
 30
0.0
 11
480.10467227744789
 21
1023.8728284541771
 31
0.0
  0
LINE
  5
392
100
AcDbEntity
  8
0
370
               0
390
0
  6
Continuous
 62
              30
100
AcDbLine
 10
485.19312045399397
 20
1023.5446590549531
 30
0.0
 11
484.934301408892
 21
1022.578733228665
 31
0.0
  0
LINE
  5
393
100
AcDbEntity
  8
0
370
               0
390
0
  6
Continuous
 62
              30
100
AcDbLine
 10
481.95186252456392
 20
981.56521611088965
 30
0.0
 11
486.65032562849251
 21
983.27531682751896
 31
0.0
  0
LINE
  5
394
100
AcDbEntity
  8
0
370
               0
390
0
  6
Continuous
 62
              30
100
AcDbLine
 10
482.29388266788942
 20
980.62552349010411
 30
0.0
 11
481.95186252456392
 21
981.56521611088965
 31
0.0
  0
LINE
  5
395
100
AcDbEntity
  8
0
370
               0
390
0
  6
Continuous
 62
              30
100
AcDbLine
 10
486.99234577181892
 20
982.33562420673252
 30
0.0
 11
482.29388266788942
 21
980.62552349010411
 31
0.0
  0
LINE
  5
396
100
AcDbEntity
  8
0
370
               0
390
0
  6
Continuous
 62
              30
100
AcDbLine
 10
486.65032562849251
 20
983.27531682751896
 30
0.0
 11
486.99234577181892
 21
982.33562420673252
 31
0.0
  0
LINE
  5
397
100
AcDbEntity
  8
0
370
               0
390
0
  6
Continuous
 62
              30
100
AcDbLine
 10
487.17691222033159
 20
970.15383282183711
 30
0.0
 11
491.50703923925198
 21
972.65383282183791
 31
0.0
  0
LINE
  5
398
100
AcDbEntity
  8
0
370
               0
390
0
  6
Continuous
 62
              30
100
AcDbLine
 10
487.67691222033068
 20
969.28780741805303
 30
0.0
 11
487.17691222033159
 21
970.15383282183711
 31
0.0
  0
LINE
  5
399
100
AcDbEntity
  8
0
370
               0
390
0
  6
Continuous
 62
              30
100
AcDbLine
 10
492.00703923925198
 20
971.78780741805303
 30
0.0
 11
487.67691222033068
 21
969.28780741805303
 31
0.0
  0
LINE
  5
39A
100
AcDbEntity
  8
0
370
               0
390
0
  6
Continuous
 62
              30
100
AcDbLine
 10
491.50703923925198
 20
972.65383282183791
 30
0.0
 11
492.00703923925198
 21
971.78780741805303
 31
0.0
  0
LINE
  5
39B
100
AcDbEntity
  8
0
370
               0
390
0
  6
Continuous
 62
              30
100
AcDbLine
 10
543.00743046593584
 20
974.03837972870951
 30
0.0
 11
543.44320917967457
 21
979.01935321916972
 31
0.0
  0
LINE
  5
39C
100
AcDbEntity
  8
0
370
               0
390
0
  6
Continuous
 62
              30
100
AcDbLine
 10
544.00362516402788
 20
973.95122398596232
 30
0.0
 11
543.00743046593584
 21
974.03837972870951
 31
0.0
  0
LINE
  5
39D
100
AcDbEntity
  8
0
370
               0
390
0
  6
Continuous
 62
              30
100
AcDbLine
 10
544.43940387776752
 20
978.9321974764207
 30
0.0
 11
544.00362516402788
 21
973.95122398596232
 31
0.0
  0
LINE
  5
39E
100
AcDbEntity
  8
0
370
               0
390
0
  6
Continuous
 62
              30
100
AcDbLine
 10
543.44320917967457
 20
979.01935321916972
 30
0.0
 11
544.43940387776752
 21
978.9321974764207
 31
0.0
  0
LINE
  5
39F
100
AcDbEntity
  8
0
370
               0
390
0
  6
Continuous
 62
              30
100
AcDbLine
 10
498.51549965678964
 20
995.16268526510373
 30
0.0
 11
505.58656746865358
 21
1002.2337530769694
 31
0.0
  0
LINE
  5
3A0
100
AcDbEntity
  8
0
370
               0
390
0
  6
Continuous
 62
              30
100
AcDbLine
 10
499.22260643797449
 20
994.45557848391798
 30
0.0
 11
498.51549965678964
 21
995.16268526510373
 31
0.0
  0
LINE
  5
3A1
100
AcDbEntity
  8
0
370
               0
390
0
  6
Continuous
 62
              30
100
AcDbLine
 10
506.29367424984116
 20
1001.5266462957827
 30
0.0
 11
499.22260643797449
 21
994.45557848391798
 31
0.0
  0
LINE
  5
3A2
100
AcDbEntity
  8
0
370
               0
390
0
  6
Continuous
 62
              30
100
AcDbLine
 10
505.58656746865358
 20
1002.2337530769694
 30
0.0
 11
506.29367424984116
 21
1001.5266462957827
 31
0.0
  0
LINE
  5
3A3
100
AcDbEntity
  8
0
370
               0
390
0
  6
Continuous
 62
              30
100
AcDbLine
 10
513.3477285909205
 20
983.61699104746219
 30
0.0
 11
515.84772859091959
 21
987.9471180663852
 31
0.0
  0
LINE
  5
3A4
100
AcDbEntity
  8
0
370
               0
390
0
  6
Continuous
 62
              30
100
AcDbLine
 10
514.21375399470367
 20
983.11699104746299
 30
0.0
 11
513.3477285909205
 21
983.61699104746219
 31
0.0
  0
LINE
  5
3A5
100
AcDbEntity
  8
0
370
               0
390
0
  6
Continuous
 62
              30
100
AcDbLine
 10
516.71375399470503
 20
987.44711806638509
 30
0.0
 11
514.21375399470367
 21
983.11699104746299
 31
0.0
  0
LINE
  5
3A6
100
AcDbEntity
  8
0
370
               0
390
0
  6
Continuous
 62
              30
100
AcDbLine
 10
515.84772859091959
 20
987.9471180663852
 30
0.0
 11
516.71375399470503
 21
987.44711806638509
 31
0.0
  0
LINE
  5
3A7
100
AcDbEntity
  8
0
370
               0
390
0
  6
Continuous
 62
              30
100
AcDbLine
 10
536.78566862428784
 20
974.90148599189615
 30
0.0
 11
537.65390951262293
 21
979.82552475695775
 31
0.0
  0
LINE
  5
3A8
100
AcDbEntity
  8
0
370
               0
390
0
  6
Continuous
 62
              30
100
AcDbLine
 10
537.77047637730061
 20
974.72783781423004
 30
0.0
 11
536.78566862428784
 21
974.90148599189615
 31
0.0
  0
LINE
  5
3A9
100
AcDbEntity
  8
0
370
               0
390
0
  6
Continuous
 62
              30
100
AcDbLine
 10
538.63871726563571
 20
979.65187657929073
 30
0.0
 11
537.77047637730061
 21
974.72783781423004
 31
0.0
  0
LINE
  5
3AA
100
AcDbEntity
  8
0
370
               0
390
0
  6
Continuous
 62
              30
100
AcDbLine
 10
537.65390951262293
 20
979.82552475695775
 30
0.0
 11
538.63871726563571
 21
979.65187657929073
 31
0.0
  0
LINE
  5
3AB
100
AcDbEntity
  8
0
370
               0
390
0
  6
Continuous
 62
              30
100
AcDbLine
 10
508.07366185339401
 20
987.02866114930964
 30
0.0
 11
510.94154403514972
 21
991.12442137075527
 31
0.0
  0
LINE
  5
3AC
100
AcDbEntity
  8
0
370
               0
390
0
  6
Continuous
 62
              30
100
AcDbLine
 10
508.89281389768189
 20
986.45508471295886
 30
0.0
 11
508.07366185339401
 21
987.02866114930964
 31
0.0
  0
LINE
  5
3AD
100
AcDbEntity
  8
0
370
               0
390
0
  6
Continuous
 62
              30
100
AcDbLine
 10
511.76069607943714
 20
990.55084493440449
 30
0.0
 11
508.89281389768189
 21
986.45508471295886
 31
0.0
  0
LINE
  5
3AE
100
AcDbEntity
  8
0
370
               0
390
0
  6
Continuous
 62
              30
100
AcDbLine
 10
510.94154403514972
 20
991.12442137075527
 30
0.0
 11
511.76069607943714
 21
990.55084493440449
 31
0.0
  0
LINE
  5
3AF
100
AcDbEntity
  8
0
370
               0
390
0
  6
Continuous
 62
              30
100
AcDbLine
 10
491.08858232218131
 20
1004.0137406805222
 30
0.0
 11
490.51500588583053
 21
1004.8328927248111
 31
0.0
  0
LINE
  5
3B0
100
AcDbEntity
  8
0
370
               0
390
0
  6
Continuous
 62
              30
100
AcDbLine
 10
495.18434254362523
 20
1006.8816228622767
 30
0.0
 11
491.08858232218131
 21
1004.0137406805222
 31
0.0
  0
LINE
  5
3B1
100
AcDbEntity
  8
0
370
               0
390
0
  6
Continuous
 62
              30
100
AcDbLine
 10
494.61076610727446
 20
1007.7007749065658
 30
0.0
 11
495.18434254362523
 21
1006.8816228622767
 31
0.0
  0
LINE
  5
3B2
100
AcDbEntity
  8
0
370
               0
390
0
  6
Continuous
 62
              30
100
AcDbLine
 10
490.51500588583053
 20
1004.8328927248111
 30
0.0
 11
494.61076610727446
 21
1007.7007749065658
 31
0.0
  0
LINE
  5
3B3
100
AcDbEntity
  8
0
370
               0
390
0
  6
Continuous
 62
              30
100
AcDbLine
 10
494.94693519308953
 20
999.0570900009518
 30
0.0
 11
494.30414758340407
 21
999.82313444407077
 31
0.0
  0
LINE
  5
3B4
100
AcDbEntity
  8
0
370
               0
390
0
  6
Continuous
 62
              30
100
AcDbLine
 10
498.77715740868439
 20
1002.2710280493837
 30
0.0
 11
494.94693519308953
 21
999.0570900009518
 31
0.0
  0
LINE
  5
3B5
100
AcDbEntity
  8
0
370
               0
390
0
  6
Continuous
 62
              30
100
AcDbLine
 10
498.13436979899711
 20
1003.0370724925026
 30
0.0
 11
498.77715740868439
 21
1002.2710280493837
 31
0.0
  0
LINE
  5
3B6
100
AcDbEntity
  8
0
370
               0
390
0
  6
Continuous
 62
              30
100
AcDbLine
 10
494.30414758340407
 20
999.82313444407077
 30
0.0
 11
498.13436979899711
 21
1003.0370724925026
 31
0.0
  0
LINE
  5
3B7
100
AcDbEntity
  8
0
370
               0
390
0
  6
Continuous
 62
              30
100
AcDbLine
 10
498.51549965678601
 20
955.16268526510737
 30
0.0
 11
505.58656746865131
 21
962.23375307697313
 31
0.0
  0
LINE
  5
3B8
100
AcDbEntity
  8
0
370
               0
390
0
  6
Continuous
 62
              30
100
AcDbLine
 10
499.22260643797131
 20
954.4555784839207
 30
0.0
 11
498.51549965678601
 21
955.16268526510737
 31
0.0
  0
LINE
  5
3B9
100
AcDbEntity
  8
0
370
               0
390
0
  6
Continuous
 62
              30
100
AcDbLine
 10
506.29367424983707
 20
961.52664629578635
 30
0.0
 11
499.22260643797131
 21
954.4555784839207
 31
0.0
  0
LINE
  5
3BA
100
AcDbEntity
  8
0
370
               0
390
0
  6
Continuous
 62
              30
100
AcDbLine
 10
505.58656746865131
 20
962.23375307697313
 30
0.0
 11
506.29367424983707
 21
961.52664629578635
 31
0.0
  0
LINE
  5
3BB
100
AcDbEntity
  8
0
370
               0
390
0
  6
Continuous
 62
              30
100
AcDbLine
 10
489.26942869222717
 20
976.95224268979973
 30
0.0
 11
484.73788975704178
 21
974.83915138109614
 31
0.0
  0
LINE
  5
3BC
100
AcDbEntity
  8
0
370
               0
390
0
  6
Continuous
 62
              30
100
AcDbLine
 10
488.84681043048499
 20
977.85855047683651
 30
0.0
 11
489.26942869222717
 21
976.95224268979973
 31
0.0
  0
LINE
  5
3BD
100
AcDbEntity
  8
0
370
               0
390
0
  6
Continuous
 62
              30
100
AcDbLine
 10
484.31527149530052
 20
975.74545916813395
 30
0.0
 11
488.84681043048499
 21
977.85855047683651
 31
0.0
  0
LINE
  5
3BE
100
AcDbEntity
  8
0
370
               0
390
0
  6
Continuous
 62
              30
100
AcDbLine
 10
484.73788975704178
 20
974.83915138109614
 30
0.0
 11
484.31527149530052
 21
975.74545916813395
 31
0.0
  0
ARC
  5
3BF
100
AcDbEntity
  8
0
370
               0
390
0
  6
Continuous
 62
              30
100
AcDbCircle
 10
480.49868352588442
 20
1045.7211568746789
 30
0.0
 40
3.0000000000018132
100
AcDbArc
 50
330.00000000005514
 51
149.99999999993383
  0
ARC
  5
3C0
100
AcDbEntity
  8
0
370
               0
390
0
  6
Continuous
 62
              30
100
AcDbCircle
 10
549.78071582863754
 20
1005.7211568746769
 30
0.0
 40
83.000000000000881
100
AcDbArc
 50
149.99999999999665
 51
225.00000000000028
  0
ARC
  5
3C1
100
AcDbEntity
  8
0
370
               0
390
0
  6
Continuous
 62
              30
100
AcDbCircle
 10
493.21217333371646
 20
949.15261437975494
 30
0.0
 40
3.0000000000004259
100
AcDbArc
 50
224.99999999997391
 51
45.000000000026091
  0
ARC
  5
3C2
100
AcDbEntity
  8
0
370
               0
390
0
  6
Continuous
 62
              30
100
AcDbCircle
 10
549.78071582863754
 20
1005.7211568746769
 30
0.0
 40
76.999999999997783
100
AcDbArc
 50
149.99999999999679
 51
225.00000000000017
  0
ARC
  5
3C3
100
AcDbEntity
  8
0
370
               0
390
0
  6
Continuous
 62
              30
100
AcDbCircle
 10
519.32197324996719
 20
978.96365636681344
 30
0.0
 40
39.999999999999744
100
AcDbArc
 50
278.08087633800432
 51
352.23270566446303
  0
ARC
  5
3C4
100
AcDbEntity
  8
0
370
               0
390
0
  6
Continuous
 62
              30
100
AcDbCircle
 10
509.78071582862708
 20
1046.1648097936609
 30
0.0
 40
107.87511042406372
100
AcDbArc
 50
261.91912366196607
 51
278.0808763380283
  0
ARC
  5
3C5
100
AcDbEntity
  8
0
370
               0
390
0
  6
Continuous
 62
              30
100
AcDbCircle
 10
500.23945840731517
 20
978.96365636681071
 30
0.0
 40
40.000000000000412
100
AcDbArc
 50
187.7672943355883
 51
261.91912366193787
  0
ARC
  5
3C6
100
AcDbEntity
  8
0
370
               0
390
0
  6
Continuous
 62
              30
100
AcDbCircle
 10
549.78071582866119
 20
985.7211568746759
 30
0.0
 40
90.000000000019099
100
AcDbArc
 50
180.0000000000008
 51
187.76729433555744
  0
LINE
  5
3C7
100
AcDbEntity
  8
0
370
               0
390
0
  6
Continuous
 62
              30
100
AcDbLine
 10
459.780715828658
 20
1293.7896993695977
 30
0.0
 11
459.780715828658
 21
985.7211568746759
 31
0.0
  0
LINE
  5
3C8
100
AcDbEntity
  8
0
370
               0
390
0
  6
Continuous
 62
              30
100
AcDbLine
 10
459.780715828658
 20
1293.7896993695977
 30
0.0
 11
464.280715828658
 21
1293.7896993695977
 31
0.0
  0
LINE
  5
3C9
100
AcDbEntity
  8
0
370
               0
390
0
  6
Continuous
 62
              30
100
AcDbLine
 10
464.280715828658
 20
1293.7896993695977
 30
0.0
 11
555.280715828658
 21
1293.7896993695977
 31
0.0
  0
LINE
  5
3CA
100
AcDbEntity
  8
0
370
               0
390
0
  6
Continuous
 62
              30
100
AcDbLine
 10
555.280715828658
 20
1293.7896993695977
 30
0.0
 11
559.780715828658
 21
1293.7896993695979
 31
0.0
  0
LINE
  5
3CB
100
AcDbEntity
  8
0
370
               0
390
0
  6
Continuous
 62
              30
100
AcDbLine
 10
559.780715828658
 20
1065.5201467478748
 30
0.0
 11
559.780715828658
 21
1293.7896993695979
 31
0.0
  0
ARC
  5
3CC
100
AcDbEntity
  8
0
370
               0
390
0
  6
Continuous
 62
              30
100
AcDbCircle
 10
549.780715828658
 20
1065.5201467478751
 30
0.0
 40
10.000000000000401
100
AcDbArc
 50
315.00000000000739
 51
359.99999999999869
  0
LINE
  5
3CD
100
AcDbEntity
  8
0
370
               0
390
0
  6
Continuous
 62
              30
100
AcDbLine
 10
556.85178364052467
 20
1058.4490789360102
 30
0.0
 11
546.95228870391679
 21
1048.5495839994028
 31
0.0
  0
ARC
  5
3CE
100
AcDbEntity
  8
0
370
               0
390
0
  6
Continuous
 62
              30
100
AcDbCircle
 10
549.78071582860525
 20
1045.7211568746
 30
0.0
 40
3.9999999999992282
100
AcDbArc
 50
134.99999999884162
 51
315.00000000119758
  0
LINE
  5
3CF
100
AcDbEntity
  8
0
370
               0
390
0
  6
Continuous
 62
              30
100
AcDbLine
 10
552.60914295340967
 20
1042.8927297499133
 30
0.0
 11
558.07360904747361
 21
1048.3571958439773
 31
0.0
  0
ARC
  5
3D0
100
AcDbEntity
  8
0
370
               0
390
0
  6
Continuous
 62
              30
100
AcDbCircle
 10
558.78071582866028
 20
1047.6500890627906
 30
0.0
 40
1.0
100
AcDbArc
 50
0.0
 51
134.99999999999079
  0
LINE
  5
3D1
100
AcDbEntity
  8
0
370
               0
390
0
  6
Continuous
 62
              30
100
AcDbLine
 10
559.78071582865937
 20
1003.792224686523
 30
0.0
 11
559.78071582866028
 21
1047.6500890627906
 31
0.0
  0
ARC
  5
3D2
100
AcDbEntity
  8
0
370
               0
390
0
  6
Continuous
 62
              30
100
AcDbCircle
 10
558.78071582865982
 20
1003.7922246865219
 30
0.0
 40
1.0000000000001688
100
AcDbArc
 50
224.99999999830501
 51
0.0000000000651426
  0
LINE
  5
3D3
100
AcDbEntity
  8
0
370
               0
390
0
  6
Continuous
 62
              30
100
AcDbLine
 10
558.07360904745224
 20
1003.0851179053564
 30
0.0
 11
552.60914295338557
 21
1008.5495839994226
 31
0.0
  0
ARC
  5
3D4
100
AcDbEntity
  8
0
370
               0
390
0
  6
Continuous
 62
              30
100
AcDbCircle
 10
549.78071582863754
 20
1005.7211568746769
 30
0.0
 40
4.0000000000009166
100
AcDbArc
 50
44.99999999997582
 51
224.99999999999193
  0
LINE
  5
3D5
100
AcDbEntity
  8
0
370
               0
390
0
  6
Continuous
 62
              30
100
AcDbLine
 10
546.95228870389178
 20
1002.8927297499317
 30
0.0
 11
556.85178364050421
 21
992.99323481331987
 31
0.0
  0
ARC
  5
3D6
100
AcDbEntity
  8
0
370
               0
390
0
  6
Continuous
 62
              30
100
AcDbCircle
 10
549.78071582863936
 20
985.92216700145389
 30
0.0
 40
10.0
100
AcDbArc
 50
0.0000000000091193
 51
45.000000000004597
  0
LINE
  5
3D7
100
AcDbEntity
  8
0
370
               0
390
0
  6
Continuous
 62
              30
100
AcDbLine
 10
559.780715828658
 20
985.7211568746759
 30
0.0
 11
559.78071582863936
 21
985.92216700145548
 31
0.0
  0
ARC
  5
3D8
100
AcDbEntity
  8
0
370
               0
390
0
  6
Continuous
 62
              30
100
AcDbCircle
 10
469.78071582865209
 20
985.7211568746759
 30
0.0
 40
90.000000000006153
100
AcDbArc
 50
352.2327056644649
 51
0.0
  0
ARC
  5
3D9
100
AcDbEntity
  8
0
370
               0
390
0
  6
Continuous
 62
              30
100
AcDbCircle
 10
549.78071582860525
 20
1045.7211568746
 30
0.0
 40
82.999999999922082
100
AcDbArc
 50
209.99999999997007
 51
270.00000000002512
  0
ARC
  5
3DA
100
AcDbEntity
  8
0
370
               0
390
0
  6
Continuous
 62
              30
100
AcDbCircle
 10
549.78071582864118
 20
965.72115687467874
 30
0.0
 40
3.0000000000011369
100
AcDbArc
 50
270.00000000000864
 51
90.000000000026034
  0
ARC
  5
3DB
100
AcDbEntity
  8
0
370
               0
390
0
  6
Continuous
 62
              30
100
AcDbCircle
 10
549.78071582860525
 20
1045.7211568746
 30
0.0
 40
76.999999999923119
100
AcDbArc
 50
209.99999999996854
 51
270.00000000002569
  0
ARC
  5
3DC
100
AcDbEntity
  8
0
370
               0
390
0
  6
Continuous
 62
              30
100
AcDbCircle
 10
480.49868352589397
 20
1005.7211568746771
 30
0.0
 40
3.0000000000004654
100
AcDbArc
 50
29.999999999969795
 51
210.00000000001106
  0
LINE
  5
3DD
100
AcDbEntity
  8
0
370
               0
390
0
  6
Continuous
 62
              30
100
AcDbLine
 10
490.51500588582735
 20
964.83289272481443
 30
0.0
 11
494.61076610727309
 21
967.70077490657002
 31
0.0
  0
LINE
  5
3DE
100
AcDbEntity
  8
0
370
               0
390
0
  6
Continuous
 62
              30
100
AcDbLine
 10
491.08858232217813
 20
964.01374068052553
 30
0.0
 11
490.51500588582735
 21
964.83289272481443
 31
0.0
  0
LINE
  5
3DF
100
AcDbEntity
  8
0
370
               0
390
0
  6
Continuous
 62
              30
100
AcDbLine
 10
495.18434254362387
 20
966.88162286228123
 30
0.0
 11
491.08858232217813
 21
964.01374068052553
 31
0.0
  0
LINE
  5
3E0
100
AcDbEntity
  8
0
370
               0
390
0
  6
Continuous
 62
              30
100
AcDbLine
 10
494.61076610727309
 20
967.70077490657002
 30
0.0
 11
495.18434254362387
 21
966.88162286228123
 31
0.0
  0
LINE
  5
3E1
100
AcDbEntity
  8
0
370
               0
390
0
  6
Continuous
 62
              30
100
AcDbLine
 10
478.96140716476543
 20
1018.7158927884661
 30
0.0
 11
483.88544592982794
 21
1017.847651900131
 31
0.0
  0
LINE
  5
3E2
100
AcDbEntity
  8
0
370
               0
390
0
  6
Continuous
 62
              30
100
AcDbLine
 10
478.78775898710023
 20
1017.7310850354529
 30
0.0
 11
478.96140716476543
 21
1018.7158927884661
 31
0.0
  0
LINE
  5
3E3
100
AcDbEntity
  8
0
370
               0
390
0
  6
Continuous
 62
              30
100
AcDbLine
 10
483.71179775216183
 20
1016.8628441471186
 30
0.0
 11
478.78775898710023
 21
1017.7310850354529
 31
0.0
  0
LINE
  5
3E4
100
AcDbEntity
  8
0
370
               0
390
0
  6
Continuous
 62
              30
100
AcDbLine
 10
483.88544592982794
 20
1017.847651900131
 30
0.0
 11
483.71179775216183
 21
1016.8628441471186
 31
0.0
  0
LINE
  5
3E5
100
AcDbEntity
  8
0
370
               0
390
0
  6
Continuous
 62
              30
100
AcDbLine
 10
487.67691222033386
 20
1009.2878074180497
 30
0.0
 11
487.17691222033386
 21
1010.1538328218342
 31
0.0
  0
LINE
  5
3E6
100
AcDbEntity
  8
0
370
               0
390
0
  6
Continuous
 62
              30
100
AcDbLine
 10
492.00703923925516
 20
1011.7878074180492
 30
0.0
 11
487.67691222033386
 21
1009.2878074180497
 31
0.0
  0
LINE
  5
3E7
100
AcDbEntity
  8
0
370
               0
390
0
  6
Continuous
 62
              30
100
AcDbLine
 10
491.50703923925471
 20
1012.6538328218337
 30
0.0
 11
492.00703923925516
 21
1011.7878074180492
 31
0.0
  0
LINE
  5
3E8
100
AcDbEntity
  8
0
370
               0
390
0
  6
Continuous
 62
              30
100
AcDbLine
 10
487.17691222033386
 20
1010.1538328218342
 30
0.0
 11
491.50703923925471
 21
1012.6538328218337
 31
0.0
  0
LINE
  5
3E9
100
AcDbEntity
  8
0
370
               0
390
0
  6
Continuous
 62
              30
100
AcDbLine
 10
549.28074129281345
 20
973.72082011994178
 30
0.0
 11
549.28074129281254
 21
983.72082011994178
 31
0.0
  0
LINE
  5
3EA
100
AcDbEntity
  8
0
370
               0
390
0
  6
Continuous
 62
              30
100
AcDbLine
 10
550.28074129281345
 20
973.72082011994178
 30
0.0
 11
549.28074129281345
 21
973.72082011994178
 31
0.0
  0
LINE
  5
3EB
100
AcDbEntity
  8
0
370
               0
390
0
  6
Continuous
 62
              30
100
AcDbLine
 10
550.28074129281345
 20
983.72082011994087
 30
0.0
 11
550.28074129281345
 21
973.72082011994178
 31
0.0
  0
LINE
  5
3EC
100
AcDbEntity
  8
0
370
               0
390
0
  6
Continuous
 62
              30
100
AcDbLine
 10
549.28074129281254
 20
983.72082011994178
 30
0.0
 11
550.28074129281345
 21
983.72082011994087
 31
0.0
  0
LINE
  5
3ED
100
AcDbEntity
  8
0
370
               0
390
0
  6
Continuous
 62
              30
100
AcDbLine
 10
524.68544466297112
 20
978.23396149501968
 30
0.0
 11
526.39554537959816
 21
982.9324245989493
 31
0.0
  0
LINE
  5
3EE
100
AcDbEntity
  8
0
370
               0
390
0
  6
Continuous
 62
              30
100
AcDbLine
 10
525.62513728375802
 20
977.89194135169339
 30
0.0
 11
524.68544466297112
 21
978.23396149501968
 31
0.0
  0
LINE
  5
3EF
100
AcDbEntity
  8
0
370
               0
390
0
  6
Continuous
 62
              30
100
AcDbLine
 10
527.3352380003837
 20
982.5904044556238
 30
0.0
 11
525.62513728375802
 21
977.89194135169339
 31
0.0
  0
LINE
  5
3F0
100
AcDbEntity
  8
0
370
               0
390
0
  6
Continuous
 62
              30
100
AcDbLine
 10
526.39554537959816
 20
982.9324245989493
 30
0.0
 11
527.3352380003837
 21
982.5904044556238
 31
0.0
  0
LINE
  5
3F1
100
AcDbEntity
  8
0
370
               0
390
0
  6
Continuous
 62
              30
100
AcDbLine
 10
518.89907255396361
 20
980.6779685841741
 30
0.0
 11
521.01216386266719
 21
985.20950751935663
 31
0.0
  0
LINE
  5
3F2
100
AcDbEntity
  8
0
370
               0
390
0
  6
Continuous
 62
              30
100
AcDbLine
 10
519.80538034099777
 20
980.25535032243374
 30
0.0
 11
518.89907255396361
 21
980.6779685841741
 31
0.0
  0
LINE
  5
3F3
100
AcDbEntity
  8
0
370
               0
390
0
  6
Continuous
 62
              30
100
AcDbLine
 10
521.91847164970227
 20
984.78688925761628
 30
0.0
 11
519.80538034099777
 21
980.25535032243374
 31
0.0
  0
LINE
  5
3F4
100
AcDbEntity
  8
0
370
               0
390
0
  6
Continuous
 62
              30
100
AcDbLine
 10
521.01216386266719
 20
985.20950751935663
 30
0.0
 11
521.91847164970227
 21
984.78688925761628
 31
0.0
  0
LINE
  5
3F5
100
AcDbEntity
  8
0
370
               0
390
0
  6
Continuous
 62
              30
100
AcDbLine
 10
530.66280713228684
 20
976.30357014968024
 30
0.0
 11
531.95690235779807
 21
981.13319928112662
 31
0.0
  0
LINE
  5
3F6
100
AcDbEntity
  8
0
370
               0
390
0
  6
Continuous
 62
              30
100
AcDbLine
 10
531.62873295857594
 20
976.04475110457781
 30
0.0
 11
530.66280713228684
 21
976.30357014968024
 31
0.0
  0
LINE
  5
3F7
100
AcDbEntity
  8
0
370
               0
390
0
  6
Continuous
 62
              30
100
AcDbLine
 10
532.92282818408808
 20
980.87438023602238
 30
0.0
 11
531.62873295857594
 21
976.04475110457781
 31
0.0
  0
LINE
  5
3F8
100
AcDbEntity
  8
0
370
               0
390
0
  6
Continuous
 62
              30
100
AcDbLine
 10
531.95690235779807
 20
981.13319928112662
 30
0.0
 11
532.92282818408808
 21
980.87438023602238
 31
0.0
  0
LINE
  5
3F9
100
AcDbEntity
  8
0
370
               0
390
0
  6
Continuous
 62
              30
100
AcDbLine
 10
503.11701117382313
 20
990.88701402021911
 30
0.0
 11
506.3309492222545
 21
994.71723623581352
 31
0.0
  0
LINE
  5
3FA
100
AcDbEntity
  8
0
370
               0
390
0
  6
Continuous
 62
              30
100
AcDbLine
 10
503.88305561694074
 20
990.24422641053138
 30
0.0
 11
503.11701117382313
 21
990.88701402021911
 31
0.0
  0
LINE
  5
3FB
100
AcDbEntity
  8
0
370
               0
390
0
  6
Continuous
 62
              30
100
AcDbLine
 10
507.09699366537347
 20
994.0744486261267
 30
0.0
 11
503.88305561694074
 21
990.24422641053138
 31
0.0
  0
LINE
  5
3FC
100
AcDbEntity
  8
0
370
               0
390
0
  6
Continuous
 62
              30
100
AcDbLine
 10
506.3309492222545
 20
994.71723623581352
 30
0.0
 11
507.09699366537347
 21
994.0744486261267
 31
0.0
  0
LINE
  5
3FD
100
AcDbEntity
  8
0
370
               0
390
0
  6
Continuous
 62
              30
100
AcDbLine
 10
494.3041475834018
 20
959.82313444407316
 30
0.0
 11
498.13436979899438
 21
963.03707249250715
 31
0.0
  0
LINE
  5
3FE
100
AcDbEntity
  8
0
370
               0
390
0
  6
Continuous
 62
              30
100
AcDbLine
 10
494.94693519308589
 20
959.05709000095464
 30
0.0
 11
494.3041475834018
 21
959.82313444407316
 31
0.0
  0
LINE
  5
3FF
100
AcDbEntity
  8
0
370
               0
390
0
  6
Continuous
 62
              30
100
AcDbLine
 10
498.77715740868211
 20
962.27102804938784
 30
0.0
 11
494.94693519308589
 21
959.05709000095464
 31
0.0
  0
LINE
  5
400
100
AcDbEntity
  8
0
370
               0
390
0
  6
Continuous
 62
              30
100
AcDbLine
 10
498.13436979899438
 20
963.03707249250715
 30
0.0
 11
498.77715740868211
 21
962.27102804938784
 31
0.0
  0
LINE
  5
401
100
AcDbEntity
  8
0
370
               0
390
0
  6
Continuous
 62
              30
100
AcDbLine
 10
480.10467227744653
 20
987.56881178570848
 30
0.0
 11
484.93430140889382
 21
988.8629070112197
 31
0.0
  0
LINE
  5
402
100
AcDbEntity
  8
0
370
               0
390
0
  6
Continuous
 62
              30
100
AcDbLine
 10
480.36349132254986
 20
986.60288595941938
 30
0.0
 11
480.10467227744653
 21
987.56881178570848
 31
0.0
  0
LINE
  5
403
100
AcDbEntity
  8
0
370
               0
390
0
  6
Continuous
 62
              30
100
AcDbLine
 10
485.19312045399352
 20
987.89698118493243
 30
0.0
 11
480.36349132254986
 21
986.60288595941938
 31
0.0
  0
LINE
  5
404
100
AcDbEntity
  8
0
370
               0
390
0
  6
Continuous
 62
              30
100
AcDbLine
 10
484.93430140889382
 20
988.8629070112197
 30
0.0
 11
485.19312045399352
 21
987.89698118493243
 31
0.0
  0
LINE
  5
405
100
AcDbEntity
  8
0
370
               0
390
0
  6
Continuous
 62
              30
100
AcDbLine
 10
482.29388266788806
 20
1030.8161167497815
 30
0.0
 11
486.99234577181846
 21
1029.106016033154
 31
0.0
  0
LINE
  5
406
100
AcDbEntity
  8
0
370
               0
390
0
  6
Continuous
 62
              30
100
AcDbLine
 10
481.95186252456347
 20
1029.876424128996
 30
0.0
 11
482.29388266788806
 21
1030.8161167497815
 31
0.0
  0
LINE
  5
407
100
AcDbEntity
  8
0
370
               0
390
0
  6
Continuous
 62
              30
100
AcDbLine
 10
486.65032562849296
 20
1028.1663234123666
 30
0.0
 11
481.95186252456347
 21
1029.876424128996
 31
0.0
  0
LINE
  5
408
100
AcDbEntity
  8
0
370
               0
390
0
  6
Continuous
 62
              30
100
AcDbLine
 10
486.99234577181846
 20
1029.106016033154
 30
0.0
 11
486.65032562849296
 21
1028.1663234123666
 31
0.0
  0
LINE
  5
409
100
AcDbEntity
  8
0
370
               0
390
0
  6
Continuous
 62
              30
100
AcDbLine
 10
487.67691222033022
 20
1042.1538328218335
 30
0.0
 11
492.00703923925425
 21
1039.6538328218326
 31
0.0
  0
LINE
  5
40A
100
AcDbEntity
  8
0
370
               0
390
0
  6
Continuous
 62
              30
100
AcDbLine
 10
487.17691222033022
 20
1041.2878074180476
 30
0.0
 11
487.67691222033022
 21
1042.1538328218335
 31
0.0
  0
LINE
  5
40B
100
AcDbEntity
  8
0
370
               0
390
0
  6
Continuous
 62
              30
100
AcDbLine
 10
491.50703923925334
 20
1038.7878074180494
 30
0.0
 11
487.17691222033022
 21
1041.2878074180476
 31
0.0
  0
LINE
  5
40C
100
AcDbEntity
  8
0
370
               0
390
0
  6
Continuous
 62
              30
100
AcDbLine
 10
492.00703923925425
 20
1039.6538328218326
 30
0.0
 11
491.50703923925334
 21
1038.7878074180494
 31
0.0
  0
LINE
  5
40D
100
AcDbEntity
  8
0
370
               0
390
0
  6
Continuous
 62
              30
100
AcDbLine
 10
478.09830090158061
 20
1012.4941309468182
 30
0.0
 11
483.07927439203854
 21
1012.0583522330794
 31
0.0
  0
LINE
  5
40E
100
AcDbEntity
  8
0
370
               0
390
0
  6
Continuous
 62
              30
100
AcDbLine
 10
478.09830090158061
 20
1011.497936248726
 30
0.0
 11
478.09830090158061
 21
1012.4941309468182
 31
0.0
  0
LINE
  5
40F
100
AcDbEntity
  8
0
370
               0
390
0
  6
Continuous
 62
              30
100
AcDbLine
 10
482.9921186492918
 20
1011.0621575349874
 30
0.0
 11
478.09830090158061
 21
1011.497936248726
 31
0.0
  0
LINE
  5
410
100
AcDbEntity
  8
0
370
               0
390
0
  6
Continuous
 62
              30
100
AcDbLine
 10
483.07927439203854
 20
1012.0583522330794
 30
0.0
 11
482.9921186492918
 21
1011.0621575349874
 31
0.0
  0
LINE
  5
411
100
AcDbEntity
  8
0
370
               0
390
0
  6
Continuous
 62
              30
100
AcDbLine
 10
464.280715828658
 20
1298.2896993695977
 30
0.0
 11
555.28071582865846
 21
1298.2896993695977
 31
0.0
  0
LINE
  5
412
100
AcDbEntity
  8
0
370
               0
390
0
  6
Continuous
 62
              30
100
AcDbLine
 10
555.280715828658
 20
1293.7896993695977
 30
0.0
 11
555.28071582865846
 21
1298.2896993695977
 31
0.0
  0
LINE
  5
413
100
AcDbEntity
  8
0
370
               0
390
0
  6
Continuous
 62
              30
100
AcDbLine
 10
464.280715828658
 20
1298.2896993695977
 30
0.0
 11
464.280715828658
 21
1293.7896993695977
 31
0.0
  0
ARC
  5
414
100
AcDbEntity
  8
0
370
               0
390
0
  6
Continuous
 62
              30
100
AcDbCircle
 10
464.280715828658
 20
1293.7896993695977
 30
0.0
 40
1.5
100
AcDbArc
 50
90.0
 51
180.0
  0
ARC
  5
415
100
AcDbEntity
  8
0
370
               0
390
0
  6
Continuous
 62
              30
100
AcDbCircle
 10
464.280715828658
 20
1293.7896993695977
 30
0.0
 40
4.5
100
AcDbArc
 50
90.0
 51
180.0
  0
ARC
  5
416
100
AcDbEntity
  8
0
370
               0
390
0
  6
Continuous
 62
              30
100
AcDbCircle
 10
555.28071582865846
 20
1293.7896993695977
 30
0.0
 40
4.5
100
AcDbArc
 50
0.000000000002899
 51
90.0
  0
ARC
  5
417
100
AcDbEntity
  8
0
370
               0
390
0
  6
Continuous
 62
              30
100
AcDbCircle
 10
555.28071582865846
 20
1293.7896993695977
 30
0.0
 40
1.5
100
AcDbArc
 50
0.0
 51
90.0
  0
ENDBLK
  5
418
100
AcDbEntity
  8
0
390
0
100
AcDbBlockEnd
  0
BLOCK
  5
419
100
AcDbEntity
  8
寸法
390
0
100
AcDbBlockBegin
  2
*D39
 70
               1
 10
0.0
 20
0.0
 30
0.0
  3
*D39
  1

  0
LINE
  5
41A
100
AcDbEntity
  8
寸法
370
              -2
390
0
  6
Continuous
 62
               0
100
AcDbLine
 10
360.72156624256127
 20
908.2896993695972
 30
0.0
 11
360.72156624256127
 21
840.25593242476805
 31
0.0
  0
LINE
  5
41B
100
AcDbEntity
  8
寸法
370
              -2
390
0
  6
Continuous
 62
               0
100
AcDbLine
 10
363.72156624256127
 20
908.2896993695972
 30
0.0
 11
363.72156624256127
 21
840.25593242476805
 31
0.0
  0
LINE
  5
41C
100
AcDbEntity
  8
寸法
370
              -2
390
0
  6
Continuous
 62
               0
100
AcDbLine
 10
363.72156624256127
 20
870.25593242476805
 30
0.0
 11
472.64084042177103
 21
870.25593242476805
 31
0.0
  0
LINE
  5
41D
100
AcDbEntity
  8
寸法
370
              -2
390
0
  6
Continuous
 62
               0
100
AcDbLine
 10
360.72156624256127
 20
870.25593242476805
 30
0.0
 11
363.72156624256127
 21
870.25593242476805
 31
0.0
  0
POLYLINE
  5
41E
100
AcDbEntity
  8
0
370
              -2
390
0
  6
Continuous
 62
               0
100
AcDb2dPolyline
 66
               1
 10
0.0
 20
0.0
 30
0.0
 75
               5
  0
VERTEX
  5
41F
100
AcDbEntity
  8
0
370
              -2
390
0
  6
Continuous
 62
               0
100
AcDbVertex
100
AcDb2dVertex
 10
398.23090462146752
 20
860.2053354975144
 30
0.0
  0
VERTEX
  5
420
100
AcDbEntity
  8
0
370
              -2
390
0
  6
Continuous
 62
               0
100
AcDbVertex
100
AcDb2dVertex
 10
360.72156624256127
 20
870.25593242476805
 30
0.0
  0
VERTEX
  5
421
100
AcDbEntity
  8
0
370
              -2
390
0
  6
Continuous
 62
               0
100
AcDbVertex
100
AcDb2dVertex
 10
398.23090462146752
 20
880.3065293520217
 30
0.0
  0
SEQEND
  5
422
100
AcDbEntity
  8
0
370
              -2
390
0
  6
Continuous
 62
               0
  0
POLYLINE
  5
423
100
AcDbEntity
  8
0
370
              -2
390
0
  6
Continuous
 62
               0
100
AcDb2dPolyline
 66
               1
 10
0.0
 20
0.0
 30
0.0
 75
               5
  0
VERTEX
  5
424
100
AcDbEntity
  8
0
370
              -2
390
0
  6
Continuous
 62
               0
100
AcDbVertex
100
AcDb2dVertex
 10
326.21222786365502
 20
880.3065293520217
 30
0.0
  0
VERTEX
  5
425
100
AcDbEntity
  8
0
370
              -2
390
0
  6
Continuous
 62
               0
100
AcDbVertex
100
AcDb2dVertex
 10
363.72156624256127
 20
870.25593242476805
 30
0.0
  0
VERTEX
  5
426
100
AcDbEntity
  8
0
370
              -2
390
0
  6
Continuous
 62
               0
100
AcDbVertex
100
AcDb2dVertex
 10
326.21222786365502
 20
860.2053354975144
 30
0.0
  0
SEQEND
  5
427
100
AcDbEntity
  8
0
370
              -2
390
0
  6
Continuous
 62
               0
  0
MTEXT
  5
428
100
AcDbEntity
  8
寸法
390
0
 62
               0
100
AcDbMText
 10
440.89084042177103
 20
935.51116679976826
 30
0.0
 40
48.865234375000092
 41
0.0
 71
               1
 72
               1
  1
{\fＭＳ ゴシック|b0|i0|c128|p0;\l3}
 73
               1
 44
0.7828267384257843
  0
POINT
  5
429
100
AcDbEntity
  8
Defpoints
370
               0
390
0
 62
               0
100
AcDbPoint
 10
363.72156624256127
 20
938.2896993695972
 30
0.0
  0
POINT
  5
42A
100
AcDbEntity
  8
Defpoints
370
               0
390
0
 62
               0
100
AcDbPoint
 10
360.72156624256127
 20
938.2896993695972
 30
0.0
  0
POINT
  5
42B
100
AcDbEntity
  8
Defpoints
370
               0
390
0
 62
               0
100
AcDbPoint
 10
360.72156624256127
 20
870.25593242476805
 30
0.0
  0
ENDBLK
  5
42C
100
AcDbEntity
  8
寸法
390
0
100
AcDbBlockEnd
  0
BLOCK
  5
42D
100
AcDbEntity
  8
寸法
390
0
100
AcDbBlockBegin
  2
*D40
 70
               1
 10
0.0
 20
0.0
 30
0.0
  3
*D40
  1

  0
LINE
  5
42E
100
AcDbEntity
  8
寸法
370
              -2
390
0
  6
Continuous
 62
               0
100
AcDbLine
 10
-376.2784337574401
 20
706.35658070443469
 30
0.0
 11
-479.98415957822897
 21
706.35658070443469
 31
0.0
  0
LINE
  5
42F
100
AcDbEntity
  8
寸法
370
              -2
390
0
  6
Continuous
 62
               0
100
AcDbLine
 10
-376.2784337574401
 20
606.35658070443469
 30
0.0
 11
-479.98415957822897
 21
606.35658070443469
 31
0.0
  0
LINE
  5
430
100
AcDbEntity
  8
寸法
370
              -2
390
0
  6
Continuous
 62
               0
100
AcDbLine
 10
-449.98415957822897
 20
706.35658070443469
 30
0.0
 11
-449.98415957822897
 21
606.35658070443469
 31
0.0
  0
POLYLINE
  5
431
100
AcDbEntity
  8
0
370
              -2
390
0
  6
Continuous
 62
               0
100
AcDb2dPolyline
 66
               1
 10
0.0
 20
0.0
 30
0.0
 75
               5
  0
VERTEX
  5
432
100
AcDbEntity
  8
0
370
              -2
390
0
  6
Continuous
 62
               0
100
AcDbVertex
100
AcDb2dVertex
 10
-460.03475650548262
 20
668.84724232552844
 30
0.0
  0
VERTEX
  5
433
100
AcDbEntity
  8
0
370
              -2
390
0
  6
Continuous
 62
               0
100
AcDbVertex
100
AcDb2dVertex
 10
-449.98415957822897
 20
706.35658070443469
 30
0.0
  0
VERTEX
  5
434
100
AcDbEntity
  8
0
370
              -2
390
0
  6
Continuous
 62
               0
100
AcDbVertex
100
AcDb2dVertex
 10
-439.93356265097532
 20
668.84724232552844
 30
0.0
  0
SEQEND
  5
435
100
AcDbEntity
  8
0
370
              -2
390
0
  6
Continuous
 62
               0
  0
POLYLINE
  5
436
100
AcDbEntity
  8
0
370
              -2
390
0
  6
Continuous
 62
               0
100
AcDb2dPolyline
 66
               1
 10
0.0
 20
0.0
 30
0.0
 75
               5
  0
VERTEX
  5
437
100
AcDbEntity
  8
0
370
              -2
390
0
  6
Continuous
 62
               0
100
AcDbVertex
100
AcDb2dVertex
 10
-439.93356265097532
 20
643.86591908334094
 30
0.0
  0
VERTEX
  5
438
100
AcDbEntity
  8
0
370
              -2
390
0
  6
Continuous
 62
               0
100
AcDbVertex
100
AcDb2dVertex
 10
-449.98415957822897
 20
606.35658070443469
 30
0.0
  0
VERTEX
  5
439
100
AcDbEntity
  8
0
370
              -2
390
0
  6
Continuous
 62
               0
100
AcDbVertex
100
AcDb2dVertex
 10
-460.03475650548262
 20
643.86591908334094
 30
0.0
  0
SEQEND
  5
43A
100
AcDbEntity
  8
0
370
              -2
390
0
  6
Continuous
 62
               0
  0
MTEXT
  5
43B
100
AcDbEntity
  8
寸法
390
0
 62
               0
100
AcDbMText
 10
-515.23939395322907
 20
608.73158070443469
 30
0.0
 40
48.865234375000092
 41
0.0
 71
               1
 72
               1
  1
{\fＭＳ ゴシック|b0|i0|c128|p0;\l100}
 11
0.0
 21
1.0
 31
0.0
 73
               1
 44
0.7828267384257843
  0
POINT
  5
43C
100
AcDbEntity
  8
Defpoints
370
               0
390
0
 62
               0
100
AcDbPoint
 10
-346.2784337574401
 20
606.35658070443469
 30
0.0
  0
POINT
  5
43D
100
AcDbEntity
  8
Defpoints
370
               0
390
0
 62
               0
100
AcDbPoint
 10
-346.2784337574401
 20
706.35658070443469
 30
0.0
  0
POINT
  5
43E
100
AcDbEntity
  8
Defpoints
370
               0
390
0
 62
               0
100
AcDbPoint
 10
-449.98415957822897
 20
706.35658070443469
 30
0.0
  0
ENDBLK
  5
43F
100
AcDbEntity
  8
寸法
390
0
100
AcDbBlockEnd
  0
BLOCK
  5
440
100
AcDbEntity
  8
寸法
390
0
100
AcDbBlockBegin
  2
*D41
 70
               1
 10
0.0
 20
0.0
 30
0.0
  3
*D41
  1

  0
LINE
  5
441
100
AcDbEntity
  8
寸法
370
              -2
390
0
  6
Continuous
 62
               0
100
AcDbLine
 10
8.72156624255976
 20
626.35658070443469
 30
0.0
 11
8.72156624255976
 21
487.29238406634829
 31
0.0
  0
LINE
  5
442
100
AcDbEntity
  8
寸法
370
              -2
390
0
  6
Continuous
 62
               0
100
AcDbLine
 10
68.721566242560016
 20
626.35658070443469
 30
0.0
 11
68.721566242560016
 21
487.29238406634829
 31
0.0
  0
LINE
  5
443
100
AcDbEntity
  8
寸法
370
              -2
390
0
  6
Continuous
 62
               0
100
AcDbLine
 10
8.72156624255976
 20
517.29238406634829
 30
0.0
 11
68.721566242560016
 21
517.29238406634829
 31
0.0
  0
POLYLINE
  5
444
100
AcDbEntity
  8
0
370
              -2
390
0
  6
Continuous
 62
               0
100
AcDb2dPolyline
 66
               1
 10
0.0
 20
0.0
 30
0.0
 75
               5
  0
VERTEX
  5
445
100
AcDbEntity
  8
0
370
              -2
390
0
  6
Continuous
 62
               0
100
AcDbVertex
100
AcDb2dVertex
 10
46.23090462146601
 20
507.24178713909464
 30
0.0
  0
VERTEX
  5
446
100
AcDbEntity
  8
0
370
              -2
390
0
  6
Continuous
 62
               0
100
AcDbVertex
100
AcDb2dVertex
 10
8.72156624255976
 20
517.29238406634829
 30
0.0
  0
VERTEX
  5
447
100
AcDbEntity
  8
0
370
              -2
390
0
  6
Continuous
 62
               0
100
AcDbVertex
100
AcDb2dVertex
 10
46.23090462146601
 20
527.34298099360194
 30
0.0
  0
SEQEND
  5
448
100
AcDbEntity
  8
0
370
              -2
390
0
  6
Continuous
 62
               0
  0
POLYLINE
  5
449
100
AcDbEntity
  8
0
370
              -2
390
0
  6
Continuous
 62
               0
100
AcDb2dPolyline
 66
               1
 10
0.0
 20
0.0
 30
0.0
 75
               5
  0
VERTEX
  5
44A
100
AcDbEntity
  8
0
370
              -2
390
0
  6
Continuous
 62
               0
100
AcDbVertex
100
AcDb2dVertex
 10
31.212227863653766
 20
527.34298099360194
 30
0.0
  0
VERTEX
  5
44B
100
AcDbEntity
  8
0
370
              -2
390
0
  6
Continuous
 62
               0
100
AcDbVertex
100
AcDb2dVertex
 10
68.721566242560016
 20
517.29238406634829
 30
0.0
  0
VERTEX
  5
44C
100
AcDbEntity
  8
0
370
              -2
390
0
  6
Continuous
 62
               0
100
AcDbVertex
100
AcDb2dVertex
 10
31.212227863653773
 20
507.24178713909464
 30
0.0
  0
SEQEND
  5
44D
100
AcDbEntity
  8
0
370
              -2
390
0
  6
Continuous
 62
               0
  0
MTEXT
  5
44E
100
AcDbEntity
  8
寸法
390
0
 62
               0
100
AcDbMText
 10
6.9715662425598879
 20
582.5476184413485
 30
0.0
 40
48.865234375000092
 41
0.0
 71
               1
 72
               1
  1
{\fＭＳ ゴシック|b0|i0|c128|p0;\l60}
 73
               1
 44
0.7828267384257843
  0
POINT
  5
44F
100
AcDbEntity
  8
Defpoints
370
               0
390
0
 62
               0
100
AcDbPoint
 10
68.721566242560016
 20
656.35658070443469
 30
0.0
  0
POINT
  5
450
100
AcDbEntity
  8
Defpoints
370
               0
390
0
 62
               0
100
AcDbPoint
 10
8.72156624255976
 20
656.35658070443469
 30
0.0
  0
POINT
  5
451
100
AcDbEntity
  8
Defpoints
370
               0
390
0
 62
               0
100
AcDbPoint
 10
8.72156624255976
 20
517.29238406634829
 30
0.0
  0
ENDBLK
  5
452
100
AcDbEntity
  8
寸法
390
0
100
AcDbBlockEnd
  0
BLOCK
  5
453
100
AcDbEntity
  8
寸法
390
0
100
AcDbBlockBegin
  2
*D42
 70
               1
 10
0.0
 20
0.0
 30
0.0
  3
*D42
  1

  0
LINE
  5
454
100
AcDbEntity
  8
寸法
370
              -2
390
0
  6
Continuous
 62
               0
100
AcDbLine
 10
8.7215662425597884
 20
626.35658070443469
 30
0.0
 11
8.7215662425597884
 21
387.29238406634829
 31
0.0
  0
LINE
  5
455
100
AcDbEntity
  8
寸法
370
              -2
390
0
  6
Continuous
 62
               0
100
AcDbLine
 10
128.72156624256002
 20
626.35658070443469
 30
0.0
 11
128.72156624256002
 21
387.29238406634829
 31
0.0
  0
LINE
  5
456
100
AcDbEntity
  8
寸法
370
              -2
390
0
  6
Continuous
 62
               0
100
AcDbLine
 10
8.7215662425597884
 20
417.29238406634829
 30
0.0
 11
128.72156624256002
 21
417.29238406634829
 31
0.0
  0
POLYLINE
  5
457
100
AcDbEntity
  8
0
370
              -2
390
0
  6
Continuous
 62
               0
100
AcDb2dPolyline
 66
               1
 10
0.0
 20
0.0
 30
0.0
 75
               5
  0
VERTEX
  5
458
100
AcDbEntity
  8
0
370
              -2
390
0
  6
Continuous
 62
               0
100
AcDbVertex
100
AcDb2dVertex
 10
46.230904621466038
 20
407.24178713909464
 30
0.0
  0
VERTEX
  5
459
100
AcDbEntity
  8
0
370
              -2
390
0
  6
Continuous
 62
               0
100
AcDbVertex
100
AcDb2dVertex
 10
8.7215662425597884
 20
417.29238406634829
 30
0.0
  0
VERTEX
  5
45A
100
AcDbEntity
  8
0
370
              -2
390
0
  6
Continuous
 62
               0
100
AcDbVertex
100
AcDb2dVertex
 10
46.230904621466038
 20
427.34298099360194
 30
0.0
  0
SEQEND
  5
45B
100
AcDbEntity
  8
0
370
              -2
390
0
  6
Continuous
 62
               0
  0
POLYLINE
  5
45C
100
AcDbEntity
  8
0
370
              -2
390
0
  6
Continuous
 62
               0
100
AcDb2dPolyline
 66
               1
 10
0.0
 20
0.0
 30
0.0
 75
               5
  0
VERTEX
  5
45D
100
AcDbEntity
  8
0
370
              -2
390
0
  6
Continuous
 62
               0
100
AcDbVertex
100
AcDb2dVertex
 10
91.212227863653766
 20
427.34298099360194
 30
0.0
  0
VERTEX
  5
45E
100
AcDbEntity
  8
0
370
              -2
390
0
  6
Continuous
 62
               0
100
AcDbVertex
100
AcDb2dVertex
 10
128.72156624256002
 20
417.29238406634829
 30
0.0
  0
VERTEX
  5
45F
100
AcDbEntity
  8
0
370
              -2
390
0
  6
Continuous
 62
               0
100
AcDbVertex
100
AcDb2dVertex
 10
91.212227863653766
 20
407.24178713909464
 30
0.0
  0
SEQEND
  5
460
100
AcDbEntity
  8
0
370
              -2
390
0
  6
Continuous
 62
               0
  0
MTEXT
  5
461
100
AcDbEntity
  8
寸法
390
0
 62
               0
100
AcDbMText
 10
27.390840421771031
 20
482.54761844134839
 30
0.0
 40
48.865234375000092
 41
0.0
 71
               1
 72
               1
  1
{\fＭＳ ゴシック|b0|i0|c128|p0;\l120}
 73
               1
 44
0.7828267384257843
  0
POINT
  5
462
100
AcDbEntity
  8
Defpoints
370
               0
390
0
 62
               0
100
AcDbPoint
 10
128.72156624256002
 20
656.35658070443469
 30
0.0
  0
POINT
  5
463
100
AcDbEntity
  8
Defpoints
370
               0
390
0
 62
               0
100
AcDbPoint
 10
8.7215662425597884
 20
656.35658070443469
 30
0.0
  0
POINT
  5
464
100
AcDbEntity
  8
Defpoints
370
               0
390
0
 62
               0
100
AcDbPoint
 10
8.7215662425597884
 20
417.29238406634829
 30
0.0
  0
ENDBLK
  5
465
100
AcDbEntity
  8
寸法
390
0
100
AcDbBlockEnd
  0
BLOCK
  5
466
100
AcDbEntity
  8
寸法
390
0
100
AcDbBlockBegin
  2
*D43
 70
               1
 10
0.0
 20
0.0
 30
0.0
  3
*D43
  1

  0
LINE
  5
467
100
AcDbEntity
  8
寸法
370
              -2
390
0
  6
Continuous
 62
               0
100
AcDbLine
 10
8.7215662425597884
 20
626.35658070443469
 30
0.0
 11
8.7215662425597884
 21
287.29238406634829
 31
0.0
  0
LINE
  5
468
100
AcDbEntity
  8
寸法
370
              -2
390
0
  6
Continuous
 62
               0
100
AcDbLine
 10
248.7215662425599
 20
626.3565807044348
 30
0.0
 11
248.7215662425599
 21
287.29238406634829
 31
0.0
  0
LINE
  5
469
100
AcDbEntity
  8
寸法
370
              -2
390
0
  6
Continuous
 62
               0
100
AcDbLine
 10
8.7215662425597884
 20
317.29238406634829
 30
0.0
 11
248.7215662425599
 21
317.29238406634829
 31
0.0
  0
POLYLINE
  5
46A
100
AcDbEntity
  8
0
370
              -2
390
0
  6
Continuous
 62
               0
100
AcDb2dPolyline
 66
               1
 10
0.0
 20
0.0
 30
0.0
 75
               5
  0
VERTEX
  5
46B
100
AcDbEntity
  8
0
370
              -2
390
0
  6
Continuous
 62
               0
100
AcDbVertex
100
AcDb2dVertex
 10
46.230904621466038
 20
307.24178713909464
 30
0.0
  0
VERTEX
  5
46C
100
AcDbEntity
  8
0
370
              -2
390
0
  6
Continuous
 62
               0
100
AcDbVertex
100
AcDb2dVertex
 10
8.7215662425597884
 20
317.29238406634829
 30
0.0
  0
VERTEX
  5
46D
100
AcDbEntity
  8
0
370
              -2
390
0
  6
Continuous
 62
               0
100
AcDbVertex
100
AcDb2dVertex
 10
46.230904621466038
 20
327.34298099360194
 30
0.0
  0
SEQEND
  5
46E
100
AcDbEntity
  8
0
370
              -2
390
0
  6
Continuous
 62
               0
  0
POLYLINE
  5
46F
100
AcDbEntity
  8
0
370
              -2
390
0
  6
Continuous
 62
               0
100
AcDb2dPolyline
 66
               1
 10
0.0
 20
0.0
 30
0.0
 75
               5
  0
VERTEX
  5
470
100
AcDbEntity
  8
0
370
              -2
390
0
  6
Continuous
 62
               0
100
AcDbVertex
100
AcDb2dVertex
 10
211.21222786365365
 20
327.34298099360194
 30
0.0
  0
VERTEX
  5
471
100
AcDbEntity
  8
0
370
              -2
390
0
  6
Continuous
 62
               0
100
AcDbVertex
100
AcDb2dVertex
 10
248.7215662425599
 20
317.29238406634829
 30
0.0
  0
VERTEX
  5
472
100
AcDbEntity
  8
0
370
              -2
390
0
  6
Continuous
 62
               0
100
AcDbVertex
100
AcDb2dVertex
 10
211.21222786365365
 20
307.24178713909464
 30
0.0
  0
SEQEND
  5
473
100
AcDbEntity
  8
0
370
              -2
390
0
  6
Continuous
 62
               0
  0
MTEXT
  5
474
100
AcDbEntity
  8
寸法
390
0
 62
               0
100
AcDbMText
 10
102.39084042177103
 20
382.54761844134839
 30
0.0
 40
48.865234375000092
 41
0.0
 71
               1
 72
               1
  1
{\fＭＳ ゴシック|b0|i0|c128|p0;\l240}
 73
               1
 44
0.7828267384257843
  0
POINT
  5
475
100
AcDbEntity
  8
Defpoints
370
               0
390
0
 62
               0
100
AcDbPoint
 10
248.7215662425599
 20
656.3565807044348
 30
0.0
  0
POINT
  5
476
100
AcDbEntity
  8
Defpoints
370
               0
390
0
 62
               0
100
AcDbPoint
 10
8.7215662425597884
 20
656.35658070443469
 30
0.0
  0
POINT
  5
477
100
AcDbEntity
  8
Defpoints
370
               0
390
0
 62
               0
100
AcDbPoint
 10
8.7215662425597884
 20
317.29238406634829
 30
0.0
  0
ENDBLK
  5
478
100
AcDbEntity
  8
寸法
390
0
100
AcDbBlockEnd
  0
BLOCK
  5
479
100
AcDbEntity
  8
寸法
390
0
100
AcDbBlockBegin
  2
*D44
 70
               1
 10
0.0
 20
0.0
 30
0.0
  3
*D44
  1

  0
LINE
  5
47A
100
AcDbEntity
  8
寸法
370
              -2
390
0
  6
Continuous
 62
               0
100
AcDbLine
 10
-51.278433757439984
 20
626.35658070443469
 30
0.0
 11
-51.278433757439984
 21
487.29238406634829
 31
0.0
  0
LINE
  5
47B
100
AcDbEntity
  8
寸法
370
              -2
390
0
  6
Continuous
 62
               0
100
AcDbLine
 10
8.7215662425597884
 20
626.35658070443469
 30
0.0
 11
8.7215662425597884
 21
487.29238406634829
 31
0.0
  0
LINE
  5
47C
100
AcDbEntity
  8
寸法
370
              -2
390
0
  6
Continuous
 62
               0
100
AcDbLine
 10
-51.278433757439984
 20
517.29238406634829
 30
0.0
 11
8.7215662425597884
 21
517.29238406634829
 31
0.0
  0
POLYLINE
  5
47D
100
AcDbEntity
  8
0
370
              -2
390
0
  6
Continuous
 62
               0
100
AcDb2dPolyline
 66
               1
 10
0.0
 20
0.0
 30
0.0
 75
               5
  0
VERTEX
  5
47E
100
AcDbEntity
  8
0
370
              -2
390
0
  6
Continuous
 62
               0
100
AcDbVertex
100
AcDb2dVertex
 10
-13.769095378533734
 20
507.24178713909464
 30
0.0
  0
VERTEX
  5
47F
100
AcDbEntity
  8
0
370
              -2
390
0
  6
Continuous
 62
               0
100
AcDbVertex
100
AcDb2dVertex
 10
-51.278433757439984
 20
517.29238406634829
 30
0.0
  0
VERTEX
  5
480
100
AcDbEntity
  8
0
370
              -2
390
0
  6
Continuous
 62
               0
100
AcDbVertex
100
AcDb2dVertex
 10
-13.769095378533734
 20
527.34298099360194
 30
0.0
  0
SEQEND
  5
481
100
AcDbEntity
  8
0
370
              -2
390
0
  6
Continuous
 62
               0
  0
POLYLINE
  5
482
100
AcDbEntity
  8
0
370
              -2
390
0
  6
Continuous
 62
               0
100
AcDb2dPolyline
 66
               1
 10
0.0
 20
0.0
 30
0.0
 75
               5
  0
VERTEX
  5
483
100
AcDbEntity
  8
0
370
              -2
390
0
  6
Continuous
 62
               0
100
AcDbVertex
100
AcDb2dVertex
 10
-28.787772136346462
 20
527.34298099360194
 30
0.0
  0
VERTEX
  5
484
100
AcDbEntity
  8
0
370
              -2
390
0
  6
Continuous
 62
               0
100
AcDbVertex
100
AcDb2dVertex
 10
8.7215662425597884
 20
517.29238406634829
 30
0.0
  0
VERTEX
  5
485
100
AcDbEntity
  8
0
370
              -2
390
0
  6
Continuous
 62
               0
100
AcDbVertex
100
AcDb2dVertex
 10
-28.787772136346454
 20
507.24178713909464
 30
0.0
  0
SEQEND
  5
486
100
AcDbEntity
  8
0
370
              -2
390
0
  6
Continuous
 62
               0
  0
MTEXT
  5
487
100
AcDbEntity
  8
寸法
390
0
 62
               0
100
AcDbMText
 10
-53.028433757440098
 20
582.5476184413485
 30
0.0
 40
48.865234375000092
 41
0.0
 71
               1
 72
               1
  1
{\fＭＳ ゴシック|b0|i0|c128|p0;\l60}
 73
               1
 44
0.7828267384257843
  0
POINT
  5
488
100
AcDbEntity
  8
Defpoints
370
               0
390
0
 62
               0
100
AcDbPoint
 10
8.7215662425597884
 20
656.35658070443469
 30
0.0
  0
POINT
  5
489
100
AcDbEntity
  8
Defpoints
370
               0
390
0
 62
               0
100
AcDbPoint
 10
-51.278433757439984
 20
656.35658070443469
 30
0.0
  0
POINT
  5
48A
100
AcDbEntity
  8
Defpoints
370
               0
390
0
 62
               0
100
AcDbPoint
 10
-51.278433757439984
 20
517.29238406634829
 30
0.0
  0
ENDBLK
  5
48B
100
AcDbEntity
  8
寸法
390
0
100
AcDbBlockEnd
  0
BLOCK
  5
48C
100
AcDbEntity
  8
寸法
390
0
100
AcDbBlockBegin
  2
*D45
 70
               1
 10
0.0
 20
0.0
 30
0.0
  3
*D45
  1

  0
LINE
  5
48D
100
AcDbEntity
  8
寸法
370
              -2
390
0
  6
Continuous
 62
               0
100
AcDbLine
 10
8.72156624255976
 20
626.35658070443469
 30
0.0
 11
8.72156624255976
 21
387.29238406634829
 31
0.0
  0
LINE
  5
48E
100
AcDbEntity
  8
寸法
370
              -2
390
0
  6
Continuous
 62
               0
100
AcDbLine
 10
-111.27843375744021
 20
626.35658070443469
 30
0.0
 11
-111.27843375744021
 21
387.29238406634829
 31
0.0
  0
LINE
  5
48F
100
AcDbEntity
  8
寸法
370
              -2
390
0
  6
Continuous
 62
               0
100
AcDbLine
 10
8.72156624255976
 20
417.29238406634829
 30
0.0
 11
-111.27843375744021
 21
417.29238406634829
 31
0.0
  0
POLYLINE
  5
490
100
AcDbEntity
  8
0
370
              -2
390
0
  6
Continuous
 62
               0
100
AcDb2dPolyline
 66
               1
 10
0.0
 20
0.0
 30
0.0
 75
               5
  0
VERTEX
  5
491
100
AcDbEntity
  8
0
370
              -2
390
0
  6
Continuous
 62
               0
100
AcDbVertex
100
AcDb2dVertex
 10
-28.78777213634649
 20
427.34298099360194
 30
0.0
  0
VERTEX
  5
492
100
AcDbEntity
  8
0
370
              -2
390
0
  6
Continuous
 62
               0
100
AcDbVertex
100
AcDb2dVertex
 10
8.72156624255976
 20
417.29238406634829
 30
0.0
  0
VERTEX
  5
493
100
AcDbEntity
  8
0
370
              -2
390
0
  6
Continuous
 62
               0
100
AcDbVertex
100
AcDb2dVertex
 10
-28.787772136346483
 20
407.24178713909464
 30
0.0
  0
SEQEND
  5
494
100
AcDbEntity
  8
0
370
              -2
390
0
  6
Continuous
 62
               0
  0
POLYLINE
  5
495
100
AcDbEntity
  8
0
370
              -2
390
0
  6
Continuous
 62
               0
100
AcDb2dPolyline
 66
               1
 10
0.0
 20
0.0
 30
0.0
 75
               5
  0
VERTEX
  5
496
100
AcDbEntity
  8
0
370
              -2
390
0
  6
Continuous
 62
               0
100
AcDbVertex
100
AcDb2dVertex
 10
-73.769095378533962
 20
407.24178713909464
 30
0.0
  0
VERTEX
  5
497
100
AcDbEntity
  8
0
370
              -2
390
0
  6
Continuous
 62
               0
100
AcDbVertex
100
AcDb2dVertex
 10
-111.27843375744021
 20
417.29238406634829
 30
0.0
  0
VERTEX
  5
498
100
AcDbEntity
  8
0
370
              -2
390
0
  6
Continuous
 62
               0
100
AcDbVertex
100
AcDb2dVertex
 10
-73.769095378533962
 20
427.34298099360194
 30
0.0
  0
SEQEND
  5
499
100
AcDbEntity
  8
0
370
              -2
390
0
  6
Continuous
 62
               0
  0
MTEXT
  5
49A
100
AcDbEntity
  8
寸法
390
0
 62
               0
100
AcDbMText
 10
-98.903433757440226
 20
482.54761844134839
 30
0.0
 40
48.865234375000092
 41
0.0
 71
               1
 72
               1
  1
{\fＭＳ ゴシック|b0|i0|c128|p0;\l120}
 73
               1
 44
0.7828267384257843
  0
POINT
  5
49B
100
AcDbEntity
  8
Defpoints
370
               0
390
0
 62
               0
100
AcDbPoint
 10
-111.27843375744021
 20
656.35658070443469
 30
0.0
  0
POINT
  5
49C
100
AcDbEntity
  8
Defpoints
370
               0
390
0
 62
               0
100
AcDbPoint
 10
8.72156624255976
 20
656.35658070443469
 30
0.0
  0
POINT
  5
49D
100
AcDbEntity
  8
Defpoints
370
               0
390
0
 62
               0
100
AcDbPoint
 10
8.72156624255976
 20
417.29238406634829
 30
0.0
  0
ENDBLK
  5
49E
100
AcDbEntity
  8
寸法
390
0
100
AcDbBlockEnd
  0
BLOCK
  5
49F
100
AcDbEntity
  8
寸法
390
0
100
AcDbBlockBegin
  2
*D46
 70
               1
 10
0.0
 20
0.0
 30
0.0
  3
*D46
  1

  0
LINE
  5
4A0
100
AcDbEntity
  8
寸法
370
              -2
390
0
  6
Continuous
 62
               0
100
AcDbLine
 10
8.72156624255976
 20
626.35658070443469
 30
0.0
 11
8.72156624255976
 21
287.29238406634829
 31
0.0
  0
LINE
  5
4A1
100
AcDbEntity
  8
寸法
370
              -2
390
0
  6
Continuous
 62
               0
100
AcDbLine
 10
-231.2784337574401
 20
626.35658070443469
 30
0.0
 11
-231.2784337574401
 21
287.29238406634829
 31
0.0
  0
LINE
  5
4A2
100
AcDbEntity
  8
寸法
370
              -2
390
0
  6
Continuous
 62
               0
100
AcDbLine
 10
8.72156624255976
 20
317.29238406634829
 30
0.0
 11
-231.2784337574401
 21
317.29238406634829
 31
0.0
  0
POLYLINE
  5
4A3
100
AcDbEntity
  8
0
370
              -2
390
0
  6
Continuous
 62
               0
100
AcDb2dPolyline
 66
               1
 10
0.0
 20
0.0
 30
0.0
 75
               5
  0
VERTEX
  5
4A4
100
AcDbEntity
  8
0
370
              -2
390
0
  6
Continuous
 62
               0
100
AcDbVertex
100
AcDb2dVertex
 10
-28.78777213634649
 20
327.34298099360194
 30
0.0
  0
VERTEX
  5
4A5
100
AcDbEntity
  8
0
370
              -2
390
0
  6
Continuous
 62
               0
100
AcDbVertex
100
AcDb2dVertex
 10
8.72156624255976
 20
317.29238406634829
 30
0.0
  0
VERTEX
  5
4A6
100
AcDbEntity
  8
0
370
              -2
390
0
  6
Continuous
 62
               0
100
AcDbVertex
100
AcDb2dVertex
 10
-28.787772136346483
 20
307.24178713909464
 30
0.0
  0
SEQEND
  5
4A7
100
AcDbEntity
  8
0
370
              -2
390
0
  6
Continuous
 62
               0
  0
POLYLINE
  5
4A8
100
AcDbEntity
  8
0
370
              -2
390
0
  6
Continuous
 62
               0
100
AcDb2dPolyline
 66
               1
 10
0.0
 20
0.0
 30
0.0
 75
               5
  0
VERTEX
  5
4A9
100
AcDbEntity
  8
0
370
              -2
390
0
  6
Continuous
 62
               0
100
AcDbVertex
100
AcDb2dVertex
 10
-193.76909537853385
 20
307.24178713909464
 30
0.0
  0
VERTEX
  5
4AA
100
AcDbEntity
  8
0
370
              -2
390
0
  6
Continuous
 62
               0
100
AcDbVertex
100
AcDb2dVertex
 10
-231.2784337574401
 20
317.29238406634829
 30
0.0
  0
VERTEX
  5
4AB
100
AcDbEntity
  8
0
370
              -2
390
0
  6
Continuous
 62
               0
100
AcDbVertex
100
AcDb2dVertex
 10
-193.76909537853385
 20
327.34298099360194
 30
0.0
  0
SEQEND
  5
4AC
100
AcDbEntity
  8
0
370
              -2
390
0
  6
Continuous
 62
               0
  0
MTEXT
  5
4AD
100
AcDbEntity
  8
寸法
390
0
 62
               0
100
AcDbMText
 10
-158.90343375744015
 20
382.54761844134839
 30
0.0
 40
48.865234375000092
 41
0.0
 71
               1
 72
               1
  1
{\fＭＳ ゴシック|b0|i0|c128|p0;\l240}
 73
               1
 44
0.7828267384257843
  0
POINT
  5
4AE
100
AcDbEntity
  8
Defpoints
370
               0
390
0
 62
               0
100
AcDbPoint
 10
-231.2784337574401
 20
656.35658070443469
 30
0.0
  0
POINT
  5
4AF
100
AcDbEntity
  8
Defpoints
370
               0
390
0
 62
               0
100
AcDbPoint
 10
8.72156624255976
 20
656.35658070443469
 30
0.0
  0
POINT
  5
4B0
100
AcDbEntity
  8
Defpoints
370
               0
390
0
 62
               0
100
AcDbPoint
 10
8.72156624255976
 20
317.29238406634829
 30
0.0
  0
ENDBLK
  5
4B1
100
AcDbEntity
  8
寸法
390
0
100
AcDbBlockEnd
  0
BLOCK
  5
4B2
100
AcDbEntity
  8
寸法
390
0
100
AcDbBlockBegin
  2
*D47
 70
               1
 10
0.0
 20
0.0
 30
0.0
  3
*D47
  1

  0
LINE
  5
4B3
100
AcDbEntity
  8
寸法
370
              -2
390
0
  6
Continuous
 62
               0
100
AcDbLine
 10
71.25187809335111
 20
659.45456746001423
 30
0.0
 11
163.41330004332721
 21
772.29238406634829
 31
0.0
  0
LINE
  5
4B4
100
AcDbEntity
  8
寸法
370
              -2
390
0
  6
Continuous
 62
               0
100
AcDbLine
 10
163.41330004332721
 20
772.29238406634829
 30
0.0
 11
256.91330004332724
 21
772.29238406634829
 31
0.0
  0
LINE
  5
4B5
100
AcDbEntity
  8
寸法
370
              -2
390
0
  6
Continuous
 62
               0
100
AcDbLine
 10
66.191254391768865
 20
653.25859394885515
 30
0.0
 11
71.25187809335111
 21
659.45456746001423
 31
0.0
  0
POLYLINE
  5
4B6
100
AcDbEntity
  8
0
370
              -2
390
0
  6
Continuous
 62
               0
100
AcDb2dPolyline
 66
               1
 10
0.0
 20
0.0
 30
0.0
 75
               5
  0
VERTEX
  5
4B7
100
AcDbEntity
  8
0
370
              -2
390
0
  6
Continuous
 62
               0
100
AcDbVertex
100
AcDb2dVertex
 10
98.000996275420917
 20
675.5320150042935
 30
0.0
  0
VERTEX
  5
4B8
100
AcDbEntity
  8
0
370
              -2
390
0
  6
Continuous
 62
               0
100
AcDbVertex
100
AcDb2dVertex
 10
66.191254391768865
 20
653.25859394885515
 30
0.0
  0
VERTEX
  5
4B9
100
AcDbEntity
  8
0
370
              -2
390
0
  6
Continuous
 62
               0
100
AcDbVertex
100
AcDb2dVertex
 10
82.602588423118249
 20
688.4528133538779
 30
0.0
  0
SEQEND
  5
4BA
100
AcDbEntity
  8
0
370
              -2
390
0
  6
Continuous
 62
               0
  0
POLYLINE
  5
4BB
100
AcDbEntity
  8
0
370
              -2
390
0
  6
Continuous
 62
               0
100
AcDb2dPolyline
 66
               1
 10
0.0
 20
0.0
 30
0.0
 75
               5
  0
VERTEX
  5
4BC
100
AcDbEntity
  8
0
370
              -2
390
0
  6
Continuous
 62
               0
100
AcDbVertex
100
AcDb2dVertex
 10
39.835705784470143
 20
636.62938221046784
 30
0.0
  0
VERTEX
  5
4BD
100
AcDbEntity
  8
0
370
              -2
390
0
  6
Continuous
 62
               0
100
AcDbVertex
100
AcDb2dVertex
 10
71.25187809335111
 20
659.45456746001423
 30
0.0
  0
VERTEX
  5
4BE
100
AcDbEntity
  8
0
370
              -2
390
0
  6
Continuous
 62
               0
100
AcDbVertex
100
AcDb2dVertex
 10
55.457267408964171
 20
623.97929103338072
 30
0.0
  0
SEQEND
  5
4BF
100
AcDbEntity
  8
0
370
              -2
390
0
  6
Continuous
 62
               0
  0
MTEXT
  5
4C0
100
AcDbEntity
  8
寸法
390
0
 62
               0
100
AcDbMText
 10
193.41330004332721
 20
837.5476184413485
 30
0.0
 40
48.865234375000092
 41
0.0
 71
               1
 72
               1
  1
{\fＭＳ ゴシック|b0|i0|c128|p0;\lM6}
 73
               1
 44
0.7828267384257843
  0
POINT
  5
4C1
100
AcDbEntity
  8
Defpoints
370
               0
390
0
 62
               0
100
AcDbPoint
 10
66.191254391768865
 20
653.25859394885515
 30
0.0
  0
POINT
  5
4C2
100
AcDbEntity
  8
Defpoints
370
               0
390
0
 62
               0
100
AcDbPoint
 10
71.25187809335111
 20
659.45456746001423
 30
0.0
  0
ENDBLK
  5
4C3
100
AcDbEntity
  8
寸法
390
0
100
AcDbBlockEnd
  0
BLOCK
  5
4C4
100
AcDbEntity
  8
寸法
390
0
100
AcDbBlockBegin
  2
*D48
 70
               1
 10
0.0
 20
0.0
 30
0.0
  3
*D48
  1

  0
LINE
  5
4C5
100
AcDbEntity
  8
寸法
370
              -2
390
0
  6
Continuous
 62
               0
100
AcDbLine
 10
-233.90763245128733
 20
661.7498463411589
 30
0.0
 11
-299.98415957822897
 21
797.29238406634829
 31
0.0
  0
LINE
  5
4C6
100
AcDbEntity
  8
寸法
370
              -2
390
0
  6
Continuous
 62
               0
100
AcDbLine
 10
-299.98415957822897
 20
797.29238406634829
 30
0.0
 11
-456.98415957822897
 21
797.29238406634829
 31
0.0
  0
LINE
  5
4C7
100
AcDbEntity
  8
寸法
370
              -2
390
0
  6
Continuous
 62
               0
100
AcDbLine
 10
-228.64923506359276
 20
650.96331506771025
 30
0.0
 11
-233.90763245128733
 21
661.7498463411589
 31
0.0
  0
POLYLINE
  5
4C8
100
AcDbEntity
  8
0
370
              -2
390
0
  6
Continuous
 62
               0
100
AcDb2dPolyline
 66
               1
 10
0.0
 20
0.0
 30
0.0
 75
               5
  0
VERTEX
  5
4C9
100
AcDbEntity
  8
0
370
              -2
390
0
  6
Continuous
 62
               0
100
AcDbVertex
100
AcDb2dVertex
 10
-235.39243218879321
 20
689.20588632995805
 30
0.0
  0
VERTEX
  5
4CA
100
AcDbEntity
  8
0
370
              -2
390
0
  6
Continuous
 62
               0
100
AcDbVertex
100
AcDb2dVertex
 10
-228.64923506359276
 20
650.96331506771025
 30
0.0
  0
VERTEX
  5
4CB
100
AcDbEntity
  8
0
370
              -2
390
0
  6
Continuous
 62
               0
100
AcDbVertex
100
AcDb2dVertex
 10
-253.61030070786643
 20
680.71075472425332
 30
0.0
  0
SEQEND
  5
4CC
100
AcDbEntity
  8
0
370
              -2
390
0
  6
Continuous
 62
               0
  0
POLYLINE
  5
4CD
100
AcDbEntity
  8
0
370
              -2
390
0
  6
Continuous
 62
               0
100
AcDb2dPolyline
 66
               1
 10
0.0
 20
0.0
 30
0.0
 75
               5
  0
VERTEX
  5
4CE
100
AcDbEntity
  8
0
370
              -2
390
0
  6
Continuous
 62
               0
100
AcDbVertex
100
AcDb2dVertex
 10
-226.49803745079493
 20
623.63078462466217
 30
0.0
  0
VERTEX
  5
4CF
100
AcDbEntity
  8
0
370
              -2
390
0
  6
Continuous
 62
               0
100
AcDbVertex
100
AcDb2dVertex
 10
-233.90763245128733
 20
661.7498463411589
 30
0.0
  0
VERTEX
  5
4D0
100
AcDbEntity
  8
0
370
              -2
390
0
  6
Continuous
 62
               0
100
AcDbVertex
100
AcDb2dVertex
 10
-208.43120409085836
 20
632.44256802649204
 30
0.0
  0
SEQEND
  5
4D1
100
AcDbEntity
  8
0
370
              -2
390
0
  6
Continuous
 62
               0
  0
MTEXT
  5
4D2
100
AcDbEntity
  8
寸法
390
0
 62
               0
100
AcDbMText
 10
-456.98415957822897
 20
862.5476184413485
 30
0.0
 40
48.865234375000092
 41
0.0
 71
               1
 72
               1
  1
{\fＭＳ ゴシック|b0|i0|c128|p0;\lφ12}
 73
               1
 44
0.7828267384257843
  0
POINT
  5
4D3
100
AcDbEntity
  8
Defpoints
370
               0
390
0
 62
               0
100
AcDbPoint
 10
-228.64923506359276
 20
650.96331506771025
 30
0.0
  0
POINT
  5
4D4
100
AcDbEntity
  8
Defpoints
370
               0
390
0
 62
               0
100
AcDbPoint
 10
-233.90763245128733
 20
661.7498463411589
 30
0.0
  0
ENDBLK
  5
4D5
100
AcDbEntity
  8
寸法
390
0
100
AcDbBlockEnd
  0
BLOCK
  5
4D6
100
AcDbEntity
  8
0
390
0
100
AcDbBlockBegin
  2
Callout
 70
               2
 10
0.0
 20
0.0
 30
0.0
  3
Callout
  1

  0
MTEXT
  5
4D7
100
AcDbEntity
  8
0
390
0
 62
               2
100
AcDbMText
 10
10.238654492877473
 20
-27.388941343179926
 30
0.0
 40
24.432617187500004
 41
127.254
 71
               1
 72
               1
  1
{\fＭＳ ゴシック|b0|i0|c128|p0;\lM6ナット}
 11
-0.1028996360979693
 21
-0.9946917436527286
 31
0.0
 73
               1
 44
0.7828267384257843
  0
LINE
  5
4D8
100
AcDbEntity
  8
0
370
               0
390
0
  6
Continuous
 62
               2
100
AcDbLine
 10
-2.5724909024492453
 20
-24.867293591318212
 30
0.0
 11
0.0
 21
0.0
 31
0.0
  0
LINE
  5
4D9
100
AcDbEntity
  8
0
370
               0
390
0
  6
Continuous
 62
               2
100
AcDbLine
 10
0.0
 20
0.0
 30
0.0
 11
64.489421146830409
 21
0.0
 31
0.0
  0
POLYLINE
  5
4DA
100
AcDbEntity
  8
0
370
               0
390
0
  6
Continuous
 62
               2
100
AcDb2dPolyline
 66
               1
 10
0.0
 20
0.0
 30
0.0
 75
               5
  0
VERTEX
  5
4DB
100
AcDbEntity
  8
0
370
               0
390
0
  6
Continuous
 62
               2
100
AcDbVertex
100
AcDb2dVertex
 10
16.864421146830409
 20
12.76108028953222
 30
0.0
  0
VERTEX
  5
4DC
100
AcDbEntity
  8
0
370
               0
390
0
  6
Continuous
 62
               2
100
AcDbVertex
100
AcDb2dVertex
 10
64.489421146830409
 20
0.0
 30
0.0
  0
VERTEX
  5
4DD
100
AcDbEntity
  8
0
370
               0
390
0
  6
Continuous
 62
               2
100
AcDbVertex
100
AcDb2dVertex
 10
16.864421146830416
 20
-12.761080289532231
 30
0.0
  0
SEQEND
  5
4DE
100
AcDbEntity
  8
0
370
               0
390
0
  6
Continuous
 62
               2
  0
ENDBLK
  5
4DF
100
AcDbEntity
  8
0
390
0
100
AcDbBlockEnd
  0
BLOCK
  5
4E0
100
AcDbEntity
  8
0
390
0
100
AcDbBlockBegin
  2
グループ-18
 70
               0
 10
0.0
 20
0.0
 30
0.0
  3
グループ-18
  1

  0
LINE
  5
4E1
100
AcDbEntity
  8
0
370
               0
390
0
  6
Continuous
 62
               1
100
AcDbLine
 10
-902.4935895908884
 20
1029.4586409660392
 30
0.0
 11
-905.99358591277769
 21
1032.9586264225118
 31
0.0
  0
LINE
  5
4E2
100
AcDbEntity
  8
0
370
               0
390
0
  6
Continuous
 62
               1
100
AcDbLine
 10
-857.5923079956583
 20
1029.4586409660392
 30
0.0
 11
-863.59230897913494
 21
1035.4586233230643
 31
0.0
  0
LINE
  5
4E3
100
AcDbEntity
  8
0
370
               0
390
0
  6
Continuous
 62
               1
100
AcDbLine
 10
-924.9442266632127
 20
1029.4586409660392
 30
0.0
 11
-930.94423137197964
 21
1035.4586233230643
 31
0.0
  0
LINE
  5
4E4
100
AcDbEntity
  8
0
370
               0
390
0
  6
Continuous
 62
               1
100
AcDbLine
 10
-767.7897485304884
 20
1029.4586409660392
 30
0.0
 11
-773.78974578867474
 21
1035.4586233230643
 31
0.0
  0
LINE
  5
4E5
100
AcDbEntity
  8
0
370
               0
390
0
  6
Continuous
 62
               1
100
AcDbLine
 10
-790.24038932810345
 20
1029.4586409660392
 30
0.0
 11
-796.24038658628979
 21
1035.4586233230643
 31
0.0
  0
ENDBLK
  5
4E6
100
AcDbEntity
  8
0
390
0
100
AcDbBlockEnd
  0
BLOCK
  5
4E7
100
AcDbEntity
  8
0
390
0
100
AcDbBlockBegin
  2
グループ-19
 70
               0
 10
0.0
 20
0.0
 30
0.0
  3
グループ-19
  1

  0
ARC
  5
4E8
100
AcDbEntity
  8
0
370
               0
390
0
  6
Continuous
 62
              30
100
AcDbCircle
 10
-750.14168699039055
 20
1026.4586253758625
 30
0.0
 40
3.000015590224689
100
AcDbArc
 50
359.9998970465449
 51
89.999676068025281
  0
LINE
  5
4E9
100
AcDbEntity
  8
0
370
               0
390
0
  6
Continuous
 62
              30
100
AcDbLine
 10
-747.14167140017071
 20
1026.4586199852042
 30
0.0
 11
-747.14167140017071
 21
1009.4586302372035
 31
0.0
  0
LINE
  5
4EA
100
AcDbEntity
  8
0
370
               0
390
0
  6
Continuous
 62
              30
100
AcDbLine
 10
-747.14167140017071
 20
1009.4586302372035
 30
0.0
 11
-741.14166669140377
 21
1009.4586302372035
 31
0.0
  0
LINE
  5
4EB
100
AcDbEntity
  8
0
370
               0
390
0
  6
Continuous
 62
              30
100
AcDbLine
 10
-741.14166669140377
 20
1026.4586199852042
 30
0.0
 11
-741.14166669140377
 21
1009.4586302372035
 31
0.0
  0
ARC
  5
4EC
100
AcDbEntity
  8
0
370
               0
390
0
  6
Continuous
 62
              30
100
AcDbCircle
 10
-750.14167530513168
 20
1026.458614709336
 30
0.0
 40
9.000008613729916
100
AcDbArc
 50
0.0000335871883703
 51
89.999966412811617
  0
LINE
  5
4ED
100
AcDbEntity
  8
0
370
               0
390
0
  6
Continuous
 62
              30
100
AcDbLine
 10
-750.14167002926388
 20
1026.4586199852042
 30
0.0
 11
-750.14167002926388
 21
1029.4586409660392
 31
0.0
  0
LINE
  5
4EE
100
AcDbEntity
  8
0
370
               0
390
0
  6
Continuous
 62
              30
100
AcDbLine
 10
-747.14167140017071
 20
1026.4586199852042
 30
0.0
 11
-750.14167002926388
 21
1026.4586199852042
 31
0.0
  0
ENDBLK
  5
4EF
100
AcDbEntity
  8
0
390
0
100
AcDbBlockEnd
  0
BLOCK
  5
4F0
100
AcDbEntity
  8
0
390
0
100
AcDbBlockBegin
  2
グループ-20
 70
               0
 10
0.0
 20
0.0
 30
0.0
  3
グループ-20
  1

  0
LINE
  5
4F1
100
AcDbEntity
  8
0
370
               0
390
0
  6
Continuous
 62
              30
100
AcDbLine
 10
-747.14167140017071
 20
1009.4586302372035
 30
0.0
 11
-746.52903996000805
 21
1009.4586302372035
 31
0.0
  0
LINE
  5
4F2
100
AcDbEntity
  8
0
370
               0
390
0
  6
Continuous
 62
              30
100
AcDbLine
 10
-747.14167140017071
 20
1009.4586302372035
 30
0.0
 11
-747.14167140017071
 21
1026.4586199852042
 31
0.0
  0
ARC
  5
4F3
100
AcDbEntity
  8
0
370
               0
390
0
  6
Continuous
 62
              30
100
AcDbCircle
 10
-750.14168699039055
 20
1026.4586253758621
 30
0.0
 40
3.0000155902251437
100
AcDbArc
 50
359.99989704655366
 51
89.999676068025281
  0
LINE
  5
4F4
100
AcDbEntity
  8
0
370
               0
390
0
  6
Continuous
 62
              30
100
AcDbLine
 10
-833.14166780154028
 20
1035.4586233230643
 30
0.0
 11
-833.14166780154028
 21
1029.4586409660392
 31
0.0
  0
LINE
  5
4F5
100
AcDbEntity
  8
0
370
               0
390
0
  6
Continuous
 62
              30
100
AcDbLine
 10
-750.14167002926388
 20
1029.4586409660392
 30
0.0
 11
-833.14166780154028
 21
1029.4586409660392
 31
0.0
  0
LINE
  5
4F6
100
AcDbEntity
  8
0
370
               0
390
0
  6
Continuous
 62
              30
100
AcDbLine
 10
-750.14167002926388
 20
1035.4586233230643
 30
0.0
 11
-833.14166780154028
 21
1035.4586233230643
 31
0.0
  0
ARC
  5
4F7
100
AcDbEntity
  8
0
370
               0
390
0
  6
Continuous
 62
              30
100
AcDbCircle
 10
-932.14164937264877
 20
1026.4586253758625
 30
0.0
 40
3.0000155902250456
100
AcDbArc
 50
90.000323931974705
 51
180.00010295345507
  0
LINE
  5
4F8
100
AcDbEntity
  8
0
370
               0
390
0
  6
Continuous
 62
              30
100
AcDbLine
 10
-935.14166496286862
 20
1026.4586199852042
 30
0.0
 11
-935.14166496286862
 21
1009.4586302372035
 31
0.0
  0
LINE
  5
4F9
100
AcDbEntity
  8
0
370
               0
390
0
  6
Continuous
 62
              30
100
AcDbLine
 10
-935.14166496286862
 20
1009.4586302372035
 30
0.0
 11
-941.14166967163555
 21
1009.4586302372035
 31
0.0
  0
LINE
  5
4FA
100
AcDbEntity
  8
0
370
               0
390
0
  6
Continuous
 62
              30
100
AcDbLine
 10
-941.14166967163555
 20
1026.4586199852042
 30
0.0
 11
-941.14166967163555
 21
1009.4586302372035
 31
0.0
  0
ARC
  5
4FB
100
AcDbEntity
  8
0
370
               0
390
0
  6
Continuous
 62
              30
100
AcDbCircle
 10
-932.14166105790764
 20
1026.458614709336
 30
0.0
 40
9.0000086137303708
100
AcDbArc
 50
90.000033587188369
 51
179.99996641281163
  0
LINE
  5
4FC
100
AcDbEntity
  8
0
370
               0
390
0
  6
Continuous
 62
              30
100
AcDbLine
 10
-849.1416685614995
 20
1029.4586409660392
 30
0.0
 11
-849.1416685614995
 21
1035.4586233230643
 31
0.0
  0
LINE
  5
4FD
100
AcDbEntity
  8
0
370
               0
390
0
  6
Continuous
 62
              30
100
AcDbLine
 10
-849.1416685614995
 20
1029.4586409660392
 30
0.0
 11
-932.14166633377545
 21
1029.4586409660392
 31
0.0
  0
LINE
  5
4FE
100
AcDbEntity
  8
0
370
               0
390
0
  6
Continuous
 62
              30
100
AcDbLine
 10
-849.1416685614995
 20
1035.4586233230643
 30
0.0
 11
-932.14166633377545
 21
1035.4586233230643
 31
0.0
  0
LINE
  5
4FF
100
AcDbEntity
  8
0
370
               0
390
0
  6
Continuous
 62
              30
100
AcDbLine
 10
-849.1416685614995
 20
1029.4586409660392
 30
0.0
 11
-833.14166780154028
 21
1029.4586409660392
 31
0.0
  0
LINE
  5
500
100
AcDbEntity
  8
0
370
               0
390
0
  6
Continuous
 62
              30
100
AcDbLine
 10
-833.14166780154028
 20
1035.4586233230643
 30
0.0
 11
-849.1416685614995
 21
1035.4586233230643
 31
0.0
  0
LINE
  5
501
100
AcDbEntity
  8
0
370
               0
390
0
  6
Continuous
 62
              30
100
AcDbLine
 10
-932.14166633377545
 20
1026.4586199852042
 30
0.0
 11
-750.14167002926388
 21
1026.4586199852042
 31
0.0
  0
LINE
  5
502
100
AcDbEntity
  8
0
370
               0
390
0
  6
Continuous
 62
              30
100
AcDbLine
 10
-932.14166633377545
 20
1026.4586199852042
 30
0.0
 11
-932.14166633377545
 21
1029.4586409660392
 31
0.0
  0
LINE
  5
503
100
AcDbEntity
  8
0
370
               0
390
0
  6
Continuous
 62
              30
100
AcDbLine
 10
-750.14167002926388
 20
1029.4586409660392
 30
0.0
 11
-750.14167002926388
 21
1026.4586199852042
 31
0.0
  0
LINE
  5
504
100
AcDbEntity
  8
0
370
               0
390
0
  6
Continuous
 62
              30
100
AcDbLine
 10
-935.14166496286862
 20
1026.4586199852042
 30
0.0
 11
-932.14166633377545
 21
1026.4586199852042
 31
0.0
  0
LINE
  5
505
100
AcDbEntity
  8
0
370
               0
390
0
  6
Continuous
 62
              30
100
AcDbLine
 10
-750.14167002926388
 20
1026.4586199852042
 30
0.0
 11
-747.14167140017071
 21
1026.4586199852042
 31
0.0
  0
LINE
  5
506
100
AcDbEntity
  8
0
370
               0
390
0
  6
STYLE_02
 62
               1
100
AcDbLine
 10
-833.14166818153717
 20
1035.4586264225122
 30
0.0
 11
-833.14166818153717
 21
1015.4586264225117
 31
0.0
  0
LINE
  5
507
100
AcDbEntity
  8
0
370
               0
390
0
  6
STYLE_02
 62
               1
100
AcDbLine
 10
-849.14166818153672
 20
1035.4586264225122
 30
0.0
 11
-849.14166818153672
 21
1015.4586264225117
 31
0.0
  0
LINE
  5
508
100
AcDbEntity
  8
0
370
               0
390
0
  6
STYLE_02
 62
               1
100
AcDbLine
 10
-849.14166818153672
 20
1015.4586264225117
 30
0.0
 11
-833.14166818153717
 21
1015.4586264225117
 31
0.0
  0
INSERT
  5
509
100
AcDbEntity
  8
0
390
0
 62
               1
100
AcDbBlockReference
  2
グループ-18
 10
0.0
 20
0.0
 30
0.0
  0
INSERT
  5
50A
100
AcDbEntity
  8
0
390
0
 62
               2
100
AcDbBlockReference
  2
グループ-19
 10
0.0
 20
0.0
 30
0.0
  0
ENDBLK
  5
50B
100
AcDbEntity
  8
0
390
0
100
AcDbBlockEnd
  0
BLOCK
  5
50C
100
AcDbEntity
  8
0
390
0
100
AcDbBlockBegin
  2
グループ-21
 70
               0
 10
0.0
 20
0.0
 30
0.0
  3
グループ-21
  1

  0
INSERT
  5
50D
100
AcDbEntity
  8
0
390
0
 62
               2
100
AcDbBlockReference
  2
グループ-20
 10
0.0
 20
0.0
 30
0.0
  0
CIRCLE
  5
50E
100
AcDbEntity
  8
0
370
               0
390
0
  6
Continuous
 62
               2
100
AcDbCircle
 10
-846.64248284032169
 20
984.62282090417602
 30
0.0
 40
163.34167673790742
  0
LINE
  5
50F
100
AcDbEntity
  8
0
370
               0
390
0
  6
Continuous
 62
               2
100
AcDbLine
 10
-748.87922184949502
 20
1115.4771221708538
 30
0.0
 11
-609.50573021335936
 21
1287.1961946340141
 31
0.0
  0
POLYLINE
  5
510
102
{ACAD_REACTORS
330
515
102
}
100
AcDbEntity
  8
0
370
               0
390
0
  6
Continuous
 62
               7
100
AcDb2dPolyline
 66
               1
 10
0.0
 20
0.0
 30
0.0
 70
               1
 75
               5
  0
VERTEX
  5
511
100
AcDbEntity
  8
0
370
               0
390
0
  6
Continuous
 62
               7
100
AcDbVertex
100
AcDb2dVertex
 10
-649.39433584794597
 20
1258.2154262576526
 30
0.0
  0
VERTEX
  5
512
100
AcDbEntity
  8
0
370
               0
390
0
  6
Continuous
 62
               7
100
AcDbVertex
100
AcDb2dVertex
 10
-609.50573021335936
 20
1287.1961946340141
 30
0.0
  0
VERTEX
  5
513
100
AcDbEntity
  8
0
370
               0
390
0
  6
Continuous
 62
               7
100
AcDbVertex
100
AcDb2dVertex
 10
-629.55989182626979
 20
1242.1538101815991
 30
0.0
  0
SEQEND
  5
514
100
AcDbEntity
  8
0
370
               0
390
0
  6
Continuous
 62
               7
  0
HATCH
  5
515
100
AcDbEntity
  8
0
370
               0
390
0
  6
Continuous
 62
               2
100
AcDbHatch
 10
0.0
 20
0.0
 30
0.0
210
0.0
220
0.0
230
1.0
  2
SOLID
 70
               1
 71
               1
 91
        1
 92
        1
 93
        3
 72
               1
 10
-649.39433584794597
 20
1258.2154262576526
 11
-609.50573021335936
 21
1287.1961946340141
 72
               1
 10
-609.50573021335936
 20
1287.1961946340141
 11
-629.55989182626979
 21
1242.1538101815991
 72
               1
 10
-629.55989182626979
 20
1242.1538101815991
 11
-649.39433584794597
 21
1258.2154262576526
 97
        1
330
510
 75
               0
 76
               1
 98
        1
 10
0.0
 20
0.0
  0
ENDBLK
  5
516
100
AcDbEntity
  8
0
390
0
100
AcDbBlockEnd
  0
BLOCK
  5
517
100
AcDbEntity
  8
0
390
0
100
AcDbBlockBegin
  2
グループ-22
 70
               0
 10
0.0
 20
0.0
 30
0.0
  3
グループ-22
  1

  0
INSERT
  5
518
100
AcDbEntity
  8
0
390
0
 62
               2
100
AcDbBlockReference
  2
Callout
 10
-834.50573021335936
 20
951.31153165481578
 30
0.0
 50
95.906169051236262
  0
INSERT
  5
519
100
AcDbEntity
  8
0
390
0
 62
               2
100
AcDbBlockReference
  2
グループ-21
 10
0.0
 20
0.0
 30
0.0
  0
ENDBLK
  5
51A
100
AcDbEntity
  8
0
390
0
100
AcDbBlockEnd
  0
BLOCK
  5
51B
100
AcDbEntity
  8
0
390
0
100
AcDbBlockBegin
  2
グループ-23
 70
               0
 10
0.0
 20
0.0
 30
0.0
  3
グループ-23
  1

  0
MTEXT
  5
51C
100
AcDbEntity
  8
0
390
0
 62
               2
100
AcDbMText
 10
-806.35915957822897
 20
541.54761844134839
 30
0.0
 40
48.865234375000092
 41
0.0
 71
               1
 72
               1
  1
{\fＭＳ ゴシック|b0|i0|c128|p0;\l重量　約3.6kg}
 73
               1
 44
0.7828267384257843
  0
MTEXT
  5
51D
100
AcDbEntity
  8
0
390
0
 62
               2
100
AcDbMText
 10
-954.35915957822908
 20
1355.0476184413487
 30
0.0
 40
48.865234375000092
 41
0.0
 71
               1
 72
               1
  1
{\fＭＳ ゴシック|b0|i0|c128|p0;\lA15HG}
 73
               1
 44
0.7828267384257843
  0
LINE
  5
51E
100
AcDbEntity
  8
0
370
               0
390
0
  6
Continuous
 62
              30
100
AcDbLine
 10
-341.77843375744021
 20
701.8565807044348
 30
0.0
 11
-341.77843375744021
 21
706.35658070443469
 31
0.0
  0
LINE
  5
51F
100
AcDbEntity
  8
0
370
               0
390
0
  6
Continuous
 62
              30
100
AcDbLine
 10
359.2215662425599
 20
706.35658070443469
 30
0.0
 11
-341.77843375744021
 21
706.35658070443469
 31
0.0
  0
LINE
  5
520
100
AcDbEntity
  8
0
370
               0
390
0
  6
Continuous
 62
              30
100
AcDbLine
 10
359.2215662425599
 20
706.35658070443469
 30
0.0
 11
359.2215662425599
 21
701.8565807044348
 31
0.0
  0
LINE
  5
521
100
AcDbEntity
  8
0
370
               0
390
0
  6
Continuous
 62
              30
100
AcDbLine
 10
359.2215662425599
 20
701.8565807044348
 30
0.0
 11
-341.77843375744021
 21
701.8565807044348
 31
0.0
  0
LINE
  5
522
100
AcDbEntity
  8
0
370
               0
390
0
  6
Continuous
 62
              30
100
AcDbLine
 10
-341.77843375744021
 20
701.8565807044348
 30
0.0
 11
-341.77843375744021
 21
610.85658070443492
 31
0.0
  0
LINE
  5
523
100
AcDbEntity
  8
0
370
               0
390
0
  6
Continuous
 62
              30
100
AcDbLine
 10
359.2215662425599
 20
610.85658070443492
 30
0.0
 11
359.2215662425599
 21
701.8565807044348
 31
0.0
  0
LINE
  5
524
100
AcDbEntity
  8
0
370
               0
390
0
  6
Continuous
 62
              30
100
AcDbLine
 10
-341.77843375744021
 20
610.85658070443492
 30
0.0
 11
359.2215662425599
 21
610.85658070443492
 31
0.0
  0
CIRCLE
  5
525
100
AcDbEntity
  8
0
370
               0
390
0
  6
Continuous
 62
              30
100
AcDbCircle
 10
-51.278433757439984
 20
656.35658070443469
 30
0.0
 40
4.0
  0
CIRCLE
  5
526
100
AcDbEntity
  8
0
370
               0
390
0
  6
Continuous
 62
              30
100
AcDbCircle
 10
68.721566242560016
 20
656.35658070443469
 30
0.0
 40
4.0
  0
CIRCLE
  5
527
100
AcDbEntity
  8
0
370
               0
390
0
  6
Continuous
 62
              30
100
AcDbCircle
 10
128.72156624256002
 20
656.35658070443469
 30
0.0
 40
6.0000000000001137
  0
CIRCLE
  5
528
100
AcDbEntity
  8
0
370
               0
390
0
  6
Continuous
 62
              30
100
AcDbCircle
 10
8.7215662425597884
 20
656.35658070443469
 30
0.0
 40
5.9999999999997726
  0
CIRCLE
  5
529
100
AcDbEntity
  8
0
370
               0
390
0
  6
Continuous
 62
              30
100
AcDbCircle
 10
-111.27843375744021
 20
656.35658070443469
 30
0.0
 40
6.0
  0
CIRCLE
  5
52A
100
AcDbEntity
  8
0
370
               0
390
0
  6
Continuous
 62
              30
100
AcDbCircle
 10
248.7215662425599
 20
656.3565807044348
 30
0.0
 40
6.0000000000001137
  0
CIRCLE
  5
52B
100
AcDbEntity
  8
0
370
               0
390
0
  6
Continuous
 62
              30
100
AcDbCircle
 10
-231.2784337574401
 20
656.35658070443469
 30
0.0
 40
6.0
  0
LINE
  5
52C
100
AcDbEntity
  8
0
370
               0
390
0
  6
Continuous
 62
              30
100
AcDbLine
 10
363.7215662425599
 20
701.8565807044348
 30
0.0
 11
359.2215662425599
 21
701.8565807044348
 31
0.0
  0
LINE
  5
52D
100
AcDbEntity
  8
0
370
               0
390
0
  6
Continuous
 62
              30
100
AcDbLine
 10
363.7215662425599
 20
610.85658070443492
 30
0.0
 11
363.7215662425599
 21
701.8565807044348
 31
0.0
  0
LINE
  5
52E
100
AcDbEntity
  8
0
370
               0
390
0
  6
Continuous
 62
              30
100
AcDbLine
 10
359.2215662425599
 20
610.85658070443492
 30
0.0
 11
363.7215662425599
 21
610.85658070443492
 31
0.0
  0
LINE
  5
52F
100
AcDbEntity
  8
0
370
               0
390
0
  6
Continuous
 62
              30
100
AcDbLine
 10
359.2215662425599
 20
606.35658070443469
 30
0.0
 11
-341.77843375744021
 21
606.35658070443469
 31
0.0
  0
LINE
  5
530
100
AcDbEntity
  8
0
370
               0
390
0
  6
Continuous
 62
              30
100
AcDbLine
 10
-341.77843375744021
 20
606.35658070443469
 30
0.0
 11
-341.77843375744021
 21
610.85658070443492
 31
0.0
  0
LINE
  5
531
100
AcDbEntity
  8
0
370
               0
390
0
  6
Continuous
 62
              30
100
AcDbLine
 10
359.2215662425599
 20
610.85658070443492
 30
0.0
 11
359.2215662425599
 21
606.35658070443469
 31
0.0
  0
LINE
  5
532
100
AcDbEntity
  8
0
370
               0
390
0
  6
Continuous
 62
              30
100
AcDbLine
 10
-341.77843375744021
 20
701.8565807044348
 30
0.0
 11
-346.2784337574401
 21
701.8565807044348
 31
0.0
  0
LINE
  5
533
100
AcDbEntity
  8
0
370
               0
390
0
  6
Continuous
 62
              30
100
AcDbLine
 10
-346.2784337574401
 20
610.85658070443492
 30
0.0
 11
-341.77843375744021
 21
610.85658070443492
 31
0.0
  0
LINE
  5
534
100
AcDbEntity
  8
0
370
               0
390
0
  6
Continuous
 62
              30
100
AcDbLine
 10
-346.2784337574401
 20
701.8565807044348
 30
0.0
 11
-346.2784337574401
 21
610.85658070443492
 31
0.0
  0
LINE
  5
535
100
AcDbEntity
  8
0
370
               0
390
0
  6
Continuous
 62
              30
100
AcDbLine
 10
360.7215662425599
 20
706.35658070443469
 30
0.0
 11
360.7215662425599
 21
701.8565807044348
 31
0.0
  0
LINE
  5
536
100
AcDbEntity
  8
0
370
               0
390
0
  6
Continuous
 62
              30
100
AcDbLine
 10
360.7215662425599
 20
706.35658070443469
 30
0.0
 11
363.7215662425599
 21
706.35658070443469
 31
0.0
  0
LINE
  5
537
100
AcDbEntity
  8
0
370
               0
390
0
  6
Continuous
 62
              30
100
AcDbLine
 10
363.7215662425599
 20
701.8565807044348
 30
0.0
 11
363.7215662425599
 21
706.35658070443469
 31
0.0
  0
LINE
  5
538
100
AcDbEntity
  8
0
370
               0
390
0
  6
Continuous
 62
              30
100
AcDbLine
 10
360.7215662425599
 20
606.35658070443469
 30
0.0
 11
363.7215662425599
 21
606.35658070443469
 31
0.0
  0
LINE
  5
539
100
AcDbEntity
  8
0
370
               0
390
0
  6
Continuous
 62
              30
100
AcDbLine
 10
360.7215662425599
 20
610.85658070443492
 30
0.0
 11
360.7215662425599
 21
606.35658070443469
 31
0.0
  0
LINE
  5
53A
100
AcDbEntity
  8
0
370
               0
390
0
  6
Continuous
 62
              30
100
AcDbLine
 10
363.7215662425599
 20
606.35658070443469
 30
0.0
 11
363.7215662425599
 21
610.85658070443492
 31
0.0
  0
LINE
  5
53B
100
AcDbEntity
  8
0
370
               0
390
0
  6
Continuous
 62
              30
100
AcDbLine
 10
-346.2784337574401
 20
706.35658070443469
 30
0.0
 11
-346.2784337574401
 21
701.8565807044348
 31
0.0
  0
LINE
  5
53C
100
AcDbEntity
  8
0
370
               0
390
0
  6
Continuous
 62
              30
100
AcDbLine
 10
-343.2784337574401
 20
706.35658070443469
 30
0.0
 11
-346.2784337574401
 21
706.35658070443469
 31
0.0
  0
LINE
  5
53D
100
AcDbEntity
  8
0
370
               0
390
0
  6
Continuous
 62
              30
100
AcDbLine
 10
-343.2784337574401
 20
701.8565807044348
 30
0.0
 11
-343.2784337574401
 21
706.35658070443469
 31
0.0
  0
LINE
  5
53E
100
AcDbEntity
  8
0
370
               0
390
0
  6
Continuous
 62
              30
100
AcDbLine
 10
-343.2784337574401
 20
606.35658070443469
 30
0.0
 11
-346.2784337574401
 21
606.35658070443469
 31
0.0
  0
LINE
  5
53F
100
AcDbEntity
  8
0
370
               0
390
0
  6
Continuous
 62
              30
100
AcDbLine
 10
-343.2784337574401
 20
606.35658070443469
 30
0.0
 11
-343.2784337574401
 21
610.85658070443492
 31
0.0
  0
LINE
  5
540
100
AcDbEntity
  8
0
370
               0
390
0
  6
Continuous
 62
              30
100
AcDbLine
 10
-346.2784337574401
 20
610.85658070443492
 30
0.0
 11
-346.2784337574401
 21
606.35658070443469
 31
0.0
  0
LINE
  5
541
100
AcDbEntity
  8
0
370
               0
390
0
  6
STYLE_02
 62
               1
100
AcDbLine
 10
8.72156624255976
 20
587.42974902638935
 30
0.0
 11
8.72156624255976
 21
731.47401744697686
 31
0.0
  0
INSERT
  5
542
100
AcDbEntity
  8
0
390
0
 62
               1
100
AcDbBlockReference
  2
グループ-8
 10
0.0
 20
0.0
 30
0.0
  0
INSERT
  5
543
100
AcDbEntity
  8
0
390
0
 62
               1
100
AcDbBlockReference
  2
グループ-9
 10
0.0
 20
0.0
 30
0.0
  0
INSERT
  5
544
100
AcDbEntity
  8
0
390
0
 62
               1
100
AcDbBlockReference
  2
グループ-10
 10
0.0
 20
0.0
 30
0.0
  0
INSERT
  5
545
100
AcDbEntity
  8
0
390
0
 62
               1
100
AcDbBlockReference
  2
グループ-11
 10
0.0
 20
0.0
 30
0.0
  0
INSERT
  5
546
100
AcDbEntity
  8
0
390
0
 62
               1
100
AcDbBlockReference
  2
グループ-12
 10
0.0
 20
0.0
 30
0.0
  0
INSERT
  5
547
100
AcDbEntity
  8
0
390
0
 62
               1
100
AcDbBlockReference
  2
グループ-13
 10
0.0
 20
0.0
 30
0.0
  0
INSERT
  5
548
100
AcDbEntity
  8
0
390
0
 62
               1
100
AcDbBlockReference
  2
グループ-14
 10
0.0
 20
0.0
 30
0.0
  0
DIMENSION
  5
549
100
AcDbEntity
  8
寸法
370
               0
390
0
  6
Continuous
 62
               2
100
AcDbDimension
  2
*D34
 10
-346.2784337574401
 20
1422.2923840663484
 30
0.0
 11
8.7215662425599021
 21
1422.2923840663484
 31
0.0
 71
               5
 72
               1
 41
1.0
 42
0.0
  3
HIBINO
100
AcDbAlignedDimension
 13
363.7215662425599
 23
1293.7896993695977
 33
0.0
 14
-346.2784337574401
 24
1293.7896993695979
 34
0.0
100
AcDbRotatedDimension
1001
ACAD
1000
DSTYLE
1002
{
1070
             279
1070
               2
1070
             340
1005
5B
1070
             147
1040
7.5
1002
}
  0
INSERT
  5
54A
100
AcDbEntity
  8
0
390
0
 62
               7
100
AcDbBlockReference
  2
グループ-15
 10
0.0
 20
0.0
 30
0.0
  0
INSERT
  5
54B
100
AcDbEntity
  8
0
390
0
 62
               7
100
AcDbBlockReference
  2
グループ-16
 10
0.0
 20
0.0
 30
0.0
  0
DIMENSION
  5
54C
100
AcDbEntity
  8
寸法
370
               0
390
0
  6
Continuous
 62
               1
100
AcDbDimension
  2
*D37
 10
-399.98415957822897
 20
938.2896993695972
 30
0.0
 11
-399.98415957822897
 21
1118.2896993695974
 31
0.0
 71
               5
 72
               1
 41
1.0
 42
0.0
  3
HIBINO
100
AcDbAlignedDimension
 13
-341.77843375744021
 23
1298.2896993695977
 33
0.0
 14
-343.27843375744135
 24
938.2896993695972
 34
0.0
 50
-90.0
100
AcDbRotatedDimension
1001
ACAD
1000
DSTYLE
1002
{
1070
             279
1070
               2
1070
             340
1005
5B
1070
             147
1040
7.5
1002
}
  0
INSERT
  5
54D
100
AcDbEntity
  8
0
390
0
 62
               1
100
AcDbBlockReference
  2
グループ-17
 10
0.0
 20
0.0
 30
0.0
  0
DIMENSION
  5
54E
100
AcDbEntity
  8
寸法
370
               0
390
0
  6
Continuous
 62
               1
100
AcDbDimension
  2
*D39
 10
360.72156624256127
 20
870.25593242476805
 30
0.0
 11
440.89084042177103
 21
877.75593242476805
 31
0.0
 70
             128
 71
               5
 72
               1
 41
1.0
 42
0.0
  3
HIBINO
100
AcDbAlignedDimension
 13
363.72156624256127
 23
938.2896993695972
 33
0.0
 14
360.72156624256127
 24
938.2896993695972
 34
0.0
100
AcDbRotatedDimension
1001
ACAD
1000
DSTYLE
1002
{
1070
             279
1070
               2
1070
             340
1005
5B
1070
             174
1070
               0
1070
             147
1040
7.5
1002
}
  0
DIMENSION
  5
54F
100
AcDbEntity
  8
寸法
370
               0
390
0
  6
Continuous
 62
               1
100
AcDbDimension
  2
*D40
 10
-449.98415957822897
 20
706.35658070443469
 30
0.0
 11
-449.98415957822897
 21
656.35658070443469
 31
0.0
 71
               5
 72
               1
 41
1.0
 42
0.0
  3
HIBINO
100
AcDbAlignedDimension
 13
-346.2784337574401
 23
606.35658070443469
 33
0.0
 14
-346.2784337574401
 24
706.35658070443469
 34
0.0
 50
-90.0
100
AcDbRotatedDimension
1001
ACAD
1000
DSTYLE
1002
{
1070
             279
1070
               2
1070
             340
1005
5B
1070
             147
1040
7.5
1002
}
  0
DIMENSION
  5
550
100
AcDbEntity
  8
寸法
370
               0
390
0
  6
Continuous
 62
               1
100
AcDbDimension
  2
*D41
 10
8.72156624255976
 20
517.29238406634829
 30
0.0
 11
38.721566242559888
 21
517.29238406634829
 31
0.0
 71
               5
 72
               1
 41
1.0
 42
0.0
  3
HIBINO
100
AcDbAlignedDimension
 13
68.721566242560016
 23
656.35658070443469
 33
0.0
 14
8.72156624255976
 24
656.35658070443469
 34
0.0
100
AcDbRotatedDimension
1001
ACAD
1000
DSTYLE
1002
{
1070
             279
1070
               2
1070
             340
1005
5B
1070
             147
1040
7.5
1002
}
  0
DIMENSION
  5
551
100
AcDbEntity
  8
寸法
370
               0
390
0
  6
Continuous
 62
               1
100
AcDbDimension
  2
*D42
 10
8.7215662425597884
 20
417.29238406634829
 30
0.0
 11
75.015840421771031
 21
424.79238406634829
 31
0.0
 70
             128
 71
               5
 72
               1
 41
1.0
 42
0.0
  3
HIBINO
100
AcDbAlignedDimension
 13
128.72156624256002
 23
656.35658070443469
 33
0.0
 14
8.7215662425597884
 24
656.35658070443469
 34
0.0
100
AcDbRotatedDimension
1001
ACAD
1000
DSTYLE
1002
{
1070
             279
1070
               2
1070
             340
1005
5B
1070
             147
1040
7.5
1002
}
  0
DIMENSION
  5
552
100
AcDbEntity
  8
寸法
370
               0
390
0
  6
Continuous
 62
               1
100
AcDbDimension
  2
*D43
 10
8.7215662425597884
 20
317.29238406634829
 30
0.0
 11
150.01584042177103
 21
324.79238406634829
 31
0.0
 70
             128
 71
               5
 72
               1
 41
1.0
 42
0.0
  3
HIBINO
100
AcDbAlignedDimension
 13
248.7215662425599
 23
656.3565807044348
 33
0.0
 14
8.7215662425597884
 24
656.35658070443469
 34
0.0
100
AcDbRotatedDimension
1001
ACAD
1000
DSTYLE
1002
{
1070
             279
1070
               2
1070
             340
1005
5B
1070
             147
1040
7.5
1002
}
  0
DIMENSION
  5
553
100
AcDbEntity
  8
寸法
370
               0
390
0
  6
Continuous
 62
               1
100
AcDbDimension
  2
*D44
 10
-51.278433757439984
 20
517.29238406634829
 30
0.0
 11
-21.278433757440098
 21
517.29238406634829
 31
0.0
 71
               5
 72
               1
 41
1.0
 42
0.0
  3
HIBINO
100
AcDbAlignedDimension
 13
8.7215662425597884
 23
656.35658070443469
 33
0.0
 14
-51.278433757439984
 24
656.35658070443469
 34
0.0
100
AcDbRotatedDimension
1001
ACAD
1000
DSTYLE
1002
{
1070
             279
1070
               2
1070
             340
1005
5B
1070
             147
1040
7.5
1002
}
  0
DIMENSION
  5
554
100
AcDbEntity
  8
寸法
370
               0
390
0
  6
Continuous
 62
               1
100
AcDbDimension
  2
*D45
 10
8.72156624255976
 20
417.29238406634829
 30
0.0
 11
-51.278433757440226
 21
417.29238406634829
 31
0.0
 71
               5
 72
               1
 41
1.0
 42
0.0
  3
HIBINO
100
AcDbAlignedDimension
 13
-111.27843375744021
 23
656.35658070443469
 33
0.0
 14
8.72156624255976
 24
656.35658070443469
 34
0.0
100
AcDbRotatedDimension
1001
ACAD
1000
DSTYLE
1002
{
1070
             279
1070
               2
1070
             340
1005
5B
1070
             147
1040
7.5
1002
}
  0
DIMENSION
  5
555
100
AcDbEntity
  8
寸法
370
               0
390
0
  6
Continuous
 62
               1
100
AcDbDimension
  2
*D46
 10
8.72156624255976
 20
317.29238406634829
 30
0.0
 11
-111.27843375744017
 21
317.29238406634829
 31
0.0
 71
               5
 72
               1
 41
1.0
 42
0.0
  3
HIBINO
100
AcDbAlignedDimension
 13
-231.2784337574401
 23
656.35658070443469
 33
0.0
 14
8.72156624255976
 24
656.35658070443469
 34
0.0
100
AcDbRotatedDimension
1001
ACAD
1000
DSTYLE
1002
{
1070
             279
1070
               2
1070
             340
1005
5B
1070
             147
1040
7.5
1002
}
  0
DIMENSION
  5
556
100
AcDbEntity
  8
寸法
370
               0
390
0
  6
Continuous
 62
               1
100
AcDbDimension
  2
*D47
 10
66.191254391768865
 20
653.25859394885515
 30
0.0
 11
193.41330004332701
 21
772.29238406634852
 31
0.0
 70
               3
 71
               5
 72
               1
 41
1.0
 42
0.0
  1
M6
  3
HIBINO
100
AcDbDiametricDimension
 15
71.25187809335111
 25
659.45456746001423
 35
0.0
 40
145.69179988017933
1001
ACAD
1000
DSTYLE
1002
{
1070
             289
1070
               0
1070
             342
1005
71
1070
             340
1005
5B
1070
              73
1070
               1
1070
              74
1070
               1
1070
              75
1070
               1
1070
              76
1070
               1
1070
             174
1070
               0
1070
             147
1040
7.5
1002
}
  0
DIMENSION
  5
557
100
AcDbEntity
  8
寸法
370
               0
390
0
  6
Continuous
 62
               1
100
AcDbDimension
  2
*D48
 10
-228.64923506359276
 20
650.96331506771025
 30
0.0
 11
-329.98415957822863
 21
797.2923840663484
 31
0.0
 70
               3
 71
               5
 72
               1
 41
1.0
 42
0.0
  3
HIBINO
100
AcDbDiametricDimension
 15
-233.90763245128733
 25
661.7498463411589
 35
0.0
 40
150.79087164063296
1001
ACAD
1000
DSTYLE
1002
{
1070
             289
1070
               0
1070
             342
1005
71
1070
             340
1005
5B
1070
              73
1070
               1
1070
              74
1070
               1
1070
              75
1070
               1
1070
              76
1070
               1
1070
               3
1000

1070
             174
1070
               0
1070
             147
1040
7.5
1002
}
  0
INSERT
  5
558
100
AcDbEntity
  8
0
390
0
 62
               1
100
AcDbBlockReference
  2
グループ-22
 10
0.0
 20
0.0
 30
0.0
  0
ENDBLK
  5
559
100
AcDbEntity
  8
0
390
0
100
AcDbBlockEnd
  0
ENDSEC
  0
SECTION
  2
ENTITIES
  0
LINE
  5
55A
100
AcDbEntity
  8
SPEC
370
               0
390
0
  6
Continuous
 62
               0
100
AcDbLine
 10
-987.1713262337181
 20
2032.2930774889264
 30
0.0
 11
1225.328673766282
 21
2032.2930774889264
 31
0.0
  0
LINE
  5
55B
100
AcDbEntity
  8
SPEC
370
               0
390
0
  6
Continuous
 62
               0
100
AcDbLine
 10
-987.1713262337181
 20
1972.2930774889264
 30
0.0
 11
1225.328673766282
 21
1972.2930774889264
 31
0.0
  0
LINE
  5
55C
100
AcDbEntity
  8
SPEC
370
               0
390
0
  6
Continuous
 62
               0
100
AcDbLine
 10
-987.1713262337181
 20
2032.2930774889264
 30
0.0
 11
-987.16968194384765
 21
1736.0444881257749
 31
0.0
  0
MTEXT
  5
55D
100
AcDbEntity
  8
SPEC
390
0
 62
               0
100
AcDbMText
 10
-968.4213262337181
 20
2085.532479051426
 30
0.0
 40
36.648925781250007
 41
0.0
 71
               1
 72
               1
  1
{\fＭＳ ゴシック|b0|i0|c128|p0;\l仕様}
 73
               1
 44
0.7828267384257843
  0
LINE
  5
55E
100
AcDbEntity
  8
SPEC
370
               0
390
0
  6
Continuous
 62
               0
100
AcDbLine
 10
-499.6713262337181
 20
2032.2930774889264
 30
0.0
 11
-499.6713262337181
 21
1736.0444881257749
 31
0.0
  0
LINE
  5
55F
100
AcDbEntity
  8
SPEC
370
               0
390
0
  6
Continuous
 62
               0
100
AcDbLine
 10
1225.328673766282
 20
2032.2930774889264
 30
0.0
 11
1225.3303180561525
 21
1736.0444881257749
 31
0.0
  0
LINE
  5
560
100
AcDbEntity
  8
SPEC
370
               0
390
0
  6
Continuous
 62
               0
100
AcDbLine
 10
-987.1713262337181
 20
1912.2930774889264
 30
0.0
 11
1225.328673766282
 21
1912.2930774889264
 31
0.0
  0
LINE
  5
561
100
AcDbEntity
  8
SPEC
370
               0
390
0
  6
Continuous
 62
               0
100
AcDbLine
 10
-987.1713262337181
 20
1852.2930774889264
 30
0.0
 11
1225.328673766282
 21
1852.2930774889264
 31
0.0
  0
MTEXT
  5
562
100
AcDbEntity
  8
SPEC
390
0
 62
               0
100
AcDbMText
 10
-485.89945718311003
 20
1893.8065420389335
 30
0.0
 40
28.504720052083346
 41
0.0
 71
               1
 72
               1
  1
{\fＭＳ ゴシック|b0|i0|c128|p0;\l図面表記をご参照ください。}
 73
               1
 44
0.7828267384257843
  0
MTEXT
  5
563
100
AcDbEntity
  8
SPEC
390
0
 62
               0
100
AcDbMText
 10
-485.857302896845
 20
1956.9800396848736
 30
0.0
 40
28.504720052083346
 41
0.0
 71
               1
 72
               1
  1
{\fＭＳ ゴシック|b0|i0|c128|p0;\l塗装 標準色：黒   ※特注色（RAL指定による）の場合もあり。}
 73
               1
 44
0.7828267384257843
  0
MTEXT
  5
564
100
AcDbEntity
  8
SPEC
390
0
 62
               0
100
AcDbMText
 10
-975.25749756548851
 20
1957.7030672795318
 30
0.0
 40
28.504720052083346
 41
0.0
 71
               1
 72
               1
  1
{\fＭＳ ゴシック|b0|i0|c128|p0;\l仕上げ}
 73
               1
 44
0.7828267384257843
  0
MTEXT
  5
565
100
AcDbEntity
  8
SPEC
390
0
 62
               0
100
AcDbMText
 10
-974.72316887861928
 20
2014.0607331483284
 30
0.0
 40
28.504720052083346
 41
0.0
 71
               1
 72
               1
  1
{\fＭＳ ゴシック|b0|i0|c128|p0;\l形式}
 73
               1
 44
0.7828267384257843
  0
MTEXT
  5
566
100
AcDbEntity
  8
SPEC
390
0
 62
               0
100
AcDbMText
 10
-974.88513302742615
 20
1896.0514758717795
 30
0.0
 40
28.504720052083346
 41
0.0
 71
               1
 72
               1
  1
{\fＭＳ ゴシック|b0|i0|c128|p0;\l寸法}
 73
               1
 44
0.7828267384257843
  0
MTEXT
  5
567
100
AcDbEntity
  8
SPEC
390
0
 62
               0
100
AcDbMText
 10
-974.8061371655682
 20
1840.0095074239821
 30
0.0
 40
28.504720052083346
 41
0.0
 71
               1
 72
               1
  1
{\fＭＳ ゴシック|b0|i0|c128|p0;\l重量}
 73
               1
 44
0.7828267384257843
  0
MTEXT
  5
568
100
AcDbEntity
  8
SPEC
390
0
 62
               0
100
AcDbMText
 10
-489.36262558199508
 20
2012.7288216640595
 30
0.0
 40
28.504720052083346
 41
0.0
 71
               1
 72
               1
  1
{\fＭＳ ゴシック|b0|i0|c128|p0;\l固定設備及び仮設イベント向けGシリーズ用天吊り金具}
 73
               1
 44
0.7828267384257843
  0
LINE
  5
569
100
AcDbEntity
  8
SPEC
370
               0
390
0
  6
Continuous
 62
               0
100
AcDbLine
 10
-987.1713262337181
 20
1796.0430774889264
 30
0.0
 11
1225.328673766282
 21
1796.0430774889264
 31
0.0
  0
MTEXT
  5
56A
100
AcDbEntity
  8
SPEC
390
0
 62
               0
100
AcDbMText
 10
-485.35332856231946
 20
1776.2986482669176
 30
0.0
 40
27.224372509123548
 41
0.0
 71
               1
 72
               1
  1
{\fＭＳ ゴシック|b0|i0|c128|p0;\lスピーカーキャビネット取付ネジ（普通ネジ、ハンドルネジがA15HGは4個,A15VGは2個付属。}
 73
               1
 44
0.7828267384257843
  0
MTEXT
  5
56B
100
AcDbEntity
  8
SPEC
390
0
 62
               0
100
AcDbMText
 10
-973.57909726474657
 20
1782.0376263585654
 30
0.0
 40
28.504720052083346
 41
0.0
 71
               1
 72
               1
  1
{\fＭＳ ゴシック|b0|i0|c128|p0;\l付属品}
 73
               1
 44
0.7828267384257843
  0
LINE
  5
56C
100
AcDbEntity
  8
SPEC
370
               0
390
0
  6
Continuous
 62
               0
100
AcDbLine
 10
-987.16968194384765
 20
1736.0444881257749
 30
0.0
 11
1225.3303180561525
 21
1736.0444881257749
 31
0.0
  0
LINE
  5
56D
100
AcDbEntity
  8
一般
370
               0
390
0
  6
Continuous
 62
               4
100
AcDbLine
 10
-1225.8057182976218
 20
2184.7017205369593
 30
0.0
 11
1474.1942817023773
 21
2184.7017205369593
 31
0.0
  0
LINE
  5
56E
100
AcDbEntity
  8
一般
370
               0
390
0
  6
Continuous
 62
               4
100
AcDbLine
 10
1474.1942817023773
 20
-1715.2982794630407
 30
0.0
 11
-1225.8057182976218
 21
-1715.2982794630407
 31
0.0
  0
LINE
  5
56F
100
AcDbEntity
  8
一般
370
               0
390
0
  6
Continuous
 62
               4
100
AcDbLine
 10
-1225.8057182976218
 20
-1715.2982794630407
 30
0.0
 11
-1225.8057182976218
 21
2184.7017205369593
 31
0.0
  0
LINE
  5
570
100
AcDbEntity
  8
一般
370
               0
390
0
  6
Continuous
 62
               4
100
AcDbLine
 10
1474.1942817023773
 20
2184.7017205369593
 30
0.0
 11
1474.1942817023773
 21
-1715.2982794630407
 31
0.0
  0
LINE
  5
571
100
AcDbEntity
  8
一般
370
               0
390
0
  6
Continuous
 62
               4
100
AcDbLine
 10
124.19428170237768
 20
-1377.7982794630407
 30
0.0
 11
1474.1942817023773
 21
-1377.7982794630407
 31
0.0
  0
LINE
  5
572
100
AcDbEntity
  8
一般
370
               0
390
0
  6
Continuous
 62
               4
100
AcDbLine
 10
124.19428170237768
 20
-1715.2982794630407
 30
0.0
 11
124.19428170237768
 21
-1377.7982794630407
 31
0.0
  0
MTEXT
  5
573
100
AcDbEntity
  8
一般
390
0
 62
               2
100
AcDbMText
 10
137.69428170237768
 20
-1390.9960622755402
 30
0.0
 40
24.432617187499996
 41
0.0
 71
               1
 72
               1
  1
{\fＭＳ ゴシック|b0|i0|c128|p0;\lNOTE}
 73
               1
 44
0.7828267384257843
  0
LINE
  5
574
100
AcDbEntity
  8
一般
370
               0
390
0
  6
Continuous
 62
               2
100
AcDbLine
 10
649.19428170237768
 20
-1715.2982794630407
 30
0.0
 11
649.19428170237768
 21
-1377.7982794630407
 31
0.0
  0
MTEXT
  5
575
100
AcDbEntity
  8
一般
390
0
 62
               2
100
AcDbMText
 10
662.69428170237768
 20
-1390.9960622755402
 30
0.0
 40
24.432617187499996
 41
0.0
 71
               1
 72
               1
  1
{\fＭＳ ゴシック|b0|i0|c128|p0;\lTITLE}
 73
               1
 44
0.7828267384257843
  0
LINE
  5
576
100
AcDbEntity
  8
一般
370
               0
390
0
  6
Continuous
 62
               2
100
AcDbLine
 10
124.19428170237768
 20
-1565.2982794630407
 30
0.0
 11
1474.1942817023773
 21
-1565.2982794630407
 31
0.0
  0
MTEXT
  5
577
100
AcDbEntity
  8
一般
390
0
 62
               2
100
AcDbMText
 10
850.19428170237768
 20
-1577.6512622755404
 30
0.0
 40
24.432617187499996
 41
0.0
 71
               1
 72
               1
  1
{\fＭＳ ゴシック|b0|i0|c128|p0;\lDRAWN}
 73
               1
 44
0.7828267384257843
  0
MTEXT
  5
578
100
AcDbEntity
  8
一般
390
0
 62
               2
100
AcDbMText
 10
475.19428170237768
 20
-1577.6512622755404
 30
0.0
 40
24.432617187499996
 41
0.0
 71
               1
 72
               1
  1
{\fＭＳ ゴシック|b0|i0|c128|p0;\lDATE}
 73
               1
 44
0.7828267384257843
  0
MTEXT
  5
579
100
AcDbEntity
  8
一般
390
0
 62
               2
100
AcDbMText
 10
325.19428170237768
 20
-1577.6512622755404
 30
0.0
 40
24.432617187499996
 41
0.0
 71
               1
 72
               1
  1
{\fＭＳ ゴシック|b0|i0|c128|p0;\lSCALE}
 73
               1
 44
0.7828267384257843
  0
MTEXT
  5
57A
100
AcDbEntity
  8
一般
390
0
 62
               2
100
AcDbMText
 10
662.69428170237768
 20
-1577.6512622755404
 30
0.0
 40
24.432617187499996
 41
0.0
 71
               1
 72
               1
  1
{\fＭＳ ゴシック|b0|i0|c128|p0;\lDESIGN}
 73
               1
 44
0.7828267384257843
  0
MTEXT
  5
57B
100
AcDbEntity
  8
一般
390
0
 62
               2
100
AcDbMText
 10
1225.1942817023773
 20
-1577.6512622755404
 30
0.0
 40
24.432617187499996
 41
0.0
 71
               1
 72
               1
  1
{\fＭＳ ゴシック|b0|i0|c128|p0;\lDRAWING NO.}
 73
               1
 44
0.7828267384257843
  0
MTEXT
  5
57C
100
AcDbEntity
  8
一般
390
0
 62
               2
100
AcDbMText
 10
1037.6942817023778
 20
-1577.6512622755404
 30
0.0
 40
24.432617187499996
 41
0.0
 71
               1
 72
               1
  1
{\fＭＳ ゴシック|b0|i0|c128|p0;\lCHECK}
 73
               1
 44
0.7828267384257843
  0
LINE
  5
57D
100
AcDbEntity
  8
一般
370
               0
390
0
  6
Continuous
 62
               2
100
AcDbLine
 10
339.81928170237768
 20
-1696.5482794630407
 30
0.0
 11
396.06928170237768
 21
-1640.2982794630407
 31
0.0
  0
MTEXT
  5
57E
100
AcDbEntity
  8
一般
390
0
 62
               2
100
AcDbMText
 10
330.44428170237768
 20
-1632.4998122755401
 30
0.0
 40
24.432617187499996
 41
0.0
 71
               1
 72
               1
  1
{\fＭＳ ゴシック|b0|i0|c128|p0;\l1}
 73
               1
 44
0.7828267384257843
  0
LINE
  5
57F
100
AcDbEntity
  8
一般
370
               0
390
0
  6
Continuous
 62
               2
100
AcDbLine
 10
311.69428170237768
 20
-1715.2982794630407
 30
0.0
 11
311.69428170237768
 21
-1565.2982794630407
 31
0.0
  0
LINE
  5
580
100
AcDbEntity
  8
一般
370
               0
390
0
  6
Continuous
 62
               2
100
AcDbLine
 10
461.69428170237768
 20
-1715.2982794630407
 30
0.0
 11
461.69428170237768
 21
-1565.2982794630407
 31
0.0
  0
LINE
  5
581
100
AcDbEntity
  8
一般
370
               0
390
0
  6
Continuous
 62
               2
100
AcDbLine
 10
836.69428170237768
 20
-1565.2982794630407
 30
0.0
 11
836.69428170237768
 21
-1715.2982794630407
 31
0.0
  0
LINE
  5
582
100
AcDbEntity
  8
一般
370
               0
390
0
  6
Continuous
 62
               2
100
AcDbLine
 10
1211.6942817023778
 20
-1565.2982794630407
 30
0.0
 11
1211.6942817023778
 21
-1715.2982794630407
 31
0.0
  0
LINE
  5
583
100
AcDbEntity
  8
一般
370
               0
390
0
  6
Continuous
 62
               2
100
AcDbLine
 10
1024.1942817023778
 20
-1715.2982794630407
 30
0.0
 11
1024.1942817023778
 21
-1565.2982794630407
 31
0.0
  0
MTEXT
  5
584
100
AcDbEntity
  8
一般
390
0
 62
               2
100
AcDbMText
 10
494.54238170237761
 20
-1637.9109622755409
 30
0.0
 40
24.432617187499996
 41
0.0
 71
               1
 72
               1
  1
{\fＭＳ ゴシック|b0|i0|c128|p0;\l2014.08}
 73
               1
 44
0.7828267384257843
  0
MTEXT
  5
585
100
AcDbEntity
  8
一般
390
0
 62
               2
100
AcDbMText
 10
386.69428170237768
 20
-1660.6248122755401
 30
0.0
 40
24.432617187499996
 41
0.0
 71
               1
 72
               1
  1
{\fＭＳ ゴシック|b0|i0|c128|p0;\l15}
 73
               1
 44
0.7828267384257843
  0
MTEXT
  5
586
100
AcDbEntity
  8
一般
390
0
 62
               2
100
AcDbMText
 10
869.28143186789691
 20
-1627.9109622755409
 30
0.0
 40
24.432617187499996
 41
0.0
 71
               1
 72
               1
  1
{\fＭＳ ゴシック|b0|i0|c128|p0;\lKojima\P Shohei}
 73
               1
 44
0.7828267384257843
  0
MTEXT
  5
587
100
AcDbEntity
  8
一般
390
0
 62
               2
100
AcDbMText
 10
182.44428170237813
 20
-1636.7930450880403
 30
0.0
 40
48.865234374999993
 41
0.0
 71
               1
 72
               1
  1
{\fＭＳ ゴシック|b0|i0|c128|p0;\lA4}
 73
               1
 44
0.7828267384257843
  0
MTEXT
  5
588
100
AcDbEntity
  8
一般
390
0
 62
               2
100
AcDbMText
 10
138.56928170237768
 20
-1580.1574872755405
 30
0.0
 40
24.432617187499996
 41
0.0
 71
               1
 72
               1
  1
{\fＭＳ ゴシック|b0|i0|c128|p0;\lPAPER SIZE}
 73
               1
 44
0.7828267384257843
  0
MTEXT
  5
589
100
AcDbEntity
  8
一般
390
0
 62
               2
100
AcDbMText
 10
-1184.4111894442694
 20
-1758.7395457361013
 30
0.0
 40
52.937337239583329
 41
0.0
 71
               1
 72
               1
  1
{\fＭＳ ゴシック|b0|i0|c128|p0;\lHibino-Intersound Corporation}
 73
               1
 44
0.7828267384257843
  0
MTEXT
  5
58A
100
AcDbEntity
  8
一般
390
0
 62
               2
100
AcDbMText
 10
426.90342690558612
 20
-1753.4732219367602
 30
0.0
 40
52.937337239583329
 41
0.0
 71
               1
 72
               1
  1
{\fＭＳ ゴシック|b0|i0|c128|p0;\lヒビノインタ ーサウンド株式会社}
 73
               1
 44
0.7828267384257843
  0
MTEXT
  5
58B
100
AcDbEntity
  8
0
390
0
 62
               2
100
AcDbMText
 10
-1024.625
 20
-1398.9947656249997
 30
0.0
 40
48.865234375000092
 41
0.0
 71
               1
 72
               1
  1
{\fＭＳ ゴシック|b0|i0|c128|p0;\l(単位：mm）}
 73
               1
 44
0.7828267384257843
  0
MTEXT
  5
58C
100
AcDbEntity
  8
0
390
0
 62
               2
100
AcDbMText
 10
750.10713153685788
 20
-1436.3161841505403
 30
0.0
 40
40.721028645833343
 41
0.0
 71
               1
 72
               1
  1
{\fＭＳ ゴシック|b0|i0|c128|p0;\lCODA AUDIO アクセサリー\PA15HG,A15VG,GFA}
 73
               1
 44
0.7828267384257843
  0
MTEXT
  5
58D
100
AcDbEntity
  8
一般
390
0
 62
               2
100
AcDbMText
 10
-1130.6250403722129
 20
-1602.8723828124998
 30
0.0
 40
24.432617187500004
 41
0.0
 71
               1
 72
               1
  1
{\fＭＳ ゴシック|b0|i0|c128|p0;\l仕様および外観は予告なく変更されることがありますので、ご了承ください。}
 73
               1
 44
0.7828267384257843
  0
MTEXT
  5
58E
100
AcDbEntity
  8
SPEC
390
0
 62
               0
100
AcDbMText
 10
-485.14322152552506
 20
1834.6905533854169
 30
0.0
 40
28.504720052083346
 41
0.0
 71
               1
 72
               1
  1
{\fＭＳ ゴシック|b0|i0|c128|p0;\l図面表記をご参照ください。}
 73
               1
 44
0.7828267384257843
  0
INSERT
  5
58F
100
AcDbEntity
  8
0
390
0
 62
               1
100
AcDbBlockReference
  2
グループ-4
 10
124.98415957822897
 20
167.70761593365171
 30
0.0
  0
INSERT
  5
590
100
AcDbEntity
  8
0
390
0
 62
               1
100
AcDbBlockReference
  2
グループ-7
 10
124.98415957822897
 20
167.70761593365171
 30
0.0
  0
INSERT
  5
591
100
AcDbEntity
  8
0
390
0
 62
               1
100
AcDbBlockReference
  2
グループ-23
 10
124.98415957822897
 20
167.70761593365171
 30
0.0
  0
ENDSEC
  0
SECTION
  2
OBJECTS
  0
DICTIONARY
  5
19
100
AcDbDictionary
280
               0
281
               1
  3
ACAD_GROUP
350
1A
  3
ACAD_MLINESTYLE
350
1B
  3
ACAD_LAYOUT
350
1E
  3
ACAD_PLOTSETTINGS
350
22
  3
ACAD_PLOTSTYLENAME
350
1F
  3
ACAD_WIPEOUT_VARS
350
23
  0
DICTIONARY
  5
1A
102
{ACAD_REACTORS
330
19
102
}
100
AcDbDictionary
280
               0
281
               1
  0
DICTIONARY
  5
1B
102
{ACAD_REACTORS
330
19
102
}
100
AcDbDictionary
280
               0
281
               1
  3
Standard
350
1C
  0
MLINESTYLE
  5
1C
102
{ACAD_REACTORS
330
1B
102
}
100
AcDbMlineStyle
  2
Standard
 70
               0
  3

 62
               0
 51
90.0
 52
90.0
 71
               2
 49
0.5
 62
             256
  6
ByLayer
 49
-0.5
 62
             256
  6
ByLayer
  0
ACDBDICTIONARYWDFLT
  5
1F
102
{ACAD_REACTORS
330
19
102
}
100
AcDbDictionary
281
               1
  3
Normal
350
1D
100
AcDbDictionaryWithDefault
340
1D
  0
ACDBPLACEHOLDER
  5
1D
102
{ACAD_REACTORS
330
1F
102
}
  0
LAYOUT
  5
20
102
{ACAD_REACTORS
330
1E
102
}
100
AcDbPlotSettings
  1

  2

  4

  6

 40
0.0
 41
0.0
 42
0.0
 43
0.0
 44
0.0
 45
0.0
 46
0.0
 47
0.0
 48
0.0
 49
0.0
140
0.0
141
0.0
142
1.0
143
1.0
 70
            1024
 72
               0
 73
               0
 74
               0
  7
Gシリーズ用_A15HG_A15VG_GFA.ctb
 75
               0
147
1.0
148
0.0
149
0.0
100
AcDbLayout
  1
Model
 70
               0
 71
               0
 10
0.0
 20
0.0
 11
0.0
 21
0.0
 12
0.0
 22
0.0
 32
0.0
 14
0.0
 24
0.0
 34
0.0
 15
0.0
 25
0.0
 35
0.0
146
0.0
 13
0.0
 23
0.0
 33
0.0
 16
0.0
 26
0.0
 36
0.0
 17
0.0
 27
0.0
 37
0.0
 76
               0
330
A
331
0
345
0
346
0
  0
LAYOUT
  5
21
102
{ACAD_REACTORS
330
1E
102
}
100
AcDbPlotSettings
  1

  2

  4

  6

 40
0.0
 41
0.0
 42
0.0
 43
0.0
 44
0.0
 45
0.0
 46
0.0
 47
0.0
 48
0.0
 49
0.0
140
0.0
141
0.0
142
1.0
143
1.0
 70
               0
 72
               0
 73
               0
 74
               0
  7

 75
               0
147
1.0
148
0.0
149
0.0
100
AcDbLayout
  1
Layout1
 70
               0
 71
               0
 10
0.0
 20
0.0
 11
0.0
 21
0.0
 12
0.0
 22
0.0
 32
0.0
 14
0.0
 24
0.0
 34
0.0
 15
0.0
 25
0.0
 35
0.0
146
0.0
 13
0.0
 23
0.0
 33
0.0
 16
0.0
 26
0.0
 36
0.0
 17
0.0
 27
0.0
 37
0.0
 76
               0
330
B
331
0
345
0
346
0
  0
DICTIONARY
  5
1E
102
{ACAD_REACTORS
330
19
102
}
100
AcDbDictionary
280
               0
281
               1
  3
Layout1
350
21
  3
Model
350
20
  0
DICTIONARY
  5
22
102
{ACAD_REACTORS
330
19
102
}
100
AcDbDictionary
280
               0
281
               1
  0
WIPEOUTVARIABLES
  5
23
100
AcDbWipeoutVariables
 70
               0
  0
ENDSEC
  0
EOF
