  0
SECTION
  2
HEADER
  9
$ACADVER
  1
AC1015
  9
$ACADMAINTVER
 70
               6
  9
$DWGCODEPAGE
  3
ANSI_932
  9
$INSBASE
 10
0.0
 20
0.0
 30
0.0
  9
$EXTMIN
 10
5783.1843614815871
 20
-1673.4912476910381
 30
-22.250399999999999
  9
$EXTMAX
 10
8483.1843614815862
 20
2332.5181891549396
 30
22.250399999999999
  9
$LIMMIN
 10
0.0
 20
0.0
  9
$LIMMAX
 10
0.0
 20
0.0
  9
$ORTHOMODE
 70
               0
  9
$REGENMODE
 70
               1
  9
$FILLMODE
 70
               1
  9
$QTEXTMODE
 70
               0
  9
$MIRRTEXT
 70
               1
  9
$LTSCALE
 40
76.199999999999989
  9
$ATTMODE
 70
               1
  9
$TEXTSIZE
 40
0.2
  9
$TRACEWID
 40
1.0
  9
$TEXTSTYLE
  7
Standard
  9
$CLAYER
  8
0
  9
$CELTYPE
  6
Continuous
  9
$CECOLOR
 62
             256
  9
$CELTSCALE
 40
1.0
  9
$DISPSILH
 70
               0
  9
$DIMSCALE
 40
1.0
  9
$DIMASZ
 40
37.50933837890625
  9
$DIMEXO
 40
29.999999999999996
  9
$DIMDLI
 40
4.9999999999999991
  9
$DIMRND
 40
0.0
  9
$DIMDLE
 40
0.0
  9
$DIMEXE
 40
29.999999999999996
  9
$DIMTP
 40
0.0
  9
$DIMTM
 40
0.0
  9
$DIMTXT
 40
48.865234375000092
  9
$DIMCEN
 40
0.0
  9
$DIMTSZ
 40
0.0
  9
$DIMTOL
 70
               0
  9
$DIMLIM
 70
               0
  9
$DIMTIH
 70
               0
  9
$DIMTOH
 70
               0
  9
$DIMSE1
 70
               0
  9
$DIMSE2
 70
               0
  9
$DIMTAD
 70
               1
  9
$DIMZIN
 70
              11
  9
$DIMBLK
  1
VW_EMPTYARROW
  9
$DIMASO
 70
               1
  9
$DIMSHO
 70
               1
  9
$DIMPOST
  1
<>
  9
$DIMAPOST
  1
[]
  9
$DIMALT
 70
               0
  9
$DIMALTD
 70
               2
  9
$DIMALTF
 40
1.0
  9
$DIMLFAC
 40
1.0
  9
$DIMTOFL
 70
               1
  9
$DIMTVP
 40
0.0
  9
$DIMTIX
 70
               1
  9
$DIMSOXD
 70
               0
  9
$DIMSAH
 70
               0
  9
$DIMBLK1
  1

  9
$DIMBLK2
  1

  9
$DIMSTYLE
  2
HIBINO
  9
$DIMCLRD
 70
               0
  9
$DIMCLRE
 70
               0
  9
$DIMCLRT
 70
               0
  9
$DIMTFAC
 40
1.0
  9
$DIMGAP
 40
0.4999999999999999
  9
$DIMJUST
 70
               0
  9
$DIMSD1
 70
               0
  9
$DIMSD2
 70
               0
  9
$DIMTOLJ
 70
               1
  9
$DIMTZIN
 70
              11
  9
$DIMALTZ
 70
              11
  9
$DIMALTTZ
 70
              11
  9
$DIMUPT
 70
               0
  9
$DIMDEC
 70
               2
  9
$DIMTDEC
 70
               2
  9
$DIMALTU
 70
               2
  9
$DIMALTTD
 70
               2
  9
$DIMTXSTY
  7
ＭＳ ゴシック
  9
$DIMAUNIT
 70
               0
  9
$DIMADEC
 70
               0
  9
$DIMALTRND
 40
0.0
  9
$DIMAZIN
 70
               0
  9
$DIMDSEP
 70
              46
  9
$DIMATFIT
 70
               0
  9
$DIMFRAC
 70
               2
  9
$DIMLDRBLK
  1

  9
$DIMLUNIT
 70
               2
  9
$DIMLWD
 70
              -2
  9
$DIMLWE
 70
              -2
  9
$DIMTMOVE
 70
               0
  9
$LUNITS
 70
               2
  9
$LUPREC
 70
               4
  9
$SKETCHINC
 40
0.1
  9
$FILLETRAD
 40
0.0
  9
$AUNITS
 70
               0
  9
$AUPREC
 70
               0
  9
$MENU
  1
acad
  9
$ELEVATION
 40
0.0
  9
$PELEVATION
 40
0.0
  9
$THICKNESS
 40
0.0
  9
$LIMCHECK
 70
               0
  9
$CHAMFERA
 40
0.0
  9
$CHAMFERB
 40
0.0
  9
$CHAMFERC
 40
0.0
  9
$CHAMFERD
 40
0.0
  9
$SKPOLY
 70
               0
  9
$TDCREATE
 40
2457112.805706019
  9
$TDUCREATE
 40
0.000000000
  9
$TDUPDATE
 40
2457112.805706019
  9
$TDUUPDATE
 40
0.000000000
  9
$TDINDWG
 40
0.0000000000
  9
$TDUSRTIMER
 40
0.0000000000
  9
$USRTIMER
 70
               1
  9
$ANGBASE
 50
0.0
  9
$ANGDIR
 70
               0
  9
$PDMODE
 70
               1
  9
$PDSIZE
 40
-2.0
  9
$PLINEWID
 40
0.0
  9
$SPLFRAME
 70
               0
  9
$SPLINETYPE
 70
               6
  9
$SPLINESEGS
 70
               8
  9
$HANDSEED
  5
4F7
  9
$SURFTAB1
 70
               6
  9
$SURFTAB2
 70
               6
  9
$SURFTYPE
 70
               6
  9
$SURFU
 70
               6
  9
$SURFV
 70
               6
  9
$UCSBASE
  2

  9
$UCSNAME
  2

  9
$UCSORG
 10
0.0
 20
0.0
 30
0.0
  9
$UCSXDIR
 10
1.0
 20
0.0
 30
0.0
  9
$UCSYDIR
 10
0.0
 20
1.0
 30
0.0
  9
$UCSORTHOREF
  2

  9
$UCSORTHOVIEW
 70
               0
  9
$UCSORGTOP
 10
0.0
 20
0.0
 30
0.0
  9
$UCSORGBOTTOM
 10
0.0
 20
0.0
 30
0.0
  9
$UCSORGLEFT
 10
0.0
 20
0.0
 30
0.0
  9
$UCSORGRIGHT
 10
0.0
 20
0.0
 30
0.0
  9
$UCSORGFRONT
 10
0.0
 20
0.0
 30
0.0
  9
$UCSORGBACK
 10
0.0
 20
0.0
 30
0.0
  9
$PUCSBASE
  2

  9
$PUCSNAME
  2

  9
$PUCSORG
 10
0.0
 20
0.0
 30
0.0
  9
$PUCSXDIR
 10
1.0
 20
0.0
 30
0.0
  9
$PUCSYDIR
 10
0.0
 20
1.0
 30
0.0
  9
$PUCSORTHOREF
  2

  9
$PUCSORTHOVIEW
 70
               0
  9
$PUCSORGTOP
 10
0.0
 20
0.0
 30
0.0
  9
$PUCSORGBOTTOM
 10
0.0
 20
0.0
 30
0.0
  9
$PUCSORGLEFT
 10
0.0
 20
0.0
 30
0.0
  9
$PUCSORGRIGHT
 10
0.0
 20
0.0
 30
0.0
  9
$PUCSORGFRONT
 10
0.0
 20
0.0
 30
0.0
  9
$PUCSORGBACK
 10
0.0
 20
0.0
 30
0.0
  9
$USERI1
 70
               0
  9
$USERI2
 70
               0
  9
$USERI3
 70
               0
  9
$USERI4
 70
               0
  9
$USERI5
 70
               0
  9
$USERR1
 40
0.0
  9
$USERR2
 40
0.0
  9
$USERR3
 40
0.0
  9
$USERR4
 40
0.0
  9
$USERR5
 40
0.0
  9
$WORLDVIEW
 70
               1
  9
$SHADEDGE
 70
               3
  9
$SHADEDIF
 70
              70
  9
$TILEMODE
 70
               1
  9
$MAXACTVP
 70
              64
  9
$PINSBASE
 10
0.0
 20
0.0
 30
0.0
  9
$PLIMCHECK
 70
               0
  9
$PEXTMIN
 10
1.0000000000000000E+20
 20
1.0000000000000000E+20
 30
1.0000000000000000E+20
  9
$PEXTMAX
 10
-1.0000000000000000E+20
 20
-1.0000000000000000E+20
 30
-1.0000000000000000E+20
  9
$PLIMMIN
 10
0.0
 20
0.0
  9
$PLIMMAX
 10
12.0
 20
9.0
  9
$UNITMODE
 70
               0
  9
$VISRETAIN
 70
               0
  9
$PLINEGEN
 70
               1
  9
$PSLTSCALE
 70
               0
  9
$TREEDEPTH
 70
            3020
  9
$CMLSTYLE
  2
Standard
  9
$CMLJUST
 70
               0
  9
$CMLSCALE
 40
1.0
  9
$PROXYGRAPHICS
 70
               0
  9
$MEASUREMENT
 70
               1
  9
$CELWEIGHT
370
               0
  9
$ENDCAPS
280
               0
  9
$JOINSTYLE
280
               0
  9
$LWDISPLAY
290
               0
  9
$INSUNITS
 70
               4
  9
$HYPERLINKBASE
  1

  9
$STYLESHEET
  1

  9
$XEDIT
290
               1
  9
$CEPSNTYPE
380
               0
  9
$PSTYLEMODE
290
               1
  9
$FINGERPRINTGUID
  2

  9
$VERSIONGUID
  2

  9
$EXTNAMES
290
               1
  9
$PSVPSCALE
 40
0.0
  0
ENDSEC
  0
SECTION
  2
CLASSES
  0
CLASS
  1
LWPOLYLINE
  2
AcDbPolyline
  3
AutoCAD 2000
 90
        0
280
               0
281
               1
  0
CLASS
  1
IMAGE
  2
AcDbRasterImage
  3
ISM
 90
      127
280
               0
281
               1
  0
CLASS
  1
OLE2FRAME
  2
AcDbOle2Frame
  3
AutoCAD 2000
 90
        0
280
               0
281
               1
  0
CLASS
  1
HATCH
  2
AcDbHatch
  3
AutoCAD 2000
 90
        0
280
               0
281
               1
  0
CLASS
  1
DICTIONARYVAR
  2
AcDbDictionaryVar
  3
AutoCAD 2000
 90
        0
280
               0
281
               0
  0
CLASS
  1
RASTERVARIABLES
  2
AcDbRasterVariables
  3
ISM
 90
        0
280
               0
281
               0
  0
CLASS
  1
IMAGEDEF
  2
AcDbRasterImageDef
  3
ISM
 90
        0
280
               0
281
               0
  0
CLASS
  1
IMAGEDEF_REACTOR
  2
AcDbRasterImageDefReactor
  3
ISM
 90
        1
280
               0
281
               0
  0
CLASS
  1
IDBUFFER
  2
AcDbIdBuffer
  3
AutoCAD 2000
 90
        0
280
               0
281
               0
  0
CLASS
  1
SPATIAL_FILTER
  2
AcDbSpatialFilter
  3
AutoCAD 2000
 90
        0
280
               0
281
               0
  0
CLASS
  1
XRECORD
  2
AcDbXrecord
  3
AutoCAD 2000
 90
        0
280
               0
281
               0
  0
CLASS
  1
SORTENTSTABLE
  2
AcDbSortentsTable
  3
AutoCAD 2000
 90
        0
280
               0
281
               0
  0
CLASS
  1
LAYER_INDEX
  2
AcDbLayerIndex
  3
AutoCAD 2000
 90
        0
280
               0
281
               0
  0
CLASS
  1
SPATIAL_INDEX
  2
AcDbSpatialIndex
  3
AutoCAD 2000
 90
        0
280
               0
281
               0
  0
CLASS
  1
OBJECT_PTR
  2
CAseDLPNTableRecord
  3
"ASE-LPNTableRecord"
 90
        1
280
               0
281
               0
  0
CLASS
  1
LAYOUT
  2
AcDbLayout
  3
AutoCAD 2000
 90
        0
280
               0
281
               0
  0
CLASS
  1
PLOTSETTINGS
  2
AcDbPlotSettings
  3
AutoCAD 2000
 90
        0
280
               0
281
               0
  0
CLASS
  1
ACDBDICTIONARYWDFLT
  2
AcDbDictionaryWithDefault
  3
AutoCAD 2000
 90
        0
280
               0
281
               0
  0
CLASS
  1
ACDBPLACEHOLDER
  2
AcDbPlaceHolder
  3
AutoCAD 2000
 90
        0
280
               0
281
               0
  0
CLASS
  1
VBA_PROJECT
  2
AcDbVbaProject
  3
acadvba
 90
        0
280
               0
281
               0
  0
CLASS
  1
WIPEOUT
  2
AcDbWipeout
  3
WipeOut|AutoCAD Express Tool|expresstools@autodesk.com
 90
      127
280
               0
281
               1
  0
CLASS
  1
WIPEOUTVARIABLES
  2
AcDbWipeoutVariables
  3
WipeOut|AutoCAD Express Tool|expresstools@autodesk.com
 90
        0
280
               0
281
               0
  0
CLASS
  1
RTEXT
  2
RText
  3
RText|AutoCAD Express Tool|expresstools@autodesk.com
 90
        0
280
               0
281
               1
  0
CLASS
  1
ARCALIGNEDTEXT
  2
AcDbArcAlignedText
  3
ATEXT|AutoCAD Express Tool|expresstools@autodesk.com
 90
        0
280
               0
281
               1
  0
ENDSEC
  0
SECTION
  2
TABLES
  0
TABLE
  2
VPORT
  5
7
100
AcDbSymbolTable
 70
               1
  0
VPORT
  5
15
100
AcDbSymbolTableRecord
100
AcDbViewportTableRecord
  2
*ACTIVE
 70
               0
 10
0.0
 20
0.0
 11
1.0
 21
1.0
 12
7133.1843614815862
 22
329.51347073195075
 13
0.0
 23
0.0
 14
1.0
 24
1.0
 15
0.0
 25
0.0
 16
0.0
 26
0.0
 36
1.0
 17
0.0
 27
0.0
 37
0.0
 40
4006.0094368459777
 41
0.688564
 42
50.0
 43
0.0
 44
0.0
 50
0.0
 51
0.0
 71
               0
 72
            2000
 73
               1
 74
               1
 75
               0
 76
               0
 77
               0
 78
               0
281
               0
 65
               0
110
0.0
120
0.0
130
0.0
111
1.0
121
0.0
131
0.0
112
0.0
122
1.0
132
0.0
345
0
346
0
 79
               0
146
0.0
  0
ENDTAB
  0
TABLE
  2
LTYPE
  5
4
100
AcDbSymbolTable
 70
              13
  0
LTYPE
  5
11
100
AcDbSymbolTableRecord
100
AcDbLinetypeTableRecord
  2
ByBlock
 70
              64
  3

 72
              65
 73
               0
 40
0.0
  0
LTYPE
  5
12
100
AcDbSymbolTableRecord
100
AcDbLinetypeTableRecord
  2
ByLayer
 70
              64
  3

 72
              65
 73
               0
 40
0.0
  0
LTYPE
  5
13
100
AcDbSymbolTableRecord
100
AcDbLinetypeTableRecord
  2
Continuous
 70
              64
  3
Solid line
 72
              65
 73
               0
 40
0.0
  0
LTYPE
  5
2E
100
AcDbSymbolTableRecord
100
AcDbLinetypeTableRecord
  2
STYLE_01
 70
               0
  3

 72
              65
 73
               4
 40
0.2666666666666667
 49
0.1666666666666667
 74
               0
 49
-0.0333333333333333
 74
               0
 49
0.0333333333333333
 74
               0
 49
-0.0333333333333333
 74
               0
  0
LTYPE
  5
2F
100
AcDbSymbolTableRecord
100
AcDbLinetypeTableRecord
  2
STYLE_02
 70
               0
  3

 72
              65
 73
               2
 40
0.694427490234375
 49
0.4860687255859375
 74
               0
 49
-0.2083587646484375
 74
               0
  0
LTYPE
  5
30
100
AcDbSymbolTableRecord
100
AcDbLinetypeTableRecord
  2
STYLE_03
 70
               0
  3

 72
              65
 73
               2
 40
1.25
 49
1.0416412353515625
 74
               0
 49
-0.2083587646484375
 74
               0
  0
LTYPE
  5
31
100
AcDbSymbolTableRecord
100
AcDbLinetypeTableRecord
  2
STYLE_04
 70
               0
  3

 72
              65
 73
               2
 40
1.5277099609375
 49
1.319427490234375
 74
               0
 49
-0.208282470703125
 74
               0
  0
LTYPE
  5
32
100
AcDbSymbolTableRecord
100
AcDbLinetypeTableRecord
  2
STYLE_05
 70
               0
  3

 72
              65
 73
               2
 40
0.208282470703125
 49
0.069427490234375
 74
               0
 49
-0.13885498046875
 74
               0
  0
LTYPE
  5
33
100
AcDbSymbolTableRecord
100
AcDbLinetypeTableRecord
  2
STYLE_06
 70
               0
  3

 72
              65
 73
               4
 40
1.0416412353515625
 49
0.625
 74
               0
 49
-0.208282470703125
 74
               0
 49
0.069427490234375
 74
               0
 49
-0.1389312744140625
 74
               0
  0
LTYPE
  5
34
100
AcDbSymbolTableRecord
100
AcDbLinetypeTableRecord
  2
STYLE_07
 70
               0
  3

 72
              65
 73
               6
 40
1.875
 49
0.625
 74
               0
 49
-0.208282470703125
 74
               0
 49
0.625
 74
               0
 49
-0.2083587646484375
 74
               0
 49
0.069427490234375
 74
               0
 49
-0.1389312744140625
 74
               0
  0
LTYPE
  5
35
100
AcDbSymbolTableRecord
100
AcDbLinetypeTableRecord
  2
STYLE_08
 70
               0
  3

 72
              65
 73
               6
 40
1.25
 49
0.625
 74
               0
 49
-0.208282470703125
 74
               0
 49
0.069427490234375
 74
               0
 49
-0.1389312744140625
 74
               0
 49
0.069427490234375
 74
               0
 49
-0.1389312744140625
 74
               0
  0
LTYPE
  5
36
100
AcDbSymbolTableRecord
100
AcDbLinetypeTableRecord
  2
STYLE_09
 70
               0
  3

 72
              65
 73
               4
 40
5.0
 49
3.75
 74
               0
 49
-0.2777862548828125
 74
               0
 49
0.694427490234375
 74
               0
 49
-0.2777862548828125
 74
               0
  0
LTYPE
  5
37
100
AcDbSymbolTableRecord
100
AcDbLinetypeTableRecord
  2
STYLE_10
 70
               0
  3

 72
              65
 73
               6
 40
5.9375
 49
3.75
 74
               0
 49
-0.2777862548828125
 74
               0
 49
0.694427490234375
 74
               0
 49
-0.2777862548828125
 74
               0
 49
0.625
 74
               0
 49
-0.3125
 74
               0
  0
ENDTAB
  0
TABLE
  2
LAYER
  5
2
100
AcDbSymbolTable
 70
              13
  0
LAYER
  5
14
100
AcDbSymbolTableRecord
100
AcDbLayerTableRecord
  2
0
 70
               0
 62
               7
  6
Continuous
290
               1
370
               0
390
1D
  0
LAYER
  5
38
100
AcDbSymbolTableRecord
100
AcDbLayerTableRecord
  2
DATA
 70
               0
 62
               7
  6
Continuous
290
               1
370
               0
390
1D
  0
LAYER
  5
39
100
AcDbSymbolTableRecord
100
AcDbLayerTableRecord
  2
一般
 70
               0
 62
               7
  6
Continuous
290
               1
370
               0
390
1D
  0
LAYER
  5
3A
100
AcDbSymbolTableRecord
100
AcDbLayerTableRecord
  2
寸法
 70
               0
 62
               7
  6
Continuous
290
               1
370
               0
390
1D
  0
LAYER
  5
3B
100
AcDbSymbolTableRecord
100
AcDbLayerTableRecord
  2
HIBINO-BASE
 70
               0
 62
               7
  6
Continuous
290
               1
370
               0
390
1D
  0
LAYER
  5
3C
100
AcDbSymbolTableRecord
100
AcDbLayerTableRecord
  2
SPEC
 70
               0
 62
               7
  6
Continuous
290
               1
370
               0
390
1D
  0
LAYER
  5
3D
100
AcDbSymbolTableRecord
100
AcDbLayerTableRecord
  2
DIMNSIONS
 70
               0
 62
               7
  6
Continuous
290
               1
370
               0
390
1D
  0
LAYER
  5
3E
100
AcDbSymbolTableRecord
100
AcDbLayerTableRecord
  2
Layer1
 70
               0
 62
               3
  6
Continuous
290
               1
370
               0
390
1D
  0
LAYER
  5
3F
100
AcDbSymbolTableRecord
100
AcDbLayerTableRecord
  2
2D
 70
               0
 62
              82
  6
Continuous
290
               1
370
               0
390
1D
  0
LAYER
  5
40
100
AcDbSymbolTableRecord
100
AcDbLayerTableRecord
  2
FORMAT
 70
               0
 62
               7
  6
Continuous
290
               1
370
               0
390
1D
  0
LAYER
  5
41
100
AcDbSymbolTableRecord
100
AcDbLayerTableRecord
  2
Defpoints
 70
               0
 62
               7
  6
Continuous
290
               0
370
               0
390
1D
  0
LAYER
  5
42
100
AcDbSymbolTableRecord
100
AcDbLayerTableRecord
  2
5in
 70
               0
 62
               7
  6
Continuous
290
               1
370
               0
390
1D
  0
LAYER
  5
43
100
AcDbSymbolTableRecord
100
AcDbLayerTableRecord
  2
AM_0
 70
               0
 62
               7
  6
Continuous
290
               1
370
               0
390
1D
  0
ENDTAB
  0
TABLE
  2
STYLE
  5
3
100
AcDbSymbolTable
 70
               2
  0
STYLE
  5
17
100
AcDbSymbolTableRecord
100
AcDbTextStyleTableRecord
  2
Standard
 70
               0
 40
0.0
 41
1.0
 50
0.0
 71
               0
 42
0.0
  3
txt
  4
BIGFONT.SHX
  0
STYLE
  5
2D
100
AcDbSymbolTableRecord
100
AcDbTextStyleTableRecord
  2
ＭＳ ゴシック
 70
               0
 40
0.0
 41
1.0
 50
0.0
 71
               0
 42
0.0
  3

  4
ＭＳ ゴシック
1001
ACAD
1000
ＭＳ ゴシック
1071
        0
  0
ENDTAB
  0
TABLE
  2
VIEW
  5
5
100
AcDbSymbolTable
 70
               0
  0
ENDTAB
  0
TABLE
  2
UCS
  5
6
100
AcDbSymbolTable
 70
               0
  0
ENDTAB
  0
TABLE
  2
APPID
  5
8
100
AcDbSymbolTable
 70
               1
  0
APPID
  5
16
100
AcDbSymbolTableRecord
100
AcDbRegAppTableRecord
  2
ACAD
 70
               0
  0
ENDTAB
  0
TABLE
  2
DIMSTYLE
  5
9
100
AcDbSymbolTable
 70
               2
100
AcDbDimStyleTable
 71
               0
  0
DIMSTYLE
105
18
100
AcDbSymbolTableRecord
100
AcDbDimStyleTableRecord
  2
Standard
 70
               0
  3

  4

 40
1.0
 41
0.18
 42
0.0625
 43
0.38
 44
0.18
 45
0.0
 46
0.0
 47
0.0
 48
0.0
 71
               0
 72
               0
 73
               1
 74
               1
 75
               0
 76
               0
 77
               0
 78
               0
 79
               0
140
0.18
141
0.09
142
0.0
143
25.399999999999999
144
1.0
145
0.0
146
1.0
147
0.09
148
0.0
170
               0
171
               2
172
               0
173
               0
174
               0
175
               0
176
               0
177
               0
178
               0
179
               0
271
               4
272
               4
273
               2
274
               2
275
               0
276
               0
277
               2
278
              46
279
               0
280
               0
281
               0
282
               0
283
               1
284
               0
285
               0
286
               0
288
               0
289
               3
340
17
341
0
342
0
343
0
344
0
371
              -2
372
              -2
  0
DIMSTYLE
105
4D
100
AcDbSymbolTableRecord
100
AcDbDimStyleTableRecord
  2
HIBINO
 70
               0
  3
<>
  4
[]
 40
1.0
 41
37.50933837890625
 42
29.999999999999996
 43
4.9999999999999991
 44
29.999999999999996
 45
0.0
 46
0.0
 47
0.0
 48
0.0
 71
               0
 72
               0
 73
               0
 74
               0
 75
               0
 76
               0
 77
               1
 78
              11
 79
               0
140
48.865234375000092
141
0.0
142
0.0
143
1.0
144
1.0
145
0.0
146
1.0
147
0.4999999999999999
148
0.0
170
               0
171
               2
172
               1
173
               0
174
               1
175
               0
176
               0
177
               0
178
               0
179
               0
271
               2
272
               2
273
               2
274
               2
275
               0
276
               2
277
               2
278
              46
279
               0
280
               0
281
               0
282
               0
283
               1
284
              11
285
              11
286
              11
288
               0
289
               0
340
2D
341
44
342
44
343
0
344
0
371
              -2
372
              -2
  0
ENDTAB
  0
TABLE
  2
BLOCK_RECORD
  5
1
100
AcDbSymbolTable
 70
              10
  0
BLOCK_RECORD
  5
A
100
AcDbSymbolTableRecord
100
AcDbBlockTableRecord
  2
*MODEL_SPACE
340
20
  0
BLOCK_RECORD
  5
B
100
AcDbSymbolTableRecord
100
AcDbBlockTableRecord
  2
*PAPER_SPACE
340
21
  0
BLOCK_RECORD
  5
44
100
AcDbSymbolTableRecord
100
AcDbBlockTableRecord
  2
VW_EMPTYARROW
340
0
  0
BLOCK_RECORD
  5
24
100
AcDbSymbolTableRecord
100
AcDbBlockTableRecord
  2
*D1
340
0
  0
BLOCK_RECORD
  5
25
100
AcDbSymbolTableRecord
100
AcDbBlockTableRecord
  2
*D2
340
0
  0
BLOCK_RECORD
  5
26
100
AcDbSymbolTableRecord
100
AcDbBlockTableRecord
  2
グループ
340
0
102
{BLKREFS
331
4F0
102
}
  0
BLOCK_RECORD
  5
27
100
AcDbSymbolTableRecord
100
AcDbBlockTableRecord
  2
グループ-1
340
0
102
{BLKREFS
331
4F1
102
}
  0
BLOCK_RECORD
  5
28
100
AcDbSymbolTableRecord
100
AcDbBlockTableRecord
  2
*D5
340
0
  0
BLOCK_RECORD
  5
29
100
AcDbSymbolTableRecord
100
AcDbBlockTableRecord
  2
グループ-2
340
0
102
{BLKREFS
331
4F5
102
}
  0
BLOCK_RECORD
  5
2A
100
AcDbSymbolTableRecord
100
AcDbBlockTableRecord
  2
*D7
340
0
  0
BLOCK_RECORD
  5
2B
100
AcDbSymbolTableRecord
100
AcDbBlockTableRecord
  2
*D8
340
0
  0
BLOCK_RECORD
  5
2C
100
AcDbSymbolTableRecord
100
AcDbBlockTableRecord
  2
グループ-3
340
0
102
{BLKREFS
331
4F6
102
}
  0
ENDTAB
  0
ENDSEC
  0
SECTION
  2
BLOCKS
  0
BLOCK
  5
D
100
AcDbEntity
  8
0
390
0
100
AcDbBlockBegin
  2
*MODEL_SPACE
 70
               0
 10
0.0
 20
0.0
 30
0.0
  3
*MODEL_SPACE
  1

  0
ENDBLK
  5
E
100
AcDbEntity
  8
0
390
0
100
AcDbBlockEnd
  0
BLOCK
  5
F
100
AcDbEntity
 67
               1
  8
0
390
0
100
AcDbBlockBegin
  2
*PAPER_SPACE
 70
               0
 10
0.0
 20
0.0
 30
0.0
  3
*PAPER_SPACE
  1

  0
ENDBLK
  5
10
100
AcDbEntity
 67
               1
  8
0
390
0
100
AcDbBlockEnd
  0
BLOCK
  5
45
100
AcDbEntity
  8
0
370
              -2
390
0
  6
ByBlock
 62
               0
100
AcDbBlockBegin
  2
VW_EMPTYARROW
 70
               0
 10
0.0
 20
0.0
 30
0.0
  3
VW_EMPTYARROW
  1

  0
LINE
  5
46
100
AcDbEntity
  8
0
370
              -2
390
0
  6
ByBlock
 62
               0
100
AcDbLine
 10
0.0
 20
0.0
 30
0.0
 11
-1.0
 21
0.0
 31
0.0
  0
POLYLINE
  5
47
100
AcDbEntity
  8
0
370
              -2
390
0
  6
Continuous
 62
               0
100
AcDb2dPolyline
 66
               1
 10
0.0
 20
0.0
 30
0.0
 75
               5
  0
VERTEX
  5
48
100
AcDbEntity
  8
0
370
              -2
390
0
  6
Continuous
 62
               0
100
AcDbVertex
100
AcDb2dVertex
 10
-0.99993896484375
 20
0.2679328381102957
 30
0.0
  0
VERTEX
  5
49
100
AcDbEntity
  8
0
370
              -2
390
0
  6
Continuous
 62
               0
100
AcDbVertex
100
AcDb2dVertex
 10
0.0
 20
0.0
 30
0.0
  0
VERTEX
  5
4A
100
AcDbEntity
  8
0
370
              -2
390
0
  6
Continuous
 62
               0
100
AcDbVertex
100
AcDb2dVertex
 10
-0.9999389648437499
 20
-0.2679328381102959
 30
0.0
  0
SEQEND
  5
4B
100
AcDbEntity
  8
0
370
              -2
390
0
  6
Continuous
 62
               0
  0
ENDBLK
  5
4C
100
AcDbEntity
  8
0
390
0
100
AcDbBlockEnd
  0
BLOCK
  5
4E
100
AcDbEntity
  8
寸法
390
0
100
AcDbBlockBegin
  2
*D1
 70
               1
 10
0.0
 20
0.0
 30
0.0
  3
*D1
  1

  0
LINE
  5
4F
100
AcDbEntity
  8
寸法
370
              -2
390
0
  6
Continuous
 62
               0
100
AcDbLine
 10
6822.534405030312
 20
418.82835580250463
 30
0.0
 11
6716.0488474741596
 21
418.82835580250463
 31
0.0
  0
LINE
  5
50
100
AcDbEntity
  8
寸法
370
              -2
390
0
  6
Continuous
 62
               0
100
AcDbLine
 10
6822.534405030312
 20
-52.171630130799201
 30
0.0
 11
6716.0488474741596
 21
-52.171630130799201
 31
0.0
  0
LINE
  5
51
100
AcDbEntity
  8
寸法
370
              -2
390
0
  6
Continuous
 62
               0
100
AcDbLine
 10
6746.0488474741596
 20
418.82835580250463
 30
0.0
 11
6746.0488474741596
 21
-52.171630130799201
 31
0.0
  0
POLYLINE
  5
52
100
AcDbEntity
  8
0
370
              -2
390
0
  6
Continuous
 62
               0
100
AcDb2dPolyline
 66
               1
 10
0.0
 20
0.0
 30
0.0
 75
               5
  0
VERTEX
  5
53
100
AcDbEntity
  8
0
370
              -2
390
0
  6
Continuous
 62
               0
100
AcDbVertex
100
AcDb2dVertex
 10
6735.9982505469061
 20
381.31901742359838
 30
0.0
  0
VERTEX
  5
54
100
AcDbEntity
  8
0
370
              -2
390
0
  6
Continuous
 62
               0
100
AcDbVertex
100
AcDb2dVertex
 10
6746.0488474741596
 20
418.82835580250463
 30
0.0
  0
VERTEX
  5
55
100
AcDbEntity
  8
0
370
              -2
390
0
  6
Continuous
 62
               0
100
AcDbVertex
100
AcDb2dVertex
 10
6756.0994444014132
 20
381.31901742359838
 30
0.0
  0
SEQEND
  5
56
100
AcDbEntity
  8
0
370
              -2
390
0
  6
Continuous
 62
               0
  0
POLYLINE
  5
57
100
AcDbEntity
  8
0
370
              -2
390
0
  6
Continuous
 62
               0
100
AcDb2dPolyline
 66
               1
 10
0.0
 20
0.0
 30
0.0
 75
               5
  0
VERTEX
  5
58
100
AcDbEntity
  8
0
370
              -2
390
0
  6
Continuous
 62
               0
100
AcDbVertex
100
AcDb2dVertex
 10
6756.0994444014132
 20
-14.662291751892951
 30
0.0
  0
VERTEX
  5
59
100
AcDbEntity
  8
0
370
              -2
390
0
  6
Continuous
 62
               0
100
AcDbVertex
100
AcDb2dVertex
 10
6746.0488474741596
 20
-52.171630130799201
 30
0.0
  0
VERTEX
  5
5A
100
AcDbEntity
  8
0
370
              -2
390
0
  6
Continuous
 62
               0
100
AcDbVertex
100
AcDb2dVertex
 10
6735.9982505469061
 20
-14.662291751892951
 30
0.0
  0
SEQEND
  5
5B
100
AcDbEntity
  8
0
370
              -2
390
0
  6
Continuous
 62
               0
  0
WIPEOUT
  5
5C
100
AcDbEntity
  8
寸法
370
              -2
390
0
  6
Continuous
 62
               0
 92
        0
100
AcDbWipeout
 90
        0
 10
6675.0488474741596
 20
6954.1535176416592
 30
0.0
 11
95.25
 21
0.0
 31
0.0
 12
0.0
 22
95.25
 32
0.0
 13
1.0
 23
1.0
340
0
 70
               7
280
               1
281
              50
282
              50
283
               0
360
0
 71
               2
 91
        5
 14
0.1666666666666666
 24
72.084778528144952
 14
0.1666666666666666
 24
71.084778528144952
 14
-0.5
 24
71.084778528144952
 14
-0.5
 24
72.084778528144952
 14
0.1666666666666666
 24
72.084778528144952
  0
MTEXT
  5
5D
100
AcDbEntity
  8
寸法
390
0
 62
               0
100
AcDbMText
 10
6680.7936130991602
 20
135.70336283585272
 30
0.0
 40
48.865234375000092
 41
0.0
 71
               1
 72
               1
  1
{\fＭＳ ゴシック|b0|i0|c128|p0;\l471}
 11
0.0
 21
1.0
 31
0.0
 73
               1
 44
0.7828267384257843
  0
POINT
  5
5E
100
AcDbEntity
  8
Defpoints
370
               0
390
0
 62
               0
100
AcDbPoint
 10
6852.534405030312
 20
-52.171630130799201
 30
0.0
  0
POINT
  5
5F
100
AcDbEntity
  8
Defpoints
370
               0
390
0
 62
               0
100
AcDbPoint
 10
6852.534405030312
 20
418.82835580250463
 30
0.0
  0
POINT
  5
60
100
AcDbEntity
  8
Defpoints
370
               0
390
0
 62
               0
100
AcDbPoint
 10
6746.0488474741596
 20
418.82835580250463
 30
0.0
  0
ENDBLK
  5
61
100
AcDbEntity
  8
寸法
390
0
100
AcDbBlockEnd
  0
BLOCK
  5
62
100
AcDbEntity
  8
寸法
390
0
100
AcDbBlockBegin
  2
*D2
 70
               1
 10
0.0
 20
0.0
 30
0.0
  3
*D2
  1

  0
LINE
  5
63
100
AcDbEntity
  8
寸法
370
              -2
390
0
  6
Continuous
 62
               0
100
AcDbLine
 10
6852.534405030312
 20
-82.171630130799201
 30
0.0
 11
6852.534405030312
 21
-215.97369240382466
 31
0.0
  0
LINE
  5
64
100
AcDbEntity
  8
寸法
370
              -2
390
0
  6
Continuous
 62
               0
100
AcDbLine
 10
7082.5344241037983
 20
-82.171630130799201
 30
0.0
 11
7082.5344241037983
 21
-215.97369240382466
 31
0.0
  0
LINE
  5
65
100
AcDbEntity
  8
寸法
370
              -2
390
0
  6
Continuous
 62
               0
100
AcDbLine
 10
6852.534405030312
 20
-185.97369240382471
 30
0.0
 11
7082.5344241037983
 21
-185.97369240382471
 31
0.0
  0
POLYLINE
  5
66
100
AcDbEntity
  8
0
370
              -2
390
0
  6
Continuous
 62
               0
100
AcDb2dPolyline
 66
               1
 10
0.0
 20
0.0
 30
0.0
 75
               5
  0
VERTEX
  5
67
100
AcDbEntity
  8
0
370
              -2
390
0
  6
Continuous
 62
               0
100
AcDbVertex
100
AcDb2dVertex
 10
6890.0437434092182
 20
-196.02428933107836
 30
0.0
  0
VERTEX
  5
68
100
AcDbEntity
  8
0
370
              -2
390
0
  6
Continuous
 62
               0
100
AcDbVertex
100
AcDb2dVertex
 10
6852.534405030312
 20
-185.97369240382471
 30
0.0
  0
VERTEX
  5
69
100
AcDbEntity
  8
0
370
              -2
390
0
  6
Continuous
 62
               0
100
AcDbVertex
100
AcDb2dVertex
 10
6890.0437434092182
 20
-175.92309547657106
 30
0.0
  0
SEQEND
  5
6A
100
AcDbEntity
  8
0
370
              -2
390
0
  6
Continuous
 62
               0
  0
POLYLINE
  5
6B
100
AcDbEntity
  8
0
370
              -2
390
0
  6
Continuous
 62
               0
100
AcDb2dPolyline
 66
               1
 10
0.0
 20
0.0
 30
0.0
 75
               5
  0
VERTEX
  5
6C
100
AcDbEntity
  8
0
370
              -2
390
0
  6
Continuous
 62
               0
100
AcDbVertex
100
AcDb2dVertex
 10
7045.0250857248921
 20
-175.92309547657106
 30
0.0
  0
VERTEX
  5
6D
100
AcDbEntity
  8
0
370
              -2
390
0
  6
Continuous
 62
               0
100
AcDbVertex
100
AcDb2dVertex
 10
7082.5344241037983
 20
-185.97369240382471
 30
0.0
  0
VERTEX
  5
6E
100
AcDbEntity
  8
0
370
              -2
390
0
  6
Continuous
 62
               0
100
AcDbVertex
100
AcDb2dVertex
 10
7045.0250857248921
 20
-196.02428933107836
 30
0.0
  0
SEQEND
  5
6F
100
AcDbEntity
  8
0
370
              -2
390
0
  6
Continuous
 62
               0
  0
WIPEOUT
  5
70
100
AcDbEntity
  8
寸法
370
              -2
390
0
  6
Continuous
 62
               0
 92
        0
100
AcDbWipeout
 90
        0
 10
6919.9094145670551
 20
6639.9764624019817
 30
0.0
 11
95.25
 21
0.0
 31
0.0
 12
0.0
 22
95.25
 32
0.0
 13
1.0
 23
1.0
340
0
 70
               7
280
               1
281
              50
282
              50
283
               0
360
0
 71
               2
 91
        5
 14
-0.5
 24
72.084778528144952
 14
0.5
 24
72.084778528144952
 14
0.5
 24
71.41811186147828
 14
-0.5
 24
71.41811186147828
 14
-0.5
 24
72.084778528144952
  0
MTEXT
  5
71
100
AcDbEntity
  8
寸法
390
0
 62
               0
100
AcDbMText
 10
6919.9094145670551
 20
-120.71845802882461
 30
0.0
 40
48.865234375000092
 41
0.0
 71
               1
 72
               1
  1
{\fＭＳ ゴシック|b0|i0|c128|p0;\l230}
 73
               1
 44
0.7828267384257843
  0
POINT
  5
72
100
AcDbEntity
  8
Defpoints
370
               0
390
0
 62
               0
100
AcDbPoint
 10
7082.5344241037983
 20
-52.171630130799201
 30
0.0
  0
POINT
  5
73
100
AcDbEntity
  8
Defpoints
370
               0
390
0
 62
               0
100
AcDbPoint
 10
6852.534405030312
 20
-52.171630130799201
 30
0.0
  0
POINT
  5
74
100
AcDbEntity
  8
Defpoints
370
               0
390
0
 62
               0
100
AcDbPoint
 10
6852.534405030312
 20
-185.97369240382471
 30
0.0
  0
ENDBLK
  5
75
100
AcDbEntity
  8
寸法
390
0
100
AcDbBlockEnd
  0
BLOCK
  5
76
100
AcDbEntity
  8
0
390
0
100
AcDbBlockBegin
  2
グループ
 70
               0
 10
0.0
 20
0.0
 30
0.0
  3
グループ
  1

  0
LINE
  5
77
100
AcDbEntity
  8
0
370
               0
390
0
 62
               1
100
AcDbLine
 10
-233.89920184189918
 20
-175.85768777679601
 30
0.0
 11
-231.77788149834009
 21
-173.73636743323647
 31
0.0
  0
LINE
  5
78
100
AcDbEntity
  8
0
370
               0
390
0
 62
               1
100
AcDbLine
 10
-236.79697932076647
 20
-175.08123064148828
 30
0.0
 11
-233.89920184189918
 21
-175.85768777679601
 31
0.0
  0
LINE
  5
79
100
AcDbEntity
  8
0
370
               0
390
0
 62
               1
100
AcDbLine
 10
-237.57343645607466
 20
-172.18345316262099
 30
0.0
 11
-236.79697932076647
 21
-175.08123064148828
 31
0.0
  0
LINE
  5
7A
100
AcDbEntity
  8
0
370
               0
390
0
 62
               1
100
AcDbLine
 10
-235.45211611251557
 20
-170.0621328190619
 30
0.0
 11
-237.57343645607466
 21
-172.18345316262099
 31
0.0
  0
LINE
  5
7B
100
AcDbEntity
  8
0
370
               0
390
0
 62
               1
100
AcDbLine
 10
-232.55433863364829
 20
-170.83858995436918
 30
0.0
 11
-235.45211611251557
 21
-170.0621328190619
 31
0.0
  0
LINE
  5
7C
100
AcDbEntity
  8
0
370
               0
390
0
 62
               1
100
AcDbLine
 10
-231.77788149834009
 20
-173.73636743323647
 30
0.0
 11
-232.55433863364829
 21
-170.83858995436918
 31
0.0
  0
ENDBLK
  5
7D
100
AcDbEntity
  8
0
390
0
100
AcDbBlockEnd
  0
BLOCK
  5
7E
100
AcDbEntity
  8
0
390
0
100
AcDbBlockBegin
  2
グループ-1
 70
               0
 10
0.0
 20
0.0
 30
0.0
  3
グループ-1
  1

  0
LINE
  5
7F
100
AcDbEntity
  8
0
370
               0
390
0
 62
               1
100
AcDbLine
 10
-233.89920184189918
 20
-312.32929654579954
 30
0.0
 11
-231.77788149834009
 21
-310.20797620223999
 31
0.0
  0
LINE
  5
80
100
AcDbEntity
  8
0
370
               0
390
0
 62
               1
100
AcDbLine
 10
-236.79697932076647
 20
-311.5528394104918
 30
0.0
 11
-233.89920184189918
 21
-312.32929654579954
 31
0.0
  0
LINE
  5
81
100
AcDbEntity
  8
0
370
               0
390
0
 62
               1
100
AcDbLine
 10
-237.57343645607466
 20
-308.65506193162452
 30
0.0
 11
-236.79697932076647
 21
-311.5528394104918
 31
0.0
  0
LINE
  5
82
100
AcDbEntity
  8
0
370
               0
390
0
 62
               1
100
AcDbLine
 10
-235.45211611251557
 20
-306.53374158806542
 30
0.0
 11
-237.57343645607466
 21
-308.65506193162452
 31
0.0
  0
LINE
  5
83
100
AcDbEntity
  8
0
370
               0
390
0
 62
               1
100
AcDbLine
 10
-232.55433863364829
 20
-307.31019872337271
 30
0.0
 11
-235.45211611251557
 21
-306.53374158806542
 31
0.0
  0
LINE
  5
84
100
AcDbEntity
  8
0
370
               0
390
0
 62
               1
100
AcDbLine
 10
-231.77788149834009
 20
-310.20797620223999
 30
0.0
 11
-232.55433863364829
 21
-307.31019872337271
 31
0.0
  0
ENDBLK
  5
85
100
AcDbEntity
  8
0
390
0
100
AcDbBlockEnd
  0
BLOCK
  5
86
100
AcDbEntity
  8
寸法
390
0
100
AcDbBlockBegin
  2
*D5
 70
               1
 10
0.0
 20
0.0
 30
0.0
  3
*D5
  1

  0
LINE
  5
87
100
AcDbEntity
  8
寸法
370
              -2
390
0
  6
Continuous
 62
               0
100
AcDbLine
 10
-196.4398247903826
 20
-856.33193849343388
 30
0.0
 11
-417.92539188327811
 21
-856.33193849343388
 31
0.0
  0
LINE
  5
88
100
AcDbEntity
  8
寸法
370
              -2
390
0
  6
Continuous
 62
               0
100
AcDbLine
 10
-196.4398247903826
 20
-596.33193869281934
 30
0.0
 11
-417.92539188327811
 21
-596.33193869281934
 31
0.0
  0
LINE
  5
89
100
AcDbEntity
  8
寸法
370
              -2
390
0
  6
Continuous
 62
               0
100
AcDbLine
 10
-387.92539188327811
 20
-856.33193849343388
 30
0.0
 11
-387.92539188327811
 21
-596.33193869281934
 31
0.0
  0
POLYLINE
  5
8A
100
AcDbEntity
  8
0
370
              -2
390
0
  6
Continuous
 62
               0
100
AcDb2dPolyline
 66
               1
 10
0.0
 20
0.0
 30
0.0
 75
               5
  0
VERTEX
  5
8B
100
AcDbEntity
  8
0
370
              -2
390
0
  6
Continuous
 62
               0
100
AcDbVertex
100
AcDb2dVertex
 10
-377.87479495602446
 20
-818.82260011452763
 30
0.0
  0
VERTEX
  5
8C
100
AcDbEntity
  8
0
370
              -2
390
0
  6
Continuous
 62
               0
100
AcDbVertex
100
AcDb2dVertex
 10
-387.92539188327811
 20
-856.33193849343388
 30
0.0
  0
VERTEX
  5
8D
100
AcDbEntity
  8
0
370
              -2
390
0
  6
Continuous
 62
               0
100
AcDbVertex
100
AcDb2dVertex
 10
-397.97598881053176
 20
-818.82260011452763
 30
0.0
  0
SEQEND
  5
8E
100
AcDbEntity
  8
0
370
              -2
390
0
  6
Continuous
 62
               0
  0
POLYLINE
  5
8F
100
AcDbEntity
  8
0
370
              -2
390
0
  6
Continuous
 62
               0
100
AcDb2dPolyline
 66
               1
 10
0.0
 20
0.0
 30
0.0
 75
               5
  0
VERTEX
  5
90
100
AcDbEntity
  8
0
370
              -2
390
0
  6
Continuous
 62
               0
100
AcDbVertex
100
AcDb2dVertex
 10
-397.97598881053176
 20
-633.84127707172559
 30
0.0
  0
VERTEX
  5
91
100
AcDbEntity
  8
0
370
              -2
390
0
  6
Continuous
 62
               0
100
AcDbVertex
100
AcDb2dVertex
 10
-387.92539188327811
 20
-596.33193869281934
 30
0.0
  0
VERTEX
  5
92
100
AcDbEntity
  8
0
370
              -2
390
0
  6
Continuous
 62
               0
100
AcDbVertex
100
AcDb2dVertex
 10
-377.87479495602446
 20
-633.84127707172559
 30
0.0
  0
SEQEND
  5
93
100
AcDbEntity
  8
0
370
              -2
390
0
  6
Continuous
 62
               0
  0
WIPEOUT
  5
94
100
AcDbEntity
  8
寸法
370
              -2
390
0
  6
Continuous
 62
               0
 92
        0
100
AcDbWipeout
 90
        0
 10
-458.92539188327822
 20
-773.95693859312655
 30
0.0
 11
95.25
 21
0.0
 31
0.0
 12
0.0
 22
95.25
 32
0.0
 13
1.0
 23
1.0
340
0
 70
               7
280
               1
281
              50
282
              50
283
               0
360
0
 71
               2
 91
        5
 14
0.1666666666666679
 24
0.5
 14
0.1666666666666679
 24
-0.5
 14
-0.5
 24
-0.5
 14
-0.5
 24
0.5
 14
0.1666666666666679
 24
0.5
  0
MTEXT
  5
95
100
AcDbEntity
  8
寸法
390
0
 62
               0
100
AcDbMText
 10
-453.18062625827821
 20
-773.95693859312655
 30
0.0
 40
48.865234375000092
 41
0.0
 71
               1
 72
               1
  1
{\fＭＳ ゴシック|b0|i0|c128|p0;\l260}
 11
0.0
 21
1.0
 31
0.0
 73
               1
 44
0.7828267384257843
  0
POINT
  5
96
100
AcDbEntity
  8
Defpoints
370
               0
390
0
 62
               0
100
AcDbPoint
 10
-166.4398247903826
 20
-596.33193869281934
 30
0.0
  0
POINT
  5
97
100
AcDbEntity
  8
Defpoints
370
               0
390
0
 62
               0
100
AcDbPoint
 10
-166.4398247903826
 20
-856.33193849343388
 30
0.0
  0
POINT
  5
98
100
AcDbEntity
  8
Defpoints
370
               0
390
0
 62
               0
100
AcDbPoint
 10
-387.92539188327811
 20
-856.33193849343388
 30
0.0
  0
ENDBLK
  5
99
100
AcDbEntity
  8
寸法
390
0
100
AcDbBlockEnd
  0
BLOCK
  5
9A
100
AcDbEntity
  8
0
390
0
100
AcDbBlockBegin
  2
グループ-2
 70
               0
 10
0.0
 20
0.0
 30
0.0
  3
グループ-2
  1

  0
CIRCLE
  5
9B
100
AcDbEntity
  8
0
370
               0
390
0
  6
Continuous
 62
              30
100
AcDbCircle
 10
-166.43984105925648
 20
-771.33193869281911
 30
0.0
 40
7.1999999998952262
  0
LINE
  5
9C
100
AcDbEntity
  8
0
370
               0
390
0
  6
Continuous
 62
              30
100
AcDbLine
 10
-51.439815253639438
 20
-618.75101512986737
 30
0.0
 11
-51.439815253639438
 21
-775.80806947070676
 31
0.0
  0
LINE
  5
9D
100
AcDbEntity
  8
0
370
               0
390
0
  6
Continuous
 62
              30
100
AcDbLine
 10
-51.439815253639438
 20
-775.80806947070676
 30
0.0
 11
-166.4398247903826
 21
-856.33193849343388
 31
0.0
  0
LINE
  5
9E
100
AcDbEntity
  8
0
370
               0
390
0
  6
Continuous
 62
              30
100
AcDbLine
 10
-166.4398247903826
 20
-856.33193849343388
 30
0.0
 11
-246.31368467273728
 21
-827.26022562700837
 31
0.0
  0
LINE
  5
9F
100
AcDbEntity
  8
0
370
               0
390
0
  6
Continuous
 62
              30
100
AcDbLine
 10
-246.31368467273728
 20
-827.26022562700837
 30
0.0
 11
-281.43983432712571
 21
-751.93200594503003
 31
0.0
  0
LINE
  5
A0
100
AcDbEntity
  8
0
370
               0
390
0
  6
Continuous
 62
              30
100
AcDbLine
 10
-281.43983432712571
 20
-751.93200594503003
 30
0.0
 11
-281.43983432712571
 21
-618.75101512986737
 31
0.0
  0
ARC
  5
A1
100
AcDbEntity
  8
0
370
               0
390
0
  6
Continuous
 62
              30
100
AcDbCircle
 10
-267.93984105925642
 20
-618.75101072539826
 30
0.0
 40
13.50000000000019
100
AcDbArc
 50
100.04366373300265
 51
180.0
  0
ARC
  5
A2
100
AcDbEntity
  8
0
370
               0
390
0
  6
Continuous
 62
              30
100
AcDbCircle
 10
-166.43984105925648
 20
-1191.8319386928267
 30
0.0
 40
595.50000000000762
100
AcDbArc
 50
79.95633626699717
 51
100.04366373300284
  0
ARC
  5
A3
100
AcDbEntity
  8
0
370
               0
390
0
  6
Continuous
 62
              30
100
AcDbCircle
 10
-64.93984105925648
 20
-618.75101072539826
 30
0.0
 40
13.5
100
AcDbArc
 50
0.0
 51
79.956336266997198
  0
CIRCLE
  5
A4
100
AcDbEntity
  8
0
370
               0
390
0
  6
Continuous
 62
              30
100
AcDbCircle
 10
-166.43984105925648
 20
-691.33193869281911
 30
0.0
 40
7.1999999998979547
  0
CIRCLE
  5
A5
100
AcDbEntity
  8
0
370
               0
390
0
  6
Continuous
 62
              30
100
AcDbCircle
 10
-166.43984105925648
 20
-691.33193869281911
 30
0.0
 40
4.1999999999661668
  0
CIRCLE
  5
A6
100
AcDbEntity
  8
0
370
               0
390
0
  6
Continuous
 62
              30
100
AcDbCircle
 10
-166.43984105925648
 20
-771.33193869281911
 30
0.0
 40
4.1999999999661668
  0
DIMENSION
  5
A7
100
AcDbEntity
  8
寸法
370
               0
390
0
  6
Continuous
 62
               2
100
AcDbDimension
  2
*D5
 10
-387.92539188327811
 20
-856.33193849343388
 30
0.0
 11
-387.92539188327811
 21
-726.33193859312655
 31
0.0
 71
               5
 72
               1
 41
1.0
 42
0.0
  3
HIBINO
100
AcDbAlignedDimension
 13
-166.4398247903826
 23
-596.33193869281934
 33
0.0
 14
-166.4398247903826
 24
-856.33193849343388
 34
0.0
 50
-90.0
100
AcDbRotatedDimension
1001
ACAD
1000
DSTYLE
1002
{
1070
             279
1070
               2
1070
             340
1005
2D
1070
             147
1040
7.5
1002
}
  0
ENDBLK
  5
A8
100
AcDbEntity
  8
0
390
0
100
AcDbBlockEnd
  0
BLOCK
  5
A9
100
AcDbEntity
  8
寸法
390
0
100
AcDbBlockBegin
  2
*D7
 70
               1
 10
0.0
 20
0.0
 30
0.0
  3
*D7
  1

  0
LINE
  5
AA
100
AcDbEntity
  8
寸法
370
              -2
390
0
  6
Continuous
 62
               0
100
AcDbLine
 10
-162.92539188327811
 20
552.43511862338676
 30
0.0
 11
-162.92539188327811
 21
126.55846353967814
 31
0.0
  0
LINE
  5
AB
100
AcDbEntity
  8
寸法
370
              -2
390
0
  6
Continuous
 62
               0
100
AcDbLine
 10
-138.35083009786928
 20
565.22782618514634
 30
0.0
 11
210.50690901272549
 21
320.95502129697979
 31
0.0
  0
ARC
  5
AC
100
AcDbEntity
  8
寸法
370
              -2
390
0
  6
Continuous
 62
               0
100
AcDbCircle
 10
-162.92539188327811
 20
582.43511862338676
 30
0.0
 40
425.87665508370861
100
AcDbArc
 50
270.0
 51
325.00000152082163
  0
POLYLINE
  5
AD
100
AcDbEntity
  8
0
370
              -2
390
0
  6
Continuous
 62
               0
100
AcDb2dPolyline
 66
               1
 10
0.0
 20
0.0
 30
0.0
 75
               5
  0
VERTEX
  5
AE
100
AcDbEntity
  8
0
370
              -2
390
0
  6
Continuous
 62
               0
100
AcDbVertex
100
AcDb2dVertex
 10
156.18490757077376
 20
313.20124809094676
 30
0.0
  0
VERTEX
  5
AF
100
AcDbEntity
  8
0
370
              -2
390
0
  6
Continuous
 62
               0
100
AcDbVertex
100
AcDb2dVertex
 10
185.93234722731682
 20
338.16231373522044
 30
0.0
  0
VERTEX
  5
B0
100
AcDbEntity
  8
0
370
              -2
390
0
  6
Continuous
 62
               0
100
AcDbVertex
100
AcDb2dVertex
 10
172.65084160934273
 20
301.67167695347695
 30
0.0
  0
SEQEND
  5
B1
100
AcDbEntity
  8
0
370
              -2
390
0
  6
Continuous
 62
               0
  0
POLYLINE
  5
B2
100
AcDbEntity
  8
0
370
              -2
390
0
  6
Continuous
 62
               0
100
AcDb2dPolyline
 66
               1
 10
0.0
 20
0.0
 30
0.0
 75
               5
  0
VERTEX
  5
B3
100
AcDbEntity
  8
0
370
              -2
390
0
  6
Continuous
 62
               0
100
AcDbVertex
100
AcDb2dVertex
 10
-125.41605350437194
 20
146.50786661242449
 30
0.0
  0
VERTEX
  5
B4
100
AcDbEntity
  8
0
370
              -2
390
0
  6
Continuous
 62
               0
100
AcDbVertex
100
AcDb2dVertex
 10
-162.92539188327819
 20
156.55846353967814
 30
0.0
  0
VERTEX
  5
B5
100
AcDbEntity
  8
0
370
              -2
390
0
  6
Continuous
 62
               0
100
AcDbVertex
100
AcDb2dVertex
 10
-125.41605350437194
 20
166.60906046693177
 30
0.0
  0
SEQEND
  5
B6
100
AcDbEntity
  8
0
370
              -2
390
0
  6
Continuous
 62
               0
  0
WIPEOUT
  5
B7
100
AcDbEntity
  8
寸法
370
              -2
390
0
  6
Continuous
 62
               0
 92
        0
100
AcDbWipeout
 90
        0
 10
-29.777431975731105
 20
172.92791457627936
 30
0.0
 11
127.0
 21
0.0
 31
0.0
 12
0.0
 22
127.0
 32
0.0
 13
1.0
 23
1.0
340
0
 70
               7
280
               1
281
              50
282
              50
283
               0
360
0
 71
               2
 91
        5
 14
-0.5
 24
0.5
 14
0.5
 24
0.5
 14
0.5
 24
-0.0000000000000009
 14
-0.5
 24
-0.0000000000000009
 14
-0.5
 24
0.5
  0
MTEXT
  5
B8
100
AcDbEntity
  8
寸法
390
0
 62
               0
100
AcDbMText
 10
-29.777431975731105
 20
230.68314895127946
 30
0.0
 40
48.865234375000092
 41
0.0
 71
               1
 72
               1
  1
{\fＭＳ ゴシック|b0|i0|c128|p0;\l55°}
 73
               1
 44
0.7828267384257843
  0
POINT
  5
B9
100
AcDbEntity
  8
Defpoints
370
               0
390
0
 62
               0
100
AcDbPoint
 10
-162.92539188327811
 20
324.90632176161705
 30
0.0
  0
POINT
  5
BA
100
AcDbEntity
  8
Defpoints
370
               0
390
0
 62
               0
100
AcDbPoint
 10
-51.439815253639438
 20
504.37208187572526
 30
0.0
  0
POINT
  5
BB
100
AcDbEntity
  8
Defpoints
370
               0
390
0
 62
               0
100
AcDbPoint
 10
-162.92539188327811
 20
582.43511862338676
 30
0.0
  0
ENDBLK
  5
BC
100
AcDbEntity
  8
寸法
390
0
100
AcDbBlockEnd
  0
BLOCK
  5
BD
100
AcDbEntity
  8
寸法
390
0
100
AcDbBlockBegin
  2
*D8
 70
               1
 10
0.0
 20
0.0
 30
0.0
  3
*D8
  1

  0
LINE
  5
BE
100
AcDbEntity
  8
寸法
370
              -2
390
0
  6
Continuous
 62
               0
100
AcDbLine
 10
-175.83651750264829
 20
702.20800173982514
 30
0.0
 11
-418.10447583639035
 21
194.07950120470457
 31
0.0
  0
LINE
  5
BF
100
AcDbEntity
  8
寸法
370
              -2
390
0
  6
Continuous
 62
               0
100
AcDbLine
 10
-162.92539188327811
 20
699.28756664107209
 30
0.0
 11
-162.92539188327822
 21
136.35920824076038
 31
0.0
  0
ARC
  5
C0
100
AcDbEntity
  8
寸法
370
              -2
390
0
  6
Continuous
 62
               0
100
AcDbCircle
 10
-162.92539188327811
 20
729.28756664107209
 30
0.0
 40
562.92835840031171
100
AcDbArc
 50
244.50890223302116
 51
270.0
  0
POLYLINE
  5
C1
100
AcDbEntity
  8
0
370
              -2
390
0
  6
Continuous
 62
               0
100
AcDb2dPolyline
 66
               1
 10
0.0
 20
0.0
 30
0.0
 75
               5
  0
VERTEX
  5
C2
100
AcDbEntity
  8
0
370
              -2
390
0
  6
Continuous
 62
               0
100
AcDbVertex
100
AcDb2dVertex
 10
-200.43473026218447
 20
176.40980516801403
 30
0.0
  0
VERTEX
  5
C3
100
AcDbEntity
  8
0
370
              -2
390
0
  6
Continuous
 62
               0
100
AcDbVertex
100
AcDb2dVertex
 10
-162.92539188327822
 20
166.35920824076038
 30
0.0
  0
VERTEX
  5
C4
100
AcDbEntity
  8
0
370
              -2
390
0
  6
Continuous
 62
               0
100
AcDbVertex
100
AcDb2dVertex
 10
-200.43473026218447
 20
156.30861131350673
 30
0.0
  0
SEQEND
  5
C5
100
AcDbEntity
  8
0
370
              -2
390
0
  6
Continuous
 62
               0
  0
POLYLINE
  5
C6
100
AcDbEntity
  8
0
370
              -2
390
0
  6
Continuous
 62
               0
100
AcDb2dPolyline
 66
               1
 10
0.0
 20
0.0
 30
0.0
 75
               5
  0
VERTEX
  5
C7
100
AcDbEntity
  8
0
370
              -2
390
0
  6
Continuous
 62
               0
100
AcDbVertex
100
AcDb2dVertex
 10
-375.88607190235331
 20
195.68263774552256
 30
0.0
  0
VERTEX
  5
C8
100
AcDbEntity
  8
0
370
              -2
390
0
  6
Continuous
 62
               0
100
AcDbVertex
100
AcDb2dVertex
 10
-405.19335021702011
 20
221.15906610595152
 30
0.0
  0
VERTEX
  5
C9
100
AcDbEntity
  8
0
370
              -2
390
0
  6
Continuous
 62
               0
100
AcDbVertex
100
AcDb2dVertex
 10
-367.07428850052338
 20
213.74947110545912
 30
0.0
  0
SEQEND
  5
CA
100
AcDbEntity
  8
0
370
              -2
390
0
  6
Continuous
 62
               0
  0
WIPEOUT
  5
CB
100
AcDbEntity
  8
寸法
370
              -2
390
0
  6
Continuous
 62
               0
 92
        0
100
AcDbWipeout
 90
        0
 10
-353.32514923737074
 20
149.09906664791669
 30
0.0
 11
127.0
 21
0.0
 31
0.0
 12
0.0
 22
127.0
 32
0.0
 13
1.0
 23
1.0
340
0
 70
               7
280
               1
281
              50
282
              50
283
               0
360
0
 71
               2
 91
        5
 14
-0.5
 24
0.5
 14
0.5
 24
0.5
 14
0.5
 24
-0.0000000000000009
 14
-0.5
 24
-0.0000000000000009
 14
-0.5
 24
0.5
  0
MTEXT
  5
CC
100
AcDbEntity
  8
寸法
390
0
 62
               0
100
AcDbMText
 10
-353.32514923737074
 20
206.85430102291679
 30
0.0
 40
48.865234375000092
 41
0.0
 71
               1
 72
               1
  1
{\fＭＳ ゴシック|b0|i0|c128|p0;\l25°}
 73
               1
 44
0.7828267384257843
  0
POINT
  5
CD
100
AcDbEntity
  8
Defpoints
370
               0
390
0
 62
               0
100
AcDbPoint
 10
-428.68346158651821
 20
171.89132492515819
 30
0.0
  0
POINT
  5
CE
100
AcDbEntity
  8
Defpoints
370
               0
390
0
 62
               0
100
AcDbPoint
 10
-162.92539188327822
 20
156.55846353967809
 30
0.0
  0
POINT
  5
CF
100
AcDbEntity
  8
Defpoints
370
               0
390
0
 62
               0
100
AcDbPoint
 10
-162.92539188327811
 20
729.28756664107209
 30
0.0
  0
ENDBLK
  5
D0
100
AcDbEntity
  8
寸法
390
0
100
AcDbBlockEnd
  0
BLOCK
  5
D1
100
AcDbEntity
  8
0
390
0
100
AcDbBlockBegin
  2
グループ-3
 70
               0
 10
0.0
 20
0.0
 30
0.0
  3
グループ-3
  1

  0
CIRCLE
  5
D2
100
AcDbEntity
  8
0
370
               0
390
0
  6
Continuous
 62
              30
100
AcDbCircle
 10
-166.43984105925648
 20
499.89595109783806
 30
0.0
 40
7.200000000008913
  0
LINE
  5
D3
100
AcDbEntity
  8
0
370
               0
390
0
  6
Continuous
 62
              30
100
AcDbLine
 10
-51.439815253639438
 20
504.37208187572526
 30
0.0
 11
-51.439815253639438
 21
347.31502753488587
 31
0.0
  0
ARC
  5
D4
100
AcDbEntity
  8
0
370
               0
390
0
  6
Continuous
 62
              30
100
AcDbCircle
 10
-64.93984105925648
 20
347.31502313041722
 30
0.0
 40
13.500000000000414
100
AcDbArc
 50
280.04366373300246
 51
0.0
  0
ARC
  5
D5
100
AcDbEntity
  8
0
370
               0
390
0
  6
Continuous
 62
              30
100
AcDbCircle
 10
-166.43984105925648
 20
920.39595109784545
 30
0.0
 40
595.50000000000784
100
AcDbArc
 50
259.9563362669972
 51
280.04366373300269
  0
ARC
  5
D6
100
AcDbEntity
  8
0
370
               0
390
0
  6
Continuous
 62
              30
100
AcDbCircle
 10
-267.93984105925642
 20
347.31502313041722
 30
0.0
 40
13.5
100
AcDbArc
 50
180.0
 51
259.9563362669972
  0
LINE
  5
D7
100
AcDbEntity
  8
0
370
               0
390
0
  6
Continuous
 62
              30
100
AcDbLine
 10
-281.43983432712571
 20
347.31502753488587
 30
0.0
 11
-281.43983432712571
 21
480.49601835004853
 31
0.0
  0
LINE
  5
D8
100
AcDbEntity
  8
0
370
               0
390
0
  6
Continuous
 62
              30
100
AcDbLine
 10
-281.43983432712571
 20
480.49601835004853
 30
0.0
 11
-246.31368467273728
 21
555.82423803202676
 31
0.0
  0
LINE
  5
D9
100
AcDbEntity
  8
0
370
               0
390
0
  6
Continuous
 62
              30
100
AcDbLine
 10
-246.31368467273728
 20
555.82423803202676
 30
0.0
 11
-166.4398247903826
 21
584.89595089845227
 31
0.0
  0
LINE
  5
DA
100
AcDbEntity
  8
0
370
               0
390
0
  6
Continuous
 62
              30
100
AcDbLine
 10
-166.4398247903826
 20
584.89595089845227
 30
0.0
 11
-51.439815253639438
 21
504.37208187572526
 31
0.0
  0
CIRCLE
  5
DB
100
AcDbEntity
  8
0
370
               0
390
0
  6
Continuous
 62
              30
100
AcDbCircle
 10
-166.43984105925648
 20
419.89595109783806
 30
0.0
 40
7.200000000008913
  0
CIRCLE
  5
DC
100
AcDbEntity
  8
0
370
               0
390
0
  6
Continuous
 62
              30
100
AcDbCircle
 10
-166.43984105925648
 20
499.89595109783806
 30
0.0
 40
4.2000000000225555
  0
CIRCLE
  5
DD
100
AcDbEntity
  8
0
370
               0
390
0
  6
Continuous
 62
              30
100
AcDbCircle
 10
-166.43984105925648
 20
419.89595109783806
 30
0.0
 40
4.2000000000225555
  0
DIMENSION
  5
DE
100
AcDbEntity
  8
寸法
370
               0
390
0
  6
Continuous
 62
               2
100
AcDbDimension
  2
*D7
 10
33.72256802426881
 20
204.67791457627931
 30
0.0
 11
37.185682711822437
 21
198.02533337340395
 31
0.0
 70
             133
 71
               5
 72
               1
 41
1.0
 42
0.0
  3
HIBINO
100
AcDb3PointAngularDimension
 13
-162.92539188327811
 23
324.90632176161705
 33
0.0
 14
-51.439815253639438
 24
504.37208187572526
 34
0.0
 15
-162.92539188327811
 25
582.43511862338676
 35
0.0
1001
ACAD
1000
DSTYLE
1002
{
1070
             279
1070
               2
1070
             342
1005
44
1070
             340
1005
2D
1070
               3
1000
<> 
1070
             147
1040
7.5
1002
}
  0
DIMENSION
  5
DF
100
AcDbEntity
  8
寸法
370
               0
390
0
  6
Continuous
 62
               2
100
AcDbDimension
  2
*D8
 10
-287.11958262628849
 20
180.23006539283438
 30
0.0
 11
-291.51585848296691
 21
173.54211774657256
 31
0.0
 70
             133
 71
               5
 72
               1
 41
1.0
 42
0.0
  3
HIBINO
100
AcDb3PointAngularDimension
 13
-428.68346158651821
 23
171.89132492515819
 33
0.0
 14
-162.92539188327822
 24
156.55846353967809
 34
0.0
 15
-162.92539188327811
 25
729.28756664107209
 35
0.0
1001
ACAD
1000
DSTYLE
1002
{
1070
             279
1070
               2
1070
             342
1005
44
1070
             340
1005
2D
1070
               3
1000
<> 
1070
             147
1040
7.5
1002
}
  0
ENDBLK
  5
E0
100
AcDbEntity
  8
0
390
0
100
AcDbBlockEnd
  0
ENDSEC
  0
SECTION
  2
ENTITIES
  0
LINE
  5
E1
100
AcDbEntity
  8
一般
370
               0
390
0
  6
Continuous
 62
               3
100
AcDbLine
 10
5783.1843614815871
 20
2332.5181891549396
 30
0.0
 11
8483.1843614815862
 21
2332.5181891549396
 31
0.0
  0
LINE
  5
E2
100
AcDbEntity
  8
一般
370
               0
390
0
  6
Continuous
 62
               3
100
AcDbLine
 10
8483.1843614815862
 20
-1567.4818108450604
 30
0.0
 11
5783.1843614815871
 21
-1567.4818108450604
 31
0.0
  0
LINE
  5
E3
100
AcDbEntity
  8
一般
370
               0
390
0
  6
Continuous
 62
               3
100
AcDbLine
 10
5783.1843614815871
 20
-1567.4818108450604
 30
0.0
 11
5783.1843614815871
 21
2332.5181891549396
 31
0.0
  0
LINE
  5
E4
100
AcDbEntity
  8
一般
370
               0
390
0
  6
Continuous
 62
               3
100
AcDbLine
 10
8483.1843614815862
 20
2332.5181891549396
 30
0.0
 11
8483.1843614815862
 21
-1567.4818108450604
 31
0.0
  0
LINE
  5
E5
100
AcDbEntity
  8
一般
370
               0
390
0
  6
Continuous
 62
               3
100
AcDbLine
 10
7133.1843614815862
 20
-1229.9818108450604
 30
0.0
 11
8483.1843614815862
 21
-1229.9818108450604
 31
0.0
  0
LINE
  5
E6
100
AcDbEntity
  8
一般
370
               0
390
0
  6
Continuous
 62
               3
100
AcDbLine
 10
7133.1843614815862
 20
-1567.4818108450604
 30
0.0
 11
7133.1843614815862
 21
-1229.9818108450604
 31
0.0
  0
MTEXT
  5
E7
100
AcDbEntity
  8
一般
390
0
 62
               2
100
AcDbMText
 10
7146.6843614815862
 20
-1243.1795936575604
 30
0.0
 40
24.432617187499996
 41
0.0
 71
               1
 72
               1
  1
{\fＭＳ ゴシック|b0|i0|c128|p0;\lNOTE}
 73
               1
 44
0.7828267384257843
  0
LINE
  5
E8
100
AcDbEntity
  8
一般
370
               0
390
0
  6
Continuous
 62
               2
100
AcDbLine
 10
7658.1843614815862
 20
-1567.4818108450604
 30
0.0
 11
7658.1843614815862
 21
-1229.9818108450604
 31
0.0
  0
MTEXT
  5
E9
100
AcDbEntity
  8
一般
390
0
 62
               2
100
AcDbMText
 10
7671.6843614815862
 20
-1243.1795936575604
 30
0.0
 40
24.432617187499996
 41
0.0
 71
               1
 72
               1
  1
{\fＭＳ ゴシック|b0|i0|c128|p0;\lTITLE}
 73
               1
 44
0.7828267384257843
  0
LINE
  5
EA
100
AcDbEntity
  8
一般
370
               0
390
0
  6
Continuous
 62
               2
100
AcDbLine
 10
7133.1843614815862
 20
-1417.4818108450604
 30
0.0
 11
8483.1843614815862
 21
-1417.4818108450604
 31
0.0
  0
MTEXT
  5
EB
100
AcDbEntity
  8
一般
390
0
 62
               2
100
AcDbMText
 10
7859.1843614815862
 20
-1429.8347936575606
 30
0.0
 40
24.432617187499996
 41
0.0
 71
               1
 72
               1
  1
{\fＭＳ ゴシック|b0|i0|c128|p0;\lDRAWN}
 73
               1
 44
0.7828267384257843
  0
MTEXT
  5
EC
100
AcDbEntity
  8
一般
390
0
 62
               2
100
AcDbMText
 10
7484.1843614815862
 20
-1429.8347936575606
 30
0.0
 40
24.432617187499996
 41
0.0
 71
               1
 72
               1
  1
{\fＭＳ ゴシック|b0|i0|c128|p0;\lDATE}
 73
               1
 44
0.7828267384257843
  0
MTEXT
  5
ED
100
AcDbEntity
  8
一般
390
0
 62
               2
100
AcDbMText
 10
7334.1843614815862
 20
-1429.8347936575606
 30
0.0
 40
24.432617187499996
 41
0.0
 71
               1
 72
               1
  1
{\fＭＳ ゴシック|b0|i0|c128|p0;\lSCALE}
 73
               1
 44
0.7828267384257843
  0
MTEXT
  5
EE
100
AcDbEntity
  8
一般
390
0
 62
               2
100
AcDbMText
 10
7671.6843614815862
 20
-1429.8347936575606
 30
0.0
 40
24.432617187499996
 41
0.0
 71
               1
 72
               1
  1
{\fＭＳ ゴシック|b0|i0|c128|p0;\lDESIGN}
 73
               1
 44
0.7828267384257843
  0
MTEXT
  5
EF
100
AcDbEntity
  8
一般
390
0
 62
               2
100
AcDbMText
 10
8234.1843614815862
 20
-1429.8347936575606
 30
0.0
 40
24.432617187499996
 41
0.0
 71
               1
 72
               1
  1
{\fＭＳ ゴシック|b0|i0|c128|p0;\lDRAWING NO.}
 73
               1
 44
0.7828267384257843
  0
MTEXT
  5
F0
100
AcDbEntity
  8
一般
390
0
 62
               2
100
AcDbMText
 10
8046.6843614815862
 20
-1429.8347936575606
 30
0.0
 40
24.432617187499996
 41
0.0
 71
               1
 72
               1
  1
{\fＭＳ ゴシック|b0|i0|c128|p0;\lCHECK}
 73
               1
 44
0.7828267384257843
  0
LINE
  5
F1
100
AcDbEntity
  8
一般
370
               0
390
0
  6
Continuous
 62
               2
100
AcDbLine
 10
7348.8093614815862
 20
-1548.7318108450604
 30
0.0
 11
7405.0593614815862
 21
-1492.4818108450604
 31
0.0
  0
MTEXT
  5
F2
100
AcDbEntity
  8
一般
390
0
 62
               2
100
AcDbMText
 10
7339.4343614815862
 20
-1484.6833436575603
 30
0.0
 40
24.432617187499996
 41
0.0
 71
               1
 72
               1
  1
{\fＭＳ ゴシック|b0|i0|c128|p0;\l1}
 73
               1
 44
0.7828267384257843
  0
LINE
  5
F3
100
AcDbEntity
  8
一般
370
               0
390
0
  6
Continuous
 62
               2
100
AcDbLine
 10
7320.6843614815862
 20
-1567.4818108450604
 30
0.0
 11
7320.6843614815862
 21
-1417.4818108450604
 31
0.0
  0
LINE
  5
F4
100
AcDbEntity
  8
一般
370
               0
390
0
  6
Continuous
 62
               2
100
AcDbLine
 10
7470.6843614815862
 20
-1567.4818108450604
 30
0.0
 11
7470.6843614815862
 21
-1417.4818108450604
 31
0.0
  0
LINE
  5
F5
100
AcDbEntity
  8
一般
370
               0
390
0
  6
Continuous
 62
               2
100
AcDbLine
 10
7845.6843614815862
 20
-1417.4818108450604
 30
0.0
 11
7845.6843614815862
 21
-1567.4818108450604
 31
0.0
  0
LINE
  5
F6
100
AcDbEntity
  8
一般
370
               0
390
0
  6
Continuous
 62
               2
100
AcDbLine
 10
8220.6843614815862
 20
-1417.4818108450604
 30
0.0
 11
8220.6843614815862
 21
-1567.4818108450604
 31
0.0
  0
LINE
  5
F7
100
AcDbEntity
  8
一般
370
               0
390
0
  6
Continuous
 62
               2
100
AcDbLine
 10
8033.1843614815862
 20
-1567.4818108450604
 30
0.0
 11
8033.1843614815862
 21
-1417.4818108450604
 31
0.0
  0
MTEXT
  5
F8
100
AcDbEntity
  8
一般
390
0
 62
               2
100
AcDbMText
 10
7503.5324614815863
 20
-1490.0944936575611
 30
0.0
 40
24.432617187499996
 41
0.0
 71
               1
 72
               1
  1
{\fＭＳ ゴシック|b0|i0|c128|p0;\l2015.03}
 73
               1
 44
0.7828267384257843
  0
MTEXT
  5
F9
100
AcDbEntity
  8
一般
390
0
 62
               2
100
AcDbMText
 10
7395.6843614815862
 20
-1512.8083436575603
 30
0.0
 40
24.432617187499996
 41
0.0
 71
               1
 72
               1
  1
{\fＭＳ ゴシック|b0|i0|c128|p0;\l15}
 73
               1
 44
0.7828267384257843
  0
MTEXT
  5
FA
100
AcDbEntity
  8
一般
390
0
 62
               2
100
AcDbMText
 10
7878.2715116471063
 20
-1480.0944936575611
 30
0.0
 40
24.432617187499996
 41
0.0
 71
               1
 72
               1
  1
{\fＭＳ ゴシック|b0|i0|c128|p0;\lKojima\P Shohei}
 73
               1
 44
0.7828267384257843
  0
MTEXT
  5
FB
100
AcDbEntity
  8
一般
390
0
 62
               2
100
AcDbMText
 10
7191.4343614815871
 20
-1488.9765764700605
 30
0.0
 40
48.865234374999993
 41
0.0
 71
               1
 72
               1
  1
{\fＭＳ ゴシック|b0|i0|c128|p0;\lA4}
 73
               1
 44
0.7828267384257843
  0
MTEXT
  5
FC
100
AcDbEntity
  8
一般
390
0
 62
               2
100
AcDbMText
 10
7147.5593614815862
 20
-1432.3410186575607
 30
0.0
 40
24.432617187499996
 41
0.0
 71
               1
 72
               1
  1
{\fＭＳ ゴシック|b0|i0|c128|p0;\lPAPER SIZE}
 73
               1
 44
0.7828267384257843
  0
MTEXT
  5
FD
100
AcDbEntity
  8
一般
390
0
 62
               2
100
AcDbMText
 10
5824.5788903349394
 20
-1610.923077118121
 30
0.0
 40
52.937337239583329
 41
0.0
 71
               1
 72
               1
  1
{\fＭＳ ゴシック|b0|i0|c128|p0;\lHibino-Intersound Corporation}
 73
               1
 44
0.7828267384257843
  0
MTEXT
  5
FE
100
AcDbEntity
  8
一般
390
0
 62
               2
100
AcDbMText
 10
7435.8935066847953
 20
-1605.6567533187799
 30
0.0
 40
52.937337239583329
 41
0.0
 71
               1
 72
               1
  1
{\fＭＳ ゴシック|b0|i0|c128|p0;\lヒビノインタ ーサウンド株式会社}
 73
               1
 44
0.7828267384257843
  0
MTEXT
  5
FF
100
AcDbEntity
  8
0
390
0
 62
               2
100
AcDbMText
 10
6089.9038423755264
 20
-1139.3508917890749
 30
0.0
 40
48.865234375000092
 41
0.0
 71
               1
 72
               1
  1
{\fＭＳ ゴシック|b0|i0|c128|p0;\l(単位：mm）}
 73
               1
 44
0.7828267384257843
  0
MTEXT
  5
100
100
AcDbEntity
  8
0
390
0
 62
               2
100
AcDbMText
 10
7759.0972113160669
 20
-1288.4997155325605
 30
0.0
 40
40.721028645833343
 41
590.90278868393318
 71
               1
 72
               1
  1
{\fＭＳ ゴシック|b0|i0|c128|p0;\lCODA AUDIO \P    G308-L/R（White）}
 73
               1
 44
0.7828267384257843
  0
MTEXT
  5
101
100
AcDbEntity
  8
一般
390
0
 62
               2
100
AcDbMText
 10
5929.1954229148068
 20
-1484.3618423099083
 30
0.0
 40
24.432617187500004
 41
0.0
 71
               1
 72
               1
  1
{\fＭＳ ゴシック|b0|i0|c128|p0;\l仕様および外観は予告なく変更されることがありますので、ご了承ください。}
 73
               1
 44
0.7828267384257843
  0
LINE
  5
102
100
AcDbEntity
  8
0
370
               0
390
0
  6
Continuous
 62
              30
100
AcDbLine
 10
6864.0376842394489
 20
410.82839919468603
 30
0.0
 11
6864.0376842394489
 21
-44.171613918335822
 31
0.0
  0
LINE
  5
103
100
AcDbEntity
  8
0
370
               0
390
0
  6
Continuous
 62
              30
100
AcDbLine
 10
7071.0488474741596
 20
410.82839919468603
 30
0.0
 11
6864.0376842394489
 21
410.82839919468603
 31
0.0
  0
LINE
  5
104
100
AcDbEntity
  8
0
370
               0
390
0
  6
Continuous
 62
              30
100
AcDbLine
 10
7071.0488474741596
 20
-44.171613918335822
 30
0.0
 11
7071.0488474741596
 21
410.82839919468603
 31
0.0
  0
LINE
  5
105
100
AcDbEntity
  8
0
370
               0
390
0
  6
Continuous
 62
              30
100
AcDbLine
 10
6864.0376842394489
 20
-44.171613918335822
 30
0.0
 11
7071.0488474741596
 21
-44.171613918335822
 31
0.0
  0
LINE
  5
106
100
AcDbEntity
  8
0
370
               0
390
0
  6
Continuous
 62
              30
100
AcDbLine
 10
6854.5343792811054
 20
410.82839919468603
 30
0.0
 11
6854.5343792811054
 21
-44.171613918335822
 31
0.0
  0
LINE
  5
107
100
AcDbEntity
  8
0
370
               0
390
0
  6
Continuous
 62
              30
100
AcDbLine
 10
6864.0376842394489
 20
410.82839919468603
 30
0.0
 11
6854.5343792811054
 21
410.82839919468603
 31
0.0
  0
LINE
  5
108
100
AcDbEntity
  8
0
370
               0
390
0
  6
Continuous
 62
              30
100
AcDbLine
 10
6854.5343792811054
 20
-44.171613918335822
 30
0.0
 11
6864.0376842394489
 21
-44.171613918335822
 31
0.0
  0
LINE
  5
109
100
AcDbEntity
  8
0
370
               0
390
0
  6
Continuous
 62
              30
100
AcDbLine
 10
7080.5343902483601
 20
-44.171613918335822
 30
0.0
 11
7080.5343902483601
 21
410.82839919468603
 31
0.0
  0
LINE
  5
10A
100
AcDbEntity
  8
0
370
               0
390
0
  6
Continuous
 62
              30
100
AcDbLine
 10
7080.5343902483601
 20
410.82839919468603
 30
0.0
 11
7071.0488474741596
 21
410.82839919468603
 31
0.0
  0
LINE
  5
10B
100
AcDbEntity
  8
0
370
               0
390
0
  6
Continuous
 62
              30
100
AcDbLine
 10
7071.0488474741596
 20
-44.171613918335822
 30
0.0
 11
7080.5343902483601
 21
-44.171613918335822
 31
0.0
  0
LINE
  5
10C
100
AcDbEntity
  8
0
370
               0
390
0
  6
Continuous
 62
              30
100
AcDbLine
 10
7082.5344241037983
 20
406.82839108845434
 30
0.0
 11
7082.5344241037983
 21
-40.171635614426521
 31
0.0
  0
LINE
  5
10D
100
AcDbEntity
  8
0
370
               0
390
0
  6
Continuous
 62
              30
100
AcDbLine
 10
7080.5343902483601
 20
406.82839108845434
 30
0.0
 11
7082.5344241037983
 21
406.82839108845434
 31
0.0
  0
LINE
  5
10E
100
AcDbEntity
  8
0
370
               0
390
0
  6
Continuous
 62
              30
100
AcDbLine
 10
7080.5343902483601
 20
-40.171635614426521
 30
0.0
 11
7082.5344241037983
 21
-40.171635614426521
 31
0.0
  0
LINE
  5
10F
100
AcDbEntity
  8
0
370
               0
390
0
  6
Continuous
 62
              30
100
AcDbLine
 10
6852.534405030312
 20
-40.171635614426521
 30
0.0
 11
6852.534405030312
 21
406.82839108845434
 31
0.0
  0
LINE
  5
110
100
AcDbEntity
  8
0
370
               0
390
0
  6
Continuous
 62
              30
100
AcDbLine
 10
6852.534405030312
 20
406.82839108845434
 30
0.0
 11
6854.5343792811054
 21
406.82839108845434
 31
0.0
  0
LINE
  5
111
100
AcDbEntity
  8
0
370
               0
390
0
  6
Continuous
 62
              30
100
AcDbLine
 10
6852.534405030312
 20
-40.171635614426521
 30
0.0
 11
6854.5343792811054
 21
-40.171635614426521
 31
0.0
  0
LINE
  5
112
100
AcDbEntity
  8
0
370
               0
390
0
  6
Continuous
 62
              30
100
AcDbLine
 10
7071.3887727633137
 20
-45.171630846054939
 30
0.0
 11
6863.6799967661518
 21
-45.171630846054939
 31
0.0
  0
LINE
  5
113
100
AcDbEntity
  8
0
370
               0
390
0
  6
Continuous
 62
              30
100
AcDbLine
 10
7071.3887727633137
 20
-45.171630846054939
 30
0.0
 11
7071.3887727633137
 21
-52.171630130799201
 31
0.0
  0
LINE
  5
114
100
AcDbEntity
  8
0
370
               0
390
0
  6
Continuous
 62
              30
100
AcDbLine
 10
6863.6799967661518
 20
-52.171630130799201
 30
0.0
 11
7071.3887727633137
 21
-52.171630130799201
 31
0.0
  0
LINE
  5
115
100
AcDbEntity
  8
0
370
               0
390
0
  6
Continuous
 62
              30
100
AcDbLine
 10
6863.6799967661518
 20
-45.171630846054939
 30
0.0
 11
6863.6799967661518
 21
-52.171630130799201
 31
0.0
  0
LINE
  5
116
100
AcDbEntity
  8
0
370
               0
390
0
  6
Continuous
 62
              30
100
AcDbLine
 10
6852.534405030312
 20
-45.171630846054939
 30
0.0
 11
6852.534405030312
 21
-52.171630130799201
 31
0.0
  0
LINE
  5
117
100
AcDbEntity
  8
0
370
               0
390
0
  6
Continuous
 62
              30
100
AcDbLine
 10
6863.6799967661518
 20
-45.171630846054939
 30
0.0
 11
6852.534405030312
 21
-45.171630846054939
 31
0.0
  0
LINE
  5
118
100
AcDbEntity
  8
0
370
               0
390
0
  6
Continuous
 62
              30
100
AcDbLine
 10
6852.534405030312
 20
-52.171630130799201
 30
0.0
 11
6863.6799967661518
 21
-52.171630130799201
 31
0.0
  0
LINE
  5
119
100
AcDbEntity
  8
0
370
               0
390
0
  6
Continuous
 62
              30
100
AcDbLine
 10
7082.5344241037983
 20
-45.171630846054939
 30
0.0
 11
7082.5344241037983
 21
-52.171630130799201
 31
0.0
  0
LINE
  5
11A
100
AcDbEntity
  8
0
370
               0
390
0
  6
Continuous
 62
              30
100
AcDbLine
 10
7082.5344241037983
 20
-45.171630846054939
 30
0.0
 11
7071.3887727633137
 21
-45.171630846054939
 31
0.0
  0
LINE
  5
11B
100
AcDbEntity
  8
0
370
               0
390
0
  6
Continuous
 62
              30
100
AcDbLine
 10
7071.3887727633137
 20
-52.171630130799201
 30
0.0
 11
7082.5344241037983
 21
-52.171630130799201
 31
0.0
  0
LINE
  5
11C
100
AcDbEntity
  8
0
370
               0
390
0
  6
Continuous
 62
              30
100
AcDbLine
 10
6856.5344131365437
 20
-44.171613918335822
 30
0.0
 11
6856.5344131365437
 21
-45.171630846054939
 31
0.0
  0
LINE
  5
11D
100
AcDbEntity
  8
0
370
               0
390
0
  6
Continuous
 62
              30
100
AcDbLine
 10
7078.5344159975666
 20
-45.171630846054939
 30
0.0
 11
7078.5344159975666
 21
-44.171613918335822
 31
0.0
  0
LINE
  5
11E
100
AcDbEntity
  8
0
370
               0
390
0
  6
Continuous
 62
              30
100
AcDbLine
 10
6852.534405030312
 20
-45.171630846054939
 30
0.0
 11
6852.534405030312
 21
-40.171635614426521
 31
0.0
  0
LINE
  5
11F
100
AcDbEntity
  8
0
370
               0
390
0
  6
Continuous
 62
              30
100
AcDbLine
 10
7082.5344241037983
 20
-40.171635614426521
 30
0.0
 11
7082.5344241037983
 21
-45.171630846054939
 31
0.0
  0
LINE
  5
120
100
AcDbEntity
  8
0
370
               0
390
0
  6
Continuous
 62
              30
100
AcDbLine
 10
7071.3887727633137
 20
411.82838632008276
 30
0.0
 11
7071.3887727633137
 21
418.82835580250463
 31
0.0
  0
LINE
  5
121
100
AcDbEntity
  8
0
370
               0
390
0
  6
Continuous
 62
              30
100
AcDbLine
 10
6863.6799967661518
 20
411.82838632008276
 30
0.0
 11
7071.3887727633137
 21
411.82838632008276
 31
0.0
  0
LINE
  5
122
100
AcDbEntity
  8
0
370
               0
390
0
  6
Continuous
 62
              30
100
AcDbLine
 10
6863.6799967661518
 20
411.82838632008276
 30
0.0
 11
6863.6799967661518
 21
418.82835580250463
 31
0.0
  0
LINE
  5
123
100
AcDbEntity
  8
0
370
               0
390
0
  6
Continuous
 62
              30
100
AcDbLine
 10
7071.3887727633137
 20
418.82835580250463
 30
0.0
 11
6863.6799967661518
 21
418.82835580250463
 31
0.0
  0
LINE
  5
124
100
AcDbEntity
  8
0
370
               0
390
0
  6
Continuous
 62
              30
100
AcDbLine
 10
7082.5344241037983
 20
418.82835580250463
 30
0.0
 11
7082.5344241037983
 21
411.82838632008276
 31
0.0
  0
LINE
  5
125
100
AcDbEntity
  8
0
370
               0
390
0
  6
Continuous
 62
              30
100
AcDbLine
 10
7071.3887727633137
 20
411.82838632008276
 30
0.0
 11
7082.5344241037983
 21
411.82838632008276
 31
0.0
  0
LINE
  5
126
100
AcDbEntity
  8
0
370
               0
390
0
  6
Continuous
 62
              30
100
AcDbLine
 10
7082.5344241037983
 20
418.82835580250463
 30
0.0
 11
7071.3887727633137
 21
418.82835580250463
 31
0.0
  0
LINE
  5
127
100
AcDbEntity
  8
0
370
               0
390
0
  6
Continuous
 62
              30
100
AcDbLine
 10
6852.534405030312
 20
411.82838632008276
 30
0.0
 11
6852.534405030312
 21
418.82835580250463
 31
0.0
  0
LINE
  5
128
100
AcDbEntity
  8
0
370
               0
390
0
  6
Continuous
 62
              30
100
AcDbLine
 10
6852.534405030312
 20
411.82838632008276
 30
0.0
 11
6863.6799967661518
 21
411.82838632008276
 31
0.0
  0
LINE
  5
129
100
AcDbEntity
  8
0
370
               0
390
0
  6
Continuous
 62
              30
100
AcDbLine
 10
6863.6799967661518
 20
418.82835580250463
 30
0.0
 11
6852.534405030312
 21
418.82835580250463
 31
0.0
  0
LINE
  5
12A
100
AcDbEntity
  8
0
370
               0
390
0
  6
Continuous
 62
              30
100
AcDbLine
 10
6856.5344131365437
 20
411.82838632008276
 30
0.0
 11
6856.5344131365437
 21
410.82839919468603
 31
0.0
  0
LINE
  5
12B
100
AcDbEntity
  8
0
370
               0
390
0
  6
Continuous
 62
              30
100
AcDbLine
 10
7078.5344159975666
 20
410.82839919468603
 30
0.0
 11
7078.5344159975666
 21
411.82838632008276
 31
0.0
  0
LINE
  5
12C
100
AcDbEntity
  8
0
370
               0
390
0
  6
Continuous
 62
              30
100
AcDbLine
 10
7082.5344241037983
 20
411.82838632008276
 30
0.0
 11
7082.5344241037983
 21
406.82839108845434
 31
0.0
  0
LINE
  5
12D
100
AcDbEntity
  8
0
370
               0
390
0
  6
Continuous
 62
              30
100
AcDbLine
 10
6852.534405030312
 20
406.82839108845434
 30
0.0
 11
6852.534405030312
 21
411.82838632008276
 31
0.0
  0
LINE
  5
12E
100
AcDbEntity
  8
0
370
               0
390
0
  6
Continuous
 62
              30
100
AcDbLine
 10
7070.6911600008625
 20
-44.171613918335822
 30
0.0
 11
7070.6911600008625
 21
-45.171630846054939
 31
0.0
  0
LINE
  5
12F
100
AcDbEntity
  8
0
370
               0
390
0
  6
Continuous
 62
              30
100
AcDbLine
 10
6864.377609528603
 20
-45.171630846054939
 30
0.0
 11
6864.377609528603
 21
-44.171613918335822
 31
0.0
  0
LINE
  5
130
100
AcDbEntity
  8
0
370
               0
390
0
  6
Continuous
 62
              30
100
AcDbLine
 10
7070.6911600008625
 20
411.82838632008276
 30
0.0
 11
7070.6911600008625
 21
410.82839919468603
 31
0.0
  0
LINE
  5
131
100
AcDbEntity
  8
0
370
               0
390
0
  6
Continuous
 62
              30
100
AcDbLine
 10
6864.377609528603
 20
410.82839919468603
 30
0.0
 11
6864.377609528603
 21
411.82838632008276
 31
0.0
  0
LINE
  5
132
100
AcDbEntity
  8
0
370
               0
390
0
  6
Continuous
 62
              30
100
AcDbLine
 10
7506.9163999145276
 20
15.203344358412835
 30
0.0
 11
7506.9163999145276
 21
410.82839919468603
 31
0.0
  0
LINE
  5
133
100
AcDbEntity
  8
0
370
               0
390
0
  6
Continuous
 62
              30
100
AcDbLine
 10
7506.9163999145276
 20
-44.171613918335822
 30
0.0
 11
7506.9163999145276
 21
-24.796617494614509
 31
0.0
  0
LINE
  5
134
100
AcDbEntity
  8
0
370
               0
390
0
  6
Continuous
 62
              30
100
AcDbLine
 10
7508.9161953513867
 20
-52.171630130799201
 30
0.0
 11
7508.9161953513867
 21
-45.171630846054939
 31
0.0
  0
LINE
  5
135
100
AcDbEntity
  8
0
370
               0
390
0
  6
Continuous
 62
              30
100
AcDbLine
 10
7504.9162170474774
 20
-45.171630846054939
 30
0.0
 11
7504.9162170474774
 21
-44.171613918335822
 31
0.0
  0
LINE
  5
136
100
AcDbEntity
  8
0
370
               0
390
0
  6
Continuous
 62
              30
100
AcDbLine
 10
7508.9161953513867
 20
411.82838632008276
 30
0.0
 11
7508.9161953513867
 21
418.82835580250463
 31
0.0
  0
LINE
  5
137
100
AcDbEntity
  8
0
370
               0
390
0
  6
Continuous
 62
              30
100
AcDbLine
 10
7504.9162170474774
 20
410.82839919468603
 30
0.0
 11
7504.9162170474774
 21
411.82838632008276
 31
0.0
  0
CIRCLE
  5
138
100
AcDbEntity
  8
0
370
               0
390
0
  6
Continuous
 62
              30
100
AcDbCircle
 10
7477.9162065513892
 20
370.82837175847527
 30
0.0
 40
3.0
  0
CIRCLE
  5
139
100
AcDbEntity
  8
0
370
               0
390
0
  6
Continuous
 62
              30
100
AcDbCircle
 10
7477.9162065513901
 20
183.32837175847516
 30
0.0
 40
3.0
  0
CIRCLE
  5
13A
100
AcDbEntity
  8
0
370
               0
390
0
  6
Continuous
 62
              30
100
AcDbCircle
 10
7477.9162065513901
 20
-4.1716282415248429
 30
0.0
 40
3.0
  0
LINE
  5
13B
100
AcDbEntity
  8
0
370
               0
390
0
  6
Continuous
 62
              30
100
AcDbLine
 10
7486.5768364255673
 20
410.82839919468603
 30
0.0
 11
7465.9162125175244
 21
410.82839919468603
 31
0.0
  0
LINE
  5
13C
100
AcDbEntity
  8
0
370
               0
390
0
  6
Continuous
 62
              30
100
AcDbLine
 10
7486.5768364255673
 20
410.82839919468603
 30
0.0
 11
7486.5768364255673
 21
-44.171613918335822
 31
0.0
  0
LINE
  5
13D
100
AcDbEntity
  8
0
370
               0
390
0
  6
Continuous
 62
              30
100
AcDbLine
 10
7465.9162125175244
 20
-44.171613918335822
 30
0.0
 11
7486.5768364255673
 21
-44.171613918335822
 31
0.0
  0
LINE
  5
13E
100
AcDbEntity
  8
0
370
               0
390
0
  6
Continuous
 62
              30
100
AcDbLine
 10
7465.9162125175244
 20
410.82839919468603
 30
0.0
 11
7465.9162125175244
 21
-44.171613918335822
 31
0.0
  0
LINE
  5
13F
100
AcDbEntity
  8
0
370
               0
390
0
  6
Continuous
 62
              30
100
AcDbLine
 10
7497.9021808688885
 20
410.82839919468603
 30
0.0
 11
7497.9021808688885
 21
-44.171613918335822
 31
0.0
  0
LINE
  5
140
100
AcDbEntity
  8
0
370
               0
390
0
  6
Continuous
 62
              30
100
AcDbLine
 10
7497.9021808688885
 20
410.82839919468603
 30
0.0
 11
7486.5768364255673
 21
410.82839919468603
 31
0.0
  0
LINE
  5
141
100
AcDbEntity
  8
0
370
               0
390
0
  6
Continuous
 62
              30
100
AcDbLine
 10
7486.5768364255673
 20
-44.171613918335822
 30
0.0
 11
7497.9021808688885
 21
-44.171613918335822
 31
0.0
  0
LINE
  5
142
100
AcDbEntity
  8
0
370
               0
390
0
  6
Continuous
 62
              30
100
AcDbLine
 10
7506.5926870887524
 20
15.203344358412835
 30
0.0
 11
7506.9163999145276
 21
15.203344358412835
 31
0.0
  0
LINE
  5
143
100
AcDbEntity
  8
0
370
               0
390
0
  6
Continuous
 62
              30
100
AcDbLine
 10
7506.5926870887524
 20
-24.796617494614509
 30
0.0
 11
7506.5926870887524
 21
15.203344358412835
 31
0.0
  0
LINE
  5
144
100
AcDbEntity
  8
0
370
               0
390
0
  6
Continuous
 62
              30
100
AcDbLine
 10
7506.9163999145276
 20
-24.796617494614509
 30
0.0
 11
7506.5926870887524
 21
-24.796617494614509
 31
0.0
  0
LINE
  5
145
100
AcDbEntity
  8
0
370
               0
390
0
  6
Continuous
 62
              30
100
AcDbLine
 10
7506.9163999145276
 20
410.82839919468603
 30
0.0
 11
7497.9021808688885
 21
410.82839919468603
 31
0.0
  0
LINE
  5
146
100
AcDbEntity
  8
0
370
               0
390
0
  6
Continuous
 62
              30
100
AcDbLine
 10
7497.9021808688885
 20
-44.171613918335822
 30
0.0
 11
7506.9163999145276
 21
-44.171613918335822
 31
0.0
  0
LINE
  5
147
100
AcDbEntity
  8
0
370
               0
390
0
  6
Continuous
 62
              30
100
AcDbLine
 10
7248.916206750775
 20
-40.171635614426521
 30
0.0
 11
7248.916206750775
 21
406.82839108845434
 31
0.0
  0
POLYLINE
  5
148
100
AcDbEntity
  8
0
370
               0
390
0
  6
Continuous
 62
              30
100
AcDb2dPolyline
 66
               1
 10
0.0
 20
0.0
 30
0.0
 75
               5
  0
VERTEX
  5
149
100
AcDbEntity
  8
0
370
               0
390
0
  6
Continuous
 62
              30
100
AcDbVertex
100
AcDb2dVertex
 10
7265.8462038820035
 20
220.32837821385107
 30
0.0
  0
VERTEX
  5
14A
100
AcDbEntity
  8
0
370
               0
390
0
  6
Continuous
 62
              30
100
AcDbVertex
100
AcDb2dVertex
 10
7265.7861782794243
 20
218.77073003193578
 30
0.0
  0
VERTEX
  5
14B
100
AcDbEntity
  8
0
370
               0
390
0
  6
Continuous
 62
              30
100
AcDbVertex
100
AcDb2dVertex
 10
7265.609109643603
 20
217.29116393467626
 30
0.0
  0
VERTEX
  5
14C
100
AcDbEntity
  8
0
370
               0
390
0
  6
Continuous
 62
              30
100
AcDbVertex
100
AcDb2dVertex
 10
7265.3238772039658
 20
215.96394730946264
 30
0.0
  0
VERTEX
  5
14D
100
AcDbEntity
  8
0
370
               0
390
0
  6
Continuous
 62
              30
100
AcDbVertex
100
AcDb2dVertex
 10
7264.9447842126137
 20
214.85553933521948
 30
0.0
  0
VERTEX
  5
14E
100
AcDbEntity
  8
0
370
               0
390
0
  6
Continuous
 62
              30
100
AcDbVertex
100
AcDb2dVertex
 10
7264.4908408259398
 20
214.02161075016699
 30
0.0
  0
VERTEX
  5
14F
100
AcDbEntity
  8
0
370
               0
390
0
  6
Continuous
 62
              30
100
AcDbVertex
100
AcDb2dVertex
 10
7263.9848085676676
 20
213.50388480564794
 30
0.0
  0
VERTEX
  5
150
100
AcDbEntity
  8
0
370
               0
390
0
  6
Continuous
 62
              30
100
AcDbVertex
100
AcDb2dVertex
 10
7263.4520622526652
 20
213.32834912678442
 30
0.0
  0
VERTEX
  5
151
100
AcDbEntity
  8
0
370
               0
390
0
  6
Continuous
 62
              30
100
AcDbVertex
100
AcDb2dVertex
 10
7262.9193159376628
 20
213.50388480564794
 30
0.0
  0
VERTEX
  5
152
100
AcDbEntity
  8
0
370
               0
390
0
  6
Continuous
 62
              30
100
AcDbVertex
100
AcDb2dVertex
 10
7262.4132836793906
 20
214.02161075016699
 30
0.0
  0
VERTEX
  5
153
100
AcDbEntity
  8
0
370
               0
390
0
  6
Continuous
 62
              30
100
AcDbVertex
100
AcDb2dVertex
 10
7261.9593402927167
 20
214.85553933521948
 30
0.0
  0
VERTEX
  5
154
100
AcDbEntity
  8
0
370
               0
390
0
  6
Continuous
 62
              30
100
AcDbVertex
100
AcDb2dVertex
 10
7261.5802473013646
 20
215.96394730946264
 30
0.0
  0
VERTEX
  5
155
100
AcDbEntity
  8
0
370
               0
390
0
  6
Continuous
 62
              30
100
AcDbVertex
100
AcDb2dVertex
 10
7261.2950167243725
 20
217.29116393467626
 30
0.0
  0
VERTEX
  5
156
100
AcDbEntity
  8
0
370
               0
390
0
  6
Continuous
 62
              30
100
AcDbVertex
100
AcDb2dVertex
 10
7261.1179480885512
 20
218.77073003193578
 30
0.0
  0
VERTEX
  5
157
100
AcDbEntity
  8
0
370
               0
390
0
  6
Continuous
 62
              30
100
AcDbVertex
100
AcDb2dVertex
 10
7261.0579224859721
 20
220.32837821385107
 30
0.0
  0
VERTEX
  5
158
100
AcDbEntity
  8
0
370
               0
390
0
  6
Continuous
 62
              30
100
AcDbVertex
100
AcDb2dVertex
 10
7261.1179480885512
 20
221.88602639576635
 30
0.0
  0
VERTEX
  5
159
100
AcDbEntity
  8
0
370
               0
390
0
  6
Continuous
 62
              30
100
AcDbVertex
100
AcDb2dVertex
 10
7261.2950167243725
 20
223.3655328883811
 30
0.0
  0
VERTEX
  5
15A
100
AcDbEntity
  8
0
370
               0
390
0
  6
Continuous
 62
              30
100
AcDbVertex
100
AcDb2dVertex
 10
7261.5802473013646
 20
224.6928091182395
 30
0.0
  0
VERTEX
  5
15B
100
AcDbEntity
  8
0
370
               0
390
0
  6
Continuous
 62
              30
100
AcDbVertex
100
AcDb2dVertex
 10
7261.9593402927167
 20
225.80121709248266
 30
0.0
  0
VERTEX
  5
15C
100
AcDbEntity
  8
0
370
               0
390
0
  6
Continuous
 62
              30
100
AcDbVertex
100
AcDb2dVertex
 10
7262.4132836793906
 20
226.63514567753515
 30
0.0
  0
VERTEX
  5
15D
100
AcDbEntity
  8
0
370
               0
390
0
  6
Continuous
 62
              30
100
AcDbVertex
100
AcDb2dVertex
 10
7262.9193159376628
 20
227.15287162205419
 30
0.0
  0
VERTEX
  5
15E
100
AcDbEntity
  8
0
370
               0
390
0
  6
Continuous
 62
              30
100
AcDbVertex
100
AcDb2dVertex
 10
7263.4520622526652
 20
227.32834769627294
 30
0.0
  0
VERTEX
  5
15F
100
AcDbEntity
  8
0
370
               0
390
0
  6
Continuous
 62
              30
100
AcDbVertex
100
AcDb2dVertex
 10
7263.9848085676676
 20
227.15287162205419
 30
0.0
  0
VERTEX
  5
160
100
AcDbEntity
  8
0
370
               0
390
0
  6
Continuous
 62
              30
100
AcDbVertex
100
AcDb2dVertex
 10
7264.4908408259398
 20
226.63514567753515
 30
0.0
  0
VERTEX
  5
161
100
AcDbEntity
  8
0
370
               0
390
0
  6
Continuous
 62
              30
100
AcDbVertex
100
AcDb2dVertex
 10
7264.9447842126137
 20
225.80121709248266
 30
0.0
  0
VERTEX
  5
162
100
AcDbEntity
  8
0
370
               0
390
0
  6
Continuous
 62
              30
100
AcDbVertex
100
AcDb2dVertex
 10
7265.3238772039658
 20
224.6928091182395
 30
0.0
  0
VERTEX
  5
163
100
AcDbEntity
  8
0
370
               0
390
0
  6
Continuous
 62
              30
100
AcDbVertex
100
AcDb2dVertex
 10
7265.609109643603
 20
223.3655328883811
 30
0.0
  0
VERTEX
  5
164
100
AcDbEntity
  8
0
370
               0
390
0
  6
Continuous
 62
              30
100
AcDbVertex
100
AcDb2dVertex
 10
7265.7861782794243
 20
221.88602639576635
 30
0.0
  0
VERTEX
  5
165
100
AcDbEntity
  8
0
370
               0
390
0
  6
Continuous
 62
              30
100
AcDbVertex
100
AcDb2dVertex
 10
7265.8462038820035
 20
220.32837821385107
 30
0.0
  0
SEQEND
  5
166
100
AcDbEntity
  8
0
370
               0
390
0
  6
Continuous
 62
              30
  0
POLYLINE
  5
168
100
AcDbEntity
  8
0
370
               0
390
0
  6
Continuous
 62
              30
100
AcDb2dPolyline
 66
               1
 10
0.0
 20
0.0
 30
0.0
 75
               5
  0
VERTEX
  5
169
100
AcDbEntity
  8
0
370
               0
390
0
  6
Continuous
 62
              30
100
AcDbVertex
100
AcDb2dVertex
 10
7259.2110204135424
 20
163.82836057087621
 30
0.0
  0
VERTEX
  5
16A
100
AcDbEntity
  8
0
370
               0
390
0
  6
Continuous
 62
              30
100
AcDbVertex
100
AcDb2dVertex
 10
7259.0375355069882
 20
163.87830926319799
 30
0.0
  0
VERTEX
  5
16B
100
AcDbEntity
  8
0
370
               0
390
0
  6
Continuous
 62
              30
100
AcDbVertex
100
AcDb2dVertex
 10
7258.8707170074231
 20
164.02630759617529
 30
0.0
  0
VERTEX
  5
16C
100
AcDbEntity
  8
0
370
               0
390
0
  6
Continuous
 62
              30
100
AcDbVertex
100
AcDb2dVertex
 10
7258.7169780020959
 20
164.26657391926489
 30
0.0
  0
VERTEX
  5
16D
100
AcDbEntity
  8
0
370
               0
390
0
  6
Continuous
 62
              30
100
AcDbVertex
100
AcDb2dVertex
 10
7258.5822230761296
 20
164.5898695125266
 30
0.0
  0
VERTEX
  5
16E
100
AcDbEntity
  8
0
370
               0
390
0
  6
Continuous
 62
              30
100
AcDbVertex
100
AcDb2dVertex
 10
7258.4716341083295
 20
164.98391581913671
 30
0.0
  0
VERTEX
  5
16F
100
AcDbEntity
  8
0
370
               0
390
0
  6
Continuous
 62
              30
100
AcDbVertex
100
AcDb2dVertex
 10
7258.3894579296357
 20
165.43339444538793
 30
0.0
  0
VERTEX
  5
170
100
AcDbEntity
  8
0
370
               0
390
0
  6
Continuous
 62
              30
100
AcDbVertex
100
AcDb2dVertex
 10
7258.3388535862214
 20
165.92113925358495
 30
0.0
  0
VERTEX
  5
171
100
AcDbEntity
  8
0
370
               0
390
0
  6
Continuous
 62
              30
100
AcDbVertex
100
AcDb2dVertex
 10
7258.3217675422675
 20
166.42837478062353
 30
0.0
  0
SEQEND
  5
172
100
AcDbEntity
  8
0
370
               0
390
0
  6
Continuous
 62
              30
  0
LINE
  5
174
100
AcDbEntity
  8
0
370
               0
390
0
  6
Continuous
 62
              30
100
AcDbLine
 10
7267.6931189929492
 20
163.82836057087621
 30
0.0
 11
7259.2110204135424
 21
163.82836057087621
 31
0.0
  0
POLYLINE
  5
175
100
AcDbEntity
  8
0
370
               0
390
0
  6
Continuous
 62
              30
100
AcDb2dPolyline
 66
               1
 10
0.0
 20
0.0
 30
0.0
 75
               5
  0
VERTEX
  5
176
100
AcDbEntity
  8
0
370
               0
390
0
  6
Continuous
 62
              30
100
AcDbVertex
100
AcDb2dVertex
 10
7268.5823718642241
 20
166.42837478062353
 30
0.0
  0
VERTEX
  5
177
100
AcDbEntity
  8
0
370
               0
390
0
  6
Continuous
 62
              30
100
AcDbVertex
100
AcDb2dVertex
 10
7268.5652858202702
 20
165.92113925358495
 30
0.0
  0
VERTEX
  5
178
100
AcDbEntity
  8
0
370
               0
390
0
  6
Continuous
 62
              30
100
AcDbVertex
100
AcDb2dVertex
 10
7268.5146814768559
 20
165.43339444538793
 30
0.0
  0
VERTEX
  5
179
100
AcDbEntity
  8
0
370
               0
390
0
  6
Continuous
 62
              30
100
AcDbVertex
100
AcDb2dVertex
 10
7268.4325052981621
 20
164.98391581913671
 30
0.0
  0
VERTEX
  5
17A
100
AcDbEntity
  8
0
370
               0
390
0
  6
Continuous
 62
              30
100
AcDbVertex
100
AcDb2dVertex
 10
7268.321916330362
 20
164.5898695125266
 30
0.0
  0
VERTEX
  5
17B
100
AcDbEntity
  8
0
370
               0
390
0
  6
Continuous
 62
              30
100
AcDbVertex
100
AcDb2dVertex
 10
7268.1871614043957
 20
164.26657391926489
 30
0.0
  0
VERTEX
  5
17C
100
AcDbEntity
  8
0
370
               0
390
0
  6
Continuous
 62
              30
100
AcDbVertex
100
AcDb2dVertex
 10
7268.0334223990685
 20
164.02630759617529
 30
0.0
  0
VERTEX
  5
17D
100
AcDbEntity
  8
0
370
               0
390
0
  6
Continuous
 62
              30
100
AcDbVertex
100
AcDb2dVertex
 10
7267.8666038995034
 20
163.87830926319799
 30
0.0
  0
VERTEX
  5
17E
100
AcDbEntity
  8
0
370
               0
390
0
  6
Continuous
 62
              30
100
AcDbVertex
100
AcDb2dVertex
 10
7267.6931189929492
 20
163.82836057087621
 30
0.0
  0
SEQEND
  5
17F
100
AcDbEntity
  8
0
370
               0
390
0
  6
Continuous
 62
              30
  0
LINE
  5
181
100
AcDbEntity
  8
0
370
               0
390
0
  6
Continuous
 62
              30
100
AcDbLine
 10
7268.5823718642241
 20
201.22836781880102
 30
0.0
 11
7268.5823718642241
 21
166.42837478062353
 31
0.0
  0
POLYLINE
  5
182
100
AcDbEntity
  8
0
370
               0
390
0
  6
Continuous
 62
              30
100
AcDb2dPolyline
 66
               1
 10
0.0
 20
0.0
 30
0.0
 75
               5
  0
VERTEX
  5
183
100
AcDbEntity
  8
0
370
               0
390
0
  6
Continuous
 62
              30
100
AcDbVertex
100
AcDb2dVertex
 10
7267.6931189929492
 20
203.82838202854833
 30
0.0
  0
VERTEX
  5
184
100
AcDbEntity
  8
0
370
               0
390
0
  6
Continuous
 62
              30
100
AcDbVertex
100
AcDb2dVertex
 10
7267.8666038995034
 20
203.77843333622656
 30
0.0
  0
VERTEX
  5
185
100
AcDbEntity
  8
0
370
               0
390
0
  6
Continuous
 62
              30
100
AcDbVertex
100
AcDb2dVertex
 10
7268.0334223990685
 20
203.63043500324926
 30
0.0
  0
VERTEX
  5
186
100
AcDbEntity
  8
0
370
               0
390
0
  6
Continuous
 62
              30
100
AcDbVertex
100
AcDb2dVertex
 10
7268.1871614043957
 20
203.39016868015966
 30
0.0
  0
VERTEX
  5
187
100
AcDbEntity
  8
0
370
               0
390
0
  6
Continuous
 62
              30
100
AcDbVertex
100
AcDb2dVertex
 10
7268.321916330362
 20
203.06687308689794
 30
0.0
  0
VERTEX
  5
188
100
AcDbEntity
  8
0
370
               0
390
0
  6
Continuous
 62
              30
100
AcDbVertex
100
AcDb2dVertex
 10
7268.4325052981621
 20
202.67282678028783
 30
0.0
  0
VERTEX
  5
189
100
AcDbEntity
  8
0
370
               0
390
0
  6
Continuous
 62
              30
100
AcDbVertex
100
AcDb2dVertex
 10
7268.5146814768559
 20
202.22334815403661
 30
0.0
  0
VERTEX
  5
18A
100
AcDbEntity
  8
0
370
               0
390
0
  6
Continuous
 62
              30
100
AcDbVertex
100
AcDb2dVertex
 10
7268.5652858202702
 20
201.73560334583959
 30
0.0
  0
VERTEX
  5
18B
100
AcDbEntity
  8
0
370
               0
390
0
  6
Continuous
 62
              30
100
AcDbVertex
100
AcDb2dVertex
 10
7268.5823718642241
 20
201.22836781880102
 30
0.0
  0
SEQEND
  5
18C
100
AcDbEntity
  8
0
370
               0
390
0
  6
Continuous
 62
              30
  0
LINE
  5
18E
100
AcDbEntity
  8
0
370
               0
390
0
  6
Continuous
 62
              30
100
AcDbLine
 10
7259.2110204135424
 20
203.82838202854833
 30
0.0
 11
7267.6931189929492
 21
203.82838202854833
 31
0.0
  0
POLYLINE
  5
18F
100
AcDbEntity
  8
0
370
               0
390
0
  6
Continuous
 62
              30
100
AcDb2dPolyline
 66
               1
 10
0.0
 20
0.0
 30
0.0
 75
               5
  0
VERTEX
  5
190
100
AcDbEntity
  8
0
370
               0
390
0
  6
Continuous
 62
              30
100
AcDbVertex
100
AcDb2dVertex
 10
7258.3217675422675
 20
201.22836781880102
 30
0.0
  0
VERTEX
  5
191
100
AcDbEntity
  8
0
370
               0
390
0
  6
Continuous
 62
              30
100
AcDbVertex
100
AcDb2dVertex
 10
7258.3388535862214
 20
201.73560334583959
 30
0.0
  0
VERTEX
  5
192
100
AcDbEntity
  8
0
370
               0
390
0
  6
Continuous
 62
              30
100
AcDbVertex
100
AcDb2dVertex
 10
7258.3894579296357
 20
202.22334815403661
 30
0.0
  0
VERTEX
  5
193
100
AcDbEntity
  8
0
370
               0
390
0
  6
Continuous
 62
              30
100
AcDbVertex
100
AcDb2dVertex
 10
7258.4716341083295
 20
202.67282678028783
 30
0.0
  0
VERTEX
  5
194
100
AcDbEntity
  8
0
370
               0
390
0
  6
Continuous
 62
              30
100
AcDbVertex
100
AcDb2dVertex
 10
7258.5822230761296
 20
203.06687308689794
 30
0.0
  0
VERTEX
  5
195
100
AcDbEntity
  8
0
370
               0
390
0
  6
Continuous
 62
              30
100
AcDbVertex
100
AcDb2dVertex
 10
7258.7169780020959
 20
203.39016868015966
 30
0.0
  0
VERTEX
  5
196
100
AcDbEntity
  8
0
370
               0
390
0
  6
Continuous
 62
              30
100
AcDbVertex
100
AcDb2dVertex
 10
7258.8707170074231
 20
203.63043500324926
 30
0.0
  0
VERTEX
  5
197
100
AcDbEntity
  8
0
370
               0
390
0
  6
Continuous
 62
              30
100
AcDbVertex
100
AcDb2dVertex
 10
7259.0375355069882
 20
203.77843333622656
 30
0.0
  0
VERTEX
  5
198
100
AcDbEntity
  8
0
370
               0
390
0
  6
Continuous
 62
              30
100
AcDbVertex
100
AcDb2dVertex
 10
7259.2110204135424
 20
203.82838202854833
 30
0.0
  0
SEQEND
  5
199
100
AcDbEntity
  8
0
370
               0
390
0
  6
Continuous
 62
              30
  0
LINE
  5
19B
100
AcDbEntity
  8
0
370
               0
390
0
  6
Continuous
 62
              30
100
AcDbLine
 10
7258.3217675422675
 20
166.42837478062353
 30
0.0
 11
7258.3217675422675
 21
201.22836781880102
 31
0.0
  0
POLYLINE
  5
19C
100
AcDbEntity
  8
0
370
               0
390
0
  6
Continuous
 62
              30
100
AcDb2dPolyline
 66
               1
 10
0.0
 20
0.0
 30
0.0
 75
               5
  0
VERTEX
  5
19D
100
AcDbEntity
  8
0
370
               0
390
0
  6
Continuous
 62
              30
100
AcDbVertex
100
AcDb2dVertex
 10
7257.9797467773205
 20
112.82836152455053
 30
0.0
  0
VERTEX
  5
19E
100
AcDbEntity
  8
0
370
               0
390
0
  6
Continuous
 62
              30
100
AcDbVertex
100
AcDb2dVertex
 10
7258.0191789751298
 20
113.99893714329443
 30
0.0
  0
VERTEX
  5
19F
100
AcDbEntity
  8
0
370
               0
390
0
  6
Continuous
 62
              30
100
AcDbVertex
100
AcDb2dVertex
 10
7258.1359556501156
 20
115.12445165058813
 30
0.0
  0
VERTEX
  5
1A0
100
AcDbEntity
  8
0
370
               0
390
0
  6
Continuous
 62
              30
100
AcDbVertex
100
AcDb2dVertex
 10
7258.3255915527589
 20
116.16181088825903
 30
0.0
  0
VERTEX
  5
1A1
100
AcDbEntity
  8
0
370
               0
390
0
  6
Continuous
 62
              30
100
AcDbVertex
100
AcDb2dVertex
 10
7258.5808000152356
 20
117.07102013966283
 30
0.0
  0
VERTEX
  5
1A2
100
AcDbEntity
  8
0
370
               0
390
0
  6
Continuous
 62
              30
100
AcDbVertex
100
AcDb2dVertex
 10
7258.8917704855448
 20
117.81721068760595
 30
0.0
  0
VERTEX
  5
1A3
100
AcDbEntity
  8
0
370
               0
390
0
  6
Continuous
 62
              30
100
AcDbVertex
100
AcDb2dVertex
 10
7259.2465559576995
 20
118.37165309330663
 30
0.0
  0
VERTEX
  5
1A4
100
AcDbEntity
  8
0
370
               0
390
0
  6
Continuous
 62
              30
100
AcDbVertex
100
AcDb2dVertex
 10
7259.6315200065619
 20
118.71306849858007
 30
0.0
  0
VERTEX
  5
1A5
100
AcDbEntity
  8
0
370
               0
390
0
  6
Continuous
 62
              30
100
AcDbVertex
100
AcDb2dVertex
 10
7260.0318676417119
 20
118.82834388157568
 30
0.0
  0
SEQEND
  5
1A6
100
AcDbEntity
  8
0
370
               0
390
0
  6
Continuous
 62
              30
  0
LINE
  5
1A8
100
AcDbEntity
  8
0
370
               0
390
0
  6
Continuous
 62
              30
100
AcDbLine
 10
7257.9797467773205
 20
14.828371538130853
 30
0.0
 11
7257.9797467773205
 21
112.82836152455053
 31
0.0
  0
POLYLINE
  5
1A9
100
AcDbEntity
  8
0
370
               0
390
0
  6
Continuous
 62
              30
100
AcDb2dPolyline
 66
               1
 10
0.0
 20
0.0
 30
0.0
 75
               5
  0
VERTEX
  5
1AA
100
AcDbEntity
  8
0
370
               0
390
0
  6
Continuous
 62
              30
100
AcDbVertex
100
AcDb2dVertex
 10
7260.0318676417119
 20
8.828389181105706
 30
0.0
  0
VERTEX
  5
1AB
100
AcDbEntity
  8
0
370
               0
390
0
  6
Continuous
 62
              30
100
AcDbVertex
100
AcDb2dVertex
 10
7259.6315200065619
 20
8.9436645641013115
 30
0.0
  0
VERTEX
  5
1AC
100
AcDbEntity
  8
0
370
               0
390
0
  6
Continuous
 62
              30
100
AcDbVertex
100
AcDb2dVertex
 10
7259.2465559576995
 20
9.285079969374749
 30
0.0
  0
VERTEX
  5
1AD
100
AcDbEntity
  8
0
370
               0
390
0
  6
Continuous
 62
              30
100
AcDbVertex
100
AcDb2dVertex
 10
7258.8917704855448
 20
9.839581979720208
 30
0.0
  0
VERTEX
  5
1AE
100
AcDbEntity
  8
0
370
               0
390
0
  6
Continuous
 62
              30
100
AcDbVertex
100
AcDb2dVertex
 10
7258.5808000152356
 20
10.585712923018548
 30
0.0
  0
VERTEX
  5
1AF
100
AcDbEntity
  8
0
370
               0
390
0
  6
Continuous
 62
              30
100
AcDbVertex
100
AcDb2dVertex
 10
7258.3255915527589
 20
11.494922174422356
 30
0.0
  0
VERTEX
  5
1B0
100
AcDbEntity
  8
0
370
               0
390
0
  6
Continuous
 62
              30
100
AcDbVertex
100
AcDb2dVertex
 10
7258.1359556501156
 20
12.532281412093255
 30
0.0
  0
VERTEX
  5
1B1
100
AcDbEntity
  8
0
370
               0
390
0
  6
Continuous
 62
              30
100
AcDbVertex
100
AcDb2dVertex
 10
7258.0191789751298
 20
13.657855524031731
 30
0.0
  0
VERTEX
  5
1B2
100
AcDbEntity
  8
0
370
               0
390
0
  6
Continuous
 62
              30
100
AcDbVertex
100
AcDb2dVertex
 10
7257.9797467773205
 20
14.828371538130853
 30
0.0
  0
SEQEND
  5
1B3
100
AcDbEntity
  8
0
370
               0
390
0
  6
Continuous
 62
              30
  0
LINE
  5
1B5
100
AcDbEntity
  8
0
370
               0
390
0
  6
Continuous
 62
              30
100
AcDbLine
 10
7266.8722717647797
 20
8.828389181105706
 30
0.0
 11
7260.0318676417119
 21
8.828389181105706
 31
0.0
  0
POLYLINE
  5
1B6
100
AcDbEntity
  8
0
370
               0
390
0
  6
Continuous
 62
              30
100
AcDb2dPolyline
 66
               1
 10
0.0
 20
0.0
 30
0.0
 75
               5
  0
VERTEX
  5
1B7
100
AcDbEntity
  8
0
370
               0
390
0
  6
Continuous
 62
              30
100
AcDbVertex
100
AcDb2dVertex
 10
7268.9243926291711
 20
14.828371538130853
 30
0.0
  0
VERTEX
  5
1B8
100
AcDbEntity
  8
0
370
               0
390
0
  6
Continuous
 62
              30
100
AcDbVertex
100
AcDb2dVertex
 10
7268.8849604313618
 20
13.657855524031731
 30
0.0
  0
VERTEX
  5
1B9
100
AcDbEntity
  8
0
370
               0
390
0
  6
Continuous
 62
              30
100
AcDbVertex
100
AcDb2dVertex
 10
7268.7681837563759
 20
12.532281412093255
 30
0.0
  0
VERTEX
  5
1BA
100
AcDbEntity
  8
0
370
               0
390
0
  6
Continuous
 62
              30
100
AcDbVertex
100
AcDb2dVertex
 10
7268.5785478537327
 20
11.494922174422356
 30
0.0
  0
VERTEX
  5
1BB
100
AcDbEntity
  8
0
370
               0
390
0
  6
Continuous
 62
              30
100
AcDbVertex
100
AcDb2dVertex
 10
7268.323339391256
 20
10.585712923018548
 30
0.0
  0
VERTEX
  5
1BC
100
AcDbEntity
  8
0
370
               0
390
0
  6
Continuous
 62
              30
100
AcDbVertex
100
AcDb2dVertex
 10
7268.0123689209468
 20
9.839581979720208
 30
0.0
  0
VERTEX
  5
1BD
100
AcDbEntity
  8
0
370
               0
390
0
  6
Continuous
 62
              30
100
AcDbVertex
100
AcDb2dVertex
 10
7267.6575834487921
 20
9.285079969374749
 30
0.0
  0
VERTEX
  5
1BE
100
AcDbEntity
  8
0
370
               0
390
0
  6
Continuous
 62
              30
100
AcDbVertex
100
AcDb2dVertex
 10
7267.2726193999297
 20
8.9436645641013115
 30
0.0
  0
VERTEX
  5
1BF
100
AcDbEntity
  8
0
370
               0
390
0
  6
Continuous
 62
              30
100
AcDbVertex
100
AcDb2dVertex
 10
7266.8722717647797
 20
8.828389181105706
 30
0.0
  0
SEQEND
  5
1C0
100
AcDbEntity
  8
0
370
               0
390
0
  6
Continuous
 62
              30
  0
LINE
  5
1C2
100
AcDbEntity
  8
0
370
               0
390
0
  6
Continuous
 62
              30
100
AcDbLine
 10
7268.9243926291711
 20
112.82836152455053
 30
0.0
 11
7268.9243926291711
 21
14.828371538130853
 31
0.0
  0
POLYLINE
  5
1C3
100
AcDbEntity
  8
0
370
               0
390
0
  6
Continuous
 62
              30
100
AcDb2dPolyline
 66
               1
 10
0.0
 20
0.0
 30
0.0
 75
               5
  0
VERTEX
  5
1C4
100
AcDbEntity
  8
0
370
               0
390
0
  6
Continuous
 62
              30
100
AcDbVertex
100
AcDb2dVertex
 10
7266.8722717647797
 20
118.82834388157568
 30
0.0
  0
VERTEX
  5
1C5
100
AcDbEntity
  8
0
370
               0
390
0
  6
Continuous
 62
              30
100
AcDbVertex
100
AcDb2dVertex
 10
7267.2726193999297
 20
118.71306849858007
 30
0.0
  0
VERTEX
  5
1C6
100
AcDbEntity
  8
0
370
               0
390
0
  6
Continuous
 62
              30
100
AcDbVertex
100
AcDb2dVertex
 10
7267.6575834487921
 20
118.37165309330663
 30
0.0
  0
VERTEX
  5
1C7
100
AcDbEntity
  8
0
370
               0
390
0
  6
Continuous
 62
              30
100
AcDbVertex
100
AcDb2dVertex
 10
7268.0123689209468
 20
117.81721068760595
 30
0.0
  0
VERTEX
  5
1C8
100
AcDbEntity
  8
0
370
               0
390
0
  6
Continuous
 62
              30
100
AcDbVertex
100
AcDb2dVertex
 10
7268.323339391256
 20
117.07102013966283
 30
0.0
  0
VERTEX
  5
1C9
100
AcDbEntity
  8
0
370
               0
390
0
  6
Continuous
 62
              30
100
AcDbVertex
100
AcDb2dVertex
 10
7268.5785478537327
 20
116.16181088825903
 30
0.0
  0
VERTEX
  5
1CA
100
AcDbEntity
  8
0
370
               0
390
0
  6
Continuous
 62
              30
100
AcDbVertex
100
AcDb2dVertex
 10
7268.7681837563759
 20
115.12445165058813
 30
0.0
  0
VERTEX
  5
1CB
100
AcDbEntity
  8
0
370
               0
390
0
  6
Continuous
 62
              30
100
AcDbVertex
100
AcDb2dVertex
 10
7268.8849604313618
 20
113.99893714329443
 30
0.0
  0
VERTEX
  5
1CC
100
AcDbEntity
  8
0
370
               0
390
0
  6
Continuous
 62
              30
100
AcDbVertex
100
AcDb2dVertex
 10
7268.9243926291711
 20
112.82836152455053
 30
0.0
  0
SEQEND
  5
1CD
100
AcDbEntity
  8
0
370
               0
390
0
  6
Continuous
 62
              30
  0
LINE
  5
1CF
100
AcDbEntity
  8
0
370
               0
390
0
  6
Continuous
 62
              30
100
AcDbLine
 10
7260.0318676417119
 20
118.82834388157568
 30
0.0
 11
7266.8722717647797
 21
118.82834388157568
 31
0.0
  0
LINE
  5
1D0
100
AcDbEntity
  8
0
370
               0
390
0
  6
Continuous
 62
              30
100
AcDbLine
 10
7277.9879196172005
 20
406.82839108845434
 30
0.0
 11
7248.916206750775
 21
406.82839108845434
 31
0.0
  0
LINE
  5
1D1
100
AcDbEntity
  8
0
370
               0
390
0
  6
Continuous
 62
              30
100
AcDbLine
 10
7277.9879196172005
 20
-40.171635614426521
 30
0.0
 11
7277.9879196172005
 21
406.82839108845434
 31
0.0
  0
LINE
  5
1D2
100
AcDbEntity
  8
0
370
               0
390
0
  6
Continuous
 62
              30
100
AcDbLine
 10
7248.916206750775
 20
-40.171635614426521
 30
0.0
 11
7277.9879196172005
 21
-40.171635614426521
 31
0.0
  0
POLYLINE
  5
1D3
100
AcDbEntity
  8
0
370
               0
390
0
  6
Continuous
 62
              30
100
AcDb2dPolyline
 66
               1
 10
0.0
 20
0.0
 30
0.0
 75
               5
  0
VERTEX
  5
1D4
100
AcDbEntity
  8
0
370
               0
390
0
  6
Continuous
 62
              30
100
AcDbVertex
100
AcDb2dVertex
 10
7265.8462038820035
 20
148.32835151097021
 30
0.0
  0
VERTEX
  5
1D5
100
AcDbEntity
  8
0
370
               0
390
0
  6
Continuous
 62
              30
100
AcDbVertex
100
AcDb2dVertex
 10
7265.7861782794243
 20
146.77070332905492
 30
0.0
  0
VERTEX
  5
1D6
100
AcDbEntity
  8
0
370
               0
390
0
  6
Continuous
 62
              30
100
AcDbVertex
100
AcDb2dVertex
 10
7265.609109643603
 20
145.29119683644018
 30
0.0
  0
VERTEX
  5
1D7
100
AcDbEntity
  8
0
370
               0
390
0
  6
Continuous
 62
              30
100
AcDbVertex
100
AcDb2dVertex
 10
7265.3238772039658
 20
143.96392060658178
 30
0.0
  0
VERTEX
  5
1D8
100
AcDbEntity
  8
0
370
               0
390
0
  6
Continuous
 62
              30
100
AcDbVertex
100
AcDb2dVertex
 10
7264.9447842126137
 20
142.85557223698339
 30
0.0
  0
VERTEX
  5
1D9
100
AcDbEntity
  8
0
370
               0
390
0
  6
Continuous
 62
              30
100
AcDbVertex
100
AcDb2dVertex
 10
7264.4908408259398
 20
142.02158404728613
 30
0.0
  0
VERTEX
  5
1DA
100
AcDbEntity
  8
0
370
               0
390
0
  6
Continuous
 62
              30
100
AcDbVertex
100
AcDb2dVertex
 10
7263.9848085676676
 20
141.50385810276708
 30
0.0
  0
VERTEX
  5
1DB
100
AcDbEntity
  8
0
370
               0
390
0
  6
Continuous
 62
              30
100
AcDbVertex
100
AcDb2dVertex
 10
7263.4520622526652
 20
141.32838202854833
 30
0.0
  0
VERTEX
  5
1DC
100
AcDbEntity
  8
0
370
               0
390
0
  6
Continuous
 62
              30
100
AcDbVertex
100
AcDb2dVertex
 10
7262.9193159376628
 20
141.50385810276708
 30
0.0
  0
VERTEX
  5
1DD
100
AcDbEntity
  8
0
370
               0
390
0
  6
Continuous
 62
              30
100
AcDbVertex
100
AcDb2dVertex
 10
7262.4132836793906
 20
142.02158404728613
 30
0.0
  0
VERTEX
  5
1DE
100
AcDbEntity
  8
0
370
               0
390
0
  6
Continuous
 62
              30
100
AcDbVertex
100
AcDb2dVertex
 10
7261.9593402927167
 20
142.85557223698339
 30
0.0
  0
VERTEX
  5
1DF
100
AcDbEntity
  8
0
370
               0
390
0
  6
Continuous
 62
              30
100
AcDbVertex
100
AcDb2dVertex
 10
7261.5802473013646
 20
143.96392060658178
 30
0.0
  0
VERTEX
  5
1E0
100
AcDbEntity
  8
0
370
               0
390
0
  6
Continuous
 62
              30
100
AcDbVertex
100
AcDb2dVertex
 10
7261.2950167243725
 20
145.29119683644018
 30
0.0
  0
VERTEX
  5
1E1
100
AcDbEntity
  8
0
370
               0
390
0
  6
Continuous
 62
              30
100
AcDbVertex
100
AcDb2dVertex
 10
7261.1179480885512
 20
146.77070332905492
 30
0.0
  0
VERTEX
  5
1E2
100
AcDbEntity
  8
0
370
               0
390
0
  6
Continuous
 62
              30
100
AcDbVertex
100
AcDb2dVertex
 10
7261.0579224859721
 20
148.32835151097021
 30
0.0
  0
VERTEX
  5
1E3
100
AcDbEntity
  8
0
370
               0
390
0
  6
Continuous
 62
              30
100
AcDbVertex
100
AcDb2dVertex
 10
7261.1179480885512
 20
149.88599969288549
 30
0.0
  0
VERTEX
  5
1E4
100
AcDbEntity
  8
0
370
               0
390
0
  6
Continuous
 62
              30
100
AcDbVertex
100
AcDb2dVertex
 10
7261.2950167243725
 20
151.36556579014501
 30
0.0
  0
VERTEX
  5
1E5
100
AcDbEntity
  8
0
370
               0
390
0
  6
Continuous
 62
              30
100
AcDbVertex
100
AcDb2dVertex
 10
7261.5802473013646
 20
152.69278241535864
 30
0.0
  0
VERTEX
  5
1E6
100
AcDbEntity
  8
0
370
               0
390
0
  6
Continuous
 62
              30
100
AcDbVertex
100
AcDb2dVertex
 10
7261.9593402927167
 20
153.8011903896018
 30
0.0
  0
VERTEX
  5
1E7
100
AcDbEntity
  8
0
370
               0
390
0
  6
Continuous
 62
              30
100
AcDbVertex
100
AcDb2dVertex
 10
7262.4132836793906
 20
154.63517857929907
 30
0.0
  0
VERTEX
  5
1E8
100
AcDbEntity
  8
0
370
               0
390
0
  6
Continuous
 62
              30
100
AcDbVertex
100
AcDb2dVertex
 10
7262.9193159376628
 20
155.15284491917333
 30
0.0
  0
VERTEX
  5
1E9
100
AcDbEntity
  8
0
370
               0
390
0
  6
Continuous
 62
              30
100
AcDbVertex
100
AcDb2dVertex
 10
7263.4520622526652
 20
155.32838059803686
 30
0.0
  0
VERTEX
  5
1EA
100
AcDbEntity
  8
0
370
               0
390
0
  6
Continuous
 62
              30
100
AcDbVertex
100
AcDb2dVertex
 10
7263.9848085676676
 20
155.15284491917333
 30
0.0
  0
VERTEX
  5
1EB
100
AcDbEntity
  8
0
370
               0
390
0
  6
Continuous
 62
              30
100
AcDbVertex
100
AcDb2dVertex
 10
7264.4908408259398
 20
154.63517857929907
 30
0.0
  0
VERTEX
  5
1EC
100
AcDbEntity
  8
0
370
               0
390
0
  6
Continuous
 62
              30
100
AcDbVertex
100
AcDb2dVertex
 10
7264.9447842126137
 20
153.8011903896018
 30
0.0
  0
VERTEX
  5
1ED
100
AcDbEntity
  8
0
370
               0
390
0
  6
Continuous
 62
              30
100
AcDbVertex
100
AcDb2dVertex
 10
7265.3238772039658
 20
152.69278241535864
 30
0.0
  0
VERTEX
  5
1EE
100
AcDbEntity
  8
0
370
               0
390
0
  6
Continuous
 62
              30
100
AcDbVertex
100
AcDb2dVertex
 10
7265.609109643603
 20
151.36556579014501
 30
0.0
  0
VERTEX
  5
1EF
100
AcDbEntity
  8
0
370
               0
390
0
  6
Continuous
 62
              30
100
AcDbVertex
100
AcDb2dVertex
 10
7265.7861782794243
 20
149.88599969288549
 30
0.0
  0
VERTEX
  5
1F0
100
AcDbEntity
  8
0
370
               0
390
0
  6
Continuous
 62
              30
100
AcDbVertex
100
AcDb2dVertex
 10
7265.8462038820035
 20
148.32835151097021
 30
0.0
  0
SEQEND
  5
1F1
100
AcDbEntity
  8
0
370
               0
390
0
  6
Continuous
 62
              30
  0
POLYLINE
  5
1F3
100
AcDbEntity
  8
0
370
               0
390
0
  6
Continuous
 62
              30
100
AcDb2dPolyline
 66
               1
 10
0.0
 20
0.0
 30
0.0
 75
               5
  0
VERTEX
  5
1F4
100
AcDbEntity
  8
0
370
               0
390
0
  6
Continuous
 62
              30
100
AcDbVertex
100
AcDb2dVertex
 10
7261.1408455853707
 20
166.42837478062353
 30
0.0
  0
VERTEX
  5
1F5
100
AcDbEntity
  8
0
370
               0
390
0
  6
Continuous
 62
              30
100
AcDbVertex
100
AcDb2dVertex
 10
7261.1579316293246
 20
165.92113925358495
 30
0.0
  0
VERTEX
  5
1F6
100
AcDbEntity
  8
0
370
               0
390
0
  6
Continuous
 62
              30
100
AcDbVertex
100
AcDb2dVertex
 10
7261.2085359727389
 20
165.43339444538793
 30
0.0
  0
VERTEX
  5
1F7
100
AcDbEntity
  8
0
370
               0
390
0
  6
Continuous
 62
              30
100
AcDbVertex
100
AcDb2dVertex
 10
7261.2907121514327
 20
164.98391581913671
 30
0.0
  0
VERTEX
  5
1F8
100
AcDbEntity
  8
0
370
               0
390
0
  6
Continuous
 62
              30
100
AcDbVertex
100
AcDb2dVertex
 10
7261.4013011192328
 20
164.5898695125266
 30
0.0
  0
VERTEX
  5
1F9
100
AcDbEntity
  8
0
370
               0
390
0
  6
Continuous
 62
              30
100
AcDbVertex
100
AcDb2dVertex
 10
7261.5360560451991
 20
164.26657391926489
 30
0.0
  0
VERTEX
  5
1FA
100
AcDbEntity
  8
0
370
               0
390
0
  6
Continuous
 62
              30
100
AcDbVertex
100
AcDb2dVertex
 10
7261.6897950505263
 20
164.02630759617529
 30
0.0
  0
VERTEX
  5
1FB
100
AcDbEntity
  8
0
370
               0
390
0
  6
Continuous
 62
              30
100
AcDbVertex
100
AcDb2dVertex
 10
7261.8566135500914
 20
163.87830926319799
 30
0.0
  0
VERTEX
  5
1FC
100
AcDbEntity
  8
0
370
               0
390
0
  6
Continuous
 62
              30
100
AcDbVertex
100
AcDb2dVertex
 10
7262.0300984566456
 20
163.82836057087621
 30
0.0
  0
SEQEND
  5
1FD
100
AcDbEntity
  8
0
370
               0
390
0
  6
Continuous
 62
              30
  0
LINE
  5
1FF
100
AcDbEntity
  8
0
370
               0
390
0
  6
Continuous
 62
              30
100
AcDbLine
 10
7261.1408455853707
 20
201.22836781880102
 30
0.0
 11
7261.1408455853707
 21
166.42837478062353
 31
0.0
  0
POLYLINE
  5
200
100
AcDbEntity
  8
0
370
               0
390
0
  6
Continuous
 62
              30
100
AcDb2dPolyline
 66
               1
 10
0.0
 20
0.0
 30
0.0
 75
               5
  0
VERTEX
  5
201
100
AcDbEntity
  8
0
370
               0
390
0
  6
Continuous
 62
              30
100
AcDbVertex
100
AcDb2dVertex
 10
7262.0300984566456
 20
203.82838202854833
 30
0.0
  0
VERTEX
  5
202
100
AcDbEntity
  8
0
370
               0
390
0
  6
Continuous
 62
              30
100
AcDbVertex
100
AcDb2dVertex
 10
7261.8566135500914
 20
203.77843333622656
 30
0.0
  0
VERTEX
  5
203
100
AcDbEntity
  8
0
370
               0
390
0
  6
Continuous
 62
              30
100
AcDbVertex
100
AcDb2dVertex
 10
7261.6897950505263
 20
203.63043500324926
 30
0.0
  0
VERTEX
  5
204
100
AcDbEntity
  8
0
370
               0
390
0
  6
Continuous
 62
              30
100
AcDbVertex
100
AcDb2dVertex
 10
7261.5360560451991
 20
203.39016868015966
 30
0.0
  0
VERTEX
  5
205
100
AcDbEntity
  8
0
370
               0
390
0
  6
Continuous
 62
              30
100
AcDbVertex
100
AcDb2dVertex
 10
7261.4013011192328
 20
203.06687308689794
 30
0.0
  0
VERTEX
  5
206
100
AcDbEntity
  8
0
370
               0
390
0
  6
Continuous
 62
              30
100
AcDbVertex
100
AcDb2dVertex
 10
7261.2907121514327
 20
202.67282678028783
 30
0.0
  0
VERTEX
  5
207
100
AcDbEntity
  8
0
370
               0
390
0
  6
Continuous
 62
              30
100
AcDbVertex
100
AcDb2dVertex
 10
7261.2085359727389
 20
202.22334815403661
 30
0.0
  0
VERTEX
  5
208
100
AcDbEntity
  8
0
370
               0
390
0
  6
Continuous
 62
              30
100
AcDbVertex
100
AcDb2dVertex
 10
7261.1579316293246
 20
201.73560334583959
 30
0.0
  0
VERTEX
  5
209
100
AcDbEntity
  8
0
370
               0
390
0
  6
Continuous
 62
              30
100
AcDbVertex
100
AcDb2dVertex
 10
7261.1408455853707
 20
201.22836781880102
 30
0.0
  0
SEQEND
  5
20A
100
AcDbEntity
  8
0
370
               0
390
0
  6
Continuous
 62
              30
  0
LINE
  5
20C
100
AcDbEntity
  8
0
370
               0
390
0
  6
Continuous
 62
              30
100
AcDbLine
 10
7261.1408455853707
 20
201.22836781880102
 30
0.0
 11
7258.3217675422675
 21
201.22836781880102
 31
0.0
  0
LINE
  5
20D
100
AcDbEntity
  8
0
370
               0
390
0
  6
Continuous
 62
              30
100
AcDbLine
 10
7261.1408455853707
 20
166.42837478062353
 30
0.0
 11
7258.3217675422675
 21
166.42837478062353
 31
0.0
  0
LINE
  5
20E
100
AcDbEntity
  8
0
370
               0
390
0
  6
Continuous
 62
              30
100
AcDbLine
 10
7353.3161392991788
 20
-40.171635614426521
 30
0.0
 11
7353.3161392991788
 21
406.82839108845434
 31
0.0
  0
LINE
  5
20F
100
AcDbEntity
  8
0
370
               0
390
0
  6
Continuous
 62
              30
100
AcDbLine
 10
7277.9879196172005
 20
-40.171635614426521
 30
0.0
 11
7353.3161392991788
 21
-40.171635614426521
 31
0.0
  0
LINE
  5
210
100
AcDbEntity
  8
0
370
               0
390
0
  6
Continuous
 62
              30
100
AcDbLine
 10
7353.3161392991788
 20
406.82839108845434
 30
0.0
 11
7277.9879196172005
 21
406.82839108845434
 31
0.0
  0
LINE
  5
211
100
AcDbEntity
  8
0
370
               0
390
0
  6
Continuous
 62
              30
100
AcDbLine
 10
7353.3161392991788
 20
406.82839108845434
 30
0.0
 11
7464.9162104909665
 21
406.82839108845434
 31
0.0
  0
LINE
  5
212
100
AcDbEntity
  8
0
370
               0
390
0
  6
Continuous
 62
              30
100
AcDbLine
 10
7464.9162104909665
 20
-40.171635614426521
 30
0.0
 11
7464.9162104909665
 21
406.82839108845434
 31
0.0
  0
LINE
  5
213
100
AcDbEntity
  8
0
370
               0
390
0
  6
Continuous
 62
              30
100
AcDbLine
 10
7353.3161392991788
 20
-40.171635614426521
 30
0.0
 11
7464.9162104909665
 21
-40.171635614426521
 31
0.0
  0
CIRCLE
  5
214
100
AcDbEntity
  8
0
370
               0
390
0
  6
Continuous
 62
              30
100
AcDbCircle
 10
7397.9162065513892
 20
183.32837175847527
 30
0.0
 40
7.2000000000480213
  0
CIRCLE
  5
215
100
AcDbEntity
  8
0
370
               0
390
0
  6
Continuous
 62
              30
100
AcDbCircle
 10
7397.9162065513892
 20
183.32837175847527
 30
0.0
 40
4.1999999999998181
  0
LINE
  5
216
100
AcDbEntity
  8
0
370
               0
390
0
  6
Continuous
 62
              30
100
AcDbLine
 10
7464.9162104909665
 20
-40.171635614426521
 30
0.0
 11
7465.9162125175244
 21
-40.171635614426521
 31
0.0
  0
LINE
  5
217
100
AcDbEntity
  8
0
370
               0
390
0
  6
Continuous
 62
              30
100
AcDbLine
 10
7464.9162104909665
 20
406.82839108845434
 30
0.0
 11
7465.9162125175244
 21
406.82839108845434
 31
0.0
  0
CIRCLE
  5
218
100
AcDbEntity
  8
0
370
               0
390
0
  6
Continuous
 62
              30
100
AcDbCircle
 10
7477.9162065513892
 20
370.82837175847538
 30
0.0
 40
1.6500000000005457
  0
CIRCLE
  5
219
100
AcDbEntity
  8
0
370
               0
390
0
  6
Continuous
 62
              30
100
AcDbCircle
 10
7477.9162065513892
 20
183.32837175847538
 30
0.0
 40
1.6500000000005457
  0
CIRCLE
  5
21A
100
AcDbEntity
  8
0
370
               0
390
0
  6
Continuous
 62
              30
100
AcDbCircle
 10
7477.9162065513901
 20
-4.1716282415247292
 30
0.0
 40
1.6499999999996362
  0
LINE
  5
21B
100
AcDbEntity
  8
0
370
               0
390
0
  6
Continuous
 62
              30
100
AcDbLine
 10
7464.9162104909665
 20
-45.171630846054939
 30
0.0
 11
7464.9162104909665
 21
-40.171635614426521
 31
0.0
  0
LINE
  5
21C
100
AcDbEntity
  8
0
370
               0
390
0
  6
Continuous
 62
              30
100
AcDbLine
 10
7486.4971301143414
 20
-45.171630846054939
 30
0.0
 11
7464.9162104909665
 21
-45.171630846054939
 31
0.0
  0
LINE
  5
21D
100
AcDbEntity
  8
0
370
               0
390
0
  6
Continuous
 62
              30
100
AcDbLine
 10
7486.4971301143414
 20
-45.171630846054939
 30
0.0
 11
7486.4971301143414
 21
-52.171630130799201
 31
0.0
  0
LINE
  5
21E
100
AcDbEntity
  8
0
370
               0
390
0
  6
Continuous
 62
              30
100
AcDbLine
 10
7353.3161392991788
 20
-52.171630130799201
 30
0.0
 11
7486.4971301143414
 21
-52.171630130799201
 31
0.0
  0
LINE
  5
21F
100
AcDbEntity
  8
0
370
               0
390
0
  6
Continuous
 62
              30
100
AcDbLine
 10
7353.3161392991788
 20
-40.171635614426521
 30
0.0
 11
7353.3161392991788
 21
-52.171630130799201
 31
0.0
  0
LINE
  5
220
100
AcDbEntity
  8
0
370
               0
390
0
  6
Continuous
 62
              30
100
AcDbLine
 10
7277.9879196172005
 20
-40.171635614426521
 30
0.0
 11
7277.9879196172005
 21
-52.171630130799201
 31
0.0
  0
LINE
  5
221
100
AcDbEntity
  8
0
370
               0
390
0
  6
Continuous
 62
              30
100
AcDbLine
 10
7277.9879196172005
 20
-52.171630130799201
 30
0.0
 11
7353.3161392991788
 21
-52.171630130799201
 31
0.0
  0
LINE
  5
222
100
AcDbEntity
  8
0
370
               0
390
0
  6
Continuous
 62
              30
100
AcDbLine
 10
7499.7902473991162
 20
-45.171630846054939
 30
0.0
 11
7499.7902473991162
 21
-52.171630130799201
 31
0.0
  0
LINE
  5
223
100
AcDbEntity
  8
0
370
               0
390
0
  6
Continuous
 62
              30
100
AcDbLine
 10
7499.7902473991162
 20
-45.171630846054939
 30
0.0
 11
7486.4971301143414
 21
-45.171630846054939
 31
0.0
  0
LINE
  5
224
100
AcDbEntity
  8
0
370
               0
390
0
  6
Continuous
 62
              30
100
AcDbLine
 10
7486.4971301143414
 20
-52.171630130799201
 30
0.0
 11
7499.7902473991162
 21
-52.171630130799201
 31
0.0
  0
LINE
  5
225
100
AcDbEntity
  8
0
370
               0
390
0
  6
Continuous
 62
              30
100
AcDbLine
 10
7508.9161953513867
 20
-45.171630846054939
 30
0.0
 11
7499.7902473991162
 21
-45.171630846054939
 31
0.0
  0
LINE
  5
226
100
AcDbEntity
  8
0
370
               0
390
0
  6
Continuous
 62
              30
100
AcDbLine
 10
7499.7902473991162
 20
-52.171630130799201
 30
0.0
 11
7508.9161953513867
 21
-52.171630130799201
 31
0.0
  0
LINE
  5
227
100
AcDbEntity
  8
0
370
               0
390
0
  6
Continuous
 62
              30
100
AcDbLine
 10
7248.916206750775
 20
-40.171635614426521
 30
0.0
 11
7248.916206750775
 21
-52.171630130799201
 31
0.0
  0
LINE
  5
228
100
AcDbEntity
  8
0
370
               0
390
0
  6
Continuous
 62
              30
100
AcDbLine
 10
7248.916206750775
 20
-52.171630130799201
 30
0.0
 11
7277.9879196172005
 21
-52.171630130799201
 31
0.0
  0
LINE
  5
229
100
AcDbEntity
  8
0
370
               0
390
0
  6
Continuous
 62
              30
100
AcDbLine
 10
7353.3161392991788
 20
406.82839108845434
 30
0.0
 11
7353.3161392991788
 21
418.82835580250463
 31
0.0
  0
LINE
  5
22A
100
AcDbEntity
  8
0
370
               0
390
0
  6
Continuous
 62
              30
100
AcDbLine
 10
7277.9879196172005
 20
406.82839108845434
 30
0.0
 11
7277.9879196172005
 21
418.82835580250463
 31
0.0
  0
LINE
  5
22B
100
AcDbEntity
  8
0
370
               0
390
0
  6
Continuous
 62
              30
100
AcDbLine
 10
7353.3161392991788
 20
418.82835580250463
 30
0.0
 11
7277.9879196172005
 21
418.82835580250463
 31
0.0
  0
LINE
  5
22C
100
AcDbEntity
  8
0
370
               0
390
0
  6
Continuous
 62
              30
100
AcDbLine
 10
7464.9162104909665
 20
406.82839108845434
 30
0.0
 11
7464.9162104909665
 21
411.82838632008276
 31
0.0
  0
LINE
  5
22D
100
AcDbEntity
  8
0
370
               0
390
0
  6
Continuous
 62
              30
100
AcDbLine
 10
7486.4971301143414
 20
411.82838632008276
 30
0.0
 11
7486.4971301143414
 21
418.82835580250463
 31
0.0
  0
LINE
  5
22E
100
AcDbEntity
  8
0
370
               0
390
0
  6
Continuous
 62
              30
100
AcDbLine
 10
7464.9162104909665
 20
411.82838632008276
 30
0.0
 11
7486.4971301143414
 21
411.82838632008276
 31
0.0
  0
LINE
  5
22F
100
AcDbEntity
  8
0
370
               0
390
0
  6
Continuous
 62
              30
100
AcDbLine
 10
7486.4971301143414
 20
418.82835580250463
 30
0.0
 11
7353.3161392991788
 21
418.82835580250463
 31
0.0
  0
LINE
  5
230
100
AcDbEntity
  8
0
370
               0
390
0
  6
Continuous
 62
              30
100
AcDbLine
 10
7499.7902473991162
 20
411.82838632008276
 30
0.0
 11
7499.7902473991162
 21
418.82835580250463
 31
0.0
  0
LINE
  5
231
100
AcDbEntity
  8
0
370
               0
390
0
  6
Continuous
 62
              30
100
AcDbLine
 10
7486.4971301143414
 20
411.82838632008276
 30
0.0
 11
7499.7902473991162
 21
411.82838632008276
 31
0.0
  0
LINE
  5
232
100
AcDbEntity
  8
0
370
               0
390
0
  6
Continuous
 62
              30
100
AcDbLine
 10
7499.7902473991162
 20
418.82835580250463
 30
0.0
 11
7486.4971301143414
 21
418.82835580250463
 31
0.0
  0
LINE
  5
233
100
AcDbEntity
  8
0
370
               0
390
0
  6
Continuous
 62
              30
100
AcDbLine
 10
7499.7902473991162
 20
411.82838632008276
 30
0.0
 11
7508.9161953513867
 21
411.82838632008276
 31
0.0
  0
LINE
  5
234
100
AcDbEntity
  8
0
370
               0
390
0
  6
Continuous
 62
              30
100
AcDbLine
 10
7508.9161953513867
 20
418.82835580250463
 30
0.0
 11
7499.7902473991162
 21
418.82835580250463
 31
0.0
  0
LINE
  5
235
100
AcDbEntity
  8
0
370
               0
390
0
  6
Continuous
 62
              30
100
AcDbLine
 10
7248.916206750775
 20
406.82839108845434
 30
0.0
 11
7248.916206750775
 21
418.82835580250463
 31
0.0
  0
LINE
  5
236
100
AcDbEntity
  8
0
370
               0
390
0
  6
Continuous
 62
              30
100
AcDbLine
 10
7277.9879196172005
 20
418.82835580250463
 30
0.0
 11
7248.916206750775
 21
418.82835580250463
 31
0.0
  0
LINE
  5
237
100
AcDbEntity
  8
0
370
               0
390
0
  6
Continuous
 62
              30
100
AcDbLine
 10
7257.9797467773205
 20
112.82836152455053
 30
0.0
 11
7268.9243926291711
 21
112.82836152455053
 31
0.0
  0
LINE
  5
238
100
AcDbEntity
  8
0
370
               0
390
0
  6
Continuous
 62
              30
100
AcDbLine
 10
7268.9243926291711
 20
14.828371538130853
 30
0.0
 11
7257.9797467773205
 21
14.828371538130853
 31
0.0
  0
LINE
  5
239
100
AcDbEntity
  8
0
370
               0
390
0
  6
Continuous
 62
              30
100
AcDbLine
 10
7486.4971301143414
 20
-44.171613918335822
 30
0.0
 11
7486.4971301143414
 21
-45.171630846054939
 31
0.0
  0
LINE
  5
23A
100
AcDbEntity
  8
0
370
               0
390
0
  6
Continuous
 62
              30
100
AcDbLine
 10
7495.851542670036
 20
-45.171630846054939
 30
0.0
 11
7495.851542670036
 21
-44.171613918335822
 31
0.0
  0
LINE
  5
23B
100
AcDbEntity
  8
0
370
               0
390
0
  6
Continuous
 62
              30
100
AcDbLine
 10
7486.4971301143414
 20
411.82838632008276
 30
0.0
 11
7486.4971301143414
 21
410.82839919468603
 31
0.0
  0
LINE
  5
23C
100
AcDbEntity
  8
0
370
               0
390
0
  6
Continuous
 62
              30
100
AcDbLine
 10
7495.851542670036
 20
410.82839919468603
 30
0.0
 11
7495.851542670036
 21
411.82838632008276
 31
0.0
  0
LINE
  5
23D
100
AcDbEntity
  8
0
370
               0
390
0
  6
Continuous
 62
              30
100
AcDbLine
 10
6383.4857900232464
 20
-24.796617494614509
 30
0.0
 11
6383.4857900232464
 21
-44.171613918335822
 31
0.0
  0
LINE
  5
23E
100
AcDbEntity
  8
0
370
               0
390
0
  6
Continuous
 62
              30
100
AcDbLine
 10
6383.4857900232464
 20
410.82839919468603
 30
0.0
 11
6383.4857900232464
 21
15.203344358412835
 31
0.0
  0
LINE
  5
23F
100
AcDbEntity
  8
0
370
               0
390
0
  6
Continuous
 62
              30
100
AcDbLine
 10
6381.4859945863873
 20
-45.171630846054939
 30
0.0
 11
6381.4859945863873
 21
-52.171630130799201
 31
0.0
  0
LINE
  5
240
100
AcDbEntity
  8
0
370
               0
390
0
  6
Continuous
 62
              30
100
AcDbLine
 10
6385.4859728902966
 20
-44.171613918335822
 30
0.0
 11
6385.4859728902966
 21
-45.171630846054939
 31
0.0
  0
LINE
  5
241
100
AcDbEntity
  8
0
370
               0
390
0
  6
Continuous
 62
              30
100
AcDbLine
 10
6381.4859945863873
 20
418.82835580250463
 30
0.0
 11
6381.4859945863873
 21
411.82838632008276
 31
0.0
  0
LINE
  5
242
100
AcDbEntity
  8
0
370
               0
390
0
  6
Continuous
 62
              30
100
AcDbLine
 10
6385.4859728902966
 20
411.82838632008276
 30
0.0
 11
6385.4859728902966
 21
410.82839919468603
 31
0.0
  0
CIRCLE
  5
243
100
AcDbEntity
  8
0
370
               0
390
0
  6
Continuous
 62
              30
100
AcDbCircle
 10
6412.4859833863848
 20
370.8283717584755
 30
0.0
 40
3.0
  0
CIRCLE
  5
244
100
AcDbEntity
  8
0
370
               0
390
0
  6
Continuous
 62
              30
100
AcDbCircle
 10
6412.4859833863848
 20
183.32837175847538
 30
0.0
 40
3.0
  0
CIRCLE
  5
245
100
AcDbEntity
  8
0
370
               0
390
0
  6
Continuous
 62
              30
100
AcDbCircle
 10
6412.4859833863839
 20
-4.1716282415246155
 30
0.0
 40
3.0
  0
LINE
  5
246
100
AcDbEntity
  8
0
370
               0
390
0
  6
Continuous
 62
              30
100
AcDbLine
 10
6403.9847512334973
 20
-44.171613918335822
 30
0.0
 11
6403.9847512334973
 21
410.82839919468603
 31
0.0
  0
LINE
  5
247
100
AcDbEntity
  8
0
370
               0
390
0
  6
Continuous
 62
              30
100
AcDbLine
 10
6424.4859774202496
 20
410.82839919468603
 30
0.0
 11
6403.9847512334973
 21
410.82839919468603
 31
0.0
  0
LINE
  5
248
100
AcDbEntity
  8
0
370
               0
390
0
  6
Continuous
 62
              30
100
AcDbLine
 10
6403.9847512334973
 20
-44.171613918335822
 30
0.0
 11
6424.4859774202496
 21
-44.171613918335822
 31
0.0
  0
LINE
  5
249
100
AcDbEntity
  8
0
370
               0
390
0
  6
Continuous
 62
              30
100
AcDbLine
 10
6424.4859774202496
 20
-44.171613918335822
 30
0.0
 11
6424.4859774202496
 21
410.82839919468603
 31
0.0
  0
LINE
  5
24A
100
AcDbEntity
  8
0
370
               0
390
0
  6
Continuous
 62
              30
100
AcDbLine
 10
6392.6625807375103
 20
-44.171613918335822
 30
0.0
 11
6392.6625807375103
 21
410.82839919468603
 31
0.0
  0
LINE
  5
24B
100
AcDbEntity
  8
0
370
               0
390
0
  6
Continuous
 62
              30
100
AcDbLine
 10
6392.6625807375103
 20
-44.171613918335822
 30
0.0
 11
6403.9847512334973
 21
-44.171613918335822
 31
0.0
  0
LINE
  5
24C
100
AcDbEntity
  8
0
370
               0
390
0
  6
Continuous
 62
              30
100
AcDbLine
 10
6403.9847512334973
 20
410.82839919468603
 30
0.0
 11
6392.6625807375103
 21
410.82839919468603
 31
0.0
  0
LINE
  5
24D
100
AcDbEntity
  8
0
370
               0
390
0
  6
Continuous
 62
              30
100
AcDbLine
 10
6383.8400204271466
 20
15.203344358412835
 30
0.0
 11
6383.8400204271466
 21
-24.796617494614509
 31
0.0
  0
LINE
  5
24E
100
AcDbEntity
  8
0
370
               0
390
0
  6
Continuous
 62
              30
100
AcDbLine
 10
6383.4857900232464
 20
15.203344358412835
 30
0.0
 11
6383.8400204271466
 21
15.203344358412835
 31
0.0
  0
LINE
  5
24F
100
AcDbEntity
  8
0
370
               0
390
0
  6
Continuous
 62
              30
100
AcDbLine
 10
6383.8095028490216
 20
-24.796617494614509
 30
0.0
 11
6383.8095028490216
 21
15.203344358412835
 31
0.0
  0
LINE
  5
250
100
AcDbEntity
  8
0
370
               0
390
0
  6
Continuous
 62
              30
100
AcDbLine
 10
6383.8400204271466
 20
-24.796617494614509
 30
0.0
 11
6383.4857900232464
 21
-24.796617494614509
 31
0.0
  0
LINE
  5
251
100
AcDbEntity
  8
0
370
               0
390
0
  6
Continuous
 62
              30
100
AcDbLine
 10
6383.4857900232464
 20
-44.171613918335822
 30
0.0
 11
6392.6625807375103
 21
-44.171613918335822
 31
0.0
  0
LINE
  5
252
100
AcDbEntity
  8
0
370
               0
390
0
  6
Continuous
 62
              30
100
AcDbLine
 10
6392.6625807375103
 20
410.82839919468603
 30
0.0
 11
6383.4857900232464
 21
410.82839919468603
 31
0.0
  0
LINE
  5
253
100
AcDbEntity
  8
0
370
               0
390
0
  6
Continuous
 62
              30
100
AcDbLine
 10
6560.962114164272
 20
406.82839108845434
 30
0.0
 11
6560.962114164272
 21
-40.171635614426521
 31
0.0
  0
LINE
  5
254
100
AcDbEntity
  8
0
370
               0
390
0
  6
Continuous
 62
              30
100
AcDbLine
 10
6641.485983186999
 20
406.82839108845434
 30
0.0
 11
6560.962114164272
 21
406.82839108845434
 31
0.0
  0
LINE
  5
255
100
AcDbEntity
  8
0
370
               0
390
0
  6
Continuous
 62
              30
100
AcDbLine
 10
6641.485983186999
 20
-40.171635614426521
 30
0.0
 11
6641.485983186999
 21
406.82839108845434
 31
0.0
  0
LINE
  5
256
100
AcDbEntity
  8
0
370
               0
390
0
  6
Continuous
 62
              30
100
AcDbLine
 10
6560.962114164272
 20
-40.171635614426521
 30
0.0
 11
6641.485983186999
 21
-40.171635614426521
 31
0.0
  0
CIRCLE
  5
257
100
AcDbEntity
  8
0
370
               0
390
0
  6
Continuous
 62
              30
100
AcDbCircle
 10
6492.4859833863848
 20
223.32837175847664
 30
0.0
 40
7.000000000005457
  0
LINE
  5
258
100
AcDbEntity
  8
0
370
               0
390
0
  6
Continuous
 62
              30
100
AcDbLine
 10
6425.4859794468075
 20
-40.171635614426521
 30
0.0
 11
6560.962114164272
 21
-40.171635614426521
 31
0.0
  0
LINE
  5
259
100
AcDbEntity
  8
0
370
               0
390
0
  6
Continuous
 62
              30
100
AcDbLine
 10
6425.4859794468075
 20
406.82839108845434
 30
0.0
 11
6425.4859794468075
 21
-40.171635614426521
 31
0.0
  0
LINE
  5
25A
100
AcDbEntity
  8
0
370
               0
390
0
  6
Continuous
 62
              30
100
AcDbLine
 10
6425.4859794468075
 20
406.82839108845434
 30
0.0
 11
6560.962114164272
 21
406.82839108845434
 31
0.0
  0
CIRCLE
  5
25B
100
AcDbEntity
  8
0
370
               0
390
0
  6
Continuous
 62
              30
100
AcDbCircle
 10
6492.4859833863848
 20
183.32837175847538
 30
0.0
 40
7.2000000000480213
  0
CIRCLE
  5
25C
100
AcDbEntity
  8
0
370
               0
390
0
  6
Continuous
 62
              30
100
AcDbCircle
 10
6492.4859833863848
 20
143.32837175847948
 30
0.0
 40
7.0000000000418368
  0
CIRCLE
  5
25D
100
AcDbEntity
  8
0
370
               0
390
0
  6
Continuous
 62
              30
100
AcDbCircle
 10
6492.4859833863848
 20
143.32837175847948
 30
0.0
 40
4.0
  0
CIRCLE
  5
25E
100
AcDbEntity
  8
0
370
               0
390
0
  6
Continuous
 62
              30
100
AcDbCircle
 10
6492.4859833863848
 20
183.32837175847538
 30
0.0
 40
4.1999999999998181
  0
CIRCLE
  5
25F
100
AcDbEntity
  8
0
370
               0
390
0
  6
Continuous
 62
              30
100
AcDbCircle
 10
6492.4859833863848
 20
223.32837175847664
 30
0.0
 40
4.0
  0
LINE
  5
260
100
AcDbEntity
  8
0
370
               0
390
0
  6
Continuous
 62
              30
100
AcDbLine
 10
6424.4859774202496
 20
406.82839108845434
 30
0.0
 11
6425.4859794468075
 21
406.82839108845434
 31
0.0
  0
LINE
  5
261
100
AcDbEntity
  8
0
370
               0
390
0
  6
Continuous
 62
              30
100
AcDbLine
 10
6424.4859774202496
 20
-40.171635614426521
 30
0.0
 11
6425.4859794468075
 21
-40.171635614426521
 31
0.0
  0
CIRCLE
  5
262
100
AcDbEntity
  8
0
370
               0
390
0
  6
Continuous
 62
              30
100
AcDbCircle
 10
6412.4859833863839
 20
-4.1716282415246155
 30
0.0
 40
1.6500000000005457
  0
CIRCLE
  5
263
100
AcDbEntity
  8
0
370
               0
390
0
  6
Continuous
 62
              30
100
AcDbCircle
 10
6412.4859833863848
 20
183.3283717584755
 30
0.0
 40
1.6499999999996362
  0
CIRCLE
  5
264
100
AcDbEntity
  8
0
370
               0
390
0
  6
Continuous
 62
              30
100
AcDbCircle
 10
6412.4859833863848
 20
370.82837175847561
 30
0.0
 40
1.6499999999996362
  0
LINE
  5
265
100
AcDbEntity
  8
0
370
               0
390
0
  6
Continuous
 62
              30
100
AcDbLine
 10
6560.962114164272
 20
-52.171630130799201
 30
0.0
 11
6560.962114164272
 21
-40.171635614426521
 31
0.0
  0
LINE
  5
266
100
AcDbEntity
  8
0
370
               0
390
0
  6
Continuous
 62
              30
100
AcDbLine
 10
6641.485983186999
 20
-40.171635614426521
 30
0.0
 11
6641.485983186999
 21
-52.171630130799201
 31
0.0
  0
LINE
  5
267
100
AcDbEntity
  8
0
370
               0
390
0
  6
Continuous
 62
              30
100
AcDbLine
 10
6560.962114164272
 20
-52.171630130799201
 30
0.0
 11
6641.485983186999
 21
-52.171630130799201
 31
0.0
  0
LINE
  5
268
100
AcDbEntity
  8
0
370
               0
390
0
  6
Continuous
 62
              30
100
AcDbLine
 10
6403.9050598234326
 20
-45.171630846054939
 30
0.0
 11
6403.9050598234326
 21
-52.171630130799201
 31
0.0
  0
LINE
  5
269
100
AcDbEntity
  8
0
370
               0
390
0
  6
Continuous
 62
              30
100
AcDbLine
 10
6425.4859794468075
 20
-45.171630846054939
 30
0.0
 11
6403.9050598234326
 21
-45.171630846054939
 31
0.0
  0
LINE
  5
26A
100
AcDbEntity
  8
0
370
               0
390
0
  6
Continuous
 62
              30
100
AcDbLine
 10
6425.4859794468075
 20
-40.171635614426521
 30
0.0
 11
6425.4859794468075
 21
-45.171630846054939
 31
0.0
  0
LINE
  5
26B
100
AcDbEntity
  8
0
370
               0
390
0
  6
Continuous
 62
              30
100
AcDbLine
 10
6403.9050598234326
 20
-52.171630130799201
 30
0.0
 11
6560.962114164272
 21
-52.171630130799201
 31
0.0
  0
LINE
  5
26C
100
AcDbEntity
  8
0
370
               0
390
0
  6
Continuous
 62
              30
100
AcDbLine
 10
6390.6119425386578
 20
-45.171630846054939
 30
0.0
 11
6390.6119425386578
 21
-52.171630130799201
 31
0.0
  0
LINE
  5
26D
100
AcDbEntity
  8
0
370
               0
390
0
  6
Continuous
 62
              30
100
AcDbLine
 10
6403.9050598234326
 20
-45.171630846054939
 30
0.0
 11
6390.6119425386578
 21
-45.171630846054939
 31
0.0
  0
LINE
  5
26E
100
AcDbEntity
  8
0
370
               0
390
0
  6
Continuous
 62
              30
100
AcDbLine
 10
6390.6119425386578
 20
-52.171630130799201
 30
0.0
 11
6403.9050598234326
 21
-52.171630130799201
 31
0.0
  0
LINE
  5
26F
100
AcDbEntity
  8
0
370
               0
390
0
  6
Continuous
 62
              30
100
AcDbLine
 10
6390.6119425386578
 20
-45.171630846054939
 30
0.0
 11
6381.4859945863873
 21
-45.171630846054939
 31
0.0
  0
LINE
  5
270
100
AcDbEntity
  8
0
370
               0
390
0
  6
Continuous
 62
              30
100
AcDbLine
 10
6381.4859945863873
 20
-52.171630130799201
 30
0.0
 11
6390.6119425386578
 21
-52.171630130799201
 31
0.0
  0
LINE
  5
271
100
AcDbEntity
  8
0
370
               0
390
0
  6
Continuous
 62
              30
100
AcDbLine
 10
6403.9050598234326
 20
418.82835580250463
 30
0.0
 11
6403.9050598234326
 21
411.82838632008276
 31
0.0
  0
LINE
  5
272
100
AcDbEntity
  8
0
370
               0
390
0
  6
Continuous
 62
              30
100
AcDbLine
 10
6560.962114164272
 20
418.82835580250463
 30
0.0
 11
6403.9050598234326
 21
418.82835580250463
 31
0.0
  0
LINE
  5
273
100
AcDbEntity
  8
0
370
               0
390
0
  6
Continuous
 62
              30
100
AcDbLine
 10
6560.962114164272
 20
406.82839108845434
 30
0.0
 11
6560.962114164272
 21
418.82835580250463
 31
0.0
  0
LINE
  5
274
100
AcDbEntity
  8
0
370
               0
390
0
  6
Continuous
 62
              30
100
AcDbLine
 10
6425.4859794468075
 20
411.82838632008276
 30
0.0
 11
6425.4859794468075
 21
406.82839108845434
 31
0.0
  0
LINE
  5
275
100
AcDbEntity
  8
0
370
               0
390
0
  6
Continuous
 62
              30
100
AcDbLine
 10
6403.9050598234326
 20
411.82838632008276
 30
0.0
 11
6425.4859794468075
 21
411.82838632008276
 31
0.0
  0
LINE
  5
276
100
AcDbEntity
  8
0
370
               0
390
0
  6
Continuous
 62
              30
100
AcDbLine
 10
6641.485983186999
 20
406.82839108845434
 30
0.0
 11
6641.485983186999
 21
418.82835580250463
 31
0.0
  0
LINE
  5
277
100
AcDbEntity
  8
0
370
               0
390
0
  6
Continuous
 62
              30
100
AcDbLine
 10
6641.485983186999
 20
418.82835580250463
 30
0.0
 11
6560.962114164272
 21
418.82835580250463
 31
0.0
  0
LINE
  5
278
100
AcDbEntity
  8
0
370
               0
390
0
  6
Continuous
 62
              30
100
AcDbLine
 10
6390.6119425386578
 20
411.82838632008276
 30
0.0
 11
6390.6119425386578
 21
418.82835580250463
 31
0.0
  0
LINE
  5
279
100
AcDbEntity
  8
0
370
               0
390
0
  6
Continuous
 62
              30
100
AcDbLine
 10
6390.6119425386578
 20
411.82838632008276
 30
0.0
 11
6403.9050598234326
 21
411.82838632008276
 31
0.0
  0
LINE
  5
27A
100
AcDbEntity
  8
0
370
               0
390
0
  6
Continuous
 62
              30
100
AcDbLine
 10
6403.9050598234326
 20
418.82835580250463
 30
0.0
 11
6390.6119425386578
 21
418.82835580250463
 31
0.0
  0
LINE
  5
27B
100
AcDbEntity
  8
0
370
               0
390
0
  6
Continuous
 62
              30
100
AcDbLine
 10
6381.4859945863873
 20
411.82838632008276
 30
0.0
 11
6390.6119425386578
 21
411.82838632008276
 31
0.0
  0
LINE
  5
27C
100
AcDbEntity
  8
0
370
               0
390
0
  6
Continuous
 62
              30
100
AcDbLine
 10
6390.6119425386578
 20
418.82835580250463
 30
0.0
 11
6381.4859945863873
 21
418.82835580250463
 31
0.0
  0
LINE
  5
27D
100
AcDbEntity
  8
0
370
               0
390
0
  6
Continuous
 62
              30
100
AcDbLine
 10
6403.9050598234326
 20
-45.171630846054939
 30
0.0
 11
6403.9050598234326
 21
-44.171613918335822
 31
0.0
  0
LINE
  5
27E
100
AcDbEntity
  8
0
370
               0
390
0
  6
Continuous
 62
              30
100
AcDbLine
 10
6394.550647267738
 20
-44.171613918335822
 30
0.0
 11
6394.550647267738
 21
-45.171630846054939
 31
0.0
  0
LINE
  5
27F
100
AcDbEntity
  8
0
370
               0
390
0
  6
Continuous
 62
              30
100
AcDbLine
 10
6403.9050598234326
 20
410.82839919468603
 30
0.0
 11
6403.9050598234326
 21
411.82838632008276
 31
0.0
  0
LINE
  5
280
100
AcDbEntity
  8
0
370
               0
390
0
  6
Continuous
 62
              30
100
AcDbLine
 10
6394.550647267738
 20
411.82838632008276
 30
0.0
 11
6394.550647267738
 21
410.82839919468603
 31
0.0
  0
LINE
  5
281
100
AcDbEntity
  8
0
370
               0
390
0
  6
Continuous
 62
              30
100
AcDbLine
 10
7828.4813065290618
 20
68.078386320082757
 30
0.0
 11
7829.1653294325042
 21
68.078386320082757
 31
0.0
  0
LINE
  5
282
100
AcDbEntity
  8
0
370
               0
390
0
  6
Continuous
 62
              30
100
AcDbLine
 10
7829.1653294325042
 20
91.578351987807366
 30
0.0
 11
7828.4813065290618
 21
91.578351987807366
 31
0.0
  0
LINE
  5
283
100
AcDbEntity
  8
0
370
               0
390
0
  6
Continuous
 62
              30
100
AcDbLine
 10
7822.8617210149932
 20
73.828386796919915
 30
0.0
 11
7829.1653294325042
 21
73.828386796919915
 31
0.0
  0
LINE
  5
284
100
AcDbEntity
  8
0
370
               0
390
0
  6
Continuous
 62
              30
100
AcDbLine
 10
7829.1653294325042
 20
85.828351510970208
 30
0.0
 11
7822.8617210149932
 21
85.828351510970208
 31
0.0
  0
LINE
  5
285
100
AcDbEntity
  8
0
370
               0
390
0
  6
Continuous
 62
              30
100
AcDbLine
 10
7828.4813065290618
 20
14.578389657942864
 30
0.0
 11
7829.1653294325042
 21
14.578389657942864
 31
0.0
  0
LINE
  5
286
100
AcDbEntity
  8
0
370
               0
390
0
  6
Continuous
 62
              30
100
AcDbLine
 10
7829.1653294325042
 20
38.078355325667474
 30
0.0
 11
7828.4813065290618
 21
38.078355325667474
 31
0.0
  0
LINE
  5
287
100
AcDbEntity
  8
0
370
               0
390
0
  6
Continuous
 62
              30
100
AcDbLine
 10
7822.8617210149932
 20
20.328390134780022
 30
0.0
 11
7829.1653294325042
 21
20.328390134780022
 31
0.0
  0
LINE
  5
288
100
AcDbEntity
  8
0
370
               0
390
0
  6
Continuous
 62
              30
100
AcDbLine
 10
7829.1653294325042
 20
32.328354848830315
 30
0.0
 11
7822.8617210149932
 21
32.328354848830315
 31
0.0
  0
LINE
  5
289
100
AcDbEntity
  8
0
370
               0
390
0
  6
Continuous
 62
              30
100
AcDbLine
 10
7828.9943237066436
 20
61.78836776158056
 30
0.0
 11
7828.9943237066436
 21
42.288350595442864
 31
0.0
  0
LINE
  5
28A
100
AcDbEntity
  8
0
370
               0
390
0
  6
Continuous
 62
              30
100
AcDbLine
 10
7818.5765046835113
 20
61.78836776158056
 30
0.0
 11
7828.9943237066436
 21
61.78836776158056
 31
0.0
  0
LINE
  5
28B
100
AcDbEntity
  8
0
370
               0
390
0
  6
Continuous
 62
              30
100
AcDbLine
 10
7828.9943237066436
 20
42.288350595442864
 30
0.0
 11
7818.5765046835113
 21
42.288350595442864
 31
0.0
  0
POLYLINE
  5
28C
100
AcDbEntity
  8
0
370
               0
390
0
  6
Continuous
 62
              30
100
AcDb2dPolyline
 66
               1
 10
0.0
 20
0.0
 30
0.0
 75
               5
  0
VERTEX
  5
28D
100
AcDbEntity
  8
0
370
               0
390
0
  6
Continuous
 62
              30
100
AcDbVertex
100
AcDb2dVertex
 10
7840.2706284284759
 20
79.828369153945061
 30
0.0
  0
VERTEX
  5
28E
100
AcDbEntity
  8
0
370
               0
390
0
  6
Continuous
 62
              30
100
AcDbVertex
100
AcDb2dVertex
 10
7840.0993246793914
 20
77.744590772597405
 30
0.0
  0
VERTEX
  5
28F
100
AcDbEntity
  8
0
370
               0
390
0
  6
Continuous
 62
              30
100
AcDbVertex
100
AcDb2dVertex
 10
7839.5905990362335
 20
75.724112524001214
 30
0.0
  0
VERTEX
  5
290
100
AcDbEntity
  8
0
370
               0
390
0
  6
Continuous
 62
              30
100
AcDbVertex
100
AcDb2dVertex
 10
7838.7598891019989
 20
73.828386796919915
 30
0.0
  0
VERTEX
  5
291
100
AcDbEntity
  8
0
370
               0
390
0
  6
Continuous
 62
              30
100
AcDbVertex
100
AcDb2dVertex
 10
7837.6324672460723
 20
72.114932073561761
 30
0.0
  0
VERTEX
  5
292
100
AcDbEntity
  8
0
370
               0
390
0
  6
Continuous
 62
              30
100
AcDbVertex
100
AcDb2dVertex
 10
7836.2426061391998
 20
70.635842813460442
 30
0.0
  0
VERTEX
  5
293
100
AcDbEntity
  8
0
370
               0
390
0
  6
Continuous
 62
              30
100
AcDbVertex
100
AcDb2dVertex
 10
7834.6325058698822
 20
69.436060918776604
 30
0.0
  0
VERTEX
  5
294
100
AcDbEntity
  8
0
370
               0
390
0
  6
Continuous
 62
              30
100
AcDbVertex
100
AcDb2dVertex
 10
7832.8510422468353
 20
68.552064432112786
 30
0.0
  0
VERTEX
  5
295
100
AcDbEntity
  8
0
370
               0
390
0
  6
Continuous
 62
              30
100
AcDbVertex
100
AcDb2dVertex
 10
7830.9524554968048
 20
68.010675443617913
 30
0.0
  0
VERTEX
  5
296
100
AcDbEntity
  8
0
370
               0
390
0
  6
Continuous
 62
              30
100
AcDbVertex
100
AcDb2dVertex
 10
7828.9943237066436
 20
67.828344835249993
 30
0.0
  0
VERTEX
  5
297
100
AcDbEntity
  8
0
370
               0
390
0
  6
Continuous
 62
              30
100
AcDbVertex
100
AcDb2dVertex
 10
7827.0362515211273
 20
68.010675443617913
 30
0.0
  0
VERTEX
  5
298
100
AcDbEntity
  8
0
370
               0
390
0
  6
Continuous
 62
              30
100
AcDbVertex
100
AcDb2dVertex
 10
7825.137605166452
 20
68.552064432112786
 30
0.0
  0
VERTEX
  5
299
100
AcDbEntity
  8
0
370
               0
390
0
  6
Continuous
 62
              30
100
AcDbVertex
100
AcDb2dVertex
 10
7823.3562011480499
 20
69.436060918776604
 30
0.0
  0
VERTEX
  5
29A
100
AcDbEntity
  8
0
370
               0
390
0
  6
Continuous
 62
              30
100
AcDbVertex
100
AcDb2dVertex
 10
7821.7460412740875
 20
70.635842813460442
 30
0.0
  0
VERTEX
  5
29B
100
AcDbEntity
  8
0
370
               0
390
0
  6
Continuous
 62
              30
100
AcDbVertex
100
AcDb2dVertex
 10
7820.3561801672149
 20
72.114932073561761
 30
0.0
  0
VERTEX
  5
29C
100
AcDbEntity
  8
0
370
               0
390
0
  6
Continuous
 62
              30
100
AcDbVertex
100
AcDb2dVertex
 10
7819.2287583112884
 20
73.828386796919915
 30
0.0
  0
VERTEX
  5
29D
100
AcDbEntity
  8
0
370
               0
390
0
  6
Continuous
 62
              30
100
AcDbVertex
100
AcDb2dVertex
 10
7818.5765046835113
 20
75.235771669356438
 30
0.0
  0
SEQEND
  5
29E
100
AcDbEntity
  8
0
370
               0
390
0
  6
Continuous
 62
              30
  0
POLYLINE
  5
2A0
100
AcDbEntity
  8
0
370
               0
390
0
  6
Continuous
 62
              30
100
AcDb2dPolyline
 66
               1
 10
0.0
 20
0.0
 30
0.0
 75
               5
  0
VERTEX
  5
2A1
100
AcDbEntity
  8
0
370
               0
390
0
  6
Continuous
 62
              30
100
AcDbVertex
100
AcDb2dVertex
 10
7818.5765046835113
 20
84.420907033888909
 30
0.0
  0
VERTEX
  5
2A2
100
AcDbEntity
  8
0
370
               0
390
0
  6
Continuous
 62
              30
100
AcDbVertex
100
AcDb2dVertex
 10
7819.2287583112884
 20
85.828351510970208
 30
0.0
  0
VERTEX
  5
2A3
100
AcDbEntity
  8
0
370
               0
390
0
  6
Continuous
 62
              30
100
AcDbVertex
100
AcDb2dVertex
 10
7820.3561801672149
 20
87.541806234328362
 30
0.0
  0
VERTEX
  5
2A4
100
AcDbEntity
  8
0
370
               0
390
0
  6
Continuous
 62
              30
100
AcDbVertex
100
AcDb2dVertex
 10
7821.7460412740875
 20
89.020895494429681
 30
0.0
  0
VERTEX
  5
2A5
100
AcDbEntity
  8
0
370
               0
390
0
  6
Continuous
 62
              30
100
AcDbVertex
100
AcDb2dVertex
 10
7823.3562011480499
 20
90.220677389113519
 30
0.0
  0
VERTEX
  5
2A6
100
AcDbEntity
  8
0
370
               0
390
0
  6
Continuous
 62
              30
100
AcDbVertex
100
AcDb2dVertex
 10
7825.137605166452
 20
91.104673875777337
 30
0.0
  0
VERTEX
  5
2A7
100
AcDbEntity
  8
0
370
               0
390
0
  6
Continuous
 62
              30
100
AcDbVertex
100
AcDb2dVertex
 10
7827.0362515211273
 20
91.64606286427221
 30
0.0
  0
VERTEX
  5
2A8
100
AcDbEntity
  8
0
370
               0
390
0
  6
Continuous
 62
              30
100
AcDbVertex
100
AcDb2dVertex
 10
7828.9943237066436
 20
91.828333867995354
 30
0.0
  0
VERTEX
  5
2A9
100
AcDbEntity
  8
0
370
               0
390
0
  6
Continuous
 62
              30
100
AcDbVertex
100
AcDb2dVertex
 10
7830.9524554968048
 20
91.64606286427221
 30
0.0
  0
VERTEX
  5
2AA
100
AcDbEntity
  8
0
370
               0
390
0
  6
Continuous
 62
              30
100
AcDbVertex
100
AcDb2dVertex
 10
7832.8510422468353
 20
91.104673875777337
 30
0.0
  0
VERTEX
  5
2AB
100
AcDbEntity
  8
0
370
               0
390
0
  6
Continuous
 62
              30
100
AcDbVertex
100
AcDb2dVertex
 10
7834.6325058698822
 20
90.220677389113519
 30
0.0
  0
VERTEX
  5
2AC
100
AcDbEntity
  8
0
370
               0
390
0
  6
Continuous
 62
              30
100
AcDbVertex
100
AcDb2dVertex
 10
7836.2426061391998
 20
89.020895494429681
 30
0.0
  0
VERTEX
  5
2AD
100
AcDbEntity
  8
0
370
               0
390
0
  6
Continuous
 62
              30
100
AcDbVertex
100
AcDb2dVertex
 10
7837.6324672460723
 20
87.541806234328362
 30
0.0
  0
VERTEX
  5
2AE
100
AcDbEntity
  8
0
370
               0
390
0
  6
Continuous
 62
              30
100
AcDbVertex
100
AcDb2dVertex
 10
7838.7598891019989
 20
85.828351510970208
 30
0.0
  0
VERTEX
  5
2AF
100
AcDbEntity
  8
0
370
               0
390
0
  6
Continuous
 62
              30
100
AcDbVertex
100
AcDb2dVertex
 10
7839.5905990362335
 20
83.932625783888909
 30
0.0
  0
VERTEX
  5
2B0
100
AcDbEntity
  8
0
370
               0
390
0
  6
Continuous
 62
              30
100
AcDbVertex
100
AcDb2dVertex
 10
7840.0993246793914
 20
81.912147535292718
 30
0.0
  0
VERTEX
  5
2B1
100
AcDbEntity
  8
0
370
               0
390
0
  6
Continuous
 62
              30
100
AcDbVertex
100
AcDb2dVertex
 10
7840.2706284284759
 20
79.828369153945061
 30
0.0
  0
SEQEND
  5
2B2
100
AcDbEntity
  8
0
370
               0
390
0
  6
Continuous
 62
              30
  0
POLYLINE
  5
2B4
100
AcDbEntity
  8
0
370
               0
390
0
  6
Continuous
 62
              30
100
AcDb2dPolyline
 66
               1
 10
0.0
 20
0.0
 30
0.0
 75
               5
  0
VERTEX
  5
2B5
100
AcDbEntity
  8
0
370
               0
390
0
  6
Continuous
 62
              30
100
AcDbVertex
100
AcDb2dVertex
 10
7840.2119178533721
 20
26.328372491805169
 30
0.0
  0
VERTEX
  5
2B6
100
AcDbEntity
  8
0
370
               0
390
0
  6
Continuous
 62
              30
100
AcDbVertex
100
AcDb2dVertex
 10
7840.0406141042877
 20
24.244594110457513
 30
0.0
  0
VERTEX
  5
2B7
100
AcDbEntity
  8
0
370
               0
390
0
  6
Continuous
 62
              30
100
AcDbVertex
100
AcDb2dVertex
 10
7839.5318884611297
 20
22.224115861861321
 30
0.0
  0
VERTEX
  5
2B8
100
AcDbEntity
  8
0
370
               0
390
0
  6
Continuous
 62
              30
100
AcDbVertex
100
AcDb2dVertex
 10
7838.7011785268951
 20
20.328390134780022
 30
0.0
  0
VERTEX
  5
2B9
100
AcDbEntity
  8
0
370
               0
390
0
  6
Continuous
 62
              30
100
AcDbVertex
100
AcDb2dVertex
 10
7837.5737566709686
 20
18.614935411421868
 30
0.0
  0
VERTEX
  5
2BA
100
AcDbEntity
  8
0
370
               0
390
0
  6
Continuous
 62
              30
100
AcDbVertex
100
AcDb2dVertex
 10
7836.183895564096
 20
17.13584615132055
 30
0.0
  0
VERTEX
  5
2BB
100
AcDbEntity
  8
0
370
               0
390
0
  6
Continuous
 62
              30
100
AcDbVertex
100
AcDb2dVertex
 10
7834.5737356901336
 20
15.936064256636712
 30
0.0
  0
VERTEX
  5
2BC
100
AcDbEntity
  8
0
370
               0
390
0
  6
Continuous
 62
              30
100
AcDbVertex
100
AcDb2dVertex
 10
7832.7923316717315
 20
15.052067769972894
 30
0.0
  0
VERTEX
  5
2BD
100
AcDbEntity
  8
0
370
               0
390
0
  6
Continuous
 62
              30
100
AcDbVertex
100
AcDb2dVertex
 10
7830.893744921701
 20
14.51067878147802
 30
0.0
  0
VERTEX
  5
2BE
100
AcDbEntity
  8
0
370
               0
390
0
  6
Continuous
 62
              30
100
AcDbVertex
100
AcDb2dVertex
 10
7828.9356131315399
 20
14.328407777754876
 30
0.0
  0
VERTEX
  5
2BF
100
AcDbEntity
  8
0
370
               0
390
0
  6
Continuous
 62
              30
100
AcDbVertex
100
AcDb2dVertex
 10
7826.9774813413787
 20
14.51067878147802
 30
0.0
  0
VERTEX
  5
2C0
100
AcDbEntity
  8
0
370
               0
390
0
  6
Continuous
 62
              30
100
AcDbVertex
100
AcDb2dVertex
 10
7825.0788945913482
 20
15.052067769972894
 30
0.0
  0
VERTEX
  5
2C1
100
AcDbEntity
  8
0
370
               0
390
0
  6
Continuous
 62
              30
100
AcDbVertex
100
AcDb2dVertex
 10
7823.2974309683013
 20
15.936064256636712
 30
0.0
  0
VERTEX
  5
2C2
100
AcDbEntity
  8
0
370
               0
390
0
  6
Continuous
 62
              30
100
AcDbVertex
100
AcDb2dVertex
 10
7821.6873306989837
 20
17.13584615132055
 30
0.0
  0
VERTEX
  5
2C3
100
AcDbEntity
  8
0
370
               0
390
0
  6
Continuous
 62
              30
100
AcDbVertex
100
AcDb2dVertex
 10
7820.2974695921112
 20
18.614935411421868
 30
0.0
  0
VERTEX
  5
2C4
100
AcDbEntity
  8
0
370
               0
390
0
  6
Continuous
 62
              30
100
AcDbVertex
100
AcDb2dVertex
 10
7819.1700477361846
 20
20.328390134780022
 30
0.0
  0
VERTEX
  5
2C5
100
AcDbEntity
  8
0
370
               0
390
0
  6
Continuous
 62
              30
100
AcDbVertex
100
AcDb2dVertex
 10
7818.5765046835113
 20
21.587776674239251
 30
0.0
  0
SEQEND
  5
2C6
100
AcDbEntity
  8
0
370
               0
390
0
  6
Continuous
 62
              30
  0
POLYLINE
  5
2C8
100
AcDbEntity
  8
0
370
               0
390
0
  6
Continuous
 62
              30
100
AcDb2dPolyline
 66
               1
 10
0.0
 20
0.0
 30
0.0
 75
               5
  0
VERTEX
  5
2C9
100
AcDbEntity
  8
0
370
               0
390
0
  6
Continuous
 62
              30
100
AcDbVertex
100
AcDb2dVertex
 10
7818.5765046835113
 20
31.069027914015862
 30
0.0
  0
VERTEX
  5
2CA
100
AcDbEntity
  8
0
370
               0
390
0
  6
Continuous
 62
              30
100
AcDbVertex
100
AcDb2dVertex
 10
7819.1700477361846
 20
32.328354848830315
 30
0.0
  0
VERTEX
  5
2CB
100
AcDbEntity
  8
0
370
               0
390
0
  6
Continuous
 62
              30
100
AcDbVertex
100
AcDb2dVertex
 10
7820.2974695921112
 20
34.04180957218847
 30
0.0
  0
VERTEX
  5
2CC
100
AcDbEntity
  8
0
370
               0
390
0
  6
Continuous
 62
              30
100
AcDbVertex
100
AcDb2dVertex
 10
7821.6873306989837
 20
35.520898832289788
 30
0.0
  0
VERTEX
  5
2CD
100
AcDbEntity
  8
0
370
               0
390
0
  6
Continuous
 62
              30
100
AcDbVertex
100
AcDb2dVertex
 10
7823.2974309683013
 20
36.720680726973626
 30
0.0
  0
VERTEX
  5
2CE
100
AcDbEntity
  8
0
370
               0
390
0
  6
Continuous
 62
              30
100
AcDbVertex
100
AcDb2dVertex
 10
7825.0788945913482
 20
37.604677213637444
 30
0.0
  0
VERTEX
  5
2CF
100
AcDbEntity
  8
0
370
               0
390
0
  6
Continuous
 62
              30
100
AcDbVertex
100
AcDb2dVertex
 10
7826.9774813413787
 20
38.146066202132317
 30
0.0
  0
VERTEX
  5
2D0
100
AcDbEntity
  8
0
370
               0
390
0
  6
Continuous
 62
              30
100
AcDbVertex
100
AcDb2dVertex
 10
7828.9356131315399
 20
38.328396810500237
 30
0.0
  0
VERTEX
  5
2D1
100
AcDbEntity
  8
0
370
               0
390
0
  6
Continuous
 62
              30
100
AcDbVertex
100
AcDb2dVertex
 10
7830.893744921701
 20
38.146066202132317
 30
0.0
  0
VERTEX
  5
2D2
100
AcDbEntity
  8
0
370
               0
390
0
  6
Continuous
 62
              30
100
AcDbVertex
100
AcDb2dVertex
 10
7832.7923316717315
 20
37.604677213637444
 30
0.0
  0
VERTEX
  5
2D3
100
AcDbEntity
  8
0
370
               0
390
0
  6
Continuous
 62
              30
100
AcDbVertex
100
AcDb2dVertex
 10
7834.5737356901336
 20
36.720680726973626
 30
0.0
  0
VERTEX
  5
2D4
100
AcDbEntity
  8
0
370
               0
390
0
  6
Continuous
 62
              30
100
AcDbVertex
100
AcDb2dVertex
 10
7836.183895564096
 20
35.520898832289788
 30
0.0
  0
VERTEX
  5
2D5
100
AcDbEntity
  8
0
370
               0
390
0
  6
Continuous
 62
              30
100
AcDbVertex
100
AcDb2dVertex
 10
7837.5737566709686
 20
34.04180957218847
 30
0.0
  0
VERTEX
  5
2D6
100
AcDbEntity
  8
0
370
               0
390
0
  6
Continuous
 62
              30
100
AcDbVertex
100
AcDb2dVertex
 10
7838.7011785268951
 20
32.328354848830315
 30
0.0
  0
VERTEX
  5
2D7
100
AcDbEntity
  8
0
370
               0
390
0
  6
Continuous
 62
              30
100
AcDbVertex
100
AcDb2dVertex
 10
7839.5318884611297
 20
30.432629121749017
 30
0.0
  0
VERTEX
  5
2D8
100
AcDbEntity
  8
0
370
               0
390
0
  6
Continuous
 62
              30
100
AcDbVertex
100
AcDb2dVertex
 10
7840.0406141042877
 20
28.412150873152825
 30
0.0
  0
VERTEX
  5
2D9
100
AcDbEntity
  8
0
370
               0
390
0
  6
Continuous
 62
              30
100
AcDbVertex
100
AcDb2dVertex
 10
7840.2119178533721
 20
26.328372491805169
 30
0.0
  0
SEQEND
  5
2DA
100
AcDbEntity
  8
0
370
               0
390
0
  6
Continuous
 62
              30
  0
ARC
  5
2DC
100
AcDbEntity
  8
0
370
               0
390
0
  6
Continuous
 62
              30
100
AcDbCircle
 10
7820.023234381877
 20
38.288774224735619
 30
0.0
 40
1.6331962625684255
100
AcDbArc
 50
207.64650871210236
 51
3.5837957790361092
  0
ARC
  5
2DD
100
AcDbEntity
  8
0
370
               0
390
0
  6
Continuous
 62
              30
100
AcDbCircle
 10
7820.0194729069808
 20
38.479492384678281
 30
0.0
 40
1.6361662067925664
100
AcDbArc
 50
356.89481037822048
 51
151.87488513065617
  0
ARC
  5
2DE
100
AcDbEntity
  8
0
370
               0
390
0
  6
Continuous
 62
              30
100
AcDbCircle
 10
7820.0808802867323
 20
91.790760398753889
 30
0.0
 40
1.6341357784512187
100
AcDbArc
 50
202.98692333771024
 51
3.5118428698204123
  0
ARC
  5
2DF
100
AcDbEntity
  8
0
370
               0
390
0
  6
Continuous
 62
              30
100
AcDbCircle
 10
7820.0779095039761
 20
91.978340809789358
 30
0.0
 40
1.6363779956313875
100
AcDbArc
 50
356.93547511781674
 51
156.56575867465125
  0
POLYLINE
  5
2E0
100
AcDbEntity
  8
0
370
               0
390
0
  6
Continuous
 62
              30
100
AcDb2dPolyline
 66
               1
 10
0.0
 20
0.0
 30
0.0
 75
               5
  0
VERTEX
  5
2E1
100
AcDbEntity
  8
0
370
               0
390
0
  6
Continuous
 62
              30
100
AcDbVertex
100
AcDb2dVertex
 10
7839.507390952127
 20
14.390873445479485
 30
0.0
  0
VERTEX
  5
2E2
100
AcDbEntity
  8
0
370
               0
390
0
  6
Continuous
 62
              30
100
AcDbVertex
100
AcDb2dVertex
 10
7839.3822211980987
 20
13.721155656783196
 30
0.0
  0
VERTEX
  5
2E3
100
AcDbEntity
  8
0
370
               0
390
0
  6
Continuous
 62
              30
100
AcDbVertex
100
AcDb2dVertex
 10
7839.0257258176971
 20
13.153421415297601
 30
0.0
  0
VERTEX
  5
2E4
100
AcDbEntity
  8
0
370
               0
390
0
  6
Continuous
 62
              30
100
AcDbVertex
100
AcDb2dVertex
 10
7838.4922046423126
 20
12.774097455947015
 30
0.0
  0
VERTEX
  5
2E5
100
AcDbEntity
  8
0
370
               0
390
0
  6
Continuous
 62
              30
100
AcDbVertex
100
AcDb2dVertex
 10
7837.862898802774
 20
12.640881074874017
 30
0.0
  0
VERTEX
  5
2E6
100
AcDbEntity
  8
0
370
               0
390
0
  6
Continuous
 62
              30
100
AcDbVertex
100
AcDb2dVertex
 10
7837.2335929632354
 20
12.774097455947015
 30
0.0
  0
VERTEX
  5
2E7
100
AcDbEntity
  8
0
370
               0
390
0
  6
Continuous
 62
              30
100
AcDbVertex
100
AcDb2dVertex
 10
7836.7001313924957
 20
13.153421415297601
 30
0.0
  0
VERTEX
  5
2E8
100
AcDbEntity
  8
0
370
               0
390
0
  6
Continuous
 62
              30
100
AcDbVertex
100
AcDb2dVertex
 10
7836.3436360120941
 20
13.721155656783196
 30
0.0
  0
VERTEX
  5
2E9
100
AcDbEntity
  8
0
370
               0
390
0
  6
Continuous
 62
              30
100
AcDbVertex
100
AcDb2dVertex
 10
7836.2184662580657
 20
14.390873445479485
 30
0.0
  0
VERTEX
  5
2EA
100
AcDbEntity
  8
0
370
               0
390
0
  6
Continuous
 62
              30
100
AcDbVertex
100
AcDb2dVertex
 10
7836.3436360120941
 20
15.060591234175774
 30
0.0
  0
VERTEX
  5
2EB
100
AcDbEntity
  8
0
370
               0
390
0
  6
Continuous
 62
              30
100
AcDbVertex
100
AcDb2dVertex
 10
7836.7001313924957
 20
15.62832547566137
 30
0.0
  0
VERTEX
  5
2EC
100
AcDbEntity
  8
0
370
               0
390
0
  6
Continuous
 62
              30
100
AcDbVertex
100
AcDb2dVertex
 10
7837.2335929632354
 20
16.007649435011956
 30
0.0
  0
VERTEX
  5
2ED
100
AcDbEntity
  8
0
370
               0
390
0
  6
Continuous
 62
              30
100
AcDbVertex
100
AcDb2dVertex
 10
7837.862898802774
 20
16.140865816084954
 30
0.0
  0
VERTEX
  5
2EE
100
AcDbEntity
  8
0
370
               0
390
0
  6
Continuous
 62
              30
100
AcDbVertex
100
AcDb2dVertex
 10
7838.4922046423126
 20
16.007649435011956
 30
0.0
  0
VERTEX
  5
2EF
100
AcDbEntity
  8
0
370
               0
390
0
  6
Continuous
 62
              30
100
AcDbVertex
100
AcDb2dVertex
 10
7839.0257258176971
 20
15.62832547566137
 30
0.0
  0
VERTEX
  5
2F0
100
AcDbEntity
  8
0
370
               0
390
0
  6
Continuous
 62
              30
100
AcDbVertex
100
AcDb2dVertex
 10
7839.3822211980987
 20
15.060591234175774
 30
0.0
  0
VERTEX
  5
2F1
100
AcDbEntity
  8
0
370
               0
390
0
  6
Continuous
 62
              30
100
AcDbVertex
100
AcDb2dVertex
 10
7839.507390952127
 20
14.390873445479485
 30
0.0
  0
SEQEND
  5
2F2
100
AcDbEntity
  8
0
370
               0
390
0
  6
Continuous
 62
              30
  0
POLYLINE
  5
2F4
100
AcDbEntity
  8
0
370
               0
390
0
  6
Continuous
 62
              30
100
AcDb2dPolyline
 66
               1
 10
0.0
 20
0.0
 30
0.0
 75
               5
  0
VERTEX
  5
2F5
100
AcDbEntity
  8
0
370
               0
390
0
  6
Continuous
 62
              30
100
AcDbVertex
100
AcDb2dVertex
 10
7839.5661015272308
 20
67.890870107619378
 30
0.0
  0
VERTEX
  5
2F6
100
AcDbEntity
  8
0
370
               0
390
0
  6
Continuous
 62
              30
100
AcDbVertex
100
AcDb2dVertex
 10
7839.4409317732025
 20
67.221152318923089
 30
0.0
  0
VERTEX
  5
2F7
100
AcDbEntity
  8
0
370
               0
390
0
  6
Continuous
 62
              30
100
AcDbVertex
100
AcDb2dVertex
 10
7839.0844363928009
 20
66.653418077437493
 30
0.0
  0
VERTEX
  5
2F8
100
AcDbEntity
  8
0
370
               0
390
0
  6
Continuous
 62
              30
100
AcDbVertex
100
AcDb2dVertex
 10
7838.5509748220611
 20
66.274094118086907
 30
0.0
  0
VERTEX
  5
2F9
100
AcDbEntity
  8
0
370
               0
390
0
  6
Continuous
 62
              30
100
AcDbVertex
100
AcDb2dVertex
 10
7837.9216689825225
 20
66.140877737013909
 30
0.0
  0
VERTEX
  5
2FA
100
AcDbEntity
  8
0
370
               0
390
0
  6
Continuous
 62
              30
100
AcDbVertex
100
AcDb2dVertex
 10
7837.292363142984
 20
66.274094118086907
 30
0.0
  0
VERTEX
  5
2FB
100
AcDbEntity
  8
0
370
               0
390
0
  6
Continuous
 62
              30
100
AcDbVertex
100
AcDb2dVertex
 10
7836.7588419675994
 20
66.653418077437493
 30
0.0
  0
VERTEX
  5
2FC
100
AcDbEntity
  8
0
370
               0
390
0
  6
Continuous
 62
              30
100
AcDbVertex
100
AcDb2dVertex
 10
7836.4023465871978
 20
67.221152318923089
 30
0.0
  0
VERTEX
  5
2FD
100
AcDbEntity
  8
0
370
               0
390
0
  6
Continuous
 62
              30
100
AcDbVertex
100
AcDb2dVertex
 10
7836.2771768331695
 20
67.890870107619378
 30
0.0
  0
VERTEX
  5
2FE
100
AcDbEntity
  8
0
370
               0
390
0
  6
Continuous
 62
              30
100
AcDbVertex
100
AcDb2dVertex
 10
7836.4023465871978
 20
68.560587896315667
 30
0.0
  0
VERTEX
  5
2FF
100
AcDbEntity
  8
0
370
               0
390
0
  6
Continuous
 62
              30
100
AcDbVertex
100
AcDb2dVertex
 10
7836.7588419675994
 20
69.128322137801263
 30
0.0
  0
VERTEX
  5
300
100
AcDbEntity
  8
0
370
               0
390
0
  6
Continuous
 62
              30
100
AcDbVertex
100
AcDb2dVertex
 10
7837.292363142984
 20
69.507646097151849
 30
0.0
  0
VERTEX
  5
301
100
AcDbEntity
  8
0
370
               0
390
0
  6
Continuous
 62
              30
100
AcDbVertex
100
AcDb2dVertex
 10
7837.9216689825225
 20
69.640862478224847
 30
0.0
  0
VERTEX
  5
302
100
AcDbEntity
  8
0
370
               0
390
0
  6
Continuous
 62
              30
100
AcDbVertex
100
AcDb2dVertex
 10
7838.5509748220611
 20
69.507646097151849
 30
0.0
  0
VERTEX
  5
303
100
AcDbEntity
  8
0
370
               0
390
0
  6
Continuous
 62
              30
100
AcDbVertex
100
AcDb2dVertex
 10
7839.0844363928009
 20
69.128322137801263
 30
0.0
  0
VERTEX
  5
304
100
AcDbEntity
  8
0
370
               0
390
0
  6
Continuous
 62
              30
100
AcDbVertex
100
AcDb2dVertex
 10
7839.4409317732025
 20
68.560587896315667
 30
0.0
  0
VERTEX
  5
305
100
AcDbEntity
  8
0
370
               0
390
0
  6
Continuous
 62
              30
100
AcDbVertex
100
AcDb2dVertex
 10
7839.5661015272308
 20
67.890870107619378
 30
0.0
  0
SEQEND
  5
306
100
AcDbEntity
  8
0
370
               0
390
0
  6
Continuous
 62
              30
  0
ARC
  5
308
100
AcDbEntity
  8
0
370
               0
390
0
  6
Continuous
 62
              30
100
AcDbCircle
 10
7828.4093936458794
 20
25.033781371570683
 30
0.0
 40
10.705671390598351
100
AcDbArc
 50
271.44346137636057
 51
291.44265629437223
  0
ARC
  5
309
100
AcDbEntity
  8
0
370
               0
390
0
  6
Continuous
 62
              30
100
AcDbCircle
 10
7828.4107487037518
 20
27.630722815877959
 30
0.0
 40
10.697940163117529
100
AcDbArc
 50
68.546476903041736
 51
88.562754919491653
  0
ARC
  5
30A
100
AcDbEntity
  8
0
370
               0
390
0
  6
Continuous
 62
              30
100
AcDbCircle
 10
7828.4668441196391
 20
78.541176944331653
 30
0.0
 40
10.713160842830181
100
AcDbArc
 50
271.44951231227088
 51
293.01655192798535
  0
ARC
  5
30B
100
AcDbEntity
  8
0
370
               0
390
0
  6
Continuous
 62
              30
100
AcDbCircle
 10
7828.4673066515552
 20
81.116943294783425
 30
0.0
 40
10.711708076477736
100
AcDbArc
 50
66.982834979994351
 51
88.552765881393
  0
ARC
  5
30C
100
AcDbEntity
  8
0
370
               0
390
0
  6
Continuous
 62
              30
100
AcDbCircle
 10
7819.4266085315467
 20
38.34532627508105
 30
0.0
 40
1.7142160485451756
100
AcDbArc
 50
280.95129734895937
 51
1.5221763872698375
  0
ARC
  5
30D
100
AcDbEntity
  8
0
370
               0
390
0
  6
Continuous
 62
              30
100
AcDbCircle
 10
7819.4266071126167
 20
38.436455575513435
 30
0.0
 40
1.714218979245457
100
AcDbArc
 50
358.47592392285031
 51
79.048673299400207
  0
ARC
  5
30E
100
AcDbEntity
  8
0
370
               0
390
0
  6
Continuous
 62
              30
100
AcDbCircle
 10
7819.4852871855583
 20
91.845290534415824
 30
0.0
 40
1.7142488194066006
100
AcDbArc
 50
280.95217210650708
 51
1.5232306712227341
  0
ARC
  5
30F
100
AcDbEntity
  8
0
370
               0
390
0
  6
Continuous
 62
              30
100
AcDbCircle
 10
7819.4852871855583
 20
91.936427746313768
 30
0.0
 40
1.7142488194064314
100
AcDbArc
 50
358.47676932877727
 51
79.047827893492922
  0
ARC
  5
310
100
AcDbEntity
  8
0
370
               0
390
0
  6
Continuous
 62
              30
100
AcDbCircle
 10
7837.2807307204093
 20
14.34530483953057
 30
0.0
 40
1.7142488194066006
100
AcDbArc
 50
280.95217210650708
 51
1.5232306712227341
  0
ARC
  5
311
100
AcDbEntity
  8
0
370
               0
390
0
  6
Continuous
 62
              30
100
AcDbCircle
 10
7837.2807307204093
 20
14.436442051428514
 30
0.0
 40
1.7142488194064314
100
AcDbArc
 50
358.47676932877727
 51
79.047827893492922
  0
ARC
  5
312
100
AcDbEntity
  8
0
370
               0
390
0
  6
Continuous
 62
              30
100
AcDbCircle
 10
7837.3394881073882
 20
67.845263914645159
 30
0.0
 40
1.7142030236611554
100
AcDbArc
 50
280.95087464423932
 51
1.5245281335169809
  0
ARC
  5
313
100
AcDbEntity
  8
0
370
               0
390
0
  6
Continuous
 62
              30
100
AcDbCircle
 10
7837.3394881073882
 20
67.936476300593483
 30
0.0
 40
1.7142030236617261
100
AcDbArc
 50
358.47547186649149
 51
79.049125355761419
  0
ARC
  5
314
100
AcDbEntity
  8
0
370
               0
390
0
  6
Continuous
 62
              30
100
AcDbCircle
 10
7828.4968179681018
 20
78.587270366498672
 30
0.0
 40
10.508895494092371
100
AcDbArc
 50
242.40017955441738
 51
269.91542971242484
  0
ARC
  5
315
100
AcDbEntity
  8
0
370
               0
390
0
  6
Continuous
 62
              30
100
AcDbCircle
 10
7828.496743931446
 20
81.070475212598183
 30
0.0
 40
10.507888114953118
100
AcDbArc
 50
90.084174699226793
 51
117.60186978276877
  0
POLYLINE
  5
316
100
AcDbEntity
  8
0
370
               0
390
0
  6
Continuous
 62
              30
100
AcDb2dPolyline
 66
               1
 10
0.0
 20
0.0
 30
0.0
 75
               5
  0
VERTEX
  5
317
100
AcDbEntity
  8
0
370
               0
390
0
  6
Continuous
 62
              30
100
AcDbVertex
100
AcDb2dVertex
 10
7818.5765046835113
 20
83.157944215743157
 30
0.0
  0
VERTEX
  5
318
100
AcDbEntity
  8
0
370
               0
390
0
  6
Continuous
 62
              30
100
AcDbVertex
100
AcDb2dVertex
 10
7818.7898297071624
 20
83.847093118636224
 30
0.0
  0
VERTEX
  5
319
100
AcDbEntity
  8
0
370
               0
390
0
  6
Continuous
 62
              30
100
AcDbVertex
100
AcDb2dVertex
 10
7819.6032542944122
 20
85.703360570876214
 30
0.0
  0
VERTEX
  5
31A
100
AcDbEntity
  8
0
370
               0
390
0
  6
Continuous
 62
              30
100
AcDbVertex
100
AcDb2dVertex
 10
7820.7071323156524
 20
87.381112112013909
 30
0.0
  0
VERTEX
  5
31B
100
AcDbEntity
  8
0
370
               0
390
0
  6
Continuous
 62
              30
100
AcDbVertex
100
AcDb2dVertex
 10
7822.0680851698089
 20
88.829385770766351
 30
0.0
  0
VERTEX
  5
31C
100
AcDbEntity
  8
0
370
               0
390
0
  6
Continuous
 62
              30
100
AcDbVertex
100
AcDb2dVertex
 10
7823.644628024118
 20
90.004133714644524
 30
0.0
  0
VERTEX
  5
31D
100
AcDbEntity
  8
0
370
               0
390
0
  6
Continuous
 62
              30
100
AcDbVertex
100
AcDb2dVertex
 10
7825.3889579534698
 20
90.869771970717522
 30
0.0
  0
VERTEX
  5
31E
100
AcDbEntity
  8
0
370
               0
390
0
  6
Continuous
 62
              30
100
AcDbVertex
100
AcDb2dVertex
 10
7827.2480268240142
 20
91.399836076705071
 30
0.0
  0
VERTEX
  5
31F
100
AcDbEntity
  8
0
370
               0
390
0
  6
Continuous
 62
              30
100
AcDbVertex
100
AcDb2dVertex
 10
7829.1653294325042
 20
91.578351987807366
 30
0.0
  0
VERTEX
  5
320
100
AcDbEntity
  8
0
370
               0
390
0
  6
Continuous
 62
              30
100
AcDbVertex
100
AcDb2dVertex
 10
7831.082691645639
 20
91.399836076705071
 30
0.0
  0
VERTEX
  5
321
100
AcDbEntity
  8
0
370
               0
390
0
  6
Continuous
 62
              30
100
AcDbVertex
100
AcDb2dVertex
 10
7832.9417009115386
 20
90.869771970717522
 30
0.0
  0
VERTEX
  5
322
100
AcDbEntity
  8
0
370
               0
390
0
  6
Continuous
 62
              30
100
AcDbVertex
100
AcDb2dVertex
 10
7834.6860308408905
 20
90.004133714644524
 30
0.0
  0
VERTEX
  5
323
100
AcDbEntity
  8
0
370
               0
390
0
  6
Continuous
 62
              30
100
AcDbVertex
100
AcDb2dVertex
 10
7836.2626332998443
 20
88.829385770766351
 30
0.0
  0
VERTEX
  5
324
100
AcDbEntity
  8
0
370
               0
390
0
  6
Continuous
 62
              30
100
AcDbVertex
100
AcDb2dVertex
 10
7837.623526549356
 20
87.381112112013909
 30
0.0
  0
VERTEX
  5
325
100
AcDbEntity
  8
0
370
               0
390
0
  6
Continuous
 62
              30
100
AcDbVertex
100
AcDb2dVertex
 10
7838.727464175241
 20
85.703360570876214
 30
0.0
  0
VERTEX
  5
326
100
AcDbEntity
  8
0
370
               0
390
0
  6
Continuous
 62
              30
100
AcDbVertex
100
AcDb2dVertex
 10
7839.5408887624908
 20
83.847093118636224
 30
0.0
  0
VERTEX
  5
327
100
AcDbEntity
  8
0
370
               0
390
0
  6
Continuous
 62
              30
100
AcDbVertex
100
AcDb2dVertex
 10
7840.0390047788787
 20
81.868755353896233
 30
0.0
  0
VERTEX
  5
328
100
AcDbEntity
  8
0
370
               0
390
0
  6
Continuous
 62
              30
100
AcDbVertex
100
AcDb2dVertex
 10
7840.2067322492767
 20
79.828369153945061
 30
0.0
  0
VERTEX
  5
329
100
AcDbEntity
  8
0
370
               0
390
0
  6
Continuous
 62
              30
100
AcDbVertex
100
AcDb2dVertex
 10
7840.0390047788787
 20
77.78798295399389
 30
0.0
  0
VERTEX
  5
32A
100
AcDbEntity
  8
0
370
               0
390
0
  6
Continuous
 62
              30
100
AcDbVertex
100
AcDb2dVertex
 10
7839.5408887624908
 20
75.809645189253899
 30
0.0
  0
VERTEX
  5
32B
100
AcDbEntity
  8
0
370
               0
390
0
  6
Continuous
 62
              30
100
AcDbVertex
100
AcDb2dVertex
 10
7838.727464175241
 20
73.953377737013909
 30
0.0
  0
VERTEX
  5
32C
100
AcDbEntity
  8
0
370
               0
390
0
  6
Continuous
 62
              30
100
AcDbVertex
100
AcDb2dVertex
 10
7837.623526549356
 20
72.275626195876214
 30
0.0
  0
VERTEX
  5
32D
100
AcDbEntity
  8
0
370
               0
390
0
  6
Continuous
 62
              30
100
AcDbVertex
100
AcDb2dVertex
 10
7836.2626332998443
 20
70.827352537123772
 30
0.0
  0
VERTEX
  5
32E
100
AcDbEntity
  8
0
370
               0
390
0
  6
Continuous
 62
              30
100
AcDbVertex
100
AcDb2dVertex
 10
7834.6860308408905
 20
69.652544988600823
 30
0.0
  0
VERTEX
  5
32F
100
AcDbEntity
  8
0
370
               0
390
0
  6
Continuous
 62
              30
100
AcDbVertex
100
AcDb2dVertex
 10
7832.9417009115386
 20
68.786966337172601
 30
0.0
  0
VERTEX
  5
330
100
AcDbEntity
  8
0
370
               0
390
0
  6
Continuous
 62
              30
100
AcDbVertex
100
AcDb2dVertex
 10
7831.082691645639
 20
68.256842626540276
 30
0.0
  0
VERTEX
  5
331
100
AcDbEntity
  8
0
370
               0
390
0
  6
Continuous
 62
              30
100
AcDbVertex
100
AcDb2dVertex
 10
7829.1653294325042
 20
68.078386320082757
 30
0.0
  0
VERTEX
  5
332
100
AcDbEntity
  8
0
370
               0
390
0
  6
Continuous
 62
              30
100
AcDbVertex
100
AcDb2dVertex
 10
7827.2480268240142
 20
68.256842626540276
 30
0.0
  0
VERTEX
  5
333
100
AcDbEntity
  8
0
370
               0
390
0
  6
Continuous
 62
              30
100
AcDbVertex
100
AcDb2dVertex
 10
7825.3889579534698
 20
68.786966337172601
 30
0.0
  0
VERTEX
  5
334
100
AcDbEntity
  8
0
370
               0
390
0
  6
Continuous
 62
              30
100
AcDbVertex
100
AcDb2dVertex
 10
7823.644628024118
 20
69.652544988600823
 30
0.0
  0
VERTEX
  5
335
100
AcDbEntity
  8
0
370
               0
390
0
  6
Continuous
 62
              30
100
AcDbVertex
100
AcDb2dVertex
 10
7822.0680851698089
 20
70.827352537123772
 30
0.0
  0
VERTEX
  5
336
100
AcDbEntity
  8
0
370
               0
390
0
  6
Continuous
 62
              30
100
AcDbVertex
100
AcDb2dVertex
 10
7820.7071323156524
 20
72.275626195876214
 30
0.0
  0
VERTEX
  5
337
100
AcDbEntity
  8
0
370
               0
390
0
  6
Continuous
 62
              30
100
AcDbVertex
100
AcDb2dVertex
 10
7819.6032542944122
 20
73.953377737013909
 30
0.0
  0
VERTEX
  5
338
100
AcDbEntity
  8
0
370
               0
390
0
  6
Continuous
 62
              30
100
AcDbVertex
100
AcDb2dVertex
 10
7818.7898297071624
 20
75.809645189253899
 30
0.0
  0
VERTEX
  5
339
100
AcDbEntity
  8
0
370
               0
390
0
  6
Continuous
 62
              30
100
AcDbVertex
100
AcDb2dVertex
 10
7818.5765046835113
 20
76.498794092146966
 30
0.0
  0
SEQEND
  5
33A
100
AcDbEntity
  8
0
370
               0
390
0
  6
Continuous
 62
              30
  0
LINE
  5
33C
100
AcDbEntity
  8
0
370
               0
390
0
  6
Continuous
 62
              30
100
AcDbLine
 10
7821.0409183263946
 20
77.328371538130853
 30
0.0
 11
7819.7684187650848
 21
77.328371538130853
 31
0.0
  0
ARC
  5
33D
100
AcDbEntity
  8
0
370
               0
390
0
  6
Continuous
 62
              30
100
AcDbCircle
 10
7829.184456303843
 20
79.279821555955721
 30
0.0
 40
8.3740890825337218
100
AcDbArc
 50
193.47577997668554
 51
353.47597247320323
  0
LINE
  5
33E
100
AcDbEntity
  8
0
370
               0
390
0
  6
Continuous
 62
              30
100
AcDbLine
 10
7838.5622997045684
 20
78.328358663527581
 30
0.0
 11
7837.5043172598052
 21
78.328358663527581
 31
0.0
  0
LINE
  5
33F
100
AcDbEntity
  8
0
370
               0
390
0
  6
Continuous
 62
              30
100
AcDbLine
 10
7838.5622997045684
 20
78.328358663527581
 30
0.0
 11
7838.5622997045684
 21
81.328379644362542
 31
0.0
  0
LINE
  5
340
100
AcDbEntity
  8
0
370
               0
390
0
  6
Continuous
 62
              30
100
AcDbLine
 10
7837.5043172598052
 20
81.328379644362542
 30
0.0
 11
7838.5622997045684
 21
81.328379644362542
 31
0.0
  0
ARC
  5
341
100
AcDbEntity
  8
0
370
               0
390
0
  6
Continuous
 62
              30
100
AcDbCircle
 10
7829.1847050690476
 20
80.38101232546029
 30
0.0
 40
8.3733775647302462
100
AcDbArc
 50
6.4963779844505334
 51
166.55186956565336
  0
LINE
  5
342
100
AcDbEntity
  8
0
370
               0
390
0
  6
Continuous
 62
              30
100
AcDbLine
 10
7819.7684187650848
 20
82.32836676975927
 30
0.0
 11
7821.0409183263946
 21
82.32836676975927
 31
0.0
  0
LINE
  5
343
100
AcDbEntity
  8
0
370
               0
390
0
  6
Continuous
 62
              30
100
AcDbLine
 10
7819.7684187650848
 20
82.32836676975927
 30
0.0
 11
7819.7684187650848
 21
77.328371538130853
 31
0.0
  0
LINE
  5
344
100
AcDbEntity
  8
0
370
               0
390
0
  6
Continuous
 62
              30
100
AcDbLine
 10
7818.6789054632354
 20
92.828380598036858
 30
0.0
 11
7820.9430474996734
 21
92.828380598036858
 31
0.0
  0
LINE
  5
345
100
AcDbEntity
  8
0
370
               0
390
0
  6
Continuous
 62
              30
100
AcDbLine
 10
7838.7153048277069
 20
66.828357709853265
 30
0.0
 11
7836.6149563551116
 21
66.828357709853265
 31
0.0
  0
ARC
  5
346
100
AcDbEntity
  8
0
370
               0
390
0
  6
Continuous
 62
              30
100
AcDbCircle
 10
7822.0888576251209
 20
79.300936922408198
 30
0.0
 40
8.5274204342028881
100
AcDbArc
 50
295.38949401924509
 51
320.07687937985287
  0
LINE
  5
347
100
AcDbEntity
  8
0
370
               0
390
0
  6
Continuous
 62
              30
100
AcDbLine
 10
7834.6244592428375
 20
78.328358663527581
 30
0.0
 11
7837.5043172598052
 21
78.328358663527581
 31
0.0
  0
LINE
  5
348
100
AcDbEntity
  8
0
370
               0
390
0
  6
Continuous
 62
              30
100
AcDbLine
 10
7837.5043172598052
 20
81.328379644362542
 30
0.0
 11
7834.6244592428375
 21
81.328379644362542
 31
0.0
  0
ARC
  5
349
100
AcDbEntity
  8
0
370
               0
390
0
  6
Continuous
 62
              30
100
AcDbCircle
 10
7822.088504109558
 20
80.355138723406014
 30
0.0
 40
8.5281168215897001
100
AcDbArc
 50
39.925010708899336
 51
64.610097510286124
  0
POLYLINE
  5
34A
100
AcDbEntity
  8
0
370
               0
390
0
  6
Continuous
 62
              30
100
AcDb2dPolyline
 66
               1
 10
0.0
 20
0.0
 30
0.0
 75
               5
  0
VERTEX
  5
34B
100
AcDbEntity
  8
0
370
               0
390
0
  6
Continuous
 62
              30
100
AcDbVertex
100
AcDb2dVertex
 10
7823.5272068739105
 20
79.828369153945061
 30
0.0
  0
VERTEX
  5
34C
100
AcDbEntity
  8
0
370
               0
390
0
  6
Continuous
 62
              30
100
AcDbVertex
100
AcDb2dVertex
 10
7823.7043518781829
 20
81.32051183125219
 30
0.0
  0
VERTEX
  5
34D
100
AcDbEntity
  8
0
370
               0
390
0
  6
Continuous
 62
              30
100
AcDbVertex
100
AcDb2dVertex
 10
7824.2245812177825
 20
82.71889640232763
 30
0.0
  0
VERTEX
  5
34E
100
AcDbEntity
  8
0
370
               0
390
0
  6
Continuous
 62
              30
100
AcDbVertex
100
AcDb2dVertex
 10
7825.0552911520172
 20
83.935665620772454
 30
0.0
  0
VERTEX
  5
34F
100
AcDbEntity
  8
0
370
               0
390
0
  6
Continuous
 62
              30
100
AcDbVertex
100
AcDb2dVertex
 10
7826.1442680120635
 20
84.894346727339837
 30
0.0
  0
VERTEX
  5
350
100
AcDbEntity
  8
0
370
               0
390
0
  6
Continuous
 62
              30
100
AcDbVertex
100
AcDb2dVertex
 10
7827.4230856657196
 20
85.534679426161858
 30
0.0
  0
VERTEX
  5
351
100
AcDbEntity
  8
0
370
               0
390
0
  6
Continuous
 62
              30
100
AcDbVertex
100
AcDb2dVertex
 10
7828.8113374471832
 20
85.816549791304681
 30
0.0
  0
VERTEX
  5
352
100
AcDbEntity
  8
0
370
               0
390
0
  6
Continuous
 62
              30
100
AcDbVertex
100
AcDb2dVertex
 10
7830.221821761148
 20
85.722076429335686
 30
0.0
  0
VERTEX
  5
353
100
AcDbEntity
  8
0
370
               0
390
0
  6
Continuous
 62
              30
100
AcDbVertex
100
AcDb2dVertex
 10
7831.5659661054779
 20
85.257339014021966
 30
0.0
  0
VERTEX
  5
354
100
AcDbEntity
  8
0
370
               0
390
0
  6
Continuous
 62
              30
100
AcDbVertex
100
AcDb2dVertex
 10
7832.7592510938812
 20
84.451424612013909
 30
0.0
  0
VERTEX
  5
355
100
AcDbEntity
  8
0
370
               0
390
0
  6
Continuous
 62
              30
100
AcDbVertex
100
AcDb2dVertex
 10
7833.7266940832305
 20
83.355056776015374
 30
0.0
  0
VERTEX
  5
356
100
AcDbEntity
  8
0
370
               0
390
0
  6
Continuous
 62
              30
100
AcDbVertex
100
AcDb2dVertex
 10
7834.4075579404998
 20
82.037138475386712
 30
0.0
  0
VERTEX
  5
357
100
AcDbEntity
  8
0
370
               0
390
0
  6
Continuous
 62
              30
100
AcDbVertex
100
AcDb2dVertex
 10
7834.7590465307403
 20
80.58034135243139
 30
0.0
  0
VERTEX
  5
358
100
AcDbEntity
  8
0
370
               0
390
0
  6
Continuous
 62
              30
100
AcDbVertex
100
AcDb2dVertex
 10
7834.7590465307403
 20
79.076337350813958
 30
0.0
  0
VERTEX
  5
359
100
AcDbEntity
  8
0
370
               0
390
0
  6
Continuous
 62
              30
100
AcDbVertex
100
AcDb2dVertex
 10
7834.4075579404998
 20
77.619599832503411
 30
0.0
  0
VERTEX
  5
35A
100
AcDbEntity
  8
0
370
               0
390
0
  6
Continuous
 62
              30
100
AcDbVertex
100
AcDb2dVertex
 10
7833.7266940832305
 20
76.301681531874749
 30
0.0
  0
VERTEX
  5
35B
100
AcDbEntity
  8
0
370
               0
390
0
  6
Continuous
 62
              30
100
AcDbVertex
100
AcDb2dVertex
 10
7832.7592510938812
 20
75.205313695876214
 30
0.0
  0
VERTEX
  5
35C
100
AcDbEntity
  8
0
370
               0
390
0
  6
Continuous
 62
              30
100
AcDbVertex
100
AcDb2dVertex
 10
7831.5659661054779
 20
74.399399293868157
 30
0.0
  0
VERTEX
  5
35D
100
AcDbEntity
  8
0
370
               0
390
0
  6
Continuous
 62
              30
100
AcDbVertex
100
AcDb2dVertex
 10
7830.221821761148
 20
73.934661878554436
 30
0.0
  0
VERTEX
  5
35E
100
AcDbEntity
  8
0
370
               0
390
0
  6
Continuous
 62
              30
100
AcDbVertex
100
AcDb2dVertex
 10
7828.8113374471832
 20
73.840188516585442
 30
0.0
  0
VERTEX
  5
35F
100
AcDbEntity
  8
0
370
               0
390
0
  6
Continuous
 62
              30
100
AcDbVertex
100
AcDb2dVertex
 10
7827.4230856657196
 20
74.121999277083489
 30
0.0
  0
VERTEX
  5
360
100
AcDbEntity
  8
0
370
               0
390
0
  6
Continuous
 62
              30
100
AcDbVertex
100
AcDb2dVertex
 10
7826.1442680120635
 20
74.762391580550286
 30
0.0
  0
VERTEX
  5
361
100
AcDbEntity
  8
0
370
               0
390
0
  6
Continuous
 62
              30
100
AcDbVertex
100
AcDb2dVertex
 10
7825.0552911520172
 20
75.721072687117669
 30
0.0
  0
VERTEX
  5
362
100
AcDbEntity
  8
0
370
               0
390
0
  6
Continuous
 62
              30
100
AcDbVertex
100
AcDb2dVertex
 10
7824.2245812177825
 20
76.937841905562493
 30
0.0
  0
VERTEX
  5
363
100
AcDbEntity
  8
0
370
               0
390
0
  6
Continuous
 62
              30
100
AcDbVertex
100
AcDb2dVertex
 10
7823.7043518781829
 20
78.336226476637933
 30
0.0
  0
VERTEX
  5
364
100
AcDbEntity
  8
0
370
               0
390
0
  6
Continuous
 62
              30
100
AcDbVertex
100
AcDb2dVertex
 10
7823.5272068739105
 20
79.828369153945061
 30
0.0
  0
SEQEND
  5
365
100
AcDbEntity
  8
0
370
               0
390
0
  6
Continuous
 62
              30
  0
POLYLINE
  5
367
100
AcDbEntity
  8
0
370
               0
390
0
  6
Continuous
 62
              30
100
AcDb2dPolyline
 66
               1
 10
0.0
 20
0.0
 30
0.0
 75
               5
  0
VERTEX
  5
368
100
AcDbEntity
  8
0
370
               0
390
0
  6
Continuous
 62
              30
100
AcDbVertex
100
AcDb2dVertex
 10
7826.5811700582672
 20
79.828369153945061
 30
0.0
  0
VERTEX
  5
369
100
AcDbEntity
  8
0
370
               0
390
0
  6
Continuous
 62
              30
100
AcDbVertex
100
AcDb2dVertex
 10
7826.7556924581695
 20
78.834938539473626
 30
0.0
  0
VERTEX
  5
36A
100
AcDbEntity
  8
0
370
               0
390
0
  6
Continuous
 62
              30
100
AcDbVertex
100
AcDb2dVertex
 10
7827.2556562185455
 20
77.975677980391595
 30
0.0
  0
VERTEX
  5
36B
100
AcDbEntity
  8
0
370
               0
390
0
  6
Continuous
 62
              30
100
AcDbVertex
100
AcDb2dVertex
 10
7828.0134696722198
 20
77.366637720076653
 30
0.0
  0
VERTEX
  5
36C
100
AcDbEntity
  8
0
370
               0
390
0
  6
Continuous
 62
              30
100
AcDbVertex
100
AcDb2dVertex
 10
7828.9269108534027
 20
77.090072168318841
 30
0.0
  0
VERTEX
  5
36D
100
AcDbEntity
  8
0
370
               0
390
0
  6
Continuous
 62
              30
100
AcDbVertex
100
AcDb2dVertex
 10
7829.8725385427642
 20
77.183353437392327
 30
0.0
  0
VERTEX
  5
36E
100
AcDbEntity
  8
0
370
               0
390
0
  6
Continuous
 62
              30
100
AcDbVertex
100
AcDb2dVertex
 10
7830.7226199865509
 20
77.633845342604729
 30
0.0
  0
VERTEX
  5
36F
100
AcDbEntity
  8
0
370
               0
390
0
  6
Continuous
 62
              30
100
AcDbVertex
100
AcDb2dVertex
 10
7831.3624162435699
 20
78.380691541640374
 30
0.0
  0
VERTEX
  5
370
100
AcDbEntity
  8
0
370
               0
390
0
  6
Continuous
 62
              30
100
AcDbVertex
100
AcDb2dVertex
 10
7831.705500578897
 20
79.3230409755393
 30
0.0
  0
VERTEX
  5
371
100
AcDbEntity
  8
0
370
               0
390
0
  6
Continuous
 62
              30
100
AcDbVertex
100
AcDb2dVertex
 10
7831.705500578897
 20
80.333697332350823
 30
0.0
  0
VERTEX
  5
372
100
AcDbEntity
  8
0
370
               0
390
0
  6
Continuous
 62
              30
100
AcDbVertex
100
AcDb2dVertex
 10
7831.3624162435699
 20
81.276046766249749
 30
0.0
  0
VERTEX
  5
373
100
AcDbEntity
  8
0
370
               0
390
0
  6
Continuous
 62
              30
100
AcDbVertex
100
AcDb2dVertex
 10
7830.7226199865509
 20
82.022892965285394
 30
0.0
  0
VERTEX
  5
374
100
AcDbEntity
  8
0
370
               0
390
0
  6
Continuous
 62
              30
100
AcDbVertex
100
AcDb2dVertex
 10
7829.8725385427642
 20
82.473384870497796
 30
0.0
  0
VERTEX
  5
375
100
AcDbEntity
  8
0
370
               0
390
0
  6
Continuous
 62
              30
100
AcDbVertex
100
AcDb2dVertex
 10
7828.9269108534027
 20
82.566606534926507
 30
0.0
  0
VERTEX
  5
376
100
AcDbEntity
  8
0
370
               0
390
0
  6
Continuous
 62
              30
100
AcDbVertex
100
AcDb2dVertex
 10
7828.0134696722198
 20
82.290040983168694
 30
0.0
  0
VERTEX
  5
377
100
AcDbEntity
  8
0
370
               0
390
0
  6
Continuous
 62
              30
100
AcDbVertex
100
AcDb2dVertex
 10
7827.2556562185455
 20
81.681000722853753
 30
0.0
  0
VERTEX
  5
378
100
AcDbEntity
  8
0
370
               0
390
0
  6
Continuous
 62
              30
100
AcDbVertex
100
AcDb2dVertex
 10
7826.7556924581695
 20
80.821799768416497
 30
0.0
  0
VERTEX
  5
379
100
AcDbEntity
  8
0
370
               0
390
0
  6
Continuous
 62
              30
100
AcDbVertex
100
AcDb2dVertex
 10
7826.5811700582672
 20
79.828369153945061
 30
0.0
  0
SEQEND
  5
37A
100
AcDbEntity
  8
0
370
               0
390
0
  6
Continuous
 62
              30
  0
ARC
  5
37C
100
AcDbEntity
  8
0
370
               0
390
0
  6
Continuous
 62
              30
100
AcDbCircle
 10
7828.5074994019469
 20
25.138322441170146
 30
0.0
 40
10.559965267597795
100
AcDbArc
 50
238.17208021928869
 51
269.85788375527272
  0
ARC
  5
37D
100
AcDbEntity
  8
0
370
               0
390
0
  6
Continuous
 62
              30
100
AcDbCircle
 10
7828.5132167150023
 20
27.498524911993002
 30
0.0
 40
10.579878536262973
100
AcDbArc
 50
90.172811223066844
 51
121.80160741155503
  0
POLYLINE
  5
37E
100
AcDbEntity
  8
0
370
               0
390
0
  6
Continuous
 62
              30
100
AcDb2dPolyline
 66
               1
 10
0.0
 20
0.0
 30
0.0
 75
               5
  0
VERTEX
  5
37F
100
AcDbEntity
  8
0
370
               0
390
0
  6
Continuous
 62
              30
100
AcDbVertex
100
AcDb2dVertex
 10
7818.5765046835113
 20
29.657947553603265
 30
0.0
  0
VERTEX
  5
380
100
AcDbEntity
  8
0
370
               0
390
0
  6
Continuous
 62
              30
100
AcDbVertex
100
AcDb2dVertex
 10
7818.7898297071624
 20
30.347096456496331
 30
0.0
  0
VERTEX
  5
381
100
AcDbEntity
  8
0
370
               0
390
0
  6
Continuous
 62
              30
100
AcDbVertex
100
AcDb2dVertex
 10
7819.6032542944122
 20
32.203363908736321
 30
0.0
  0
VERTEX
  5
382
100
AcDbEntity
  8
0
370
               0
390
0
  6
Continuous
 62
              30
100
AcDbVertex
100
AcDb2dVertex
 10
7820.7071323156524
 20
33.881115449874017
 30
0.0
  0
VERTEX
  5
383
100
AcDbEntity
  8
0
370
               0
390
0
  6
Continuous
 62
              30
100
AcDbVertex
100
AcDb2dVertex
 10
7822.0680851698089
 20
35.329389108626458
 30
0.0
  0
VERTEX
  5
384
100
AcDbEntity
  8
0
370
               0
390
0
  6
Continuous
 62
              30
100
AcDbVertex
100
AcDb2dVertex
 10
7823.644628024118
 20
36.504137052504632
 30
0.0
  0
VERTEX
  5
385
100
AcDbEntity
  8
0
370
               0
390
0
  6
Continuous
 62
              30
100
AcDbVertex
100
AcDb2dVertex
 10
7825.3889579534698
 20
37.36977530857763
 30
0.0
  0
VERTEX
  5
386
100
AcDbEntity
  8
0
370
               0
390
0
  6
Continuous
 62
              30
100
AcDbVertex
100
AcDb2dVertex
 10
7827.2480268240142
 20
37.899839414565179
 30
0.0
  0
VERTEX
  5
387
100
AcDbEntity
  8
0
370
               0
390
0
  6
Continuous
 62
              30
100
AcDbVertex
100
AcDb2dVertex
 10
7829.1653294325042
 20
38.078355325667474
 30
0.0
  0
VERTEX
  5
388
100
AcDbEntity
  8
0
370
               0
390
0
  6
Continuous
 62
              30
100
AcDbVertex
100
AcDb2dVertex
 10
7831.082691645639
 20
37.899839414565179
 30
0.0
  0
VERTEX
  5
389
100
AcDbEntity
  8
0
370
               0
390
0
  6
Continuous
 62
              30
100
AcDbVertex
100
AcDb2dVertex
 10
7832.9417009115386
 20
37.36977530857763
 30
0.0
  0
VERTEX
  5
38A
100
AcDbEntity
  8
0
370
               0
390
0
  6
Continuous
 62
              30
100
AcDbVertex
100
AcDb2dVertex
 10
7834.6860308408905
 20
36.504137052504632
 30
0.0
  0
VERTEX
  5
38B
100
AcDbEntity
  8
0
370
               0
390
0
  6
Continuous
 62
              30
100
AcDbVertex
100
AcDb2dVertex
 10
7836.2626332998443
 20
35.329389108626458
 30
0.0
  0
VERTEX
  5
38C
100
AcDbEntity
  8
0
370
               0
390
0
  6
Continuous
 62
              30
100
AcDbVertex
100
AcDb2dVertex
 10
7837.623526549356
 20
33.881115449874017
 30
0.0
  0
VERTEX
  5
38D
100
AcDbEntity
  8
0
370
               0
390
0
  6
Continuous
 62
              30
100
AcDbVertex
100
AcDb2dVertex
 10
7838.727464175241
 20
32.203363908736321
 30
0.0
  0
VERTEX
  5
38E
100
AcDbEntity
  8
0
370
               0
390
0
  6
Continuous
 62
              30
100
AcDbVertex
100
AcDb2dVertex
 10
7839.5408887624908
 20
30.347096456496331
 30
0.0
  0
VERTEX
  5
38F
100
AcDbEntity
  8
0
370
               0
390
0
  6
Continuous
 62
              30
100
AcDbVertex
100
AcDb2dVertex
 10
7840.0390047788787
 20
28.368758691756341
 30
0.0
  0
VERTEX
  5
390
100
AcDbEntity
  8
0
370
               0
390
0
  6
Continuous
 62
              30
100
AcDbVertex
100
AcDb2dVertex
 10
7840.2067322492767
 20
26.328372491805169
 30
0.0
  0
VERTEX
  5
391
100
AcDbEntity
  8
0
370
               0
390
0
  6
Continuous
 62
              30
100
AcDbVertex
100
AcDb2dVertex
 10
7840.0390047788787
 20
24.287986291853997
 30
0.0
  0
VERTEX
  5
392
100
AcDbEntity
  8
0
370
               0
390
0
  6
Continuous
 62
              30
100
AcDbVertex
100
AcDb2dVertex
 10
7839.5408887624908
 20
22.309648527114007
 30
0.0
  0
VERTEX
  5
393
100
AcDbEntity
  8
0
370
               0
390
0
  6
Continuous
 62
              30
100
AcDbVertex
100
AcDb2dVertex
 10
7838.727464175241
 20
20.453381074874017
 30
0.0
  0
VERTEX
  5
394
100
AcDbEntity
  8
0
370
               0
390
0
  6
Continuous
 62
              30
100
AcDbVertex
100
AcDb2dVertex
 10
7837.623526549356
 20
18.775629533736321
 30
0.0
  0
VERTEX
  5
395
100
AcDbEntity
  8
0
370
               0
390
0
  6
Continuous
 62
              30
100
AcDbVertex
100
AcDb2dVertex
 10
7836.2626332998443
 20
17.32735587498388
 30
0.0
  0
VERTEX
  5
396
100
AcDbEntity
  8
0
370
               0
390
0
  6
Continuous
 62
              30
100
AcDbVertex
100
AcDb2dVertex
 10
7834.6860308408905
 20
16.152548326460931
 30
0.0
  0
VERTEX
  5
397
100
AcDbEntity
  8
0
370
               0
390
0
  6
Continuous
 62
              30
100
AcDbVertex
100
AcDb2dVertex
 10
7832.9417009115386
 20
15.286969675032708
 30
0.0
  0
VERTEX
  5
398
100
AcDbEntity
  8
0
370
               0
390
0
  6
Continuous
 62
              30
100
AcDbVertex
100
AcDb2dVertex
 10
7831.082691645639
 20
14.756845964400384
 30
0.0
  0
VERTEX
  5
399
100
AcDbEntity
  8
0
370
               0
390
0
  6
Continuous
 62
              30
100
AcDbVertex
100
AcDb2dVertex
 10
7829.1653294325042
 20
14.578389657942864
 30
0.0
  0
VERTEX
  5
39A
100
AcDbEntity
  8
0
370
               0
390
0
  6
Continuous
 62
              30
100
AcDbVertex
100
AcDb2dVertex
 10
7827.2480268240142
 20
14.756845964400384
 30
0.0
  0
VERTEX
  5
39B
100
AcDbEntity
  8
0
370
               0
390
0
  6
Continuous
 62
              30
100
AcDbVertex
100
AcDb2dVertex
 10
7825.3889579534698
 20
15.286969675032708
 30
0.0
  0
VERTEX
  5
39C
100
AcDbEntity
  8
0
370
               0
390
0
  6
Continuous
 62
              30
100
AcDbVertex
100
AcDb2dVertex
 10
7823.644628024118
 20
16.152548326460931
 30
0.0
  0
VERTEX
  5
39D
100
AcDbEntity
  8
0
370
               0
390
0
  6
Continuous
 62
              30
100
AcDbVertex
100
AcDb2dVertex
 10
7822.0680851698089
 20
17.32735587498388
 30
0.0
  0
VERTEX
  5
39E
100
AcDbEntity
  8
0
370
               0
390
0
  6
Continuous
 62
              30
100
AcDbVertex
100
AcDb2dVertex
 10
7820.7071323156524
 20
18.775629533736321
 30
0.0
  0
VERTEX
  5
39F
100
AcDbEntity
  8
0
370
               0
390
0
  6
Continuous
 62
              30
100
AcDbVertex
100
AcDb2dVertex
 10
7819.6032542944122
 20
20.453381074874017
 30
0.0
  0
VERTEX
  5
3A0
100
AcDbEntity
  8
0
370
               0
390
0
  6
Continuous
 62
              30
100
AcDbVertex
100
AcDb2dVertex
 10
7818.7898297071624
 20
22.309648527114007
 30
0.0
  0
VERTEX
  5
3A1
100
AcDbEntity
  8
0
370
               0
390
0
  6
Continuous
 62
              30
100
AcDbVertex
100
AcDb2dVertex
 10
7818.5765046835113
 20
22.998797430007073
 30
0.0
  0
SEQEND
  5
3A2
100
AcDbEntity
  8
0
370
               0
390
0
  6
Continuous
 62
              30
  0
LINE
  5
3A4
100
AcDbEntity
  8
0
370
               0
390
0
  6
Continuous
 62
              30
100
AcDbLine
 10
7821.0409183263946
 20
23.82837487599096
 30
0.0
 11
7819.7684187650848
 21
23.82837487599096
 31
0.0
  0
ARC
  5
3A5
100
AcDbEntity
  8
0
370
               0
390
0
  6
Continuous
 62
              30
100
AcDbCircle
 10
7829.1844577350585
 20
25.779801330836619
 30
0.0
 40
8.37408498339577
100
AcDbArc
 50
193.47562091459366
 51
353.47613153530432
  0
LINE
  5
3A6
100
AcDbEntity
  8
0
370
               0
390
0
  6
Continuous
 62
              30
100
AcDbLine
 10
7838.5622997045684
 20
24.828362001387688
 30
0.0
 11
7837.5043172598052
 21
24.828362001387688
 31
0.0
  0
LINE
  5
3A7
100
AcDbEntity
  8
0
370
               0
390
0
  6
Continuous
 62
              30
100
AcDbLine
 10
7838.5622997045684
 20
24.828362001387688
 30
0.0
 11
7838.5622997045684
 21
27.828382982222649
 31
0.0
  0
LINE
  5
3A8
100
AcDbEntity
  8
0
370
               0
390
0
  6
Continuous
 62
              30
100
AcDbLine
 10
7837.5043172598052
 20
27.828382982222649
 30
0.0
 11
7838.5622997045684
 21
27.828382982222649
 31
0.0
  0
ARC
  5
3A9
100
AcDbEntity
  8
0
370
               0
390
0
  6
Continuous
 62
              30
100
AcDbCircle
 10
7829.1847050690476
 20
26.881015663320397
 30
0.0
 40
8.3733775647302462
100
AcDbArc
 50
6.4963779844505334
 51
166.55186956565336
  0
LINE
  5
3AA
100
AcDbEntity
  8
0
370
               0
390
0
  6
Continuous
 62
              30
100
AcDbLine
 10
7819.7684187650848
 20
28.828370107619378
 30
0.0
 11
7821.0409183263946
 21
28.828370107619378
 31
0.0
  0
LINE
  5
3AB
100
AcDbEntity
  8
0
370
               0
390
0
  6
Continuous
 62
              30
100
AcDbLine
 10
7819.7684187650848
 20
28.828370107619378
 30
0.0
 11
7819.7684187650848
 21
23.82837487599096
 31
0.0
  0
LINE
  5
3AC
100
AcDbEntity
  8
0
370
               0
390
0
  6
Continuous
 62
              30
100
AcDbLine
 10
7818.6201948881317
 20
39.328383935896966
 30
0.0
 11
7820.8843369245697
 21
39.328383935896966
 31
0.0
  0
LINE
  5
3AD
100
AcDbEntity
  8
0
370
               0
390
0
  6
Continuous
 62
              30
100
AcDbLine
 10
7838.6565346479583
 20
13.328361047713372
 30
0.0
 11
7836.5562457800079
 21
13.328361047713372
 31
0.0
  0
ARC
  5
3AE
100
AcDbEntity
  8
0
370
               0
390
0
  6
Continuous
 62
              30
100
AcDbCircle
 10
7822.0888576251209
 20
25.800940260268305
 30
0.0
 40
8.5274204342028881
100
AcDbArc
 50
295.38949401924509
 51
320.07687937985287
  0
LINE
  5
3AF
100
AcDbEntity
  8
0
370
               0
390
0
  6
Continuous
 62
              30
100
AcDbLine
 10
7834.6244592428375
 20
24.828362001387688
 30
0.0
 11
7837.5043172598052
 21
24.828362001387688
 31
0.0
  0
LINE
  5
3B0
100
AcDbEntity
  8
0
370
               0
390
0
  6
Continuous
 62
              30
100
AcDbLine
 10
7837.5043172598052
 20
27.828382982222649
 30
0.0
 11
7834.6244592428375
 21
27.828382982222649
 31
0.0
  0
ARC
  5
3B1
100
AcDbEntity
  8
0
370
               0
390
0
  6
Continuous
 62
              30
100
AcDbCircle
 10
7822.088504109558
 20
26.855142061266122
 30
0.0
 40
8.5281168215897001
100
AcDbArc
 50
39.925010708899336
 51
64.610097510286124
  0
POLYLINE
  5
3B2
100
AcDbEntity
  8
0
370
               0
390
0
  6
Continuous
 62
              30
100
AcDb2dPolyline
 66
               1
 10
0.0
 20
0.0
 30
0.0
 75
               5
  0
VERTEX
  5
3B3
100
AcDbEntity
  8
0
370
               0
390
0
  6
Continuous
 62
              30
100
AcDbVertex
100
AcDb2dVertex
 10
7823.5272068739105
 20
26.328372491805169
 30
0.0
  0
VERTEX
  5
3B4
100
AcDbEntity
  8
0
370
               0
390
0
  6
Continuous
 62
              30
100
AcDbVertex
100
AcDb2dVertex
 10
7823.7043518781829
 20
27.820515169112298
 30
0.0
  0
VERTEX
  5
3B5
100
AcDbEntity
  8
0
370
               0
390
0
  6
Continuous
 62
              30
100
AcDbVertex
100
AcDb2dVertex
 10
7824.2245812177825
 20
29.218899740187737
 30
0.0
  0
VERTEX
  5
3B6
100
AcDbEntity
  8
0
370
               0
390
0
  6
Continuous
 62
              30
100
AcDbVertex
100
AcDb2dVertex
 10
7825.0552911520172
 20
30.435668958632561
 30
0.0
  0
VERTEX
  5
3B7
100
AcDbEntity
  8
0
370
               0
390
0
  6
Continuous
 62
              30
100
AcDbVertex
100
AcDb2dVertex
 10
7826.1442680120635
 20
31.394350065199944
 30
0.0
  0
VERTEX
  5
3B8
100
AcDbEntity
  8
0
370
               0
390
0
  6
Continuous
 62
              30
100
AcDbVertex
100
AcDb2dVertex
 10
7827.4230856657196
 20
32.034682764021966
 30
0.0
  0
VERTEX
  5
3B9
100
AcDbEntity
  8
0
370
               0
390
0
  6
Continuous
 62
              30
100
AcDbVertex
100
AcDb2dVertex
 10
7828.8113374471832
 20
32.316553129164788
 30
0.0
  0
VERTEX
  5
3BA
100
AcDbEntity
  8
0
370
               0
390
0
  6
Continuous
 62
              30
100
AcDbVertex
100
AcDb2dVertex
 10
7830.221821761148
 20
32.222079767195794
 30
0.0
  0
VERTEX
  5
3BB
100
AcDbEntity
  8
0
370
               0
390
0
  6
Continuous
 62
              30
100
AcDbVertex
100
AcDb2dVertex
 10
7831.5659661054779
 20
31.757342351882073
 30
0.0
  0
VERTEX
  5
3BC
100
AcDbEntity
  8
0
370
               0
390
0
  6
Continuous
 62
              30
100
AcDbVertex
100
AcDb2dVertex
 10
7832.7592510938812
 20
30.951427949874017
 30
0.0
  0
VERTEX
  5
3BD
100
AcDbEntity
  8
0
370
               0
390
0
  6
Continuous
 62
              30
100
AcDbVertex
100
AcDb2dVertex
 10
7833.7266940832305
 20
29.855060113875481
 30
0.0
  0
VERTEX
  5
3BE
100
AcDbEntity
  8
0
370
               0
390
0
  6
Continuous
 62
              30
100
AcDbVertex
100
AcDb2dVertex
 10
7834.4075579404998
 20
28.537082208602044
 30
0.0
  0
VERTEX
  5
3BF
100
AcDbEntity
  8
0
370
               0
390
0
  6
Continuous
 62
              30
100
AcDbVertex
100
AcDb2dVertex
 10
7834.7590465307403
 20
27.080344690291497
 30
0.0
  0
VERTEX
  5
3C0
100
AcDbEntity
  8
0
370
               0
390
0
  6
Continuous
 62
              30
100
AcDbVertex
100
AcDb2dVertex
 10
7834.7590465307403
 20
25.576340688674065
 30
0.0
  0
VERTEX
  5
3C1
100
AcDbEntity
  8
0
370
               0
390
0
  6
Continuous
 62
              30
100
AcDbVertex
100
AcDb2dVertex
 10
7834.4075579404998
 20
24.119603170363519
 30
0.0
  0
VERTEX
  5
3C2
100
AcDbEntity
  8
0
370
               0
390
0
  6
Continuous
 62
              30
100
AcDbVertex
100
AcDb2dVertex
 10
7833.7266940832305
 20
22.801625265090081
 30
0.0
  0
VERTEX
  5
3C3
100
AcDbEntity
  8
0
370
               0
390
0
  6
Continuous
 62
              30
100
AcDbVertex
100
AcDb2dVertex
 10
7832.7592510938812
 20
21.705257429091546
 30
0.0
  0
VERTEX
  5
3C4
100
AcDbEntity
  8
0
370
               0
390
0
  6
Continuous
 62
              30
100
AcDbVertex
100
AcDb2dVertex
 10
7831.5659661054779
 20
20.899402631728265
 30
0.0
  0
VERTEX
  5
3C5
100
AcDbEntity
  8
0
370
               0
390
0
  6
Continuous
 62
              30
100
AcDbVertex
100
AcDb2dVertex
 10
7830.221821761148
 20
20.434665216414544
 30
0.0
  0
VERTEX
  5
3C6
100
AcDbEntity
  8
0
370
               0
390
0
  6
Continuous
 62
              30
100
AcDbVertex
100
AcDb2dVertex
 10
7828.8113374471832
 20
20.34019185444555
 30
0.0
  0
VERTEX
  5
3C7
100
AcDbEntity
  8
0
370
               0
390
0
  6
Continuous
 62
              30
100
AcDbVertex
100
AcDb2dVertex
 10
7827.4230856657196
 20
20.622002614943597
 30
0.0
  0
VERTEX
  5
3C8
100
AcDbEntity
  8
0
370
               0
390
0
  6
Continuous
 62
              30
100
AcDbVertex
100
AcDb2dVertex
 10
7826.1442680120635
 20
21.262394918410394
 30
0.0
  0
VERTEX
  5
3C9
100
AcDbEntity
  8
0
370
               0
390
0
  6
Continuous
 62
              30
100
AcDbVertex
100
AcDb2dVertex
 10
7825.0552911520172
 20
22.221076024977776
 30
0.0
  0
VERTEX
  5
3CA
100
AcDbEntity
  8
0
370
               0
390
0
  6
Continuous
 62
              30
100
AcDbVertex
100
AcDb2dVertex
 10
7824.2245812177825
 20
23.437845243422601
 30
0.0
  0
VERTEX
  5
3CB
100
AcDbEntity
  8
0
370
               0
390
0
  6
Continuous
 62
              30
100
AcDbVertex
100
AcDb2dVertex
 10
7823.7043518781829
 20
24.83622981449804
 30
0.0
  0
VERTEX
  5
3CC
100
AcDbEntity
  8
0
370
               0
390
0
  6
Continuous
 62
              30
100
AcDbVertex
100
AcDb2dVertex
 10
7823.5272068739105
 20
26.328372491805169
 30
0.0
  0
SEQEND
  5
3CD
100
AcDbEntity
  8
0
370
               0
390
0
  6
Continuous
 62
              30
  0
POLYLINE
  5
3CF
100
AcDbEntity
  8
0
370
               0
390
0
  6
Continuous
 62
              30
100
AcDb2dPolyline
 66
               1
 10
0.0
 20
0.0
 30
0.0
 75
               5
  0
VERTEX
  5
3D0
100
AcDbEntity
  8
0
370
               0
390
0
  6
Continuous
 62
              30
100
AcDbVertex
100
AcDb2dVertex
 10
7826.5811700582672
 20
26.328372491805169
 30
0.0
  0
VERTEX
  5
3D1
100
AcDbEntity
  8
0
370
               0
390
0
  6
Continuous
 62
              30
100
AcDbVertex
100
AcDb2dVertex
 10
7826.7556924581695
 20
25.334941877333733
 30
0.0
  0
VERTEX
  5
3D2
100
AcDbEntity
  8
0
370
               0
390
0
  6
Continuous
 62
              30
100
AcDbVertex
100
AcDb2dVertex
 10
7827.2556562185455
 20
24.475681318251702
 30
0.0
  0
VERTEX
  5
3D3
100
AcDbEntity
  8
0
370
               0
390
0
  6
Continuous
 62
              30
100
AcDbVertex
100
AcDb2dVertex
 10
7828.0134696722198
 20
23.866641057936761
 30
0.0
  0
VERTEX
  5
3D4
100
AcDbEntity
  8
0
370
               0
390
0
  6
Continuous
 62
              30
100
AcDbVertex
100
AcDb2dVertex
 10
7828.9269108534027
 20
23.590075506178948
 30
0.0
  0
VERTEX
  5
3D5
100
AcDbEntity
  8
0
370
               0
390
0
  6
Continuous
 62
              30
100
AcDbVertex
100
AcDb2dVertex
 10
7829.8725385427642
 20
23.683356775252435
 30
0.0
  0
VERTEX
  5
3D6
100
AcDbEntity
  8
0
370
               0
390
0
  6
Continuous
 62
              30
100
AcDbVertex
100
AcDb2dVertex
 10
7830.7226199865509
 20
24.133789075820061
 30
0.0
  0
VERTEX
  5
3D7
100
AcDbEntity
  8
0
370
               0
390
0
  6
Continuous
 62
              30
100
AcDbVertex
100
AcDb2dVertex
 10
7831.3624162435699
 20
24.880694879500481
 30
0.0
  0
VERTEX
  5
3D8
100
AcDbEntity
  8
0
370
               0
390
0
  6
Continuous
 62
              30
100
AcDbVertex
100
AcDb2dVertex
 10
7831.705500578897
 20
25.823044313399407
 30
0.0
  0
VERTEX
  5
3D9
100
AcDbEntity
  8
0
370
               0
390
0
  6
Continuous
 62
              30
100
AcDbVertex
100
AcDb2dVertex
 10
7831.705500578897
 20
26.833700670210931
 30
0.0
  0
VERTEX
  5
3DA
100
AcDbEntity
  8
0
370
               0
390
0
  6
Continuous
 62
              30
100
AcDbVertex
100
AcDb2dVertex
 10
7831.3624162435699
 20
27.776050104109856
 30
0.0
  0
VERTEX
  5
3DB
100
AcDbEntity
  8
0
370
               0
390
0
  6
Continuous
 62
              30
100
AcDbVertex
100
AcDb2dVertex
 10
7830.7226199865509
 20
28.522896303145501
 30
0.0
  0
VERTEX
  5
3DC
100
AcDbEntity
  8
0
370
               0
390
0
  6
Continuous
 62
              30
100
AcDbVertex
100
AcDb2dVertex
 10
7829.8725385427642
 20
28.973388208357903
 30
0.0
  0
VERTEX
  5
3DD
100
AcDbEntity
  8
0
370
               0
390
0
  6
Continuous
 62
              30
100
AcDbVertex
100
AcDb2dVertex
 10
7828.9269108534027
 20
29.066609872786614
 30
0.0
  0
VERTEX
  5
3DE
100
AcDbEntity
  8
0
370
               0
390
0
  6
Continuous
 62
              30
100
AcDbVertex
100
AcDb2dVertex
 10
7828.0134696722198
 20
28.790044321028802
 30
0.0
  0
VERTEX
  5
3DF
100
AcDbEntity
  8
0
370
               0
390
0
  6
Continuous
 62
              30
100
AcDbVertex
100
AcDb2dVertex
 10
7827.2556562185455
 20
28.18100406071386
 30
0.0
  0
VERTEX
  5
3E0
100
AcDbEntity
  8
0
370
               0
390
0
  6
Continuous
 62
              30
100
AcDbVertex
100
AcDb2dVertex
 10
7826.7556924581695
 20
27.321803106276604
 30
0.0
  0
VERTEX
  5
3E1
100
AcDbEntity
  8
0
370
               0
390
0
  6
Continuous
 62
              30
100
AcDbVertex
100
AcDb2dVertex
 10
7826.5811700582672
 20
26.328372491805169
 30
0.0
  0
SEQEND
  5
3E2
100
AcDbEntity
  8
0
370
               0
390
0
  6
Continuous
 62
              30
  0
LINE
  5
3E4
100
AcDbEntity
  8
0
370
               0
390
0
  6
Continuous
 62
              30
100
AcDbLine
 10
7678.6746282339263
 20
406.82839108845434
 30
0.0
 11
7678.6746282339263
 21
-40.171635614426521
 31
0.0
  0
LINE
  5
3E5
100
AcDbEntity
  8
0
370
               0
390
0
  6
Continuous
 62
              30
100
AcDbLine
 10
7793.6746377706695
 20
-40.171635614426521
 30
0.0
 11
7793.6746377706695
 21
406.82839108845434
 31
0.0
  0
LINE
  5
3E6
100
AcDbEntity
  8
0
370
               0
390
0
  6
Continuous
 62
              30
100
AcDbLine
 10
7678.6746282339263
 20
-40.171635614426521
 30
0.0
 11
7793.6746377706695
 21
-40.171635614426521
 31
0.0
  0
LINE
  5
3E7
100
AcDbEntity
  8
0
370
               0
390
0
  6
Continuous
 62
              30
100
AcDbLine
 10
7793.6746377706695
 20
406.82839108845434
 30
0.0
 11
7678.6746282339263
 21
406.82839108845434
 31
0.0
  0
POLYLINE
  5
3E8
100
AcDbEntity
  8
0
370
               0
390
0
  6
Continuous
 62
              30
100
AcDb2dPolyline
 66
               1
 10
0.0
 20
0.0
 30
0.0
 75
               5
  0
VERTEX
  5
3E9
100
AcDbEntity
  8
0
370
               0
390
0
  6
Continuous
 62
              30
100
AcDbVertex
100
AcDb2dVertex
 10
7840.1894469022918
 20
220.32837821385107
 30
0.0
  0
VERTEX
  5
3EA
100
AcDbEntity
  8
0
370
               0
390
0
  6
Continuous
 62
              30
100
AcDbVertex
100
AcDb2dVertex
 10
7840.0245208501983
 20
218.77073003193578
 30
0.0
  0
VERTEX
  5
3EB
100
AcDbEntity
  8
0
370
               0
390
0
  6
Continuous
 62
              30
100
AcDbVertex
100
AcDb2dVertex
 10
7839.5380277395416
 20
217.29116393467626
 30
0.0
  0
VERTEX
  5
3EC
100
AcDbEntity
  8
0
370
               0
390
0
  6
Continuous
 62
              30
100
AcDbVertex
100
AcDb2dVertex
 10
7838.7543458700347
 20
215.96394730946264
 30
0.0
  0
VERTEX
  5
3ED
100
AcDbEntity
  8
0
370
               0
390
0
  6
Continuous
 62
              30
100
AcDbVertex
100
AcDb2dVertex
 10
7837.7128143072296
 20
214.85553933521948
 30
0.0
  0
VERTEX
  5
3EE
100
AcDbEntity
  8
0
370
               0
390
0
  6
Continuous
 62
              30
100
AcDbVertex
100
AcDb2dVertex
 10
7836.4655871153045
 20
214.02161075016699
 30
0.0
  0
VERTEX
  5
3EF
100
AcDbEntity
  8
0
370
               0
390
0
  6
Continuous
 62
              30
100
AcDbVertex
100
AcDb2dVertex
 10
7835.0753087759185
 20
213.50388480564794
 30
0.0
  0
VERTEX
  5
3F0
100
AcDbEntity
  8
0
370
               0
390
0
  6
Continuous
 62
              30
100
AcDbVertex
100
AcDb2dVertex
 10
7833.6115975141693
 20
213.32834912678442
 30
0.0
  0
VERTEX
  5
3F1
100
AcDbEntity
  8
0
370
               0
390
0
  6
Continuous
 62
              30
100
AcDbVertex
100
AcDb2dVertex
 10
7832.14788625242
 20
213.50388480564794
 30
0.0
  0
VERTEX
  5
3F2
100
AcDbEntity
  8
0
370
               0
390
0
  6
Continuous
 62
              30
100
AcDbVertex
100
AcDb2dVertex
 10
7830.7575483083892
 20
214.02161075016699
 30
0.0
  0
VERTEX
  5
3F3
100
AcDbEntity
  8
0
370
               0
390
0
  6
Continuous
 62
              30
100
AcDbVertex
100
AcDb2dVertex
 10
7829.510380721109
 20
214.85553933521948
 30
0.0
  0
VERTEX
  5
3F4
100
AcDbEntity
  8
0
370
               0
390
0
  6
Continuous
 62
              30
100
AcDbVertex
100
AcDb2dVertex
 10
7828.4688491583038
 20
215.96394730946264
 30
0.0
  0
VERTEX
  5
3F5
100
AcDbEntity
  8
0
370
               0
390
0
  6
Continuous
 62
              30
100
AcDbVertex
100
AcDb2dVertex
 10
7827.6851672887969
 20
217.29116393467626
 30
0.0
  0
VERTEX
  5
3F6
100
AcDbEntity
  8
0
370
               0
390
0
  6
Continuous
 62
              30
100
AcDbVertex
100
AcDb2dVertex
 10
7827.1986741781402
 20
218.77073003193578
 30
0.0
  0
VERTEX
  5
3F7
100
AcDbEntity
  8
0
370
               0
390
0
  6
Continuous
 62
              30
100
AcDbVertex
100
AcDb2dVertex
 10
7827.0337481260467
 20
220.32837821385107
 30
0.0
  0
VERTEX
  5
3F8
100
AcDbEntity
  8
0
370
               0
390
0
  6
Continuous
 62
              30
100
AcDbVertex
100
AcDb2dVertex
 10
7827.1986741781402
 20
221.88602639576635
 30
0.0
  0
VERTEX
  5
3F9
100
AcDbEntity
  8
0
370
               0
390
0
  6
Continuous
 62
              30
100
AcDbVertex
100
AcDb2dVertex
 10
7827.6851672887969
 20
223.3655328883811
 30
0.0
  0
VERTEX
  5
3FA
100
AcDbEntity
  8
0
370
               0
390
0
  6
Continuous
 62
              30
100
AcDbVertex
100
AcDb2dVertex
 10
7828.4688491583038
 20
224.6928091182395
 30
0.0
  0
VERTEX
  5
3FB
100
AcDbEntity
  8
0
370
               0
390
0
  6
Continuous
 62
              30
100
AcDbVertex
100
AcDb2dVertex
 10
7829.510380721109
 20
225.80121709248266
 30
0.0
  0
VERTEX
  5
3FC
100
AcDbEntity
  8
0
370
               0
390
0
  6
Continuous
 62
              30
100
AcDbVertex
100
AcDb2dVertex
 10
7830.7575483083892
 20
226.63514567753515
 30
0.0
  0
VERTEX
  5
3FD
100
AcDbEntity
  8
0
370
               0
390
0
  6
Continuous
 62
              30
100
AcDbVertex
100
AcDb2dVertex
 10
7832.14788625242
 20
227.15287162205419
 30
0.0
  0
VERTEX
  5
3FE
100
AcDbEntity
  8
0
370
               0
390
0
  6
Continuous
 62
              30
100
AcDbVertex
100
AcDb2dVertex
 10
7833.6115975141693
 20
227.32834769627294
 30
0.0
  0
VERTEX
  5
3FF
100
AcDbEntity
  8
0
370
               0
390
0
  6
Continuous
 62
              30
100
AcDbVertex
100
AcDb2dVertex
 10
7835.0753087759185
 20
227.15287162205419
 30
0.0
  0
VERTEX
  5
400
100
AcDbEntity
  8
0
370
               0
390
0
  6
Continuous
 62
              30
100
AcDbVertex
100
AcDb2dVertex
 10
7836.4655871153045
 20
226.63514567753515
 30
0.0
  0
VERTEX
  5
401
100
AcDbEntity
  8
0
370
               0
390
0
  6
Continuous
 62
              30
100
AcDbVertex
100
AcDb2dVertex
 10
7837.7128143072296
 20
225.80121709248266
 30
0.0
  0
VERTEX
  5
402
100
AcDbEntity
  8
0
370
               0
390
0
  6
Continuous
 62
              30
100
AcDbVertex
100
AcDb2dVertex
 10
7838.7543458700347
 20
224.6928091182395
 30
0.0
  0
VERTEX
  5
403
100
AcDbEntity
  8
0
370
               0
390
0
  6
Continuous
 62
              30
100
AcDbVertex
100
AcDb2dVertex
 10
7839.5380277395416
 20
223.3655328883811
 30
0.0
  0
VERTEX
  5
404
100
AcDbEntity
  8
0
370
               0
390
0
  6
Continuous
 62
              30
100
AcDbVertex
100
AcDb2dVertex
 10
7840.0245208501983
 20
221.88602639576635
 30
0.0
  0
VERTEX
  5
405
100
AcDbEntity
  8
0
370
               0
390
0
  6
Continuous
 62
              30
100
AcDbVertex
100
AcDb2dVertex
 10
7840.1894469022918
 20
220.32837821385107
 30
0.0
  0
SEQEND
  5
406
100
AcDbEntity
  8
0
370
               0
390
0
  6
Continuous
 62
              30
  0
ARC
  5
408
100
AcDbEntity
  8
0
370
               0
390
0
  6
Continuous
 62
              30
100
AcDbCircle
 10
7822.0403808288775
 20
166.35235638409102
 30
0.0
 40
2.525293758208921
100
AcDbArc
 50
178.27497638412913
 51
268.1629184956185
  0
LINE
  5
409
100
AcDbEntity
  8
0
370
               0
390
0
  6
Continuous
 62
              30
100
AcDbLine
 10
7845.2637691259552
 20
163.82836057087621
 30
0.0
 11
7821.9594259023834
 21
163.82836057087621
 31
0.0
  0
ARC
  5
40A
100
AcDbEntity
  8
0
370
               0
390
0
  6
Continuous
 62
              30
100
AcDbCircle
 10
7845.182813918901
 20
166.35241451388146
 30
0.0
 40
2.5253518671167212
100
AcDbArc
 50
271.83704558692182
 51
1.7236644508007544
  0
LINE
  5
40B
100
AcDbEntity
  8
0
370
               0
390
0
  6
Continuous
 62
              30
100
AcDbLine
 10
7847.7070231199432
 20
201.22836781880102
 30
0.0
 11
7847.7070231199432
 21
166.42837478062353
 31
0.0
  0
ARC
  5
40C
100
AcDbEntity
  8
0
370
               0
390
0
  6
Continuous
 62
              30
100
AcDbCircle
 10
7845.182813918901
 20
201.30432808554309
 30
0.0
 40
2.5253518671166058
100
AcDbArc
 50
358.27633554919925
 51
88.162954413078182
  0
LINE
  5
40D
100
AcDbEntity
  8
0
370
               0
390
0
  6
Continuous
 62
              30
100
AcDbLine
 10
7821.9594259023834
 20
203.82838202854833
 30
0.0
 11
7845.2637691259552
 21
203.82838202854833
 31
0.0
  0
ARC
  5
40E
100
AcDbEntity
  8
0
370
               0
390
0
  6
Continuous
 62
              30
100
AcDbCircle
 10
7822.0403808288775
 20
201.30438621533352
 30
0.0
 40
2.5252937582091279
100
AcDbArc
 50
91.837081504381501
 51
181.72502361587084
  0
LINE
  5
40F
100
AcDbEntity
  8
0
370
               0
390
0
  6
Continuous
 62
              30
100
AcDbLine
 10
7819.5162315130401
 20
166.42837478062353
 30
0.0
 11
7819.5162315130401
 21
201.22836781880102
 31
0.0
  0
ARC
  5
410
100
AcDbEntity
  8
0
370
               0
390
0
  6
Continuous
 62
              30
100
AcDbCircle
 10
7824.4013947193625
 20
113.00380405581774
 30
0.0
 40
5.8275315538859314
100
AcDbArc
 50
91.836009640339753
 51
181.72519626660537
  0
LINE
  5
411
100
AcDbEntity
  8
0
370
               0
390
0
  6
Continuous
 62
              30
100
AcDbLine
 10
7818.5765046835113
 20
14.828371538130853
 30
0.0
 11
7818.5765046835113
 21
112.82836152455053
 31
0.0
  0
ARC
  5
412
100
AcDbEntity
  8
0
370
               0
390
0
  6
Continuous
 62
              30
100
AcDbCircle
 10
7824.4013947193625
 20
14.652929006863531
 30
0.0
 40
5.8275315538859598
100
AcDbArc
 50
178.27480373339353
 51
268.16399035960654
  0
LINE
  5
413
100
AcDbEntity
  8
0
370
               0
390
0
  6
Continuous
 62
              30
100
AcDbLine
 10
7843.0085081815887
 20
8.828389181105706
 30
0.0
 11
7824.2146868467498
 21
8.828389181105706
 31
0.0
  0
ARC
  5
414
100
AcDbEntity
  8
0
370
               0
390
0
  6
Continuous
 62
              30
100
AcDbCircle
 10
7842.821898997574
 20
14.652836269209217
 30
0.0
 40
5.8274357027492343
100
AcDbArc
 50
271.83506903811519
 51
1.7261368688616585
  0
LINE
  5
415
100
AcDbEntity
  8
0
370
               0
390
0
  6
Continuous
 62
              30
100
AcDbLine
 10
7848.6466903448272
 20
112.82836152455053
 30
0.0
 11
7848.6466903448272
 21
14.828371538130853
 31
0.0
  0
ARC
  5
416
100
AcDbEntity
  8
0
370
               0
390
0
  6
Continuous
 62
              30
100
AcDbCircle
 10
7842.821898997574
 20
113.00389679347217
 30
0.0
 40
5.8274357027488417
100
AcDbArc
 50
358.27386313113834
 51
88.164930961884806
  0
LINE
  5
417
100
AcDbEntity
  8
0
370
               0
390
0
  6
Continuous
 62
              30
100
AcDbLine
 10
7824.2146868467498
 20
118.82834388157568
 30
0.0
 11
7843.0085081815887
 21
118.82834388157568
 31
0.0
  0
LINE
  5
418
100
AcDbEntity
  8
0
370
               0
390
0
  6
Continuous
 62
              30
100
AcDbLine
 10
7873.5484976530242
 20
-40.171635614426521
 30
0.0
 11
7873.5484976530242
 21
406.82839108845434
 31
0.0
  0
LINE
  5
419
100
AcDbEntity
  8
0
370
               0
390
0
  6
Continuous
 62
              30
100
AcDbLine
 10
7793.6746377706695
 20
-40.171635614426521
 30
0.0
 11
7873.5484976530242
 21
-40.171635614426521
 31
0.0
  0
POLYLINE
  5
41A
100
AcDbEntity
  8
0
370
               0
390
0
  6
Continuous
 62
              30
100
AcDb2dPolyline
 66
               1
 10
0.0
 20
0.0
 30
0.0
 75
               5
  0
VERTEX
  5
41B
100
AcDbEntity
  8
0
370
               0
390
0
  6
Continuous
 62
              30
100
AcDbVertex
100
AcDb2dVertex
 10
7840.1894469022918
 20
148.32835151097021
 30
0.0
  0
VERTEX
  5
41C
100
AcDbEntity
  8
0
370
               0
390
0
  6
Continuous
 62
              30
100
AcDbVertex
100
AcDb2dVertex
 10
7840.0245208501983
 20
146.77070332905492
 30
0.0
  0
VERTEX
  5
41D
100
AcDbEntity
  8
0
370
               0
390
0
  6
Continuous
 62
              30
100
AcDbVertex
100
AcDb2dVertex
 10
7839.5380277395416
 20
145.29119683644018
 30
0.0
  0
VERTEX
  5
41E
100
AcDbEntity
  8
0
370
               0
390
0
  6
Continuous
 62
              30
100
AcDbVertex
100
AcDb2dVertex
 10
7838.7543458700347
 20
143.96392060658178
 30
0.0
  0
VERTEX
  5
41F
100
AcDbEntity
  8
0
370
               0
390
0
  6
Continuous
 62
              30
100
AcDbVertex
100
AcDb2dVertex
 10
7837.7128143072296
 20
142.85557223698339
 30
0.0
  0
VERTEX
  5
420
100
AcDbEntity
  8
0
370
               0
390
0
  6
Continuous
 62
              30
100
AcDbVertex
100
AcDb2dVertex
 10
7836.4655871153045
 20
142.02158404728613
 30
0.0
  0
VERTEX
  5
421
100
AcDbEntity
  8
0
370
               0
390
0
  6
Continuous
 62
              30
100
AcDbVertex
100
AcDb2dVertex
 10
7835.0753087759185
 20
141.50385810276708
 30
0.0
  0
VERTEX
  5
422
100
AcDbEntity
  8
0
370
               0
390
0
  6
Continuous
 62
              30
100
AcDbVertex
100
AcDb2dVertex
 10
7833.6115975141693
 20
141.32838202854833
 30
0.0
  0
VERTEX
  5
423
100
AcDbEntity
  8
0
370
               0
390
0
  6
Continuous
 62
              30
100
AcDbVertex
100
AcDb2dVertex
 10
7832.14788625242
 20
141.50385810276708
 30
0.0
  0
VERTEX
  5
424
100
AcDbEntity
  8
0
370
               0
390
0
  6
Continuous
 62
              30
100
AcDbVertex
100
AcDb2dVertex
 10
7830.7575483083892
 20
142.02158404728613
 30
0.0
  0
VERTEX
  5
425
100
AcDbEntity
  8
0
370
               0
390
0
  6
Continuous
 62
              30
100
AcDbVertex
100
AcDb2dVertex
 10
7829.510380721109
 20
142.85557223698339
 30
0.0
  0
VERTEX
  5
426
100
AcDbEntity
  8
0
370
               0
390
0
  6
Continuous
 62
              30
100
AcDbVertex
100
AcDb2dVertex
 10
7828.4688491583038
 20
143.96392060658178
 30
0.0
  0
VERTEX
  5
427
100
AcDbEntity
  8
0
370
               0
390
0
  6
Continuous
 62
              30
100
AcDbVertex
100
AcDb2dVertex
 10
7827.6851672887969
 20
145.29119683644018
 30
0.0
  0
VERTEX
  5
428
100
AcDbEntity
  8
0
370
               0
390
0
  6
Continuous
 62
              30
100
AcDbVertex
100
AcDb2dVertex
 10
7827.1986741781402
 20
146.77070332905492
 30
0.0
  0
VERTEX
  5
429
100
AcDbEntity
  8
0
370
               0
390
0
  6
Continuous
 62
              30
100
AcDbVertex
100
AcDb2dVertex
 10
7827.0337481260467
 20
148.32835151097021
 30
0.0
  0
VERTEX
  5
42A
100
AcDbEntity
  8
0
370
               0
390
0
  6
Continuous
 62
              30
100
AcDbVertex
100
AcDb2dVertex
 10
7827.1986741781402
 20
149.88599969288549
 30
0.0
  0
VERTEX
  5
42B
100
AcDbEntity
  8
0
370
               0
390
0
  6
Continuous
 62
              30
100
AcDbVertex
100
AcDb2dVertex
 10
7827.6851672887969
 20
151.36556579014501
 30
0.0
  0
VERTEX
  5
42C
100
AcDbEntity
  8
0
370
               0
390
0
  6
Continuous
 62
              30
100
AcDbVertex
100
AcDb2dVertex
 10
7828.4688491583038
 20
152.69278241535864
 30
0.0
  0
VERTEX
  5
42D
100
AcDbEntity
  8
0
370
               0
390
0
  6
Continuous
 62
              30
100
AcDbVertex
100
AcDb2dVertex
 10
7829.510380721109
 20
153.8011903896018
 30
0.0
  0
VERTEX
  5
42E
100
AcDbEntity
  8
0
370
               0
390
0
  6
Continuous
 62
              30
100
AcDbVertex
100
AcDb2dVertex
 10
7830.7575483083892
 20
154.63517857929907
 30
0.0
  0
VERTEX
  5
42F
100
AcDbEntity
  8
0
370
               0
390
0
  6
Continuous
 62
              30
100
AcDbVertex
100
AcDb2dVertex
 10
7832.14788625242
 20
155.15284491917333
 30
0.0
  0
VERTEX
  5
430
100
AcDbEntity
  8
0
370
               0
390
0
  6
Continuous
 62
              30
100
AcDbVertex
100
AcDb2dVertex
 10
7833.6115975141693
 20
155.32838059803686
 30
0.0
  0
VERTEX
  5
431
100
AcDbEntity
  8
0
370
               0
390
0
  6
Continuous
 62
              30
100
AcDbVertex
100
AcDb2dVertex
 10
7835.0753087759185
 20
155.15284491917333
 30
0.0
  0
VERTEX
  5
432
100
AcDbEntity
  8
0
370
               0
390
0
  6
Continuous
 62
              30
100
AcDbVertex
100
AcDb2dVertex
 10
7836.4655871153045
 20
154.63517857929907
 30
0.0
  0
VERTEX
  5
433
100
AcDbEntity
  8
0
370
               0
390
0
  6
Continuous
 62
              30
100
AcDbVertex
100
AcDb2dVertex
 10
7837.7128143072296
 20
153.8011903896018
 30
0.0
  0
VERTEX
  5
434
100
AcDbEntity
  8
0
370
               0
390
0
  6
Continuous
 62
              30
100
AcDbVertex
100
AcDb2dVertex
 10
7838.7543458700347
 20
152.69278241535864
 30
0.0
  0
VERTEX
  5
435
100
AcDbEntity
  8
0
370
               0
390
0
  6
Continuous
 62
              30
100
AcDbVertex
100
AcDb2dVertex
 10
7839.5380277395416
 20
151.36556579014501
 30
0.0
  0
VERTEX
  5
436
100
AcDbEntity
  8
0
370
               0
390
0
  6
Continuous
 62
              30
100
AcDbVertex
100
AcDb2dVertex
 10
7840.0245208501983
 20
149.88599969288549
 30
0.0
  0
VERTEX
  5
437
100
AcDbEntity
  8
0
370
               0
390
0
  6
Continuous
 62
              30
100
AcDbVertex
100
AcDb2dVertex
 10
7840.1894469022918
 20
148.32835151097021
 30
0.0
  0
SEQEND
  5
438
100
AcDbEntity
  8
0
370
               0
390
0
  6
Continuous
 62
              30
  0
LINE
  5
43A
100
AcDbEntity
  8
0
370
               0
390
0
  6
Continuous
 62
              30
100
AcDbLine
 10
7873.5484976530242
 20
406.82839108845434
 30
0.0
 11
7793.6746377706695
 21
406.82839108845434
 31
0.0
  0
POLYLINE
  5
43B
100
AcDbEntity
  8
0
370
               0
390
0
  6
Continuous
 62
              30
100
AcDb2dPolyline
 66
               1
 10
0.0
 20
0.0
 30
0.0
 75
               5
  0
VERTEX
  5
43C
100
AcDbEntity
  8
0
370
               0
390
0
  6
Continuous
 62
              30
100
AcDbVertex
100
AcDb2dVertex
 10
7836.3442916631866
 20
148.32835151097021
 30
0.0
  0
VERTEX
  5
43D
100
AcDbEntity
  8
0
370
               0
390
0
  6
Continuous
 62
              30
100
AcDbVertex
100
AcDb2dVertex
 10
7836.177279448526
 20
147.14937163731298
 30
0.0
  0
VERTEX
  5
43E
100
AcDbEntity
  8
0
370
               0
390
0
  6
Continuous
 62
              30
100
AcDbVertex
100
AcDb2dVertex
 10
7835.6911439657379
 20
146.07511712452612
 30
0.0
  0
VERTEX
  5
43F
100
AcDbEntity
  8
0
370
               0
390
0
  6
Continuous
 62
              30
100
AcDbVertex
100
AcDb2dVertex
 10
7834.9290985822845
 20
145.20107461353979
 30
0.0
  0
VERTEX
  5
440
100
AcDbEntity
  8
0
370
               0
390
0
  6
Continuous
 62
              30
100
AcDbVertex
100
AcDb2dVertex
 10
7833.9587349653411
 20
144.60484935185156
 30
0.0
  0
VERTEX
  5
441
100
AcDbEntity
  8
0
370
               0
390
0
  6
Continuous
 62
              30
100
AcDbVertex
100
AcDb2dVertex
 10
7832.8664202451873
 20
144.33954907795629
 30
0.0
  0
VERTEX
  5
442
100
AcDbEntity
  8
0
370
               0
390
0
  6
Continuous
 62
              30
100
AcDbVertex
100
AcDb2dVertex
 10
7831.7491311788726
 20
144.4286580218955
 30
0.0
  0
VERTEX
  5
443
100
AcDbEntity
  8
0
370
               0
390
0
  6
Continuous
 62
              30
100
AcDbVertex
100
AcDb2dVertex
 10
7830.7061691045928
 20
144.86424876591406
 30
0.0
  0
VERTEX
  5
444
100
AcDbEntity
  8
0
370
               0
390
0
  6
Continuous
 62
              30
100
AcDbVertex
100
AcDb2dVertex
 10
7829.8301596403289
 20
145.6076975001975
 30
0.0
  0
VERTEX
  5
445
100
AcDbEntity
  8
0
370
               0
390
0
  6
Continuous
 62
              30
100
AcDbVertex
100
AcDb2dVertex
 10
7829.1990060568023
 20
146.59284306904516
 30
0.0
  0
VERTEX
  5
446
100
AcDbEntity
  8
0
370
               0
390
0
  6
Continuous
 62
              30
100
AcDbVertex
100
AcDb2dVertex
 10
7828.8687367201019
 20
147.73218585392675
 30
0.0
  0
VERTEX
  5
447
100
AcDbEntity
  8
0
370
               0
390
0
  6
Continuous
 62
              30
100
AcDbVertex
100
AcDb2dVertex
 10
7828.8687367201019
 20
148.92451716801367
 30
0.0
  0
VERTEX
  5
448
100
AcDbEntity
  8
0
370
               0
390
0
  6
Continuous
 62
              30
100
AcDbVertex
100
AcDb2dVertex
 10
7829.1990060568023
 20
150.06391955754003
 30
0.0
  0
VERTEX
  5
449
100
AcDbEntity
  8
0
370
               0
390
0
  6
Continuous
 62
              30
100
AcDbVertex
100
AcDb2dVertex
 10
7829.8301596403289
 20
151.04906512638769
 30
0.0
  0
VERTEX
  5
44A
100
AcDbEntity
  8
0
370
               0
390
0
  6
Continuous
 62
              30
100
AcDbVertex
100
AcDb2dVertex
 10
7830.7061691045928
 20
151.79245425602636
 30
0.0
  0
VERTEX
  5
44B
100
AcDbEntity
  8
0
370
               0
390
0
  6
Continuous
 62
              30
100
AcDbVertex
100
AcDb2dVertex
 10
7831.7491311788726
 20
152.22810460468969
 30
0.0
  0
VERTEX
  5
44C
100
AcDbEntity
  8
0
370
               0
390
0
  6
Continuous
 62
              30
100
AcDbVertex
100
AcDb2dVertex
 10
7832.8664202451873
 20
152.3172135486289
 30
0.0
  0
VERTEX
  5
44D
100
AcDbEntity
  8
0
370
               0
390
0
  6
Continuous
 62
              30
100
AcDbVertex
100
AcDb2dVertex
 10
7833.9587349653411
 20
152.05185367008886
 30
0.0
  0
VERTEX
  5
44E
100
AcDbEntity
  8
0
370
               0
390
0
  6
Continuous
 62
              30
100
AcDbVertex
100
AcDb2dVertex
 10
7834.9290985822845
 20
151.4556880130454
 30
0.0
  0
VERTEX
  5
44F
100
AcDbEntity
  8
0
370
               0
390
0
  6
Continuous
 62
              30
100
AcDbVertex
100
AcDb2dVertex
 10
7835.6911439657379
 20
150.58164550205908
 30
0.0
  0
VERTEX
  5
450
100
AcDbEntity
  8
0
370
               0
390
0
  6
Continuous
 62
              30
100
AcDbVertex
100
AcDb2dVertex
 10
7836.177279448526
 20
149.50739098927221
 30
0.0
  0
VERTEX
  5
451
100
AcDbEntity
  8
0
370
               0
390
0
  6
Continuous
 62
              30
100
AcDbVertex
100
AcDb2dVertex
 10
7836.3442916631866
 20
148.32835151097021
 30
0.0
  0
SEQEND
  5
452
100
AcDbEntity
  8
0
370
               0
390
0
  6
Continuous
 62
              30
  0
POLYLINE
  5
454
100
AcDbEntity
  8
0
370
               0
390
0
  6
Continuous
 62
              30
100
AcDb2dPolyline
 66
               1
 10
0.0
 20
0.0
 30
0.0
 75
               5
  0
VERTEX
  5
455
100
AcDbEntity
  8
0
370
               0
390
0
  6
Continuous
 62
              30
100
AcDbVertex
100
AcDb2dVertex
 10
7836.3442916631866
 20
220.32837821385107
 30
0.0
  0
VERTEX
  5
456
100
AcDbEntity
  8
0
370
               0
390
0
  6
Continuous
 62
              30
100
AcDbVertex
100
AcDb2dVertex
 10
7836.177279448526
 20
219.14933873554907
 30
0.0
  0
VERTEX
  5
457
100
AcDbEntity
  8
0
370
               0
390
0
  6
Continuous
 62
              30
100
AcDbVertex
100
AcDb2dVertex
 10
7835.6911439657379
 20
218.0750842227622
 30
0.0
  0
VERTEX
  5
458
100
AcDbEntity
  8
0
370
               0
390
0
  6
Continuous
 62
              30
100
AcDbVertex
100
AcDb2dVertex
 10
7834.9290985822845
 20
217.20104171177587
 30
0.0
  0
VERTEX
  5
459
100
AcDbEntity
  8
0
370
               0
390
0
  6
Continuous
 62
              30
100
AcDbVertex
100
AcDb2dVertex
 10
7833.9587349653411
 20
216.60487605473242
 30
0.0
  0
VERTEX
  5
45A
100
AcDbEntity
  8
0
370
               0
390
0
  6
Continuous
 62
              30
100
AcDbVertex
100
AcDb2dVertex
 10
7832.8664202451873
 20
216.33957578083715
 30
0.0
  0
VERTEX
  5
45B
100
AcDbEntity
  8
0
370
               0
390
0
  6
Continuous
 62
              30
100
AcDbVertex
100
AcDb2dVertex
 10
7831.7491311788726
 20
216.42868472477636
 30
0.0
  0
VERTEX
  5
45C
100
AcDbEntity
  8
0
370
               0
390
0
  6
Continuous
 62
              30
100
AcDbVertex
100
AcDb2dVertex
 10
7830.7061691045928
 20
216.86427546879492
 30
0.0
  0
VERTEX
  5
45D
100
AcDbEntity
  8
0
370
               0
390
0
  6
Continuous
 62
              30
100
AcDbVertex
100
AcDb2dVertex
 10
7829.8301596403289
 20
217.60766459843359
 30
0.0
  0
VERTEX
  5
45E
100
AcDbEntity
  8
0
370
               0
390
0
  6
Continuous
 62
              30
100
AcDbVertex
100
AcDb2dVertex
 10
7829.1990060568023
 20
218.59281016728124
 30
0.0
  0
VERTEX
  5
45F
100
AcDbEntity
  8
0
370
               0
390
0
  6
Continuous
 62
              30
100
AcDbVertex
100
AcDb2dVertex
 10
7828.8687367201019
 20
219.73221255680761
 30
0.0
  0
VERTEX
  5
460
100
AcDbEntity
  8
0
370
               0
390
0
  6
Continuous
 62
              30
100
AcDbVertex
100
AcDb2dVertex
 10
7828.8687367201019
 20
220.92454387089452
 30
0.0
  0
VERTEX
  5
461
100
AcDbEntity
  8
0
370
               0
390
0
  6
Continuous
 62
              30
100
AcDbVertex
100
AcDb2dVertex
 10
7829.1990060568023
 20
222.06388665577612
 30
0.0
  0
VERTEX
  5
462
100
AcDbEntity
  8
0
370
               0
390
0
  6
Continuous
 62
              30
100
AcDbVertex
100
AcDb2dVertex
 10
7829.8301596403289
 20
223.04909182926855
 30
0.0
  0
VERTEX
  5
463
100
AcDbEntity
  8
0
370
               0
390
0
  6
Continuous
 62
              30
100
AcDbVertex
100
AcDb2dVertex
 10
7830.7061691045928
 20
223.79248095890722
 30
0.0
  0
VERTEX
  5
464
100
AcDbEntity
  8
0
370
               0
390
0
  6
Continuous
 62
              30
100
AcDbVertex
100
AcDb2dVertex
 10
7831.7491311788726
 20
224.22807170292577
 30
0.0
  0
VERTEX
  5
465
100
AcDbEntity
  8
0
370
               0
390
0
  6
Continuous
 62
              30
100
AcDbVertex
100
AcDb2dVertex
 10
7832.8664202451873
 20
224.31718064686498
 30
0.0
  0
VERTEX
  5
466
100
AcDbEntity
  8
0
370
               0
390
0
  6
Continuous
 62
              30
100
AcDbVertex
100
AcDb2dVertex
 10
7833.9587349653411
 20
224.05188037296972
 30
0.0
  0
VERTEX
  5
467
100
AcDbEntity
  8
0
370
               0
390
0
  6
Continuous
 62
              30
100
AcDbVertex
100
AcDb2dVertex
 10
7834.9290985822845
 20
223.45571471592626
 30
0.0
  0
VERTEX
  5
468
100
AcDbEntity
  8
0
370
               0
390
0
  6
Continuous
 62
              30
100
AcDbVertex
100
AcDb2dVertex
 10
7835.6911439657379
 20
222.58167220493993
 30
0.0
  0
VERTEX
  5
469
100
AcDbEntity
  8
0
370
               0
390
0
  6
Continuous
 62
              30
100
AcDbVertex
100
AcDb2dVertex
 10
7836.177279448526
 20
221.50741769215307
 30
0.0
  0
VERTEX
  5
46A
100
AcDbEntity
  8
0
370
               0
390
0
  6
Continuous
 62
              30
100
AcDbVertex
100
AcDb2dVertex
 10
7836.3442916631866
 20
220.32837821385107
 30
0.0
  0
SEQEND
  5
46B
100
AcDbEntity
  8
0
370
               0
390
0
  6
Continuous
 62
              30
  0
LINE
  5
46D
100
AcDbEntity
  8
0
370
               0
390
0
  6
Continuous
 62
              30
100
AcDbLine
 10
7846.6809291601348
 20
166.42837478062353
 30
0.0
 11
7846.6809291601348
 21
201.22836781880102
 31
0.0
  0
ARC
  5
46E
100
AcDbEntity
  8
0
370
               0
390
0
  6
Continuous
 62
              30
100
AcDbCircle
 10
7844.1567798442984
 20
166.35235638409102
 30
0.0
 40
2.5252937582091279
100
AcDbArc
 50
271.8370815043815
 51
1.7250236158708392
  0
ARC
  5
46F
100
AcDbEntity
  8
0
370
               0
390
0
  6
Continuous
 62
              30
100
AcDbCircle
 10
7844.1567798442984
 20
201.30438621533352
 30
0.0
 40
2.5252937582089179
100
AcDbArc
 50
358.27497638413172
 51
88.162918495618499
  0
LINE
  5
470
100
AcDbEntity
  8
0
370
               0
390
0
  6
Continuous
 62
              30
100
AcDbLine
 10
7844.2004222631622
 20
112.82836152455053
 30
0.0
 11
7848.6466903448272
 21
112.82836152455053
 31
0.0
  0
ARC
  5
471
100
AcDbEntity
  8
0
370
               0
390
0
  6
Continuous
 62
              30
100
AcDbCircle
 10
7838.3756534038039
 20
113.00391977921669
 30
0.0
 40
5.8274139174878963
100
AcDbArc
 50
358.27363057517601
 51
88.164558975989166
  0
LINE
  5
472
100
AcDbEntity
  8
0
370
               0
390
0
  6
Continuous
 62
              30
100
AcDbLine
 10
7848.6466903448272
 20
14.828371538130853
 30
0.0
 11
7844.2004222631622
 21
14.828371538130853
 31
0.0
  0
ARC
  5
473
100
AcDbEntity
  8
0
370
               0
390
0
  6
Continuous
 62
              30
100
AcDbCircle
 10
7838.3756534038039
 20
14.652813283464809
 30
0.0
 40
5.8274139174877932
100
AcDbArc
 50
271.83544102401083
 51
1.7263694248217689
  0
LINE
  5
474
100
AcDbEntity
  8
0
370
               0
390
0
  6
Continuous
 62
              30
100
AcDbLine
 10
7846.6809291601348
 20
201.22836781880102
 30
0.0
 11
7847.7070231199432
 21
201.22836781880102
 31
0.0
  0
LINE
  5
475
100
AcDbEntity
  8
0
370
               0
390
0
  6
Continuous
 62
              30
100
AcDbLine
 10
7846.6809291601348
 20
166.42837478062353
 30
0.0
 11
7847.7070231199432
 21
166.42837478062353
 31
0.0
  0
LINE
  5
476
100
AcDbEntity
  8
0
370
               0
390
0
  6
Continuous
 62
              30
100
AcDbLine
 10
7844.2004222631622
 20
14.828371538130853
 30
0.0
 11
7844.2004222631622
 21
112.82836152455053
 31
0.0
  0
LINE
  5
477
100
AcDbEntity
  8
0
370
               0
390
0
  6
Continuous
 62
              30
100
AcDbLine
 10
7908.6746473074127
 20
-40.171635614426521
 30
0.0
 11
7908.6746473074127
 21
418.82835580250463
 31
0.0
  0
LINE
  5
478
100
AcDbEntity
  8
0
370
               0
390
0
  6
Continuous
 62
              30
100
AcDbLine
 10
7873.5484976530242
 20
-40.171635614426521
 30
0.0
 11
7908.6746473074127
 21
-40.171635614426521
 31
0.0
  0
LINE
  5
479
100
AcDbEntity
  8
0
370
               0
390
0
  6
Continuous
 62
              30
100
AcDbLine
 10
7908.6746473074127
 20
406.82839108845434
 30
0.0
 11
7873.5484976530242
 21
406.82839108845434
 31
0.0
  0
LINE
  5
47A
100
AcDbEntity
  8
0
370
               0
390
0
  6
Continuous
 62
              30
100
AcDbLine
 10
7678.6746282339263
 20
-52.171630130799201
 30
0.0
 11
7678.6746282339263
 21
-40.171635614426521
 31
0.0
  0
LINE
  5
47B
100
AcDbEntity
  8
0
370
               0
390
0
  6
Continuous
 62
              30
100
AcDbLine
 10
7793.6746377706695
 20
-40.171635614426521
 30
0.0
 11
7793.6746377706695
 21
-52.171630130799201
 31
0.0
  0
LINE
  5
47C
100
AcDbEntity
  8
0
370
               0
390
0
  6
Continuous
 62
              30
100
AcDbLine
 10
7678.6746282339263
 20
-52.171630130799201
 30
0.0
 11
7793.6746377706695
 21
-52.171630130799201
 31
0.0
  0
LINE
  5
47D
100
AcDbEntity
  8
0
370
               0
390
0
  6
Continuous
 62
              30
100
AcDbLine
 10
7873.5484976530242
 20
-40.171635614426521
 30
0.0
 11
7873.5484976530242
 21
-52.171630130799201
 31
0.0
  0
LINE
  5
47E
100
AcDbEntity
  8
0
370
               0
390
0
  6
Continuous
 62
              30
100
AcDbLine
 10
7793.6746377706695
 20
-52.171630130799201
 30
0.0
 11
7873.5484976530242
 21
-52.171630130799201
 31
0.0
  0
LINE
  5
47F
100
AcDbEntity
  8
0
370
               0
390
0
  6
Continuous
 62
              30
100
AcDbLine
 10
7908.6746473074127
 20
-40.171635614426521
 30
0.0
 11
7908.6746473074127
 21
-52.171630130799201
 31
0.0
  0
LINE
  5
480
100
AcDbEntity
  8
0
370
               0
390
0
  6
Continuous
 62
              30
100
AcDbLine
 10
7873.5484976530242
 20
-52.171630130799201
 30
0.0
 11
7908.6746473074127
 21
-52.171630130799201
 31
0.0
  0
LINE
  5
481
100
AcDbEntity
  8
0
370
               0
390
0
  6
Continuous
 62
              30
100
AcDbLine
 10
7793.6746377706695
 20
406.82839108845434
 30
0.0
 11
7793.6746377706695
 21
418.82835580250463
 31
0.0
  0
LINE
  5
482
100
AcDbEntity
  8
0
370
               0
390
0
  6
Continuous
 62
              30
100
AcDbLine
 10
7678.6746282339263
 20
406.82839108845434
 30
0.0
 11
7678.6746282339263
 21
418.82835580250463
 31
0.0
  0
LINE
  5
483
100
AcDbEntity
  8
0
370
               0
390
0
  6
Continuous
 62
              30
100
AcDbLine
 10
7793.6746377706695
 20
418.82835580250463
 30
0.0
 11
7678.6746282339263
 21
418.82835580250463
 31
0.0
  0
LINE
  5
484
100
AcDbEntity
  8
0
370
               0
390
0
  6
Continuous
 62
              30
100
AcDbLine
 10
7873.5484976530242
 20
406.82839108845434
 30
0.0
 11
7873.5484976530242
 21
418.82835580250463
 31
0.0
  0
LINE
  5
485
100
AcDbEntity
  8
0
370
               0
390
0
  6
Continuous
 62
              30
100
AcDbLine
 10
7873.5484976530242
 20
418.82835580250463
 30
0.0
 11
7793.6746377706695
 21
418.82835580250463
 31
0.0
  0
LINE
  5
486
100
AcDbEntity
  8
0
370
               0
390
0
  6
Continuous
 62
              30
100
AcDbLine
 10
7908.6746473074127
 20
418.82835580250463
 30
0.0
 11
7873.5484976530242
 21
418.82835580250463
 31
0.0
  0
CIRCLE
  5
487
100
AcDbEntity
  8
0
370
               0
390
0
  6
Continuous
 62
              30
100
AcDbCircle
 10
6967.5343847647309
 20
293.32836986920091
 30
0.0
 40
102.5
  0
CIRCLE
  5
488
100
AcDbEntity
  8
0
370
               0
390
0
  6
Continuous
 62
              30
100
AcDbCircle
 10
6967.5343847647309
 20
293.32836986920091
 30
0.0
 40
101.29619674574678
  0
ARC
  5
489
100
AcDbEntity
  8
0
370
               0
390
0
  6
Continuous
 62
              30
100
AcDbCircle
 10
6967.5343847647318
 20
74.328369869200912
 30
0.0
 40
103.49999999999999
100
AcDbArc
 50
5.6341375994381755
 51
174.36586240056181
  0
ARC
  5
48A
100
AcDbEntity
  8
0
370
               0
390
0
  6
Continuous
 62
              30
100
AcDbCircle
 10
6967.5343847647318
 20
74.328369869200912
 30
0.0
 40
103.5
100
AcDbArc
 50
270.0
 51
354.36586240056181
  0
CIRCLE
  5
48B
100
AcDbEntity
  8
0
370
               0
390
0
  6
Continuous
 62
              30
100
AcDbCircle
 10
6967.5343847647318
 20
74.328369869200912
 30
0.0
 40
91.0
  0
ARC
  5
48C
100
AcDbEntity
  8
0
370
               0
390
0
  6
Continuous
 62
              30
100
AcDbCircle
 10
6967.5343847647318
 20
74.328369869200912
 30
0.0
 40
103.49999999999993
100
AcDbArc
 50
185.63413759943819
 51
270.0
  0
CIRCLE
  5
48D
100
AcDbEntity
  8
0
370
               0
390
0
  6
Continuous
 62
              30
100
AcDbCircle
 10
6967.5343847647309
 20
293.32836986920091
 30
0.0
 40
58.379323684960582
  0
CIRCLE
  5
48E
100
AcDbEntity
  8
0
370
               0
390
0
  6
Continuous
 62
              30
100
AcDbCircle
 10
6967.5343847647309
 20
293.32836986920091
 30
0.0
 40
74.620877899927109
  0
CIRCLE
  5
48F
100
AcDbEntity
  8
0
370
               0
390
0
  6
Continuous
 62
              30
100
AcDbCircle
 10
6967.5343847647309
 20
293.32836986920091
 30
0.0
 40
30.084734344643039
  0
CIRCLE
  5
490
100
AcDbEntity
  8
0
370
               0
390
0
  6
Continuous
 62
              30
100
AcDbCircle
 10
6967.5343847647309
 20
293.32836986920091
 30
0.0
 40
18.551164037597118
  0
CIRCLE
  5
491
100
AcDbEntity
  8
0
370
               0
390
0
  6
Continuous
 62
              30
100
AcDbCircle
 10
6967.5343847647309
 20
293.32836986920091
 30
0.0
 40
12.75
  0
CIRCLE
  5
492
100
AcDbEntity
  8
0
370
               0
390
0
 62
               1
100
AcDbCircle
 10
6967.5343847647318
 20
74.328369869200799
 30
0.0
 40
38.0
  0
CIRCLE
  5
493
100
AcDbEntity
  8
0
370
               0
390
0
 62
               1
100
AcDbCircle
 10
6967.5343847647318
 20
74.328369869200799
 30
0.0
 40
91.0
  0
CIRCLE
  5
494
100
AcDbEntity
  8
0
370
               0
390
0
 62
               1
100
AcDbCircle
 10
6967.5343847647318
 20
74.328369869200799
 30
0.0
 40
90.0
  0
CIRCLE
  5
495
100
AcDbEntity
  8
0
370
               0
390
0
 62
               1
100
AcDbCircle
 10
6899.2985803802303
 20
6.0925654846992643
 30
0.0
 40
5.0
  0
CIRCLE
  5
496
100
AcDbEntity
  8
0
370
               0
390
0
 62
               1
100
AcDbCircle
 10
6899.2985803802303
 20
142.56417425370279
 30
0.0
 40
5.0
  0
LINE
  5
497
100
AcDbEntity
  8
0
370
               0
390
0
 62
               1
100
AcDbLine
 10
7032.8724116703661
 20
5.3161083493919818
 30
0.0
 11
7034.9937320139252
 21
3.1947880058319811
 31
0.0
  0
LINE
  5
498
100
AcDbEntity
  8
0
370
               0
390
0
 62
               1
100
AcDbLine
 10
7033.6488688056743
 20
8.2138858282588103
 30
0.0
 11
7032.8724116703661
 21
5.3161083493919818
 31
0.0
  0
LINE
  5
499
100
AcDbEntity
  8
0
370
               0
390
0
 62
               1
100
AcDbLine
 10
7036.5466462845416
 20
8.9903429635665475
 30
0.0
 11
7033.6488688056743
 21
8.2138858282588103
 31
0.0
  0
LINE
  5
49A
100
AcDbEntity
  8
0
370
               0
390
0
 62
               1
100
AcDbLine
 10
7038.6679666281007
 20
6.8690226200070015
 30
0.0
 11
7036.5466462845416
 21
8.9903429635665475
 31
0.0
  0
LINE
  5
49B
100
AcDbEntity
  8
0
370
               0
390
0
 62
               1
100
AcDbLine
 10
7037.8915094927925
 20
3.9712451411397183
 30
0.0
 11
7038.6679666281007
 21
6.8690226200070015
 31
0.0
  0
LINE
  5
49C
100
AcDbEntity
  8
0
370
               0
390
0
 62
               1
100
AcDbLine
 10
7034.9937320139252
 20
3.1947880058319811
 30
0.0
 11
7037.8915094927925
 21
3.9712451411397183
 31
0.0
  0
CIRCLE
  5
49D
100
AcDbEntity
  8
0
370
               0
390
0
 62
               1
100
AcDbCircle
 10
7035.7701891492334
 20
6.0925654846992643
 30
0.0
 40
5.0
  0
LINE
  5
49E
100
AcDbEntity
  8
0
370
               0
390
0
 62
               1
100
AcDbLine
 10
7036.5466462845416
 20
139.6663967748355
 30
0.0
 11
7038.6679666281007
 21
141.78771711839505
 31
0.0
  0
LINE
  5
49F
100
AcDbEntity
  8
0
370
               0
390
0
 62
               1
100
AcDbLine
 10
7033.6488688056743
 20
140.44285391014324
 30
0.0
 11
7036.5466462845416
 21
139.6663967748355
 31
0.0
  0
LINE
  5
4A0
100
AcDbEntity
  8
0
370
               0
390
0
 62
               1
100
AcDbLine
 10
7032.8724116703661
 20
143.34063138901053
 30
0.0
 11
7033.6488688056743
 21
140.44285391014324
 31
0.0
  0
LINE
  5
4A1
100
AcDbEntity
  8
0
370
               0
390
0
 62
               1
100
AcDbLine
 10
7034.9937320139252
 20
145.46195173256962
 30
0.0
 11
7032.8724116703661
 21
143.34063138901053
 31
0.0
  0
LINE
  5
4A2
100
AcDbEntity
  8
0
370
               0
390
0
 62
               1
100
AcDbLine
 10
7037.8915094927925
 20
144.68549459726233
 30
0.0
 11
7034.9937320139252
 21
145.46195173256962
 31
0.0
  0
LINE
  5
4A3
100
AcDbEntity
  8
0
370
               0
390
0
 62
               1
100
AcDbLine
 10
7038.6679666281007
 20
141.78771711839505
 30
0.0
 11
7037.8915094927925
 21
144.68549459726233
 31
0.0
  0
CIRCLE
  5
4A4
100
AcDbEntity
  8
0
370
               0
390
0
 62
               1
100
AcDbCircle
 10
7035.7701891492334
 20
142.56417425370279
 30
0.0
 40
5.0
  0
POLYLINE
  5
4A5
100
AcDbEntity
  8
0
370
               0
390
0
 62
               1
100
AcDb2dPolyline
 66
               1
 10
0.0
 20
0.0
 30
0.0
 75
               5
  0
VERTEX
  5
4A6
100
AcDbEntity
  8
0
370
               0
390
0
 62
               1
100
AcDbVertex
100
AcDb2dVertex
 10
6864.5343847647309
 20
236.86137845819252
 30
0.0
  0
VERTEX
  5
4A7
100
AcDbEntity
  8
0
370
               0
390
0
 62
               1
100
AcDbVertex
100
AcDb2dVertex
 10
6917.5673933537228
 20
183.82836986920159
 30
0.0
  0
VERTEX
  5
4A8
100
AcDbEntity
  8
0
370
               0
390
0
 62
               1
100
AcDbVertex
100
AcDb2dVertex
 10
6864.5343847647309
 20
130.79536128021067
 30
0.0
  0
SEQEND
  5
4A9
100
AcDbEntity
  8
0
370
               0
390
0
 62
               1
  0
POLYLINE
  5
4AB
100
AcDbEntity
  8
0
370
               0
390
0
 62
               1
100
AcDb2dPolyline
 66
               1
 10
0.0
 20
0.0
 30
0.0
 75
               5
  0
VERTEX
  5
4AC
100
AcDbEntity
  8
0
370
               0
390
0
 62
               1
100
AcDbVertex
100
AcDb2dVertex
 10
7070.5343847647309
 20
236.86137845819252
 30
0.0
  0
VERTEX
  5
4AD
100
AcDbEntity
  8
0
370
               0
390
0
 62
               1
100
AcDbVertex
100
AcDb2dVertex
 10
7017.50137617574
 20
183.82836986920159
 30
0.0
  0
VERTEX
  5
4AE
100
AcDbEntity
  8
0
370
               0
390
0
 62
               1
100
AcDbVertex
100
AcDb2dVertex
 10
7070.5343847647309
 20
130.79536128021067
 30
0.0
  0
SEQEND
  5
4AF
100
AcDbEntity
  8
0
370
               0
390
0
 62
               1
  0
MTEXT
  5
4B1
100
AcDbEntity
  8
一般
390
0
 62
               2
100
AcDbMText
 10
6039.5
 20
2230.79797578125
 30
0.0
 40
36.64892578125
 41
0.0
 71
               1
 72
               1
  1
{\fＭＳ ゴシック|b0|i0|c128|p0;\l仕様}
 73
               1
 44
0.7828267384257843
  0
LINE
  5
4B2
100
AcDbEntity
  8
一般
370
               0
390
0
  6
Continuous
 62
               2
100
AcDbLine
 10
6020.75
 20
2173.25
 30
0.0
 11
8233.25
 21
2173.25
 31
0.0
  0
LINE
  5
4B3
100
AcDbEntity
  8
一般
370
               0
390
0
  6
Continuous
 62
               2
100
AcDbLine
 10
6020.75
 20
2117.0
 30
0.0
 11
8233.25
 21
2117.0
 31
0.0
  0
LINE
  5
4B4
100
AcDbEntity
  8
一般
370
               0
390
0
  6
Continuous
 62
               2
100
AcDbLine
 10
6020.75
 20
2004.5
 30
0.0
 11
8233.25
 21
2004.5
 31
0.0
  0
LINE
  5
4B5
100
AcDbEntity
  8
一般
370
               0
390
0
  6
Continuous
 62
               2
100
AcDbLine
 10
6508.25
 20
2060.75
 30
0.0
 11
8233.25
 21
2060.75
 31
0.0
  0
LINE
  5
4B6
100
AcDbEntity
  8
一般
370
               0
390
0
  6
Continuous
 62
               2
100
AcDbLine
 10
6020.75
 20
2173.25
 30
0.0
 11
6020.75
 21
1160.75
 31
0.0
  0
LINE
  5
4B7
100
AcDbEntity
  8
一般
370
               0
390
0
  6
Continuous
 62
               2
100
AcDbLine
 10
6508.25
 20
2173.25
 30
0.0
 11
6508.25
 21
1160.75
 31
0.0
  0
LINE
  5
4B8
100
AcDbEntity
  8
一般
370
               0
390
0
  6
Continuous
 62
               2
100
AcDbLine
 10
8233.25
 20
2173.25
 30
0.0
 11
8233.25
 21
1160.75
 31
0.0
  0
LINE
  5
4B9
100
AcDbEntity
  8
一般
370
               0
390
0
  6
Continuous
 62
               2
100
AcDbLine
 10
6020.75
 20
1948.25
 30
0.0
 11
8233.25
 21
1948.25
 31
0.0
  0
LINE
  5
4BA
100
AcDbEntity
  8
一般
370
               0
390
0
  6
Continuous
 62
               2
100
AcDbLine
 10
6020.75
 20
1892.0
 30
0.0
 11
8233.25
 21
1892.0
 31
0.0
  0
LINE
  5
4BB
100
AcDbEntity
  8
一般
370
               0
390
0
  6
Continuous
 62
               2
100
AcDbLine
 10
6020.75
 20
1835.75
 30
0.0
 11
8233.25
 21
1835.75
 31
0.0
  0
LINE
  5
4BC
100
AcDbEntity
  8
一般
370
               0
390
0
  6
Continuous
 62
               2
100
AcDbLine
 10
6020.75
 20
1779.5
 30
0.0
 11
8233.25
 21
1779.5
 31
0.0
  0
LINE
  5
4BD
100
AcDbEntity
  8
一般
370
               0
390
0
  6
Continuous
 62
               2
100
AcDbLine
 10
6508.25
 20
1723.25
 30
0.0
 11
8233.25
 21
1723.25
 31
0.0
  0
LINE
  5
4BE
100
AcDbEntity
  8
一般
370
               0
390
0
  6
Continuous
 62
               2
100
AcDbLine
 10
6508.25
 20
1667.0
 30
0.0
 11
8233.25
 21
1667.0
 31
0.0
  0
LINE
  5
4BF
100
AcDbEntity
  8
一般
370
               0
390
0
  6
Continuous
 62
               2
100
AcDbLine
 10
6508.25
 20
1610.75
 30
0.0
 11
8233.25
 21
1610.75
 31
0.0
  0
LINE
  5
4C0
100
AcDbEntity
  8
一般
370
               0
390
0
  6
Continuous
 62
               2
100
AcDbLine
 10
6020.75
 20
1554.5
 30
0.0
 11
8233.25
 21
1554.5
 31
0.0
  0
LINE
  5
4C1
100
AcDbEntity
  8
一般
370
               0
390
0
  6
Continuous
 62
               2
100
AcDbLine
 10
6020.75
 20
1498.25
 30
0.0
 11
8233.25
 21
1498.25
 31
0.0
  0
LINE
  5
4C2
100
AcDbEntity
  8
一般
370
               0
390
0
  6
Continuous
 62
               2
100
AcDbLine
 10
6020.75
 20
1442.0
 30
0.0
 11
8233.25
 21
1442.0
 31
0.0
  0
MTEXT
  5
4C3
100
AcDbEntity
  8
一般
390
0
 62
               2
100
AcDbMText
 10
6031.996597739394
 20
1428.4673183930859
 30
0.0
 40
28.504720052083332
 41
0.0
 71
               1
 72
               1
  1
{\fＭＳ ゴシック|b0|i0|c128|p0;\lエンクロージャー}
 73
               1
 44
0.7828267384257843
  0
MTEXT
  5
4C4
100
AcDbEntity
  8
一般
390
0
 62
               2
100
AcDbMText
 10
6522.2015327666331
 20
1314.0444063643208
 30
0.0
 40
28.504720052083332
 41
0.0
 71
               1
 72
               1
  1
{\fＭＳ ゴシック|b0|i0|c128|p0;\l230(W)×471(H)×260(D)mm(突起部含まず）}
 73
               1
 44
0.7828267384257843
  0
MTEXT
  5
4C5
100
AcDbEntity
  8
一般
390
0
 62
               2
100
AcDbMText
 10
6521.5496706926624
 20
1372.2152000888964
 30
0.0
 40
28.504720052083332
 41
0.0
 71
               1
 72
               1
  1
{\fＭＳ ゴシック|b0|i0|c128|p0;\lG308-L/Rは黒、G308-L/R Whiteは白（RAL9016）}
 73
               1
 44
0.7828267384257843
  0
MTEXT
  5
4C6
100
AcDbEntity
  8
一般
390
0
 62
               2
100
AcDbMText
 10
6034.1003598299994
 20
1373.8506734484263
 30
0.0
 40
28.504720052083332
 41
0.0
 71
               1
 72
               1
  1
{\fＭＳ ゴシック|b0|i0|c128|p0;\l仕上げ}
 73
               1
 44
0.7828267384257843
  0
MTEXT
  5
4C7
100
AcDbEntity
  8
一般
390
0
 62
               2
100
AcDbMText
 10
6033.676033305459
 20
1541.8849672255978
 30
0.0
 40
28.504720052083332
 41
0.0
 71
               1
 72
               1
  1
{\fＭＳ ゴシック|b0|i0|c128|p0;\l入力コネクタ ー}
 73
               1
 44
0.7828267384257843
  0
MTEXT
  5
4C8
100
AcDbEntity
  8
一般
390
0
 62
               2
100
AcDbMText
 10
6521.8601914797764
 20
1539.6411491093245
 30
0.0
 40
28.504720052083332
 41
0.0
 71
               1
 72
               1
  1
{\fＭＳ ゴシック|b0|i0|c128|p0;\l2×Neutrik NL4MP}
 73
               1
 44
0.7828267384257843
  0
MTEXT
  5
4C9
100
AcDbEntity
  8
一般
390
0
 62
               2
100
AcDbMText
 10
6034.0112761090895
 20
1484.6537829122349
 30
0.0
 40
28.504720052083332
 41
0.0
 71
               1
 72
               1
  1
{\fＭＳ ゴシック|b0|i0|c128|p0;\l公称インピーダンス}
 73
               1
 44
0.7828267384257843
  0
MTEXT
  5
4CA
100
AcDbEntity
  8
一般
390
0
 62
               2
100
AcDbMText
 10
6521.5535043811778
 20
1484.2668000770727
 30
0.0
 40
28.504720052083332
 41
0.0
 71
               1
 72
               1
  1
{\fＭＳ ゴシック|b0|i0|c128|p0;\l8Ω}
 73
               1
 44
0.7828267384257843
  0
MTEXT
  5
4CB
100
AcDbEntity
  8
一般
390
0
 62
               2
100
AcDbMText
 10
6033.4425580429324
 20
2104.1752528141969
 30
0.0
 40
28.504720052083332
 41
0.0
 71
               1
 72
               1
  1
{\fＭＳ ゴシック|b0|i0|c128|p0;\l形式}
 73
               1
 44
0.7828267384257843
  0
MTEXT
  5
4CC
100
AcDbEntity
  8
一般
390
0
 62
               2
100
AcDbMText
 10
6521.7678351816849
 20
2101.79781253489
 30
0.0
 40
28.504720052083332
 41
0.0
 71
               1
 72
               1
  1
{\fＭＳ ゴシック|b0|i0|c128|p0;\l2-Way フルレンジ・スピーカーシステム}
 73
               1
 44
0.7828267384257843
  0
MTEXT
  5
4CD
100
AcDbEntity
  8
一般
390
0
 62
               2
100
AcDbMText
 10
6033.9029377622683
 20
1990.9374165645395
 30
0.0
 40
28.504720052083332
 41
0.0
 71
               1
 72
               1
  1
{\fＭＳ ゴシック|b0|i0|c128|p0;\l周波数特性}
 73
               1
 44
0.7828267384257843
  0
MTEXT
  5
4CE
100
AcDbEntity
  8
一般
390
0
 62
               2
100
AcDbMText
 10
6033.2634569125021
 20
1934.4522858136379
 30
0.0
 40
28.504720052083332
 41
0.0
 71
               1
 72
               1
  1
{\fＭＳ ゴシック|b0|i0|c128|p0;\l許容入力(AES/ピーク）}
 73
               1
 44
0.7828267384257843
  0
MTEXT
  5
4CF
100
AcDbEntity
  8
一般
390
0
 62
               2
100
AcDbMText
 10
6033.7559511807176
 20
1879.6765302032099
 30
0.0
 40
28.504720052083332
 41
0.0
 71
               1
 72
               1
  1
{\fＭＳ ゴシック|b0|i0|c128|p0;\l感度}
 73
               1
 44
0.7828267384257843
  0
MTEXT
  5
4D0
100
AcDbEntity
  8
一般
390
0
 62
               2
100
AcDbMText
 10
6034.3001527599808
 20
1823.2433465168342
 30
0.0
 40
28.504720052083332
 41
0.0
 71
               1
 72
               1
  1
{\fＭＳ ゴシック|b0|i0|c128|p0;\l最大音圧}
 73
               1
 44
0.7828267384257843
  0
MTEXT
  5
4D1
100
AcDbEntity
  8
一般
390
0
 62
               2
100
AcDbMText
 10
6031.3890937630822
 20
1766.5720633671367
 30
0.0
 40
28.504720052083332
 41
0.0
 71
               1
 72
               1
  1
{\fＭＳ ゴシック|b0|i0|c128|p0;\lカバレージ角}
 73
               1
 44
0.7828267384257843
  0
MTEXT
  5
4D2
100
AcDbEntity
  8
一般
390
0
 62
               2
100
AcDbMText
 10
6022.65511397297
 20
1713.2345848741029
 30
0.0
 40
28.504720052083332
 41
0.0
 71
               1
 72
               1
  1
{\fＭＳ ゴシック|b0|i0|c128|p0;\lドライバー構成}
 73
               1
 44
0.7828267384257843
  0
MTEXT
  5
4D3
100
AcDbEntity
  8
一般
390
0
 62
               2
100
AcDbMText
 10
6032.08176012678
 20
1596.7427710052707
 30
0.0
 40
28.504720052083332
 41
0.0
 71
               1
 72
               1
  1
{\fＭＳ ゴシック|b0|i0|c128|p0;\lクロスオーバー}
 73
               1
 44
0.7828267384257843
  0
MTEXT
  5
4D4
100
AcDbEntity
  8
一般
390
0
 62
               2
100
AcDbMText
 10
6032.7650290079373
 20
1315.989422333435
 30
0.0
 40
28.504720052083332
 41
0.0
 71
               1
 72
               1
  1
{\fＭＳ ゴシック|b0|i0|c128|p0;\l寸法}
 73
               1
 44
0.7828267384257843
  0
MTEXT
  5
4D5
100
AcDbEntity
  8
一般
390
0
 62
               2
100
AcDbMText
 10
6521.3218827056562
 20
1261.0044181170138
 30
0.0
 40
28.504720052083332
 41
0.0
 71
               1
 72
               1
  1
{\fＭＳ ゴシック|b0|i0|c128|p0;\l約9.5kg}
 73
               1
 44
0.7828267384257843
  0
MTEXT
  5
4D6
100
AcDbEntity
  8
一般
390
0
 62
               2
100
AcDbMText
 10
6033.4096531104951
 20
1260.3059279965792
 30
0.0
 40
28.504720052083332
 41
0.0
 71
               1
 72
               1
  1
{\fＭＳ ゴシック|b0|i0|c128|p0;\l重量}
 73
               1
 44
0.7828267384257843
  0
MTEXT
  5
4D7
100
AcDbEntity
  8
一般
390
0
 62
               2
100
AcDbMText
 10
6521.8866623461527
 20
1988.6916181075358
 30
0.0
 40
28.504720052083332
 41
0.0
 71
               1
 72
               1
  1
{\fＭＳ ゴシック|b0|i0|c128|p0;\l70Hz～30kHz(-3dB)}
 73
               1
 44
0.7828267384257843
  0
MTEXT
  5
4D8
100
AcDbEntity
  8
一般
390
0
 62
               2
100
AcDbMText
 10
6521.2788796186151
 20
1932.9921044882994
 30
0.0
 40
28.504720052083332
 41
0.0
 71
               1
 72
               1
  1
{\fＭＳ ゴシック|b0|i0|c128|p0;\l220W/880W}
 73
               1
 44
0.7828267384257843
  0
MTEXT
  5
4D9
100
AcDbEntity
  8
一般
390
0
 62
               2
100
AcDbMText
 10
6521.7084742391153
 20
1877.1742381602303
 30
0.0
 40
28.504720052083332
 41
0.0
 71
               1
 72
               1
  1
{\fＭＳ ゴシック|b0|i0|c128|p0;\l94.5dB}
 73
               1
 44
0.7828267384257843
  0
MTEXT
  5
4DA
100
AcDbEntity
  8
一般
390
0
 62
               2
100
AcDbMText
 10
6519.9043008244298
 20
1821.164268793983
 30
0.0
 40
28.504720052083332
 41
0.0
 71
               1
 72
               1
  1
{\fＭＳ ゴシック|b0|i0|c128|p0;\l124dB}
 73
               1
 44
0.7828267384257843
  0
MTEXT
  5
4DB
100
AcDbEntity
  8
一般
390
0
 62
               2
100
AcDbMText
 10
6521.9725937470503
 20
1763.5824423135628
 30
0.0
 40
28.504720052083332
 41
0.0
 71
               1
 72
               1
  1
{\fＭＳ ゴシック|b0|i0|c128|p0;\l90°円錐}
 73
               1
 44
0.7828267384257843
  0
MTEXT
  5
4DC
100
AcDbEntity
  8
一般
390
0
 62
               2
100
AcDbMText
 10
6521.5869403667857
 20
1710.4955124018293
 30
0.0
 40
28.504720052083332
 41
0.0
 71
               1
 72
               1
  1
{\fＭＳ ゴシック|b0|i0|c128|p0;\l低域：1×8インチユニット、2インチボイスコイル}
 73
               1
 44
0.7828267384257843
  0
MTEXT
  5
4DD
100
AcDbEntity
  8
一般
390
0
 62
               2
100
AcDbMText
 10
6521.4064955926797
 20
1654.6464700411511
 30
0.0
 40
28.504720052083332
 41
0.0
 71
               1
 72
               1
  1
{\fＭＳ ゴシック|b0|i0|c128|p0;\l高域：1インチコンプレッションドライバー、1.5インチボイスコイル }
 73
               1
 44
0.7828267384257843
  0
MTEXT
  5
4DE
100
AcDbEntity
  8
一般
390
0
 62
               2
100
AcDbMText
 10
6521.3865460680072
 20
1596.6867178010557
 30
0.0
 40
28.504720052083332
 41
0.0
 71
               1
 72
               1
  1
{\fＭＳ ゴシック|b0|i0|c128|p0;\l1.9kHz}
 73
               1
 44
0.7828267384257843
  0
MTEXT
  5
4DF
100
AcDbEntity
  8
一般
390
0
 62
               2
100
AcDbMText
 10
6520.9029854220362
 20
1429.3516923765851
 30
0.0
 40
28.504720052083332
 41
0.0
 71
               1
 72
               1
  1
{\fＭＳ ゴシック|b0|i0|c128|p0;\l合板}
 73
               1
 44
0.7828267384257843
  0
LINE
  5
4E0
100
AcDbEntity
  8
一般
370
               0
390
0
  6
Continuous
 62
               2
100
AcDbLine
 10
6020.75
 20
1385.75
 30
0.0
 11
8233.25
 21
1385.75
 31
0.0
  0
LINE
  5
4E1
100
AcDbEntity
  8
一般
370
               0
390
0
  6
Continuous
 62
               2
100
AcDbLine
 10
6020.75
 20
1329.5
 30
0.0
 11
8233.25
 21
1329.5
 31
0.0
  0
LINE
  5
4E2
100
AcDbEntity
  8
一般
370
               0
390
0
  6
Continuous
 62
               2
100
AcDbLine
 10
6020.75
 20
1273.25
 30
0.0
 11
8233.25
 21
1273.25
 31
0.0
  0
MTEXT
  5
4E3
100
AcDbEntity
  8
一般
390
0
 62
               2
100
AcDbMText
 10
6822.8640631602084
 20
2156.4416032695908
 30
0.0
 40
28.504720052083332
 41
0.0
 71
               1
 72
               1
  1
{\fＭＳ ゴシック|b0|i0|c128|p0;\lG308-L（White）}
 73
               1
 44
0.7828267384257843
  0
LINE
  5
4E4
100
AcDbEntity
  8
一般
370
               0
390
0
  6
Continuous
 62
               2
100
AcDbLine
 10
6020.75
 20
1217.0
 30
0.0
 11
8233.25
 21
1217.0
 31
0.0
  0
MTEXT
  5
4E5
100
AcDbEntity
  8
一般
390
0
 62
               2
100
AcDbMText
 10
7472.8640631602084
 20
2158.2417273838223
 30
0.0
 40
28.504720052083332
 41
0.0
 71
               1
 72
               1
  1
{\fＭＳ ゴシック|b0|i0|c128|p0;\lG308-R（White）}
 73
               1
 44
0.7828267384257843
  0
LINE
  5
4E6
100
AcDbEntity
  8
一般
370
               0
390
0
  6
Continuous
 62
               2
100
AcDbLine
 10
7358.25
 20
2004.5
 30
0.0
 11
7358.25
 21
2060.75
 31
0.0
  0
LINE
  5
4E7
100
AcDbEntity
  8
一般
370
               0
390
0
  6
Continuous
 62
               2
100
AcDbLine
 10
7358.25
 20
2117.0
 30
0.0
 11
7358.25
 21
2173.25
 31
0.0
  0
MTEXT
  5
4E8
100
AcDbEntity
  8
一般
390
0
 62
               2
100
AcDbMText
 10
6521.6641249230233
 20
2047.6091880183367
 30
0.0
 40
28.504720052083332
 41
0.0
 71
               1
 72
               1
  1
{\fＭＳ ゴシック|b0|i0|c128|p0;\lL仕様}
 73
               1
 44
0.7828267384257843
  0
MTEXT
  5
4E9
100
AcDbEntity
  8
一般
390
0
 62
               2
100
AcDbMText
 10
7371.577713723892
 20
2046.9475986904495
 30
0.0
 40
28.504720052083332
 41
0.0
 71
               1
 72
               1
  1
{\fＭＳ ゴシック|b0|i0|c128|p0;\lR仕様}
 73
               1
 44
0.7828267384257843
  0
LINE
  5
4EA
100
AcDbEntity
  8
一般
370
               0
390
0
  6
Continuous
 62
               2
100
AcDbLine
 10
6508.25
 20
1610.75
 30
0.0
 11
6020.75
 21
1610.75
 31
0.0
  0
LINE
  5
4EB
100
AcDbEntity
  8
一般
370
               0
390
0
  6
Continuous
 62
               2
100
AcDbLine
 10
6508.25
 20
1723.25
 30
0.0
 11
6020.75
 21
1723.25
 31
0.0
  0
MTEXT
  5
4EC
100
AcDbEntity
  8
一般
390
0
 62
               2
100
AcDbMText
 10
7467.4759140902206
 20
-689.14902550797854
 30
0.0
 40
40.721028645833343
 41
0.0
 71
               1
 72
               1
  1
{\fＭＳ ゴシック|b0|i0|c128|p0;\l寸法図はG308-R(右側仕様）}
 73
               1
 44
0.7828267384257843
  0
LINE
  5
4ED
100
AcDbEntity
  8
一般
370
               0
390
0
  6
Continuous
 62
               2
100
AcDbLine
 10
7423.1510152732462
 20
-750.00000000000011
 30
0.0
 11
8127.7343486065793
 21
-750.00000000000011
 31
0.0
  0
DIMENSION
  5
4EE
100
AcDbEntity
  8
寸法
370
               0
390
0
  6
Continuous
 62
               2
100
AcDbDimension
  2
*D1
 10
6746.0488474741596
 20
418.82835580250463
 30
0.0
 11
6746.0488474741596
 21
183.32836283585272
 31
0.0
 71
               5
 72
               1
 41
1.0
 42
0.0
  3
HIBINO
100
AcDbAlignedDimension
 13
6852.534405030312
 23
-52.171630130799201
 33
0.0
 14
6852.534405030312
 24
418.82835580250463
 34
0.0
 50
-90.0
100
AcDbRotatedDimension
1001
ACAD
1000
DSTYLE
1002
{
1070
             279
1070
               2
1070
             340
1005
2D
1070
             147
1040
7.5
1002
}
  0
DIMENSION
  5
4EF
100
AcDbEntity
  8
寸法
370
               0
390
0
  6
Continuous
 62
               2
100
AcDbDimension
  2
*D2
 10
6852.534405030312
 20
-185.97369240382471
 30
0.0
 11
6967.5344145670551
 21
-185.97369240382471
 31
0.0
 71
               5
 72
               1
 41
1.0
 42
0.0
  3
HIBINO
100
AcDbAlignedDimension
 13
7082.5344241037983
 23
-52.171630130799201
 33
0.0
 14
6852.534405030312
 24
-52.171630130799201
 34
0.0
100
AcDbRotatedDimension
1001
ACAD
1000
DSTYLE
1002
{
1070
             279
1070
               2
1070
             340
1005
2D
1070
             147
1040
7.5
1002
}
  0
INSERT
  5
4F0
100
AcDbEntity
  8
0
390
0
 62
               2
100
AcDbBlockReference
  2
グループ
 10
7133.9742393574379
 20
315.52408455163174
 30
0.0
  0
INSERT
  5
4F1
100
AcDbEntity
  8
0
390
0
 62
               2
100
AcDbBlockReference
  2
グループ-1
 10
7133.9742393574379
 20
315.52408455163174
 30
0.0
  0
LINE
  5
4F2
100
AcDbEntity
  8
一般
370
               0
390
0
  6
Continuous
 62
               2
100
AcDbLine
 10
6020.75
 20
1160.75
 30
0.0
 11
8233.25
 21
1160.75
 31
0.0
  0
MTEXT
  5
4F3
100
AcDbEntity
  8
一般
390
0
 62
               2
100
AcDbMText
 10
6034.0
 20
1200.64888671875
 30
0.0
 40
28.504720052083332
 41
0.0
 71
               1
 72
               1
  1
{\fＭＳ ゴシック|b0|i0|c128|p0;\lその他}
 73
               1
 44
0.7828267384257843
  0
MTEXT
  5
4F4
100
AcDbEntity
  8
一般
390
0
 62
               2
100
AcDbMText
 10
6521.0
 20
1198.9988867187499
 30
0.0
 40
28.504720052083332
 41
0.0
 71
               1
 72
               1
  1
{\fＭＳ ゴシック|b0|i0|c128|p0;\lHuman EQスイッチ}
 73
               1
 44
0.7828267384257843
  0
INSERT
  5
4F5
100
AcDbEntity
  8
0
390
0
 62
               2
100
AcDbBlockReference
  2
グループ-2
 10
7133.9742393574379
 20
315.52408455163174
 30
0.0
  0
INSERT
  5
4F6
100
AcDbEntity
  8
0
390
0
 62
               2
100
AcDbBlockReference
  2
グループ-3
 10
7133.9742393574379
 20
315.52408455163174
 30
0.0
  0
ENDSEC
  0
SECTION
  2
OBJECTS
  0
DICTIONARY
  5
19
100
AcDbDictionary
280
               0
281
               1
  3
ACAD_GROUP
350
1A
  3
ACAD_MLINESTYLE
350
1B
  3
ACAD_LAYOUT
350
1E
  3
ACAD_PLOTSETTINGS
350
22
  3
ACAD_PLOTSTYLENAME
350
1F
  3
ACAD_WIPEOUT_VARS
350
23
  0
DICTIONARY
  5
1A
102
{ACAD_REACTORS
330
19
102
}
100
AcDbDictionary
280
               0
281
               1
  0
DICTIONARY
  5
1B
102
{ACAD_REACTORS
330
19
102
}
100
AcDbDictionary
280
               0
281
               1
  3
Standard
350
1C
  0
MLINESTYLE
  5
1C
102
{ACAD_REACTORS
330
1B
102
}
100
AcDbMlineStyle
  2
Standard
 70
               0
  3

 62
               0
 51
90.0
 52
90.0
 71
               2
 49
0.5
 62
             256
  6
ByLayer
 49
-0.5
 62
             256
  6
ByLayer
  0
ACDBDICTIONARYWDFLT
  5
1F
102
{ACAD_REACTORS
330
19
102
}
100
AcDbDictionary
281
               1
  3
Normal
350
1D
100
AcDbDictionaryWithDefault
340
1D
  0
ACDBPLACEHOLDER
  5
1D
102
{ACAD_REACTORS
330
1F
102
}
  0
LAYOUT
  5
20
102
{ACAD_REACTORS
330
1E
102
}
100
AcDbPlotSettings
  1

  2

  4

  6

 40
0.0
 41
0.0
 42
0.0
 43
0.0
 44
0.0
 45
0.0
 46
0.0
 47
0.0
 48
0.0
 49
0.0
140
0.0
141
0.0
142
1.0
143
1.0
 70
            1024
 72
               0
 73
               0
 74
               0
  7
G308用_LR.ctb
 75
               0
147
1.0
148
0.0
149
0.0
100
AcDbLayout
  1
Model
 70
               0
 71
               0
 10
0.0
 20
0.0
 11
0.0
 21
0.0
 12
0.0
 22
0.0
 32
0.0
 14
0.0
 24
0.0
 34
0.0
 15
0.0
 25
0.0
 35
0.0
146
0.0
 13
0.0
 23
0.0
 33
0.0
 16
0.0
 26
0.0
 36
0.0
 17
0.0
 27
0.0
 37
0.0
 76
               0
330
A
331
0
345
0
346
0
  0
LAYOUT
  5
21
102
{ACAD_REACTORS
330
1E
102
}
100
AcDbPlotSettings
  1

  2

  4

  6

 40
0.0
 41
0.0
 42
0.0
 43
0.0
 44
0.0
 45
0.0
 46
0.0
 47
0.0
 48
0.0
 49
0.0
140
0.0
141
0.0
142
1.0
143
1.0
 70
               0
 72
               0
 73
               0
 74
               0
  7

 75
               0
147
1.0
148
0.0
149
0.0
100
AcDbLayout
  1
Layout1
 70
               0
 71
               0
 10
0.0
 20
0.0
 11
0.0
 21
0.0
 12
0.0
 22
0.0
 32
0.0
 14
0.0
 24
0.0
 34
0.0
 15
0.0
 25
0.0
 35
0.0
146
0.0
 13
0.0
 23
0.0
 33
0.0
 16
0.0
 26
0.0
 36
0.0
 17
0.0
 27
0.0
 37
0.0
 76
               0
330
B
331
0
345
0
346
0
  0
DICTIONARY
  5
1E
102
{ACAD_REACTORS
330
19
102
}
100
AcDbDictionary
280
               0
281
               1
  3
Layout1
350
21
  3
Model
350
20
  0
DICTIONARY
  5
22
102
{ACAD_REACTORS
330
19
102
}
100
AcDbDictionary
280
               0
281
               1
  0
WIPEOUTVARIABLES
  5
23
100
AcDbWipeoutVariables
 70
               0
  0
ENDSEC
  0
EOF
