  0
SECTION
  2
HEADER
  9
$ACADVER
  1
AC1015
  9
$ACADMAINTVER
 70
    20
  9
$DWGCODEPAGE
  3
ANSI_932
  9
$INSBASE
 10
0.0
 20
0.0
 30
0.0
  9
$EXTMIN
 10
-170.0164782349211
 20
-265.7375807287692
 30
-0.0006609809499345
  9
$EXTMAX
 10
406.3687500000003
 20
537.0917483963953
 30
0.0000000151292312
  9
$LIMMIN
 10
0.0
 20
0.0
  9
$LIMMAX
 10
0.0
 20
0.0
  9
$ORTHOMODE
 70
     0
  9
$REGENMODE
 70
     1
  9
$FILLMODE
 70
     1
  9
$QTEXTMODE
 70
     0
  9
$MIRRTEXT
 70
     1
  9
$LTSCALE
 40
15.24
  9
$ATTMODE
 70
     1
  9
$TEXTSIZE
 40
0.0
  9
$TRACEWID
 40
1.0
  9
$TEXTSTYLE
  7
STANDARD
  9
$CLAYER
  8
DATA
  9
$CELTYPE
  6
ByLayer
  9
$CECOLOR
 62
   256
  9
$CELTSCALE
 40
1.0
  9
$DISPSILH
 70
     0
  9
$DIMSCALE
 40
1.0
  9
$DIMASZ
 40
7.501867675781249
  9
$DIMEXO
 40
5.999999999999999
  9
$DIMDLI
 40
4.999999999999999
  9
$DIMRND
 40
0.0
  9
$DIMDLE
 40
0.0
  9
$DIMEXE
 40
5.999999999999999
  9
$DIMTP
 40
0.0
  9
$DIMTM
 40
0.0
  9
$DIMTXT
 40
8.144205729166666
  9
$DIMCEN
 40
0.0
  9
$DIMTSZ
 40
0.0
  9
$DIMTOL
 70
     0
  9
$DIMLIM
 70
     0
  9
$DIMTIH
 70
     0
  9
$DIMTOH
 70
     0
  9
$DIMSE1
 70
     0
  9
$DIMSE2
 70
     0
  9
$DIMTAD
 70
     1
  9
$DIMZIN
 70
     3
  9
$DIMBLK
  1
VW_OPENARROW
  9
$DIMASO
 70
     1
  9
$DIMSHO
 70
     1
  9
$DIMPOST
  1
<>
  9
$DIMAPOST
  1
[]
  9
$DIMALT
 70
     0
  9
$DIMALTD
 70
     2
  9
$DIMALTF
 40
1.0
  9
$DIMLFAC
 40
1.0
  9
$DIMTOFL
 70
     1
  9
$DIMTVP
 40
0.0
  9
$DIMTIX
 70
     1
  9
$DIMSOXD
 70
     0
  9
$DIMSAH
 70
     0
  9
$DIMBLK1
  1

  9
$DIMBLK2
  1

  9
$DIMSTYLE
  2
HIBINO
  9
$DIMCLRD
 70
     0
  9
$DIMCLRE
 70
     0
  9
$DIMCLRT
 70
     0
  9
$DIMTFAC
 40
1.0
  9
$DIMGAP
 40
0.5
  9
$DIMJUST
 70
     0
  9
$DIMSD1
 70
     0
  9
$DIMSD2
 70
     0
  9
$DIMTOLJ
 70
     1
  9
$DIMTZIN
 70
     0
  9
$DIMALTZ
 70
     0
  9
$DIMALTTZ
 70
     0
  9
$DIMUPT
 70
     0
  9
$DIMDEC
 70
     4
  9
$DIMTDEC
 70
     4
  9
$DIMALTU
 70
     2
  9
$DIMALTTD
 70
     2
  9
$DIMTXSTY
  7
STANDARD
  9
$DIMAUNIT
 70
     0
  9
$DIMADEC
 70
     0
  9
$DIMALTRND
 40
0.0
  9
$DIMAZIN
 70
     0
  9
$DIMDSEP
 70
    46
  9
$DIMATFIT
 70
     3
  9
$DIMFRAC
 70
     0
  9
$DIMLDRBLK
  1
VW_OPENARROW
  9
$DIMLUNIT
 70
     2
  9
$DIMLWD
 70
    -2
  9
$DIMLWE
 70
    -2
  9
$DIMTMOVE
 70
     0
  9
$LUNITS
 70
     2
  9
$LUPREC
 70
     4
  9
$SKETCHINC
 40
0.1
  9
$FILLETRAD
 40
0.0
  9
$AUNITS
 70
     0
  9
$AUPREC
 70
     0
  9
$MENU
  1
acad
  9
$ELEVATION
 40
0.0
  9
$PELEVATION
 40
0.0
  9
$THICKNESS
 40
0.0
  9
$LIMCHECK
 70
     0
  9
$CHAMFERA
 40
0.0
  9
$CHAMFERB
 40
0.0
  9
$CHAMFERC
 40
0.0
  9
$CHAMFERD
 40
0.0
  9
$SKPOLY
 70
     0
  9
$TDCREATE
 40
2457352.532476852
  9
$TDUCREATE
 40
2457352.157476852
  9
$TDUPDATE
 40
2457352.543710915
  9
$TDUUPDATE
 40
2457352.168710915
  9
$TDINDWG
 40
0.0004535417
  9
$TDUSRTIMER
 40
0.0004534144
  9
$USRTIMER
 70
     1
  9
$ANGBASE
 50
0.0
  9
$ANGDIR
 70
     0
  9
$PDMODE
 70
     1
  9
$PDSIZE
 40
-2.0
  9
$PLINEWID
 40
0.0
  9
$SPLFRAME
 70
     0
  9
$SPLINETYPE
 70
     6
  9
$SPLINESEGS
 70
     8
  9
$HANDSEED
  5
453
  9
$SURFTAB1
 70
     6
  9
$SURFTAB2
 70
     6
  9
$SURFTYPE
 70
     6
  9
$SURFU
 70
     6
  9
$SURFV
 70
     6
  9
$UCSBASE
  2

  9
$UCSNAME
  2

  9
$UCSORG
 10
0.0
 20
0.0
 30
0.0
  9
$UCSXDIR
 10
1.0
 20
0.0
 30
0.0
  9
$UCSYDIR
 10
0.0
 20
1.0
 30
0.0
  9
$UCSORTHOREF
  2

  9
$UCSORTHOVIEW
 70
     0
  9
$UCSORGTOP
 10
0.0
 20
0.0
 30
0.0
  9
$UCSORGBOTTOM
 10
0.0
 20
0.0
 30
0.0
  9
$UCSORGLEFT
 10
0.0
 20
0.0
 30
0.0
  9
$UCSORGRIGHT
 10
0.0
 20
0.0
 30
0.0
  9
$UCSORGFRONT
 10
0.0
 20
0.0
 30
0.0
  9
$UCSORGBACK
 10
0.0
 20
0.0
 30
0.0
  9
$PUCSBASE
  2

  9
$PUCSNAME
  2

  9
$PUCSORG
 10
0.0
 20
0.0
 30
0.0
  9
$PUCSXDIR
 10
1.0
 20
0.0
 30
0.0
  9
$PUCSYDIR
 10
0.0
 20
1.0
 30
0.0
  9
$PUCSORTHOREF
  2

  9
$PUCSORTHOVIEW
 70
     0
  9
$PUCSORGTOP
 10
0.0
 20
0.0
 30
0.0
  9
$PUCSORGBOTTOM
 10
0.0
 20
0.0
 30
0.0
  9
$PUCSORGLEFT
 10
0.0
 20
0.0
 30
0.0
  9
$PUCSORGRIGHT
 10
0.0
 20
0.0
 30
0.0
  9
$PUCSORGFRONT
 10
0.0
 20
0.0
 30
0.0
  9
$PUCSORGBACK
 10
0.0
 20
0.0
 30
0.0
  9
$USERI1
 70
     0
  9
$USERI2
 70
     0
  9
$USERI3
 70
     0
  9
$USERI4
 70
     0
  9
$USERI5
 70
     0
  9
$USERR1
 40
0.0
  9
$USERR2
 40
0.0
  9
$USERR3
 40
0.0
  9
$USERR4
 40
0.0
  9
$USERR5
 40
0.0
  9
$WORLDVIEW
 70
     1
  9
$SHADEDGE
 70
     3
  9
$SHADEDIF
 70
    70
  9
$TILEMODE
 70
     1
  9
$MAXACTVP
 70
    64
  9
$PINSBASE
 10
0.0
 20
0.0
 30
0.0
  9
$PLIMCHECK
 70
     0
  9
$PEXTMIN
 10
1.000000000000000E+20
 20
1.000000000000000E+20
 30
1.000000000000000E+20
  9
$PEXTMAX
 10
-1.000000000000000E+20
 20
-1.000000000000000E+20
 30
-1.000000000000000E+20
  9
$PLIMMIN
 10
0.0
 20
0.0
  9
$PLIMMAX
 10
12.0
 20
9.0
  9
$UNITMODE
 70
     0
  9
$VISRETAIN
 70
     0
  9
$PLINEGEN
 70
     1
  9
$PSLTSCALE
 70
     0
  9
$TREEDEPTH
 70
  3020
  9
$CMLSTYLE
  2
Standard
  9
$CMLJUST
 70
     0
  9
$CMLSCALE
 40
1.0
  9
$PROXYGRAPHICS
 70
     1
  9
$MEASUREMENT
 70
     0
  9
$CELWEIGHT
370
    -1
  9
$ENDCAPS
280
     0
  9
$JOINSTYLE
280
     0
  9
$LWDISPLAY
290
     0
  9
$INSUNITS
 70
     0
  9
$HYPERLINKBASE
  1

  9
$STYLESHEET
  1

  9
$XEDIT
290
     1
  9
$CEPSNTYPE
380
     0
  9
$PSTYLEMODE
290
     1
  9
$FINGERPRINTGUID
  2
{0E640745-F4F5-4194-BF94-36A402E53876}
  9
$VERSIONGUID
  2
{8874FDAB-9B56-4077-AB42-005E2D07AC45}
  9
$EXTNAMES
290
     1
  9
$PSVPSCALE
 40
0.0
  9
$OLESTARTUP
290
     0
  0
ENDSEC
  0
SECTION
  2
CLASSES
  0
CLASS
  1
ACDBDICTIONARYWDFLT
  2
AcDbDictionaryWithDefault
  3
ObjectDBX Classes
 90
        0
280
     0
281
     0
  0
CLASS
  1
MATERIAL
  2
AcDbMaterial
  3
ObjectDBX Classes
 90
     1153
280
     0
281
     0
  0
CLASS
  1
VISUALSTYLE
  2
AcDbVisualStyle
  3
ObjectDBX Classes
 90
     4095
280
     0
281
     0
  0
CLASS
  1
SCALE
  2
AcDbScale
  3
ObjectDBX Classes
 90
     1153
280
     0
281
     0
  0
CLASS
  1
TABLESTYLE
  2
AcDbTableStyle
  3
ObjectDBX Classes
 90
     4095
280
     0
281
     0
  0
CLASS
  1
MLEADERSTYLE
  2
AcDbMLeaderStyle
  3
ACDB_MLEADERSTYLE_CLASS
 90
     4095
280
     0
281
     0
  0
CLASS
  1
ACDBSECTIONVIEWSTYLE
  2
AcDbSectionViewStyle
  3
ObjectDBX Classes
 90
     1025
280
     0
281
     0
  0
CLASS
  1
ACDBDETAILVIEWSTYLE
  2
AcDbDetailViewStyle
  3
ObjectDBX Classes
 90
     1025
280
     0
281
     0
  0
CLASS
  1
DICTIONARYVAR
  2
AcDbDictionaryVar
  3
ObjectDBX Classes
 90
        0
280
     0
281
     0
  0
CLASS
  1
CELLSTYLEMAP
  2
AcDbCellStyleMap
  3
ObjectDBX Classes
 90
     1152
280
     0
281
     0
  0
CLASS
  1
ACDBPLACEHOLDER
  2
AcDbPlaceHolder
  3
ObjectDBX Classes
 90
        0
280
     0
281
     0
  0
CLASS
  1
LAYOUT
  2
AcDbLayout
  3
ObjectDBX Classes
 90
        0
280
     0
281
     0
  0
ENDSEC
  0
SECTION
  2
TABLES
  0
TABLE
  2
VPORT
  5
377
330
0
100
AcDbSymbolTable
 70
     1
  0
VPORT
  5
3E3
330
377
100
AcDbSymbolTableRecord
100
AcDbViewportTableRecord
  2
*ACTIVE
 70
     0
 10
0.0
 20
0.0
 11
1.0
 21
1.0
 12
100.0000012572854
 22
136.4663539705774
 13
0.0
 23
0.0
 14
1.0
 24
1.0
 15
0.0
 25
0.0
 16
0.0
 26
0.0
 36
1.0
 17
0.0
 27
0.0
 37
0.0
 40
805.6292084628466
 41
2.315405651777575
 42
50.0
 43
0.0
 44
0.0
 50
0.0
 51
0.0
 71
     0
 72
  2000
 73
     1
 74
     1
 75
     0
 76
     0
 77
     0
 78
     0
281
     0
 65
     1
110
0.0
120
0.0
130
0.0
111
1.0
121
0.0
131
0.0
112
0.0
122
1.0
132
0.0
 79
     0
146
0.0
1001
ACAD_NAV_VCDISPLAY
1070
     3
  0
ENDTAB
  0
TABLE
  2
LTYPE
  5
374
330
0
100
AcDbSymbolTable
 70
    11
  0
LTYPE
  5
3C9
330
374
100
AcDbSymbolTableRecord
100
AcDbLinetypeTableRecord
  2
ByBlock
 70
     0
  3

 72
    65
 73
     0
 40
0.0
  0
LTYPE
  5
3CA
330
374
100
AcDbSymbolTableRecord
100
AcDbLinetypeTableRecord
  2
ByLayer
 70
     0
  3

 72
    65
 73
     0
 40
0.0
  0
LTYPE
  5
3CB
330
374
100
AcDbSymbolTableRecord
100
AcDbLinetypeTableRecord
  2
CONTINUOUS
 70
     0
  3
Solid line
 72
    65
 73
     0
 40
0.0
  0
ENDTAB
  0
TABLE
  2
LAYER
  5
371
330
0
100
AcDbSymbolTable
 70
     6
  0
LAYER
  5
3C3
102
{ACAD_XDICTIONARY
360
3FD
102
}
330
371
100
AcDbSymbolTableRecord
100
AcDbLayerTableRecord
  2
0
 70
     0
 62
     7
  6
CONTINUOUS
370
    -3
390
37E
  0
LAYER
  5
3E2
102
{ACAD_XDICTIONARY
360
3FF
102
}
330
371
100
AcDbSymbolTableRecord
100
AcDbLayerTableRecord
  2
DATA
 70
     0
 62
     7
  6
CONTINUOUS
370
    -3
390
37E
  0
LAYER
  5
3EE
102
{ACAD_XDICTIONARY
360
401
102
}
330
371
100
AcDbSymbolTableRecord
100
AcDbLayerTableRecord
  2
HIBINO-BASE
 70
     0
 62
     7
  6
CONTINUOUS
370
    -3
390
37E
  0
LAYER
  5
3EF
102
{ACAD_XDICTIONARY
360
403
102
}
330
371
100
AcDbSymbolTableRecord
100
AcDbLayerTableRecord
  2
SPEC
 70
     0
 62
     7
  6
CONTINUOUS
370
    -3
390
37E
  0
LAYER
  5
3F0
102
{ACAD_XDICTIONARY
360
405
102
}
330
371
100
AcDbSymbolTableRecord
100
AcDbLayerTableRecord
  2
DIMNSIONS
 70
     0
 62
     7
  6
CONTINUOUS
370
    -3
390
37E
  0
LAYER
  5
3F1
330
371
100
AcDbSymbolTableRecord
100
AcDbLayerTableRecord
  2
DEFPOINTS
 70
     0
 62
     7
  6
CONTINUOUS
290
     0
370
    -3
390
37E
  0
ENDTAB
  0
TABLE
  2
STYLE
  5
372
330
0
100
AcDbSymbolTable
 70
     3
  0
STYLE
  5
3C4
330
372
100
AcDbSymbolTableRecord
100
AcDbTextStyleTableRecord
  2
STANDARD
 70
     0
 40
0.0
 41
1.0
 50
0.0
 71
     0
 42
0.0
  3
txt
  4
BIGFONT.SHX
  0
STYLE
  5
3F2
330
372
100
AcDbSymbolTableRecord
100
AcDbTextStyleTableRecord
  2
_______
 70
     0
 40
0.0
 41
1.0
 50
0.0
 71
     0
 42
0.0
  3

  4
ＭＳ ゴシック
  0
ENDTAB
  0
TABLE
  2
VIEW
  5
375
330
0
100
AcDbSymbolTable
 70
     0
  0
ENDTAB
  0
TABLE
  2
UCS
  5
376
330
0
100
AcDbSymbolTable
 70
     0
  0
ENDTAB
  0
TABLE
  2
APPID
  5
378
330
0
100
AcDbSymbolTable
 70
     4
  0
APPID
  5
3C5
330
378
100
AcDbSymbolTableRecord
100
AcDbRegAppTableRecord
  2
ACAD
 70
     0
  0
APPID
  5
3CC
330
378
100
AcDbSymbolTableRecord
100
AcDbRegAppTableRecord
  2
AcadAnnotative
 70
     0
  0
APPID
  5
411
330
378
100
AcDbSymbolTableRecord
100
AcDbRegAppTableRecord
  2
ACAD_NAV_VCDISPLAY
 70
     0
  0
APPID
  5
44A
330
378
100
AcDbSymbolTableRecord
100
AcDbRegAppTableRecord
  2
ACAD_MLEADERVER
 70
     0
  0
ENDTAB
  0
TABLE
  2
DIMSTYLE
  5
379
330
0
100
AcDbSymbolTable
 70
     3
100
AcDbDimStyleTable
 71
     0
  0
DIMSTYLE
105
3C6
330
379
100
AcDbSymbolTableRecord
100
AcDbDimStyleTableRecord
  2
STANDARD
 70
     0
279
     2
284
     3
285
     3
286
     3
340
3C4
  0
DIMSTYLE
105
3F3
102
{ACAD_REACTORS
330
36B
330
36C
102
}
330
379
100
AcDbSymbolTableRecord
100
AcDbDimStyleTableRecord
  2
HIBINO
 70
     0
  4
[]
 41
7.501867675781249
 42
5.999999999999999
 43
4.999999999999999
 44
5.999999999999999
 73
     0
 74
     0
 77
     1
 78
     3
140
8.144205729166666
141
0.0
143
1.0
147
0.5
172
     1
174
     1
279
     2
284
     3
285
     3
286
     3
340
3C4
  0
ENDTAB
  0
TABLE
  2
BLOCK_RECORD
  5
370
330
0
100
AcDbSymbolTable
 70
     4
  0
BLOCK_RECORD
  5
3DE
330
370
100
AcDbSymbolTableRecord
100
AcDbBlockTableRecord
  2
*Model_Space
340
3E1
  0
BLOCK_RECORD
  5
3DA
330
370
100
AcDbSymbolTableRecord
100
AcDbBlockTableRecord
  2
*Paper_Space
340
3DD
  0
BLOCK_RECORD
  5
3F7
330
370
100
AcDbSymbolTableRecord
100
AcDbBlockTableRecord
  2
VW_OPENARROW
340
0
  0
BLOCK_RECORD
  5
3F8
330
370
100
AcDbSymbolTableRecord
100
AcDbBlockTableRecord
  2
____
340
0
102
{BLKREFS
331
34C
102
}
  0
BLOCK_RECORD
  5
3F9
330
370
100
AcDbSymbolTableRecord
100
AcDbBlockTableRecord
  2
*D2
340
0
  0
BLOCK_RECORD
  5
3FA
330
370
100
AcDbSymbolTableRecord
100
AcDbBlockTableRecord
  2
*D3
340
0
  0
ENDTAB
  0
ENDSEC
  0
SECTION
  2
BLOCKS
  0
BLOCK
  5
3DF
330
3DE
100
AcDbEntity
  8
0
100
AcDbBlockBegin
  2
*Model_Space
 70
     0
 10
0.0
 20
0.0
 30
0.0
  3
*Model_Space
  1

  0
ENDBLK
  5
3E0
330
3DE
100
AcDbEntity
  8
0
100
AcDbBlockEnd
  0
BLOCK
  5
3DB
330
3DA
100
AcDbEntity
 67
     1
  8
0
100
AcDbBlockBegin
  2
*Paper_Space
 70
     0
 10
0.0
 20
0.0
 30
0.0
  3
*Paper_Space
  1

  0
ENDBLK
  5
3DC
330
3DA
100
AcDbEntity
 67
     1
  8
0
100
AcDbBlockEnd
  0
BLOCK
  5
31
330
3F7
100
AcDbEntity
  8
0
  6
ByBlock
 62
     0
100
AcDbBlockBegin
  2
VW_OPENARROW
 70
     0
 10
0.0
 20
0.0
 30
0.0
  3
VW_OPENARROW
  1

  0
LINE
  5
32
330
3F7
100
AcDbEntity
  8
0
  6
ByBlock
 62
     0
100
AcDbLine
 10
0.0
 20
0.0
 30
0.0
 11
-1.0
 21
0.0
 31
0.0
  0
LINE
  5
33
330
3F7
100
AcDbEntity
  8
0
  6
ByBlock
 62
     0
100
AcDbLine
 10
0.0
 20
0.0
 30
0.0
 11
-0.99993896484375
 21
-0.2679328381102956
 31
0.0
  0
LINE
  5
34
330
3F7
100
AcDbEntity
  8
0
  6
ByBlock
 62
     0
100
AcDbLine
 10
0.0
 20
0.0
 30
0.0
 11
-0.99993896484375
 21
0.2679328381102958
 31
0.0
  0
ENDBLK
  5
35
330
3F7
100
AcDbEntity
  8
0
100
AcDbBlockEnd
  0
BLOCK
  5
37
330
3F8
100
AcDbEntity
  8
DATA
100
AcDbBlockBegin
  2
____
 70
     0
 10
0.0
 20
0.0
 30
0.0
  3
____
  1

  0
LINE
  5
38
330
3F8
100
AcDbEntity
  8
0
  6
Continuous
 62
     7
100
AcDbLine
 10
14.54039601223171
 20
-203.3073960757713
 30
0.0
 11
13.42204822382898
 21
-203.2392511398608
 31
0.0
  0
LINE
  5
39
330
3F8
100
AcDbEntity
  8
0
  6
Continuous
 62
     7
100
AcDbLine
 10
14.54039601223171
 20
-210.4973007145552
 30
0.0
 11
14.54039601223171
 21
-203.3073960757713
 31
0.0
  0
LINE
  5
3A
330
3F8
100
AcDbEntity
  8
0
  6
Continuous
 62
     7
100
AcDbLine
 10
14.54039601223182
 20
-210.4973007145552
 30
0.0
 11
13.42204822382909
 21
-210.5654456504656
 31
0.0
  0
LINE
  5
3B
330
3F8
100
AcDbEntity
  8
0
  6
Continuous
 62
     7
100
AcDbLine
 10
14.64096234310595
 20
-139.6062481021898
 30
0.0
 11
13.52261455470311
 21
-139.5381031662793
 31
0.0
  0
LINE
  5
3C
330
3F8
100
AcDbEntity
  8
0
  6
Continuous
 62
     7
100
AcDbLine
 10
14.64096234310595
 20
-146.7961527409736
 30
0.0
 11
14.64096234310595
 21
-139.6062481021898
 31
0.0
  0
LINE
  5
3D
330
3F8
100
AcDbEntity
  8
0
  6
Continuous
 62
     7
100
AcDbLine
 10
14.64096234310607
 20
-146.7961527409736
 30
0.0
 11
13.52261455470322
 21
-146.8642976768841
 31
0.0
  0
ENDBLK
  5
3E
330
3F8
100
AcDbEntity
  8
DATA
100
AcDbBlockEnd
  0
BLOCK
  5
3F
330
3F9
100
AcDbEntity
  8
DATA
100
AcDbBlockBegin
  2
*D2
 70
     1
 10
0.0
 20
0.0
 30
0.0
  3
*D2
  1

  0
LINE
  5
40
330
3F9
100
AcDbEntity
  8
0
  6
Continuous
 62
     0
100
AcDbLine
 10
25.45180057099099
 20
294.3732093362381
 30
0.0
 11
37.5
 21
325.0
 31
0.0
  0
LINE
  5
41
330
3F9
100
AcDbEntity
  8
0
  6
Continuous
 62
     0
100
AcDbLine
 10
25.45180057099099
 20
294.3732093362381
 30
0.0
 11
26.39829942533072
 21
302.081823899662
 31
0.0
  0
LINE
  5
42
330
3F9
100
AcDbEntity
  8
0
  6
Continuous
 62
     0
100
AcDbLine
 10
25.45180057099099
 20
294.3732093362381
 30
0.0
 11
30.12579990521397
 21
300.575815948976
 31
0.0
  0
LINE
  5
43
330
3F9
100
AcDbEntity
  8
0
  6
Continuous
 62
     0
100
AcDbLine
 10
37.5
 20
325.0
 30
0.0
 11
43.5
 21
325.0
 31
0.0
  0
TEXT
  5
44
330
3F9
100
AcDbEntity
  8
0
 62
     0
100
AcDbText
 10
43.5
 20
321.19
 30
0.0
 40
8.144205729166666
  1
4.0\U+00D76.3長穴(6ヵ所)
  7
_______
 11
43.5
 21
329.3342057291667
 31
0.0
100
AcDbText
 73
     3
  0
POINT
  5
45
330
3F9
100
AcDbEntity
  8
DEFPOINTS
 62
     0
100
AcDbPoint
 10
23.98748072218001
 20
290.6508757428595
 30
0.0
  0
POINT
  5
46
330
3F9
100
AcDbEntity
  8
DEFPOINTS
 62
     0
100
AcDbPoint
 10
25.45180057099099
 20
294.3732093362381
 30
0.0
  0
ENDBLK
  5
47
330
3F9
100
AcDbEntity
  8
DATA
100
AcDbBlockEnd
  0
BLOCK
  5
48
330
3FA
100
AcDbEntity
  8
DATA
100
AcDbBlockBegin
  2
*D3
 70
     1
 10
0.0
 20
0.0
 30
0.0
  3
*D3
  1

  0
LINE
  5
49
330
3FA
100
AcDbEntity
  8
0
  6
Continuous
 62
     0
100
AcDbLine
 10
25.71818997742261
 20
-5.621355425648857
 30
0.0
 11
37.5
 21
25.0
 31
0.0
  0
LINE
  5
4A
330
3FA
100
AcDbEntity
  8
0
  6
Continuous
 62
     0
100
AcDbLine
 10
25.71818997742261
 20
-5.621355425648857
 30
0.0
 11
26.66468883176235
 21
2.087259137774964
 31
0.0
  0
LINE
  5
4B
330
3FA
100
AcDbEntity
  8
0
  6
Continuous
 62
     0
100
AcDbLine
 10
25.71818997742261
 20
-5.621355425648857
 30
0.0
 11
30.3921893116456
 21
0.5812511870890092
 31
0.0
  0
LINE
  5
4C
330
3FA
100
AcDbEntity
  8
0
  6
Continuous
 62
     0
100
AcDbLine
 10
37.5
 20
25.0
 30
0.0
 11
43.49999999999999
 21
25.0
 31
0.0
  0
TEXT
  5
4D
330
3FA
100
AcDbEntity
  8
0
 62
     0
100
AcDbText
 10
43.49999999999999
 20
21.18999999999998
 30
0.0
 40
8.144205729166666
  1
4.0\U+00D76.3長穴(6ヵ所)
  7
_______
 11
43.49999999999999
 21
29.33420572916665
 31
0.0
100
AcDbText
 73
     3
  0
POINT
  5
4E
330
3FA
100
AcDbEntity
  8
DEFPOINTS
 62
     0
100
AcDbPoint
 10
24.28181002257736
 20
-9.354559495253425
 30
0.0
  0
POINT
  5
4F
330
3FA
100
AcDbEntity
  8
DEFPOINTS
 62
     0
100
AcDbPoint
 10
25.71818997742261
 20
-5.621355425648857
 30
0.0
  0
ENDBLK
  5
50
330
3FA
100
AcDbEntity
  8
DATA
100
AcDbBlockEnd
  0
ENDSEC
  0
SECTION
  2
ENTITIES
  0
LINE
  5
51
330
3DE
100
AcDbEntity
  8
HIBINO-BASE
  6
Continuous
 62
     7
100
AcDbLine
 10
-169.9999999999999
 20
537.0672957897318
 30
0.0
 11
370.0
 21
537.0672957897318
 31
0.0
  0
LINE
  5
52
330
3DE
100
AcDbEntity
  8
HIBINO-BASE
  6
Continuous
 62
     7
100
AcDbLine
 10
370.0
 20
-242.9327042102682
 30
0.0
 11
-169.9999999999999
 21
-242.9327042102682
 31
0.0
  0
LINE
  5
53
330
3DE
100
AcDbEntity
  8
HIBINO-BASE
  6
Continuous
 62
     7
100
AcDbLine
 10
-169.9999999999999
 20
-242.9327042102682
 30
0.0
 11
-169.9999999999999
 21
537.0672957897318
 31
0.0
  0
LINE
  5
54
330
3DE
100
AcDbEntity
  8
HIBINO-BASE
  6
Continuous
 62
     7
100
AcDbLine
 10
370.0
 20
537.0672957897318
 30
0.0
 11
370.0
 21
-242.9327042102682
 31
0.0
  0
LINE
  5
55
330
3DE
100
AcDbEntity
  8
HIBINO-BASE
  6
Continuous
 62
     7
100
AcDbLine
 10
100.0
 20
-175.4327042102681
 30
0.0
 11
370.0
 21
-175.4327042102681
 31
0.0
  0
LINE
  5
56
330
3DE
100
AcDbEntity
  8
HIBINO-BASE
  6
Continuous
 62
     7
100
AcDbLine
 10
100.0
 20
-242.9327042102682
 30
0.0
 11
100.0
 21
-175.4327042102681
 31
0.0
  0
TEXT
  5
57
330
3DE
100
AcDbEntity
  8
HIBINO-BASE
 62
     7
100
AcDbText
 10
102.7
 20
-182.9587842102681
 30
0.0
 40
4.886523437499999
  1
NOTE
 41
0.7
 11
102.7
 21
-178.0722607727682
 31
0.0
100
AcDbText
 73
     3
  0
LINE
  5
58
330
3DE
100
AcDbEntity
  8
HIBINO-BASE
  6
Continuous
 62
     7
100
AcDbLine
 10
205.0
 20
-242.9327042102682
 30
0.0
 11
205.0
 21
-175.4327042102681
 31
0.0
  0
TEXT
  5
59
330
3DE
100
AcDbEntity
  8
HIBINO-BASE
 62
     7
100
AcDbText
 10
207.7
 20
-182.9587842102681
 30
0.0
 40
4.886523437499999
  1
TITLE
 41
0.7
 11
207.7
 21
-178.0722607727682
 31
0.0
100
AcDbText
 73
     3
  0
LINE
  5
5A
330
3DE
100
AcDbEntity
  8
HIBINO-BASE
  6
Continuous
 62
     7
100
AcDbLine
 10
100.0
 20
-212.9327042102681
 30
0.0
 11
370.0
 21
-212.9327042102681
 31
0.0
  0
TEXT
  5
5B
330
3DE
100
AcDbEntity
  8
HIBINO-BASE
 62
     7
100
AcDbText
 10
245.2
 20
-220.2898242102682
 30
0.0
 40
4.886523437499999
  1
DRAWN
 41
0.7
 11
245.2
 21
-215.4033007727682
 31
0.0
100
AcDbText
 73
     3
  0
TEXT
  5
5C
330
3DE
100
AcDbEntity
  8
HIBINO-BASE
 62
     7
100
AcDbText
 10
170.2
 20
-220.2898242102682
 30
0.0
 40
4.886523437499999
  1
DATE
 41
0.7
 11
170.2
 21
-215.4033007727682
 31
0.0
100
AcDbText
 73
     3
  0
TEXT
  5
5D
330
3DE
100
AcDbEntity
  8
HIBINO-BASE
 62
     7
100
AcDbText
 10
140.2
 20
-220.2898242102682
 30
0.0
 40
4.886523437499999
  1
SCALE
 41
0.7
 11
140.2
 21
-215.4033007727682
 31
0.0
100
AcDbText
 73
     3
  0
TEXT
  5
5E
330
3DE
100
AcDbEntity
  8
HIBINO-BASE
 62
     7
100
AcDbText
 10
207.7
 20
-220.2898242102682
 30
0.0
 40
4.886523437499999
  1
DESIGN
 41
0.7
 11
207.7
 21
-215.4033007727682
 31
0.0
100
AcDbText
 73
     3
  0
TEXT
  5
5F
330
3DE
100
AcDbEntity
  8
HIBINO-BASE
 62
     7
100
AcDbText
 10
320.2
 20
-220.2898242102682
 30
0.0
 40
4.886523437499999
  1
DRAWING NO.
 41
0.7
 11
320.2
 21
-215.4033007727682
 31
0.0
100
AcDbText
 73
     3
  0
TEXT
  5
60
330
3DE
100
AcDbEntity
  8
HIBINO-BASE
 62
     7
100
AcDbText
 10
282.7
 20
-220.2898242102682
 30
0.0
 40
4.886523437499999
  1
CHECK
 41
0.7
 11
282.7
 21
-215.4033007727682
 31
0.0
100
AcDbText
 73
     3
  0
LINE
  5
61
330
3DE
100
AcDbEntity
  8
HIBINO-BASE
  6
Continuous
 62
     7
100
AcDbLine
 10
143.1249999999999
 20
-239.1827042102682
 30
0.0
 11
154.375
 21
-227.9327042102681
 31
0.0
  0
TEXT
  5
62
330
3DE
100
AcDbEntity
  8
HIBINO-BASE
 62
     7
100
AcDbText
 10
141.2499999999999
 20
-231.2595342102682
 30
0.0
 40
4.886523437499999
  1
1
 41
0.7
 11
141.2499999999999
 21
-226.3730107727682
 31
0.0
100
AcDbText
 73
     3
  0
LINE
  5
63
330
3DE
100
AcDbEntity
  8
HIBINO-BASE
  6
Continuous
 62
     7
100
AcDbLine
 10
137.5
 20
-242.9327042102682
 30
0.0
 11
137.5
 21
-212.9327042102681
 31
0.0
  0
LINE
  5
64
330
3DE
100
AcDbEntity
  8
HIBINO-BASE
  6
Continuous
 62
     7
100
AcDbLine
 10
167.5
 20
-242.9327042102682
 30
0.0
 11
167.5
 21
-212.9327042102681
 31
0.0
  0
LINE
  5
65
330
3DE
100
AcDbEntity
  8
HIBINO-BASE
  6
Continuous
 62
     7
100
AcDbLine
 10
242.5
 20
-212.9327042102681
 30
0.0
 11
242.5
 21
-242.9327042102682
 31
0.0
  0
LINE
  5
66
330
3DE
100
AcDbEntity
  8
HIBINO-BASE
  6
Continuous
 62
     7
100
AcDbLine
 10
317.5
 20
-212.9327042102681
 30
0.0
 11
317.5
 21
-242.9327042102682
 31
0.0
  0
LINE
  5
67
330
3DE
100
AcDbEntity
  8
HIBINO-BASE
  6
Continuous
 62
     7
100
AcDbLine
 10
279.9999999999999
 20
-242.9327042102682
 30
0.0
 11
279.9999999999999
 21
-212.9327042102681
 31
0.0
  0
TEXT
  5
68
330
3DE
100
AcDbEntity
  8
HIBINO-BASE
 62
     7
100
AcDbText
 10
170.06962
 20
-234.3417642102682
 30
0.0
 40
4.886523437499999
  1
'15.11.
 41
0.7
 11
170.06962
 21
-229.4552407727682
 31
0.0
100
AcDbText
 73
     3
  0
TEXT
  5
69
330
3DE
100
AcDbEntity
  8
HIBINO-BASE
 62
     7
100
AcDbText
 10
152.5
 20
-236.8845342102682
 30
0.0
 40
4.886523437499999
  1
3
 41
0.7
 11
152.5
 21
-231.9980107727682
 31
0.0
100
AcDbText
 73
     3
  0
TEXT
  5
6A
330
3DE
100
AcDbEntity
  8
HIBINO-BASE
 62
     7
100
AcDbText
 10
247.0174300331039
 20
-234.3417642102682
 30
0.0
 40
4.886523437499999
  1
Wakatsuki
 41
0.7
 11
247.0174300331039
 21
-229.4552407727682
 31
0.0
100
AcDbText
 73
     3
  0
TEXT
  5
6B
330
3DE
100
AcDbEntity
  8
HIBINO-BASE
 62
     7
100
AcDbText
 10
111.65
 20
-237.0047042102681
 30
0.0
 40
9.773046874999998
  1
A4
 41
0.7
 11
111.65
 21
-227.2316573352681
 31
0.0
100
AcDbText
 73
     3
  0
TEXT
  5
6C
330
3DE
100
AcDbEntity
  8
HIBINO-BASE
 62
     7
100
AcDbText
 10
102.875
 20
-220.7910692102681
 30
0.0
 40
4.886523437499999
  1
PAPER SIZE
 41
0.7
 11
102.875
 21
-215.9045457727681
 31
0.0
100
AcDbText
 73
     3
  0
TEXT
  5
6D
330
3DE
100
AcDbEntity
  8
HIBINO-BASE
 62
     7
100
AcDbText
 10
-161.7210942293294
 20
-262.2084249127969
 30
0.0
 40
10.58746744791666
  1
Hibino-Intersound Corporation
 41
0.7
 11
-161.7210942293294
 21
-251.6209574648803
 31
0.0
100
AcDbText
 73
     3
  0
TEXT
  5
6E
330
3DE
100
AcDbEntity
  8
HIBINO-BASE
 62
     7
100
AcDbText
 10
160.5418290406417
 20
-261.1551601529287
 30
0.0
 40
10.58746744791666
  1
ヒビノインターサウンド株式会社
 41
0.7
 11
160.5418290406417
 21
-250.567692705012
 31
0.0
100
AcDbText
 73
     3
  0
LINE
  5
6F
330
3DE
100
AcDbEntity
  8
SPEC
  6
Continuous
 62
     7
100
AcDbLine
 10
-147.4999999999999
 20
507.0672957897317
 30
0.0
 11
295.0
 21
507.0672957897317
 31
0.0
  0
LINE
  5
70
330
3DE
100
AcDbEntity
  8
SPEC
  6
Continuous
 62
     7
100
AcDbLine
 10
-147.4999999999999
 20
495.8172957897317
 30
0.0
 11
295.0
 21
495.8172957897317
 31
0.0
  0
LINE
  5
71
330
3DE
100
AcDbEntity
  8
SPEC
  6
Continuous
 62
     7
100
AcDbLine
 10
-147.4999999999999
 20
484.5672957897317
 30
0.0
 11
295.0
 21
484.5672957897317
 31
0.0
  0
LINE
  5
72
330
3DE
100
AcDbEntity
  8
SPEC
  6
Continuous
 62
     7
100
AcDbLine
 10
-147.4999999999999
 20
507.0672957897317
 30
0.0
 11
-147.4999999999999
 21
383.3172957897318
 31
0.0
  0
TEXT
  5
73
330
3DE
100
AcDbEntity
  8
SPEC
 62
     7
100
AcDbText
 10
-143.7499999999999
 20
511.2471057897318
 30
0.0
 40
7.329785156249999
  1
仕様
 41
0.7
 11
-143.7499999999999
 21
518.5768909459818
 31
0.0
100
AcDbText
 73
     3
  0
LINE
  5
74
330
3DE
100
AcDbEntity
  8
SPEC
  6
Continuous
 62
     7
100
AcDbLine
 10
-29.99999999999999
 20
507.0672957897317
 30
0.0
 11
-29.99999999999999
 21
383.3172957897318
 31
0.0
  0
LINE
  5
75
330
3DE
100
AcDbEntity
  8
SPEC
  6
Continuous
 62
     7
100
AcDbLine
 10
295.0
 20
507.0672957897317
 30
0.0
 11
295.0
 21
383.3172957897318
 31
0.0
  0
LINE
  5
76
330
3DE
100
AcDbEntity
  8
SPEC
  6
Continuous
 62
     7
100
AcDbLine
 10
-147.4999999999999
 20
462.0672957897317
 30
0.0
 11
295.0
 21
462.0672957897317
 31
0.0
  0
LINE
  5
77
330
3DE
100
AcDbEntity
  8
SPEC
  6
Continuous
 62
     7
100
AcDbLine
 10
-147.4999999999999
 20
450.8172957897317
 30
0.0
 11
295.0
 21
450.8172957897317
 31
0.0
  0
LINE
  5
78
330
3DE
100
AcDbEntity
  8
SPEC
  6
Continuous
 62
     7
100
AcDbLine
 10
-147.4999999999999
 20
439.5672957897317
 30
0.0
 11
295.0
 21
439.5672957897317
 31
0.0
  0
LINE
  5
79
330
3DE
100
AcDbEntity
  8
SPEC
  6
Continuous
 62
     7
100
AcDbLine
 10
-147.4999999999999
 20
428.3172957897317
 30
0.0
 11
295.0
 21
428.3172957897317
 31
0.0
  0
LINE
  5
7A
330
3DE
100
AcDbEntity
  8
SPEC
  6
Continuous
 62
     7
100
AcDbLine
 10
-147.4999999999999
 20
417.0672957897317
 30
0.0
 11
295.0
 21
417.0672957897317
 31
0.0
  0
LINE
  5
7B
330
3DE
100
AcDbEntity
  8
SPEC
  6
Continuous
 62
     7
100
AcDbLine
 10
-147.4999999999999
 20
405.8172957897317
 30
0.0
 11
295.0
 21
405.8172957897317
 31
0.0
  0
TEXT
  5
7C
330
3DE
100
AcDbEntity
  8
SPEC
 62
     7
100
AcDbText
 10
-145.0696734994689
 20
409.1960531149675
 30
0.0
 40
5.700944010416665
  1
電源、消費電力
 41
0.7
 11
-145.0696734994689
 21
414.8969971253841
 31
0.0
100
AcDbText
 73
     3
  0
TEXT
  5
7D
330
3DE
100
AcDbEntity
  8
SPEC
 62
     7
100
AcDbText
 10
-144.9552444278253
 20
419.9243604758541
 30
0.0
 40
5.700944010416665
  1
IR端子
 41
0.7
 11
-144.9552444278253
 21
425.6253044862708
 31
0.0
100
AcDbText
 73
     3
  0
TEXT
  5
7E
330
3DE
100
AcDbEntity
  8
SPEC
 62
     7
100
AcDbText
 10
-29.00466433532715
 20
419.7424784509293
 30
0.0
 40
5.700944010416665
  1
入力(送信機):3.5mmﾓﾉﾗﾙﾐﾆx1, 出力(送受信機):3.5mmﾓﾉﾗﾙﾐﾆx1, 延長(受信機):3.5mmｽﾃﾚｵﾐﾆx1
 41
0.7
 11
-29.00466433532715
 21
425.443422461346
 31
0.0
100
AcDbText
 73
     3
  0
TEXT
  5
7F
330
3DE
100
AcDbEntity
  8
SPEC
 62
     7
100
AcDbText
 10
-145.4011574804632
 20
442.0755191626089
 30
0.0
 40
5.700944010416665
  1
リンク端子
 41
0.7
 11
-145.4011574804632
 21
447.7764631730257
 31
0.0
100
AcDbText
 73
     3
  0
TEXT
  5
80
330
3DE
100
AcDbEntity
  8
SPEC
 62
     7
100
AcDbText
 10
-27.32373248748719
 20
441.9218910988319
 30
0.0
 40
5.700944010416665
  1
RJ-45(ｼｰﾙﾄﾞ)x1(送信機、受信機共)
 41
0.7
 11
-27.32373248748719
 21
447.6228351092485
 31
0.0
100
AcDbText
 73
     3
  0
TEXT
  5
81
330
3DE
100
AcDbEntity
  8
SPEC
 62
     7
100
AcDbText
 10
-145.2976487901887
 20
453.1445644558569
 30
0.0
 40
5.700944010416667
  1
ビデオ入出力端子
 41
0.7
 11
-145.2976487901887
 21
458.8455084662736
 31
0.0
100
AcDbText
 73
     3
  0
TEXT
  5
82
330
3DE
100
AcDbEntity
  8
SPEC
 62
     7
100
AcDbText
 10
-27.32459281139792
 20
453.580606457723
 30
0.0
 40
5.700944010416665
  1
入力(送信機):HDMI Type A(19ﾋﾟﾝ,ﾒｽ)x1, 出力(受信機):HDMI Type A(19ﾋﾟﾝ,ﾒｽ)x1
 41
0.7
 11
-27.32459281139792
 21
459.2815504681396
 31
0.0
100
AcDbText
 73
     3
  0
TEXT
  5
83
330
3DE
100
AcDbEntity
  8
SPEC
 62
     7
100
AcDbText
 10
-27.63549252694732
 20
464.9080565746073
 30
0.0
 40
5.700944010416667
  1
1080p
 41
0.7
 11
-27.63549252694732
 21
470.6090005850239
 31
0.0
100
AcDbText
 73
     3
  0
TEXT
  5
84
330
3DE
100
AcDbEntity
  8
SPEC
 62
     7
100
AcDbText
 10
-144.8805842610711
 20
475.9834346593682
 30
0.0
 40
5.700944010416667
  1
対応解像度
 41
0.7
 11
-144.8805842610711
 21
481.6843786697848
 31
0.0
100
AcDbText
 73
     3
  0
TEXT
  5
85
330
3DE
100
AcDbEntity
  8
SPEC
 62
     7
100
AcDbText
 10
-27.34764237956965
 20
476.1313733029693
 30
0.0
 40
5.700944010416667
  1
4K DCI:4096x2160@24Hz/30Hz(4:4:4), 4K UHD:3840x2160@60Hz(4:2:0,8bit)/30Hz(4:4:4,8bit),
 41
0.7
 11
-27.34764237956965
 21
481.832317313386
 31
0.0
100
AcDbText
 73
     3
  0
TEXT
  5
86
330
3DE
100
AcDbEntity
  8
SPEC
 62
     7
100
AcDbText
 10
-145.4541058046343
 20
487.2281589130165
 30
0.0
 40
5.700944010416667
  1
最大TMDSクロック
 41
0.7
 11
-145.4541058046343
 21
492.9291029234331
 31
0.0
100
AcDbText
 73
     3
  0
TEXT
  5
87
330
3DE
100
AcDbEntity
  8
SPEC
 62
     7
100
AcDbText
 10
-27.69767456655437
 20
487.5913717744828
 30
0.0
 40
5.700944010416667
  1
300MHz
 41
0.7
 11
-27.69767456655437
 21
493.2923157848995
 31
0.0
100
AcDbText
 73
     3
  0
TEXT
  5
88
330
3DE
100
AcDbEntity
  8
SPEC
 62
     7
100
AcDbText
 10
-145.2253054229558
 20
498.2755674324115
 30
0.0
 40
5.700944010416667
  1
最大ピクセルクロック
 41
0.7
 11
-145.2253054229558
 21
503.9765114428282
 31
0.0
100
AcDbText
 73
     3
  0
TEXT
  5
89
330
3DE
100
AcDbEntity
  8
SPEC
 62
     7
100
AcDbText
 10
-27.70038683127609
 20
498.736123258168
 30
0.0
 40
5.700944010416667
  1
300MHz
 41
0.7
 11
-27.70038683127609
 21
504.4370672685848
 31
0.0
100
AcDbText
 73
     3
  0
LINE
  5
8A
330
3DE
100
AcDbEntity
  8
SPEC
  6
Continuous
 62
     7
100
AcDbLine
 10
-147.4999999999999
 20
394.5672957897317
 30
0.0
 11
295.0
 21
394.5672957897317
 31
0.0
  0
TEXT
  5
8B
330
3DE
100
AcDbEntity
  8
SPEC
 62
     7
100
AcDbText
 10
-144.6006776239856
 20
430.825519162609
 30
0.0
 40
5.700944010416667
  1
RS-232端子
 41
0.7
 11
-144.6006776239856
 21
436.5264631730256
 31
0.0
100
AcDbText
 73
     3
  0
TEXT
  5
8C
330
3DE
100
AcDbEntity
  8
SPEC
 62
     7
100
AcDbText
 10
-27.32373248748719
 20
431.1327321658417
 30
0.0
 40
5.700944010416665
  1
D-Sub9ピン(ﾒｽ)x1(送信機), D-Sub9ピン(ｵｽ)x1(受信機)
 41
0.7
 11
-27.32373248748719
 21
436.8336761762583
 31
0.0
100
AcDbText
 73
     3
  0
TEXT
  5
8D
330
3DE
100
AcDbEntity
  8
SPEC
 62
     7
100
AcDbText
 10
-27.62214113429811
 20
408.221451775685
 30
0.0
 40
5.700944010416665
  1
5V DC, 10W(最大)
 41
0.7
 11
-27.62214113429811
 21
413.9223957861016
 31
0.0
100
AcDbText
 73
     3
  0
TEXT
  5
8E
330
3DE
100
AcDbEntity
  8
SPEC
 62
     7
100
AcDbText
 10
-27.5586015134232
 20
386.031686323073
 30
0.0
 40
5.700944010416665
  1
200g(送信機、受信機共)
 41
0.7
 11
-27.5586015134232
 21
391.7326303334896
 31
0.0
100
AcDbText
 73
     3
  0
LINE
  5
8F
330
3DE
100
AcDbEntity
  8
SPEC
  6
Continuous
 62
     7
100
AcDbLine
 10
-147.4999999999999
 20
383.3172957897318
 30
0.0
 11
295.0
 21
383.3172957897318
 31
0.0
  0
TEXT
  5
90
330
3DE
100
AcDbEntity
  8
SPEC
 62
     7
100
AcDbText
 10
-145.0179534996206
 20
397.7485298770116
 30
0.0
 40
5.700944010416667
  1
寸法(W\U+00D7H\U+00D7D)
 41
0.7
 11
-145.0179534996206
 21
403.4494738874283
 31
0.0
100
AcDbText
 73
     3
  0
TEXT
  5
91
330
3DE
100
AcDbEntity
  8
SPEC
 62
     7
100
AcDbText
 10
-145.0179534996206
 20
386.4985298770116
 30
0.0
 40
5.700944010416667
  1
質量
 41
0.7
 11
-145.0179534996206
 21
392.1994738874283
 31
0.0
100
AcDbText
 73
     3
  0
TEXT
  5
92
330
3DE
100
AcDbEntity
  8
SPEC
 62
     7
100
AcDbText
 10
-27.5586015134232
 20
397.281686323073
 30
0.0
 40
5.700944010416667
  1
110\U+00D726\U+00D780mm(除突起部)
 41
0.7
 11
-27.5586015134232
 21
402.9826303334896
 31
0.0
100
AcDbText
 73
     3
  0
TEXT
  5
93
330
3DE
100
AcDbEntity
  8
DIMNSIONS
 62
     7
100
AcDbText
 10
40.0
 20
-206.1242342102682
 30
0.0
 40
7.329785156249999
  1
(単位：mm)
 41
0.7
 11
40.0
 21
-198.7944490540181
 31
0.0
100
AcDbText
 73
     3
  0
LINE
  5
94
330
3DE
100
AcDbEntity
  8
DIMNSIONS
  6
Continuous
 62
     7
100
AcDbLine
 10
-86.04314095957425
 20
225.0
 30
0.0
 11
-118.5
 21
225.0
 31
0.0
  0
LINE
  5
95
330
3DE
100
AcDbEntity
  8
DIMNSIONS
  6
Continuous
 62
     7
100
AcDbLine
 10
-86.04314095957425
 20
305.0
 30
0.0
 11
-118.5
 21
305.0
 31
0.0
  0
LINE
  5
96
330
3DE
100
AcDbEntity
  8
DIMNSIONS
  6
Continuous
 62
     7
100
AcDbLine
 10
-112.5
 20
225.0
 30
0.0
 11
-112.5
 21
305.0
 31
0.0
  0
LINE
  5
97
330
3DE
100
AcDbEntity
  8
DIMNSIONS
  6
Continuous
 62
     7
100
AcDbLine
 10
-112.5
 20
225.0
 30
0.0
 11
-114.5101193854507
 21
232.5018676757813
 31
0.0
  0
LINE
  5
98
330
3DE
100
AcDbEntity
  8
DIMNSIONS
  6
Continuous
 62
     7
100
AcDbLine
 10
-112.5
 20
225.0
 30
0.0
 11
-110.4898806145492
 21
232.5018676757813
 31
0.0
  0
LINE
  5
99
330
3DE
100
AcDbEntity
  8
DIMNSIONS
  6
Continuous
 62
     7
100
AcDbLine
 10
-112.5
 20
305.0
 30
0.0
 11
-110.4898806145492
 21
297.4981323242188
 31
0.0
  0
LINE
  5
9A
330
3DE
100
AcDbEntity
  8
DIMNSIONS
  6
Continuous
 62
     7
100
AcDbLine
 10
-112.5
 20
305.0
 30
0.0
 11
-114.5101193854507
 21
297.4981323242188
 31
0.0
  0
TEXT
  5
9B
330
3DE
100
AcDbEntity
  8
DIMNSIONS
 62
     7
100
AcDbText
 10
-115.4816666666667
 20
254.4166666666666
 30
0.0
 40
8.144205729166666
  1
80.0
 50
90.0
 41
0.7
 11
-123.6258723958333
 21
254.4166666666666
 31
0.0
100
AcDbText
 73
     3
  0
LINE
  5
9C
330
3DE
100
AcDbEntity
  8
DIMNSIONS
  6
Continuous
 62
     7
100
AcDbLine
 10
-80.04314095957427
 20
219.0
 30
0.0
 11
-80.04314095957427
 21
169.0
 31
0.0
  0
LINE
  5
9D
330
3DE
100
AcDbEntity
  8
DIMNSIONS
  6
Continuous
 62
     7
100
AcDbLine
 10
29.95685904042571
 20
219.0
 30
0.0
 11
29.95685904042571
 21
169.0
 31
0.0
  0
LINE
  5
9E
330
3DE
100
AcDbEntity
  8
DIMNSIONS
  6
Continuous
 62
     7
100
AcDbLine
 10
-80.04314095957427
 20
175.0
 30
0.0
 11
29.95685904042571
 21
175.0
 31
0.0
  0
LINE
  5
9F
330
3DE
100
AcDbEntity
  8
DIMNSIONS
  6
Continuous
 62
     7
100
AcDbLine
 10
-80.04314095957427
 20
175.0
 30
0.0
 11
-72.54127328379301
 21
177.0101193854507
 31
0.0
  0
LINE
  5
A0
330
3DE
100
AcDbEntity
  8
DIMNSIONS
  6
Continuous
 62
     7
100
AcDbLine
 10
-80.04314095957427
 20
175.0
 30
0.0
 11
-72.54127328379301
 21
172.9898806145492
 31
0.0
  0
LINE
  5
A1
330
3DE
100
AcDbEntity
  8
DIMNSIONS
  6
Continuous
 62
     7
100
AcDbLine
 10
29.95685904042571
 20
175.0
 30
0.0
 11
22.45499136464447
 21
172.9898806145492
 31
0.0
  0
LINE
  5
A2
330
3DE
100
AcDbEntity
  8
DIMNSIONS
  6
Continuous
 62
     7
100
AcDbLine
 10
29.95685904042571
 20
175.0
 30
0.0
 11
22.45499136464447
 21
177.0101193854507
 31
0.0
  0
TEXT
  5
A3
330
3DE
100
AcDbEntity
  8
DIMNSIONS
 62
     7
100
AcDbText
 10
-32.98064095957427
 20
177.9816666666666
 30
0.0
 40
8.144205729166666
  1
110
 41
0.7
 11
-32.98064095957427
 21
186.1258723958333
 31
0.0
100
AcDbText
 73
     3
  0
LINE
  5
A4
330
3DE
100
AcDbEntity
  8
DIMNSIONS
  6
Continuous
 62
     7
100
AcDbLine
 10
-69.54314095957427
 20
219.0
 30
0.0
 11
-69.54314095957427
 21
194.0
 31
0.0
  0
LINE
  5
A5
330
3DE
100
AcDbEntity
  8
DIMNSIONS
  6
Continuous
 62
     7
100
AcDbLine
 10
19.45685904042571
 20
219.0
 30
0.0
 11
19.45685904042571
 21
194.0
 31
0.0
  0
LINE
  5
A6
330
3DE
100
AcDbEntity
  8
DIMNSIONS
  6
Continuous
 62
     7
100
AcDbLine
 10
-69.54314095957427
 20
200.0
 30
0.0
 11
19.45685904042571
 21
200.0
 31
0.0
  0
LINE
  5
A7
330
3DE
100
AcDbEntity
  8
DIMNSIONS
  6
Continuous
 62
     7
100
AcDbLine
 10
-69.54314095957427
 20
200.0
 30
0.0
 11
-62.04127328379302
 21
202.0101193854507
 31
0.0
  0
LINE
  5
A8
330
3DE
100
AcDbEntity
  8
DIMNSIONS
  6
Continuous
 62
     7
100
AcDbLine
 10
-69.54314095957427
 20
200.0
 30
0.0
 11
-62.04127328379302
 21
197.9898806145493
 31
0.0
  0
LINE
  5
A9
330
3DE
100
AcDbEntity
  8
DIMNSIONS
  6
Continuous
 62
     7
100
AcDbLine
 10
19.45685904042571
 20
200.0
 30
0.0
 11
11.95499136464447
 21
197.9898806145493
 31
0.0
  0
LINE
  5
AA
330
3DE
100
AcDbEntity
  8
DIMNSIONS
  6
Continuous
 62
     7
100
AcDbLine
 10
19.45685904042571
 20
200.0
 30
0.0
 11
11.95499136464447
 21
202.0101193854507
 31
0.0
  0
TEXT
  5
AB
330
3DE
100
AcDbEntity
  8
DIMNSIONS
 62
     7
100
AcDbText
 10
-35.62647429290762
 20
202.9816666666667
 30
0.0
 40
8.144205729166666
  1
89.0
 41
0.7
 11
-35.62647429290762
 21
211.1258723958333
 31
0.0
100
AcDbText
 73
     3
  0
LINE
  5
AC
330
3DE
100
AcDbEntity
  8
DIMNSIONS
  6
Continuous
 62
     7
100
AcDbLine
 10
-83.28035935341452
 20
265.0
 30
0.0
 11
-106.0
 21
265.0
 31
0.0
  0
LINE
  5
AD
330
3DE
100
AcDbEntity
  8
DIMNSIONS
  6
Continuous
 62
     7
100
AcDbLine
 10
-83.28035935341452
 20
291.0047189580069
 30
0.0
 11
-106.0
 21
291.0047189580069
 31
0.0
  0
LINE
  5
AE
330
3DE
100
AcDbEntity
  8
DIMNSIONS
  6
Continuous
 62
     7
100
AcDbLine
 10
-100.0
 20
265.0
 30
0.0
 11
-100.0
 21
291.0047189580069
 31
0.0
  0
LINE
  5
AF
330
3DE
100
AcDbEntity
  8
DIMNSIONS
  6
Continuous
 62
     7
100
AcDbLine
 10
-100.0
 20
265.0
 30
0.0
 11
-102.0101193854507
 21
272.5018676757812
 31
0.0
  0
LINE
  5
B0
330
3DE
100
AcDbEntity
  8
DIMNSIONS
  6
Continuous
 62
     7
100
AcDbLine
 10
-100.0
 20
265.0
 30
0.0
 11
-97.98988061454927
 21
272.5018676757812
 31
0.0
  0
LINE
  5
B1
330
3DE
100
AcDbEntity
  8
DIMNSIONS
  6
Continuous
 62
     7
100
AcDbLine
 10
-100.0
 20
291.0047189580069
 30
0.0
 11
-97.98988061454927
 21
283.5028512822255
 31
0.0
  0
LINE
  5
B2
330
3DE
100
AcDbEntity
  8
DIMNSIONS
  6
Continuous
 62
     7
100
AcDbLine
 10
-100.0
 20
291.0047189580069
 30
0.0
 11
-102.0101193854507
 21
283.5028512822255
 31
0.0
  0
TEXT
  5
B3
330
3DE
100
AcDbEntity
  8
DIMNSIONS
 62
     7
100
AcDbText
 10
-102.9816666666667
 20
267.41902614567
 30
0.0
 40
8.144205729166666
  1
26.0
 50
90.0
 41
0.7
 11
-111.1258723958333
 21
267.41902614567
 31
0.0
100
AcDbText
 73
     3
  0
LINE
  5
B4
330
3DE
100
AcDbEntity
  8
DIMNSIONS
  6
Continuous
 62
     7
100
AcDbLine
 10
-83.28035935341452
 20
239.0047189580069
 30
0.0
 11
-106.0
 21
239.0047189580069
 31
0.0
  0
LINE
  5
B5
330
3DE
100
AcDbEntity
  8
DIMNSIONS
  6
Continuous
 62
     7
100
AcDbLine
 10
-83.28035935341452
 20
265.0
 30
0.0
 11
-106.0
 21
265.0
 31
0.0
  0
LINE
  5
B6
330
3DE
100
AcDbEntity
  8
DIMNSIONS
  6
Continuous
 62
     7
100
AcDbLine
 10
-100.0
 20
239.0047189580069
 30
0.0
 11
-100.0
 21
265.0
 31
0.0
  0
LINE
  5
B7
330
3DE
100
AcDbEntity
  8
DIMNSIONS
  6
Continuous
 62
     7
100
AcDbLine
 10
-100.0
 20
239.0047189580069
 30
0.0
 11
-102.0101193854507
 21
246.5065866337881
 31
0.0
  0
LINE
  5
B8
330
3DE
100
AcDbEntity
  8
DIMNSIONS
  6
Continuous
 62
     7
100
AcDbLine
 10
-100.0
 20
239.0047189580069
 30
0.0
 11
-97.98988061454927
 21
246.5065866337881
 31
0.0
  0
LINE
  5
B9
330
3DE
100
AcDbEntity
  8
DIMNSIONS
  6
Continuous
 62
     7
100
AcDbLine
 10
-100.0
 20
265.0
 30
0.0
 11
-97.98988061454927
 21
257.4981323242188
 31
0.0
  0
LINE
  5
BA
330
3DE
100
AcDbEntity
  8
DIMNSIONS
  6
Continuous
 62
     7
100
AcDbLine
 10
-100.0
 20
265.0
 30
0.0
 11
-102.0101193854507
 21
257.4981323242188
 31
0.0
  0
TEXT
  5
BB
330
3DE
100
AcDbEntity
  8
DIMNSIONS
 62
     7
100
AcDbText
 10
-102.9816666666667
 20
241.41902614567
 30
0.0
 40
8.144205729166666
  1
26.0
 50
90.0
 41
0.7
 11
-111.1258723958333
 21
241.41902614567
 31
0.0
100
AcDbText
 73
     3
  0
LINE
  5
BC
330
3DE
100
AcDbEntity
  8
DIMNSIONS
  6
Continuous
 62
     7
100
AcDbLine
 10
-75.28035935341451
 20
231.8047189580068
 30
0.0
 11
-75.28035935341451
 21
181.5
 31
0.0
  0
LINE
  5
BD
330
3DE
100
AcDbEntity
  8
DIMNSIONS
  6
Continuous
 62
     7
100
AcDbLine
 10
24.71964064658549
 20
231.8047189580068
 30
0.0
 11
24.71964064658549
 21
181.5
 31
0.0
  0
LINE
  5
BE
330
3DE
100
AcDbEntity
  8
DIMNSIONS
  6
Continuous
 62
     7
100
AcDbLine
 10
-75.28035935341451
 20
187.5
 30
0.0
 11
24.71964064658549
 21
187.5
 31
0.0
  0
LINE
  5
BF
330
3DE
100
AcDbEntity
  8
DIMNSIONS
  6
Continuous
 62
     7
100
AcDbLine
 10
-75.28035935341451
 20
187.5
 30
0.0
 11
-67.77849167763325
 21
189.5101193854507
 31
0.0
  0
LINE
  5
C0
330
3DE
100
AcDbEntity
  8
DIMNSIONS
  6
Continuous
 62
     7
100
AcDbLine
 10
-75.28035935341451
 20
187.5
 30
0.0
 11
-67.77849167763325
 21
185.4898806145493
 31
0.0
  0
LINE
  5
C1
330
3DE
100
AcDbEntity
  8
DIMNSIONS
  6
Continuous
 62
     7
100
AcDbLine
 10
24.71964064658549
 20
187.5
 30
0.0
 11
17.21777297080423
 21
185.4898806145493
 31
0.0
  0
LINE
  5
C2
330
3DE
100
AcDbEntity
  8
DIMNSIONS
  6
Continuous
 62
     7
100
AcDbLine
 10
24.71964064658549
 20
187.5
 30
0.0
 11
17.21777297080423
 21
189.5101193854507
 31
0.0
  0
TEXT
  5
C3
330
3DE
100
AcDbEntity
  8
DIMNSIONS
 62
     7
100
AcDbText
 10
-33.21785935341451
 20
190.4816666666666
 30
0.0
 40
8.144205729166666
  1
100
 41
0.7
 11
-33.21785935341451
 21
198.6258723958333
 31
0.0
100
AcDbText
 73
     3
  0
LINE
  5
C4
330
3DE
100
AcDbEntity
  8
DIMNSIONS
  6
Continuous
 62
     7
100
AcDbLine
 10
-86.04314095957425
 20
125.0
 30
0.0
 11
-131.0
 21
125.0
 31
0.0
  0
LINE
  5
C5
330
3DE
100
AcDbEntity
  8
DIMNSIONS
  6
Continuous
 62
     7
100
AcDbLine
 10
-73.54314095957427
 20
151.0357983998008
 30
0.0
 11
-131.0
 21
151.0357983998008
 31
0.0
  0
LINE
  5
C6
330
3DE
100
AcDbEntity
  8
DIMNSIONS
  6
Continuous
 62
     7
100
AcDbLine
 10
-125.0
 20
125.0
 30
0.0
 11
-125.0
 21
151.0357983998008
 31
0.0
  0
LINE
  5
C7
330
3DE
100
AcDbEntity
  8
DIMNSIONS
  6
Continuous
 62
     7
100
AcDbLine
 10
-125.0
 20
125.0
 30
0.0
 11
-127.0101193854507
 21
132.5018676757812
 31
0.0
  0
LINE
  5
C8
330
3DE
100
AcDbEntity
  8
DIMNSIONS
  6
Continuous
 62
     7
100
AcDbLine
 10
-125.0
 20
125.0
 30
0.0
 11
-122.9898806145492
 21
132.5018676757812
 31
0.0
  0
LINE
  5
C9
330
3DE
100
AcDbEntity
  8
DIMNSIONS
  6
Continuous
 62
     7
100
AcDbLine
 10
-125.0
 20
151.0357983998008
 30
0.0
 11
-122.9898806145492
 21
143.5339307240195
 31
0.0
  0
LINE
  5
CA
330
3DE
100
AcDbEntity
  8
DIMNSIONS
  6
Continuous
 62
     7
100
AcDbLine
 10
-125.0
 20
151.0357983998008
 30
0.0
 11
-127.0101193854507
 21
143.5339307240195
 31
0.0
  0
TEXT
  5
CB
330
3DE
100
AcDbEntity
  8
DIMNSIONS
 62
     7
100
AcDbText
 10
-127.9816666666666
 20
127.4345658665671
 30
0.0
 40
8.144205729166666
  1
26.0
 50
90.0
 41
0.7
 11
-136.1258723958333
 21
127.4345658665671
 31
0.0
100
AcDbText
 73
     3
  0
LINE
  5
CC
330
3DE
100
AcDbEntity
  8
DIMNSIONS
  6
Continuous
 62
     7
100
AcDbLine
 10
-38.85300166263376
 20
219.0
 30
0.0
 11
-118.5
 21
219.0
 31
0.0
  0
LINE
  5
CD
330
3DE
100
AcDbEntity
  8
DIMNSIONS
  6
Continuous
 62
     7
100
AcDbLine
 10
-86.04314095957425
 20
225.0
 30
0.0
 11
-118.5
 21
225.0
 31
0.0
  0
LINE
  5
CE
330
3DE
100
AcDbEntity
  8
DIMNSIONS
  6
Continuous
 62
     7
100
AcDbLine
 10
-112.5
 20
225.0
 30
0.0
 11
-112.5
 21
219.0
 31
0.0
  0
LINE
  5
CF
330
3DE
100
AcDbEntity
  8
DIMNSIONS
  6
Continuous
 62
     7
100
AcDbLine
 10
-112.5
 20
219.0
 30
0.0
 11
-112.5
 21
196.625
 31
0.0
  0
LINE
  5
D0
330
3DE
100
AcDbEntity
  8
DIMNSIONS
  6
Continuous
 62
     7
100
AcDbLine
 10
-112.5
 20
219.0
 30
0.0
 11
-110.4898806145492
 21
211.4981323242187
 31
0.0
  0
LINE
  5
D1
330
3DE
100
AcDbEntity
  8
DIMNSIONS
  6
Continuous
 62
     7
100
AcDbLine
 10
-112.5
 20
219.0
 30
0.0
 11
-114.5101193854507
 21
211.4981323242187
 31
0.0
  0
LINE
  5
D2
330
3DE
100
AcDbEntity
  8
DIMNSIONS
  6
Continuous
 62
     7
100
AcDbLine
 10
-112.5
 20
225.0
 30
0.0
 11
-112.5
 21
240.0
 31
0.0
  0
LINE
  5
D3
330
3DE
100
AcDbEntity
  8
DIMNSIONS
  6
Continuous
 62
     7
100
AcDbLine
 10
-112.5
 20
225.0
 30
0.0
 11
-114.5101193854507
 21
232.5018676757813
 31
0.0
  0
LINE
  5
D4
330
3DE
100
AcDbEntity
  8
DIMNSIONS
  6
Continuous
 62
     7
100
AcDbLine
 10
-112.5
 20
225.0
 30
0.0
 11
-110.4898806145492
 21
232.5018676757813
 31
0.0
  0
TEXT
  5
D5
330
3DE
100
AcDbEntity
  8
DIMNSIONS
 62
     7
100
AcDbText
 10
-115.4816666666666
 20
196.625
 30
0.0
 40
8.144205729166666
  1
6.0
 50
90.0
 41
0.7
 11
-123.6258723958333
 21
196.625
 31
0.0
100
AcDbText
 73
     3
  0
LINE
  5
D6
330
3DE
100
AcDbEntity
  8
DIMNSIONS
  6
Continuous
 62
     7
100
AcDbLine
 10
-68.65119053426862
 20
124.0000000000001
 30
0.0
 11
-131.0
 21
124.0000000000001
 31
0.0
  0
LINE
  5
D7
330
3DE
100
AcDbEntity
  8
DIMNSIONS
  6
Continuous
 62
     7
100
AcDbLine
 10
-86.04314095957425
 20
125.0
 30
0.0
 11
-131.0
 21
125.0
 31
0.0
  0
LINE
  5
D8
330
3DE
100
AcDbEntity
  8
DIMNSIONS
  6
Continuous
 62
     7
100
AcDbLine
 10
-125.0
 20
125.0
 30
0.0
 11
-125.0
 21
124.0000000000001
 31
0.0
  0
LINE
  5
D9
330
3DE
100
AcDbEntity
  8
DIMNSIONS
  6
Continuous
 62
     7
100
AcDbLine
 10
-125.0
 20
124.0000000000001
 30
0.0
 11
-125.0
 21
102.7842753204477
 31
0.0
  0
LINE
  5
DA
330
3DE
100
AcDbEntity
  8
DIMNSIONS
  6
Continuous
 62
     7
100
AcDbLine
 10
-125.0
 20
124.0000000000001
 30
0.0
 11
-122.9898806145492
 21
116.4981323242189
 31
0.0
  0
LINE
  5
DB
330
3DE
100
AcDbEntity
  8
DIMNSIONS
  6
Continuous
 62
     7
100
AcDbLine
 10
-125.0
 20
124.0000000000001
 30
0.0
 11
-127.0101193854507
 21
116.4981323242189
 31
0.0
  0
LINE
  5
DC
330
3DE
100
AcDbEntity
  8
DIMNSIONS
  6
Continuous
 62
     7
100
AcDbLine
 10
-125.0
 20
125.0
 30
0.0
 11
-125.0
 21
140.0
 31
0.0
  0
LINE
  5
DD
330
3DE
100
AcDbEntity
  8
DIMNSIONS
  6
Continuous
 62
     7
100
AcDbLine
 10
-125.0
 20
125.0
 30
0.0
 11
-127.0101193854507
 21
132.5018676757812
 31
0.0
  0
LINE
  5
DE
330
3DE
100
AcDbEntity
  8
DIMNSIONS
  6
Continuous
 62
     7
100
AcDbLine
 10
-125.0
 20
125.0
 30
0.0
 11
-122.9898806145492
 21
132.5018676757812
 31
0.0
  0
TEXT
  5
DF
330
3DE
100
AcDbEntity
  8
DIMNSIONS
 62
     7
100
AcDbText
 10
-127.9816666666666
 20
102.7842753204477
 30
0.0
 40
8.144205729166666
  1
1.0
 50
90.0
 41
0.7
 11
-136.1258723958333
 21
102.7842753204477
 31
0.0
100
AcDbText
 73
     3
  0
LINE
  5
E0
330
3DE
100
AcDbEntity
  8
DIMNSIONS
  6
Continuous
 62
     7
100
AcDbLine
 10
-85.76278160615977
 20
-75.0
 30
0.0
 11
-118.5
 21
-75.0
 31
0.0
  0
LINE
  5
E1
330
3DE
100
AcDbEntity
  8
DIMNSIONS
  6
Continuous
 62
     7
100
AcDbLine
 10
-85.59503631568885
 20
4.979294326168428
 30
0.0
 11
-118.5
 21
4.979294326168428
 31
0.0
  0
LINE
  5
E2
330
3DE
100
AcDbEntity
  8
DIMNSIONS
  6
Continuous
 62
     7
100
AcDbLine
 10
-112.5
 20
-75.0
 30
0.0
 11
-112.5
 21
4.979294326168428
 31
0.0
  0
LINE
  5
E3
330
3DE
100
AcDbEntity
  8
DIMNSIONS
  6
Continuous
 62
     7
100
AcDbLine
 10
-112.5
 20
-75.0
 30
0.0
 11
-114.5101193854507
 21
-67.49813232421875
 31
0.0
  0
LINE
  5
E4
330
3DE
100
AcDbEntity
  8
DIMNSIONS
  6
Continuous
 62
     7
100
AcDbLine
 10
-112.5
 20
-75.0
 30
0.0
 11
-110.4898806145492
 21
-67.49813232421875
 31
0.0
  0
LINE
  5
E5
330
3DE
100
AcDbEntity
  8
DIMNSIONS
  6
Continuous
 62
     7
100
AcDbLine
 10
-112.5
 20
4.979294326168428
 30
0.0
 11
-110.4898806145492
 21
-2.522573349612827
 31
0.0
  0
LINE
  5
E6
330
3DE
100
AcDbEntity
  8
DIMNSIONS
  6
Continuous
 62
     7
100
AcDbLine
 10
-112.5
 20
4.979294326168428
 30
0.0
 11
-114.5101193854507
 21
-2.522573349612827
 31
0.0
  0
TEXT
  5
E7
330
3DE
100
AcDbEntity
  8
DIMNSIONS
 62
     7
100
AcDbText
 10
-115.4816666666667
 20
-45.5936861702491
 30
0.0
 40
8.144205729166666
  1
80.0
 50
90.0
 41
0.7
 11
-123.6258723958333
 21
-45.5936861702491
 31
0.0
100
AcDbText
 73
     3
  0
LINE
  5
E8
330
3DE
100
AcDbEntity
  8
DIMNSIONS
  6
Continuous
 62
     7
100
AcDbLine
 10
-79.76278160615978
 20
-81.13883338294378
 30
0.0
 11
-79.76278160615978
 21
-131.0
 31
0.0
  0
LINE
  5
E9
330
3DE
100
AcDbEntity
  8
DIMNSIONS
  6
Continuous
 62
     7
100
AcDbLine
 10
30.23721839384009
 20
-81.13883338294378
 30
0.0
 11
30.23721839384009
 21
-131.0
 31
0.0
  0
LINE
  5
EA
330
3DE
100
AcDbEntity
  8
DIMNSIONS
  6
Continuous
 62
     7
100
AcDbLine
 10
-79.76278160615978
 20
-125.0
 30
0.0
 11
30.23721839384009
 21
-125.0
 31
0.0
  0
LINE
  5
EB
330
3DE
100
AcDbEntity
  8
DIMNSIONS
  6
Continuous
 62
     7
100
AcDbLine
 10
-79.76278160615978
 20
-125.0
 30
0.0
 11
-72.26091393037854
 21
-122.9898806145492
 31
0.0
  0
LINE
  5
EC
330
3DE
100
AcDbEntity
  8
DIMNSIONS
  6
Continuous
 62
     7
100
AcDbLine
 10
-79.76278160615978
 20
-125.0
 30
0.0
 11
-72.26091393037854
 21
-127.0101193854507
 31
0.0
  0
LINE
  5
ED
330
3DE
100
AcDbEntity
  8
DIMNSIONS
  6
Continuous
 62
     7
100
AcDbLine
 10
30.23721839384009
 20
-125.0
 30
0.0
 11
22.73535071805885
 21
-127.0101193854507
 31
0.0
  0
LINE
  5
EE
330
3DE
100
AcDbEntity
  8
DIMNSIONS
  6
Continuous
 62
     7
100
AcDbLine
 10
30.23721839384009
 20
-125.0
 30
0.0
 11
22.73535071805885
 21
-122.9898806145492
 31
0.0
  0
TEXT
  5
EF
330
3DE
100
AcDbEntity
  8
DIMNSIONS
 62
     7
100
AcDbText
 10
-32.70028160615984
 20
-122.0183333333333
 30
0.0
 40
8.144205729166666
  1
110
 41
0.7
 11
-32.70028160615984
 21
-113.8741276041666
 31
0.0
100
AcDbText
 73
     3
  0
LINE
  5
F0
330
3DE
100
AcDbEntity
  8
DIMNSIONS
  6
Continuous
 62
     7
100
AcDbLine
 10
-69.26278160615978
 20
-81.13883338294378
 30
0.0
 11
-69.26278160615978
 21
-106.0
 31
0.0
  0
LINE
  5
F1
330
3DE
100
AcDbEntity
  8
DIMNSIONS
  6
Continuous
 62
     7
100
AcDbLine
 10
19.73721839384019
 20
-81.13883338294378
 30
0.0
 11
19.73721839384019
 21
-106.0
 31
0.0
  0
LINE
  5
F2
330
3DE
100
AcDbEntity
  8
DIMNSIONS
  6
Continuous
 62
     7
100
AcDbLine
 10
-69.26278160615978
 20
-100.0
 30
0.0
 11
19.73721839384019
 21
-100.0
 31
0.0
  0
LINE
  5
F3
330
3DE
100
AcDbEntity
  8
DIMNSIONS
  6
Continuous
 62
     7
100
AcDbLine
 10
-69.26278160615978
 20
-100.0
 30
0.0
 11
-61.76091393037852
 21
-97.98988061454927
 31
0.0
  0
LINE
  5
F4
330
3DE
100
AcDbEntity
  8
DIMNSIONS
  6
Continuous
 62
     7
100
AcDbLine
 10
-69.26278160615978
 20
-100.0
 30
0.0
 11
-61.76091393037852
 21
-102.0101193854507
 31
0.0
  0
LINE
  5
F5
330
3DE
100
AcDbEntity
  8
DIMNSIONS
  6
Continuous
 62
     7
100
AcDbLine
 10
19.73721839384019
 20
-100.0
 30
0.0
 11
12.23535071805894
 21
-102.0101193854507
 31
0.0
  0
LINE
  5
F6
330
3DE
100
AcDbEntity
  8
DIMNSIONS
  6
Continuous
 62
     7
100
AcDbLine
 10
19.73721839384019
 20
-100.0
 30
0.0
 11
12.23535071805894
 21
-97.98988061454927
 31
0.0
  0
TEXT
  5
F7
330
3DE
100
AcDbEntity
  8
DIMNSIONS
 62
     7
100
AcDbText
 10
-35.34611493949312
 20
-97.01833333333334
 30
0.0
 40
8.144205729166666
  1
89.0
 41
0.7
 11
-35.34611493949312
 21
-88.87412760416667
 31
0.0
100
AcDbText
 73
     3
  0
LINE
  5
F8
330
3DE
100
AcDbEntity
  8
DIMNSIONS
  6
Continuous
 62
     7
100
AcDbLine
 10
-83.00000000000002
 20
-35.0
 30
0.0
 11
-106.0
 21
-35.0
 31
0.0
  0
LINE
  5
F9
330
3DE
100
AcDbEntity
  8
DIMNSIONS
  6
Continuous
 62
     7
100
AcDbLine
 10
-83.00000000000002
 20
-8.995281041993195
 30
0.0
 11
-106.0
 21
-8.995281041993195
 31
0.0
  0
LINE
  5
FA
330
3DE
100
AcDbEntity
  8
DIMNSIONS
  6
Continuous
 62
     7
100
AcDbLine
 10
-100.0
 20
-35.0
 30
0.0
 11
-100.0
 21
-8.995281041993195
 31
0.0
  0
LINE
  5
FB
330
3DE
100
AcDbEntity
  8
DIMNSIONS
  6
Continuous
 62
     7
100
AcDbLine
 10
-100.0
 20
-35.0
 30
0.0
 11
-102.0101193854507
 21
-27.49813232421875
 31
0.0
  0
LINE
  5
FC
330
3DE
100
AcDbEntity
  8
DIMNSIONS
  6
Continuous
 62
     7
100
AcDbLine
 10
-100.0
 20
-35.0
 30
0.0
 11
-97.98988061454927
 21
-27.49813232421875
 31
0.0
  0
LINE
  5
FD
330
3DE
100
AcDbEntity
  8
DIMNSIONS
  6
Continuous
 62
     7
100
AcDbLine
 10
-100.0
 20
-8.995281041993195
 30
0.0
 11
-97.98988061454927
 21
-16.49714871777445
 31
0.0
  0
LINE
  5
FE
330
3DE
100
AcDbEntity
  8
DIMNSIONS
  6
Continuous
 62
     7
100
AcDbLine
 10
-100.0
 20
-8.995281041993195
 30
0.0
 11
-102.0101193854507
 21
-16.49714871777445
 31
0.0
  0
TEXT
  5
FF
330
3DE
100
AcDbEntity
  8
DIMNSIONS
 62
     7
100
AcDbText
 10
-102.9816666666667
 20
-32.5809738543299
 30
0.0
 40
8.144205729166666
  1
26.0
 50
90.0
 41
0.7
 11
-111.1258723958333
 21
-32.5809738543299
 31
0.0
100
AcDbText
 73
     3
  0
LINE
  5
100
330
3DE
100
AcDbEntity
  8
DIMNSIONS
  6
Continuous
 62
     7
100
AcDbLine
 10
-83.00000000000002
 20
-60.99528104199319
 30
0.0
 11
-106.0
 21
-60.99528104199319
 31
0.0
  0
LINE
  5
101
330
3DE
100
AcDbEntity
  8
DIMNSIONS
  6
Continuous
 62
     7
100
AcDbLine
 10
-83.00000000000002
 20
-35.0
 30
0.0
 11
-106.0
 21
-35.0
 31
0.0
  0
LINE
  5
102
330
3DE
100
AcDbEntity
  8
DIMNSIONS
  6
Continuous
 62
     7
100
AcDbLine
 10
-100.0
 20
-60.99528104199319
 30
0.0
 11
-100.0
 21
-35.0
 31
0.0
  0
LINE
  5
103
330
3DE
100
AcDbEntity
  8
DIMNSIONS
  6
Continuous
 62
     7
100
AcDbLine
 10
-100.0
 20
-60.99528104199319
 30
0.0
 11
-102.0101193854507
 21
-53.49341336621193
 31
0.0
  0
LINE
  5
104
330
3DE
100
AcDbEntity
  8
DIMNSIONS
  6
Continuous
 62
     7
100
AcDbLine
 10
-100.0
 20
-60.99528104199319
 30
0.0
 11
-97.98988061454927
 21
-53.49341336621193
 31
0.0
  0
LINE
  5
105
330
3DE
100
AcDbEntity
  8
DIMNSIONS
  6
Continuous
 62
     7
100
AcDbLine
 10
-100.0
 20
-35.0
 30
0.0
 11
-97.98988061454927
 21
-42.50186767578126
 31
0.0
  0
LINE
  5
106
330
3DE
100
AcDbEntity
  8
DIMNSIONS
  6
Continuous
 62
     7
100
AcDbLine
 10
-100.0
 20
-35.0
 30
0.0
 11
-102.0101193854507
 21
-42.50186767578126
 31
0.0
  0
TEXT
  5
107
330
3DE
100
AcDbEntity
  8
DIMNSIONS
 62
     7
100
AcDbText
 10
-102.9816666666667
 20
-58.5809738543299
 30
0.0
 40
8.144205729166666
  1
26.0
 50
90.0
 41
0.7
 11
-111.1258723958333
 21
-58.5809738543299
 31
0.0
100
AcDbText
 73
     3
  0
LINE
  5
108
330
3DE
100
AcDbEntity
  8
DIMNSIONS
  6
Continuous
 62
     7
100
AcDbLine
 10
-75.00000000000001
 20
-68.19528104199318
 30
0.0
 11
-75.00000000000001
 21
-118.5
 31
0.0
  0
LINE
  5
109
330
3DE
100
AcDbEntity
  8
DIMNSIONS
  6
Continuous
 62
     7
100
AcDbLine
 10
24.99999999999999
 20
-68.19528104199318
 30
0.0
 11
24.99999999999999
 21
-118.5
 31
0.0
  0
LINE
  5
10A
330
3DE
100
AcDbEntity
  8
DIMNSIONS
  6
Continuous
 62
     7
100
AcDbLine
 10
-75.00000000000001
 20
-112.5
 30
0.0
 11
24.99999999999999
 21
-112.5
 31
0.0
  0
LINE
  5
10B
330
3DE
100
AcDbEntity
  8
DIMNSIONS
  6
Continuous
 62
     7
100
AcDbLine
 10
-75.00000000000001
 20
-112.5
 30
0.0
 11
-67.49813232421876
 21
-110.4898806145492
 31
0.0
  0
LINE
  5
10C
330
3DE
100
AcDbEntity
  8
DIMNSIONS
  6
Continuous
 62
     7
100
AcDbLine
 10
-75.00000000000001
 20
-112.5
 30
0.0
 11
-67.49813232421876
 21
-114.5101193854507
 31
0.0
  0
LINE
  5
10D
330
3DE
100
AcDbEntity
  8
DIMNSIONS
  6
Continuous
 62
     7
100
AcDbLine
 10
24.99999999999999
 20
-112.5
 30
0.0
 11
17.49813232421873
 21
-114.5101193854507
 31
0.0
  0
LINE
  5
10E
330
3DE
100
AcDbEntity
  8
DIMNSIONS
  6
Continuous
 62
     7
100
AcDbLine
 10
24.99999999999999
 20
-112.5
 30
0.0
 11
17.49813232421873
 21
-110.4898806145492
 31
0.0
  0
TEXT
  5
10F
330
3DE
100
AcDbEntity
  8
DIMNSIONS
 62
     7
100
AcDbText
 10
-32.93750000000001
 20
-109.5183333333333
 30
0.0
 40
8.144205729166666
  1
100
 41
0.7
 11
-32.93750000000001
 21
-101.3741276041666
 31
0.0
100
AcDbText
 73
     3
  0
LINE
  5
110
330
3DE
100
AcDbEntity
  8
DIMNSIONS
  6
Continuous
 62
     7
100
AcDbLine
 10
-85.76278160615977
 20
-175.0
 30
0.0
 11
-106.0
 21
-175.0
 31
0.0
  0
LINE
  5
111
330
3DE
100
AcDbEntity
  8
DIMNSIONS
  6
Continuous
 62
     7
100
AcDbLine
 10
-73.26278160615977
 20
-148.9642016001994
 30
0.0
 11
-106.0
 21
-148.9642016001994
 31
0.0
  0
LINE
  5
112
330
3DE
100
AcDbEntity
  8
DIMNSIONS
  6
Continuous
 62
     7
100
AcDbLine
 10
-100.0
 20
-175.0
 30
0.0
 11
-100.0
 21
-148.9642016001994
 31
0.0
  0
LINE
  5
113
330
3DE
100
AcDbEntity
  8
DIMNSIONS
  6
Continuous
 62
     7
100
AcDbLine
 10
-100.0
 20
-175.0
 30
0.0
 11
-102.0101193854507
 21
-167.4981323242187
 31
0.0
  0
LINE
  5
114
330
3DE
100
AcDbEntity
  8
DIMNSIONS
  6
Continuous
 62
     7
100
AcDbLine
 10
-100.0
 20
-175.0
 30
0.0
 11
-97.98988061454927
 21
-167.4981323242187
 31
0.0
  0
LINE
  5
115
330
3DE
100
AcDbEntity
  8
DIMNSIONS
  6
Continuous
 62
     7
100
AcDbLine
 10
-100.0
 20
-148.9642016001994
 30
0.0
 11
-97.98988061454927
 21
-156.4660692759806
 31
0.0
  0
LINE
  5
116
330
3DE
100
AcDbEntity
  8
DIMNSIONS
  6
Continuous
 62
     7
100
AcDbLine
 10
-100.0
 20
-148.9642016001994
 30
0.0
 11
-102.0101193854507
 21
-156.4660692759806
 31
0.0
  0
TEXT
  5
117
330
3DE
100
AcDbEntity
  8
DIMNSIONS
 62
     7
100
AcDbText
 10
-102.9816666666667
 20
-172.5654341334331
 30
0.0
 40
8.144205729166666
  1
26.0
 50
90.0
 41
0.7
 11
-111.1258723958333
 21
-172.5654341334331
 31
0.0
100
AcDbText
 73
     3
  0
LINE
  5
118
330
3DE
100
AcDbEntity
  8
DIMNSIONS
  6
Continuous
 62
     7
100
AcDbLine
 10
-38.57264230921926
 20
-81.0
 30
0.0
 11
-118.5
 21
-81.0
 31
0.0
  0
LINE
  5
119
330
3DE
100
AcDbEntity
  8
DIMNSIONS
  6
Continuous
 62
     7
100
AcDbLine
 10
-85.76278160615977
 20
-75.0
 30
0.0
 11
-118.5
 21
-75.0
 31
0.0
  0
LINE
  5
11A
330
3DE
100
AcDbEntity
  8
DIMNSIONS
  6
Continuous
 62
     7
100
AcDbLine
 10
-112.5
 20
-75.0
 30
0.0
 11
-112.5
 21
-81.0
 31
0.0
  0
LINE
  5
11B
330
3DE
100
AcDbEntity
  8
DIMNSIONS
  6
Continuous
 62
     7
100
AcDbLine
 10
-112.5
 20
-81.0
 30
0.0
 11
-112.5
 21
-104.6122183938402
 31
0.0
  0
LINE
  5
11C
330
3DE
100
AcDbEntity
  8
DIMNSIONS
  6
Continuous
 62
     7
100
AcDbLine
 10
-112.5
 20
-81.0
 30
0.0
 11
-110.4898806145492
 21
-88.50186767578126
 31
0.0
  0
LINE
  5
11D
330
3DE
100
AcDbEntity
  8
DIMNSIONS
  6
Continuous
 62
     7
100
AcDbLine
 10
-112.5
 20
-81.0
 30
0.0
 11
-114.5101193854507
 21
-88.50186767578126
 31
0.0
  0
LINE
  5
11E
330
3DE
100
AcDbEntity
  8
DIMNSIONS
  6
Continuous
 62
     7
100
AcDbLine
 10
-112.5
 20
-75.0
 30
0.0
 11
-112.5
 21
-60.0
 31
0.0
  0
LINE
  5
11F
330
3DE
100
AcDbEntity
  8
DIMNSIONS
  6
Continuous
 62
     7
100
AcDbLine
 10
-112.5
 20
-75.0
 30
0.0
 11
-114.5101193854507
 21
-67.49813232421875
 31
0.0
  0
LINE
  5
120
330
3DE
100
AcDbEntity
  8
DIMNSIONS
  6
Continuous
 62
     7
100
AcDbLine
 10
-112.5
 20
-75.0
 30
0.0
 11
-110.4898806145492
 21
-67.49813232421875
 31
0.0
  0
TEXT
  5
121
330
3DE
100
AcDbEntity
  8
DIMNSIONS
 62
     7
100
AcDbText
 10
-115.4816666666666
 20
-104.6122183938402
 30
0.0
 40
8.144205729166666
  1
6.0
 50
90.0
 41
0.7
 11
-123.6258723958333
 21
-104.6122183938402
 31
0.0
100
AcDbText
 73
     3
  0
LINE
  5
122
330
3DE
100
AcDbEntity
  8
DIMNSIONS
  6
Continuous
 62
     7
100
AcDbLine
 10
-68.35901132943964
 20
-176.0
 30
0.0
 11
-106.0
 21
-176.0
 31
0.0
  0
LINE
  5
123
330
3DE
100
AcDbEntity
  8
DIMNSIONS
  6
Continuous
 62
     7
100
AcDbLine
 10
-85.76278160615977
 20
-175.0
 30
0.0
 11
-106.0
 21
-175.0
 31
0.0
  0
LINE
  5
124
330
3DE
100
AcDbEntity
  8
DIMNSIONS
  6
Continuous
 62
     7
100
AcDbLine
 10
-100.0
 20
-175.0
 30
0.0
 11
-100.0
 21
-176.0
 31
0.0
  0
LINE
  5
125
330
3DE
100
AcDbEntity
  8
DIMNSIONS
  6
Continuous
 62
     7
100
AcDbLine
 10
-100.0
 20
-176.0
 30
0.0
 11
-100.0
 21
-200.275
 31
0.0
  0
LINE
  5
126
330
3DE
100
AcDbEntity
  8
DIMNSIONS
  6
Continuous
 62
     7
100
AcDbLine
 10
-100.0
 20
-176.0
 30
0.0
 11
-97.98988061454927
 21
-183.5018676757812
 31
0.0
  0
LINE
  5
127
330
3DE
100
AcDbEntity
  8
DIMNSIONS
  6
Continuous
 62
     7
100
AcDbLine
 10
-100.0
 20
-176.0
 30
0.0
 11
-102.0101193854507
 21
-183.5018676757812
 31
0.0
  0
LINE
  5
128
330
3DE
100
AcDbEntity
  8
DIMNSIONS
  6
Continuous
 62
     7
100
AcDbLine
 10
-100.0
 20
-175.0
 30
0.0
 11
-100.0
 21
-160.0
 31
0.0
  0
LINE
  5
129
330
3DE
100
AcDbEntity
  8
DIMNSIONS
  6
Continuous
 62
     7
100
AcDbLine
 10
-100.0
 20
-175.0
 30
0.0
 11
-102.0101193854507
 21
-167.4981323242187
 31
0.0
  0
LINE
  5
12A
330
3DE
100
AcDbEntity
  8
DIMNSIONS
  6
Continuous
 62
     7
100
AcDbLine
 10
-100.0
 20
-175.0
 30
0.0
 11
-97.98988061454927
 21
-167.4981323242187
 31
0.0
  0
TEXT
  5
12B
330
3DE
100
AcDbEntity
  8
DIMNSIONS
 62
     7
100
AcDbText
 10
-102.9816666666666
 20
-200.275
 30
0.0
 40
8.144205729166666
  1
1.0
 50
90.0
 41
0.7
 11
-111.1258723958333
 21
-200.275
 31
0.0
100
AcDbText
 73
     3
  0
TEXT
  5
12C
330
3DE
100
AcDbEntity
  8
DATA
 62
     7
100
AcDbText
 10
250.0
 20
-210.288246439261
 30
0.0
 40
7.329785156249999
  1
GTB-UHD2IRS-ELRPOL-BLK
 41
0.7
 11
250.0
 21
-202.958461283011
 31
0.0
100
AcDbText
 73
     3
  0
TEXT
  5
12D
330
3DE
100
AcDbEntity
  8
DATA
 62
     7
100
AcDbText
 10
250.0
 20
-187.7900342102682
 30
0.0
 40
7.329785156249999
  1
Gefen
 41
0.7
 11
250.0
 21
-180.4602490540181
 31
0.0
100
AcDbText
 73
     3
  0
TEXT
  5
12E
330
3DE
100
AcDbEntity
  8
DATA
 62
     7
100
AcDbText
 10
245.9056372105166
 20
-197.6223330270738
 30
0.0
 40
4.886531132812499
  1
HDMI延長機
 41
0.7
 11
245.9056372105166
 21
-192.7358018942613
 31
0.0
100
AcDbText
 73
     3
  0
TEXT
  5
12F
330
3DE
100
AcDbEntity
  8
DATA
 62
     7
100
AcDbText
 10
-139.9999999999999
 20
-230.2187042102682
 30
0.0
 40
4.886523437499999
  1
仕様および外観は予告なく変更されることがありますので、ご了承ください。
 41
0.7
 11
-139.9999999999999
 21
-225.3321807727682
 31
0.0
100
AcDbText
 73
     3
  0
LINE
  5
130
330
3DE
100
AcDbEntity
  8
DATA
  6
Continuous
 62
     7
100
AcDbLine
 10
-80.04314095957427
 20
225.0
 30
0.0
 11
-80.04314095957427
 21
305.0
 31
0.0
  0
LINE
  5
131
330
3DE
100
AcDbEntity
  8
DATA
  6
Continuous
 62
     7
100
AcDbLine
 10
30.00000000000084
 20
225.0
 30
0.0
 11
-80.00000000000081
 21
225.0
 31
0.0
  0
LINE
  5
132
330
3DE
100
AcDbEntity
  8
DATA
  6
Continuous
 62
     7
100
AcDbLine
 10
29.86100279530886
 20
304.90991282165
 30
0.0
 11
29.86100279530886
 21
224.9099128216502
 31
0.0
  0
LINE
  5
133
330
3DE
100
AcDbEntity
  8
DATA
  6
Continuous
 62
     7
100
AcDbLine
 10
-79.87539566910334
 20
304.9792943261684
 30
0.0
 11
30.12460433089663
 21
304.9792943261684
 31
0.0
  0
LINE
  5
134
330
3DE
100
AcDbEntity
  8
DATA
  6
Continuous
 62
     7
100
AcDbLine
 10
-80.04314095957427
 20
125.0
 30
0.0
 11
-80.04314095957427
 21
127.0
 31
0.0
  0
LINE
  5
135
330
3DE
100
AcDbEntity
  8
DATA
  6
Continuous
 62
     7
100
AcDbLine
 10
29.99274973203352
 20
125.0
 30
0.0
 11
19.49274973203405
 21
125.0
 31
0.0
  0
LINE
  5
136
330
3DE
100
AcDbEntity
  8
DATA
  6
Continuous
 62
     7
100
AcDbLine
 10
29.99274973203352
 20
127.0
 30
0.0
 11
29.99274973203352
 21
125.0
 31
0.0
  0
LINE
  5
137
330
3DE
100
AcDbEntity
  8
DATA
  6
Continuous
 62
     7
100
AcDbLine
 10
-67.54314095957427
 20
151.0357983998008
 30
0.0
 11
17.45685904042571
 21
151.0357983998008
 31
0.0
  0
LINE
  5
138
330
3DE
100
AcDbEntity
  8
DATA
  6
Continuous
 62
     7
100
AcDbLine
 10
-69.54314095957427
 20
225.0
 30
0.0
 11
-69.54314095957427
 21
305.0
 31
0.0
  0
LINE
  5
139
330
3DE
100
AcDbEntity
  8
DATA
  6
Continuous
 62
     7
100
AcDbLine
 10
19.49484515116341
 20
225.0101796648756
 30
0.0
 11
19.49484515116341
 21
305.0101796648756
 31
0.0
  0
LINE
  5
13A
330
3DE
100
AcDbEntity
  8
DATA
  6
Continuous
 62
     7
100
AcDbLine
 10
87.50000000000001
 20
225.0
 30
0.0
 11
87.50000000000001
 21
305.0
 31
0.0
  0
LINE
  5
13B
330
3DE
100
AcDbEntity
  8
DATA
  6
Continuous
 62
     7
100
AcDbLine
 10
113.3647280703053
 20
225.0
 30
0.0
 11
113.3647280703053
 21
305.0
 31
0.0
  0
LINE
  5
13C
330
3DE
100
AcDbEntity
  8
DATA
  6
Continuous
 62
     7
100
AcDbLine
 10
87.50000000000001
 20
225.0
 30
0.0
 11
113.5
 21
225.0
 31
0.0
  0
LINE
  5
13D
330
3DE
100
AcDbEntity
  8
DATA
  6
Continuous
 62
     7
100
AcDbLine
 10
87.50000000000001
 20
304.8998312867095
 30
0.0
 11
113.5
 21
304.8998312867095
 31
0.0
  0
LINE
  5
13E
330
3DE
100
AcDbEntity
  8
DATA
  6
Continuous
 62
     7
100
AcDbLine
 10
-69.54314095957427
 20
148.8307556975774
 30
0.0
 11
-69.54314095957427
 21
128.8307556975774
 31
0.0
  0
LINE
  5
13F
330
3DE
100
AcDbEntity
  8
DATA
  6
Continuous
 62
     7
100
AcDbLine
 10
19.49274973203405
 20
149.0357983998008
 30
0.0
 11
19.49274973203405
 21
129.0357983998008
 31
0.0
  0
LINE
  5
140
330
3DE
100
AcDbEntity
  8
DATA
  6
Continuous
 62
     7
100
AcDbLine
 10
29.99274973203352
 20
127.0
 30
0.0
 11
21.49274973203397
 21
127.0
 31
0.0
  0
LINE
  5
141
330
3DE
100
AcDbEntity
  8
DATA
  6
Continuous
 62
     7
100
AcDbLine
 10
-71.54314095957428
 20
127.0
 30
0.0
 11
-80.04314095957427
 21
127.0
 31
0.0
  0
LINE
  5
142
330
3DE
100
AcDbEntity
  8
DATA
  6
Continuous
 62
     7
100
AcDbLine
 10
-67.54314095957427
 20
147.1041886577566
 30
0.0
 11
-67.54314095957427
 21
127.1041886577566
 31
0.0
  0
LINE
  5
143
330
3DE
100
AcDbEntity
  8
DATA
  6
Continuous
 62
     7
100
AcDbLine
 10
17.49274973203415
 20
147.0357983998008
 30
0.0
 11
17.49274973203415
 21
127.0357983998008
 31
0.0
  0
LINE
  5
144
330
3DE
100
AcDbEntity
  8
DATA
  6
Continuous
 62
     7
100
AcDbLine
 10
-65.54314095957427
 20
149.0357983998008
 30
0.0
 11
15.45685904042571
 21
149.0357983998008
 31
0.0
  0
ARC
  5
145
330
3DE
100
AcDbEntity
  8
DATA
  6
Continuous
 62
     7
100
AcDbCircle
 10
-67.54314095957427
 20
149.0357983998008
 30
0.0
 40
2.000000000000007
100
AcDbArc
 50
90.0
 51
180.0
  0
ARC
  5
146
330
3DE
100
AcDbEntity
  8
DATA
  6
Continuous
 62
     7
100
AcDbCircle
 10
-65.54314095957427
 20
147.0357983998008
 30
0.0
 40
2.000000000000007
100
AcDbArc
 50
90.0
 51
180.0
  0
ARC
  5
147
330
3DE
100
AcDbEntity
  8
DATA
  6
Continuous
 62
     7
100
AcDbCircle
 10
-71.54314095957428
 20
129.0
 30
0.0
 40
2.0
100
AcDbArc
 50
270.0
 51
0.0
  0
ARC
  5
148
330
3DE
100
AcDbEntity
  8
DATA
  6
Continuous
 62
     7
100
AcDbCircle
 10
17.49274973203415
 20
149.0357983998008
 30
0.0
 40
1.9999999999999
100
AcDbArc
 50
0.0
 51
90.0
  0
ARC
  5
149
330
3DE
100
AcDbEntity
  8
DATA
  6
Continuous
 62
     7
100
AcDbCircle
 10
15.49274973203426
 20
147.0357983998008
 30
0.0
 40
1.999999999999886
100
AcDbArc
 50
0.0
 51
90.0
  0
ARC
  5
14A
330
3DE
100
AcDbEntity
  8
DATA
  6
Continuous
 62
     7
100
AcDbCircle
 10
21.49274973203397
 20
129.0
 30
0.0
 40
1.9999999999999
100
AcDbArc
 50
180.0
 51
270.0
  0
ARC
  5
14B
330
3DE
100
AcDbEntity
  8
DATA
  6
Continuous
 62
     7
100
AcDbCircle
 10
19.49274973203405
 20
127.0
 30
0.0
 40
1.9999999999999
100
AcDbArc
 50
180.0
 51
270.0
  0
LINE
  5
14C
330
3DE
100
AcDbEntity
  8
DATA
  6
Continuous
 62
     7
100
AcDbLine
 10
-80.04314095957427
 20
125.0
 30
0.0
 11
-69.54314095957427
 21
125.0
 31
0.0
  0
ARC
  5
14D
330
3DE
100
AcDbEntity
  8
DATA
  6
Continuous
 62
     7
100
AcDbCircle
 10
-69.54314095957427
 20
127.0
 30
0.0
 40
2.0
100
AcDbArc
 50
270.0
 51
0.0
  0
LINE
  5
14E
330
3DE
100
AcDbEntity
  8
DATA
  6
Continuous
 62
     7
100
AcDbLine
 10
-67.54314095957427
 20
127.0
 30
0.0
 11
-67.54314095957427
 21
125.0
 31
0.0
  0
LINE
  5
14F
330
3DE
100
AcDbEntity
  8
DATA
  6
Continuous
 62
     7
100
AcDbLine
 10
17.49274973203415
 20
127.1183477884029
 30
0.0
 11
17.49274973203415
 21
125.1183477884029
 31
0.0
  0
LINE
  5
150
330
3DE
100
AcDbEntity
  8
DATA
  6
Continuous
 62
     7
100
AcDbLine
 10
-67.54314095957427
 20
125.0
 30
0.0
 11
17.45685904042571
 21
125.0
 31
0.0
  0
LINE
  5
151
330
3DE
100
AcDbEntity
  8
DATA
  6
Continuous
 62
     7
100
AcDbLine
 10
-32.85300166263377
 20
219.0
 30
0.0
 11
-17.26975058987679
 21
219.0
 31
0.0
  0
LINE
  5
152
330
3DE
100
AcDbEntity
  8
DATA
  6
Continuous
 62
     7
100
AcDbLine
 10
-40.14450709314652
 20
225.0
 30
0.0
 11
-40.14450709314652
 21
219.5
 31
0.0
  0
LINE
  5
153
330
3DE
100
AcDbEntity
  8
DATA
  6
Continuous
 62
     7
100
AcDbLine
 10
-35.46796991271039
 20
225.0
 30
0.0
 11
-35.46796991271039
 21
219.5
 31
0.0
  0
LINE
  5
154
330
3DE
100
AcDbEntity
  8
DATA
  6
Continuous
 62
     7
100
AcDbLine
 10
-14.77816212556394
 20
225.0
 30
0.0
 11
-14.77816212556394
 21
219.5
 31
0.0
  0
LINE
  5
155
330
3DE
100
AcDbEntity
  8
DATA
  6
Continuous
 62
     7
100
AcDbLine
 10
-10.10162494512798
 20
225.0
 30
0.0
 11
-10.10162494512798
 21
219.5
 31
0.0
  0
LINE
  5
156
330
3DE
100
AcDbEntity
  8
DATA
  6
Continuous
 62
     7
100
AcDbLine
 10
-32.79706301498217
 20
225.0
 30
0.0
 11
-32.79706301498217
 21
219.0
 31
0.0
  0
LINE
  5
157
330
3DE
100
AcDbEntity
  8
DATA
  6
Continuous
 62
     7
100
AcDbLine
 10
-17.17469767589313
 20
225.0
 30
0.0
 11
-17.17469767589313
 21
219.0
 31
0.0
  0
LINE
  5
158
330
3DE
100
AcDbEntity
  8
DATA
  6
Continuous
 62
     7
100
AcDbLine
 10
-40.14450709314652
 20
219.5
 30
0.0
 11
-35.46796991271039
 21
219.5
 31
0.0
  0
LINE
  5
159
330
3DE
100
AcDbEntity
  8
DATA
  6
Continuous
 62
     7
100
AcDbLine
 10
-14.77816212556394
 20
219.5
 30
0.0
 11
-10.10162494512798
 21
219.5
 31
0.0
  0
LINE
  5
15A
330
3DE
100
AcDbEntity
  8
DATA
  6
Continuous
 62
     7
100
AcDbLine
 10
-55.46128589548477
 20
124.0000000000001
 30
0.0
 11
-55.40035231416318
 21
125.0
 31
0.0
  0
LINE
  5
15B
330
3DE
100
AcDbEntity
  8
DATA
  6
Continuous
 62
     7
100
AcDbLine
 10
-62.65119053426861
 20
124.0000000000001
 30
0.0
 11
-55.46128589548477
 21
124.0000000000001
 31
0.0
  0
LINE
  5
15C
330
3DE
100
AcDbEntity
  8
DATA
  6
Continuous
 62
     7
100
AcDbLine
 10
-80.04314095957427
 20
350.0
 30
0.0
 11
-80.04314095957427
 21
348.0
 31
0.0
  0
LINE
  5
15D
330
3DE
100
AcDbEntity
  8
DATA
  6
Continuous
 62
     7
100
AcDbLine
 10
29.90163481205528
 20
350.0
 30
0.0
 11
19.40163481205528
 21
350.0
 31
0.0
  0
LINE
  5
15E
330
3DE
100
AcDbEntity
  8
DATA
  6
Continuous
 62
     7
100
AcDbLine
 10
29.90163481205528
 20
348.0
 30
0.0
 11
29.90163481205528
 21
350.0
 31
0.0
  0
LINE
  5
15F
330
3DE
100
AcDbEntity
  8
DATA
  6
Continuous
 62
     7
100
AcDbLine
 10
-67.81751230697496
 20
326.0098877718593
 30
0.0
 11
18.18248769302502
 21
326.0098877718593
 31
0.0
  0
LINE
  5
160
330
3DE
100
AcDbEntity
  8
DATA
  6
Continuous
 62
     7
100
AcDbLine
 10
-69.54314095957427
 20
327.6001226965052
 30
0.0
 11
-69.54314095957427
 21
346.6001226965052
 31
0.0
  0
LINE
  5
161
330
3DE
100
AcDbEntity
  8
DATA
  6
Continuous
 62
     7
100
AcDbLine
 10
19.40163481205528
 20
327.7367110549566
 30
0.0
 11
19.40163481205528
 21
346.7367110549566
 31
0.0
  0
LINE
  5
162
330
3DE
100
AcDbEntity
  8
DATA
  6
Continuous
 62
     7
100
AcDbLine
 10
29.90163481205528
 20
348.0
 30
0.0
 11
21.40163481205528
 21
348.0
 31
0.0
  0
LINE
  5
163
330
3DE
100
AcDbEntity
  8
DATA
  6
Continuous
 62
     7
100
AcDbLine
 10
-71.54314095957428
 20
348.0
 30
0.0
 11
-80.04314095957427
 21
348.0
 31
0.0
  0
LINE
  5
164
330
3DE
100
AcDbEntity
  8
DATA
  6
Continuous
 62
     7
100
AcDbLine
 10
-67.54314095957427
 20
329.7367110549566
 30
0.0
 11
-67.54314095957427
 21
348.7367110549566
 31
0.0
  0
LINE
  5
165
330
3DE
100
AcDbEntity
  8
DATA
  6
Continuous
 62
     7
100
AcDbLine
 10
17.40163481205527
 20
329.7367110549566
 30
0.0
 11
17.40163481205527
 21
348.7367110549566
 31
0.0
  0
LINE
  5
166
330
3DE
100
AcDbEntity
  8
DATA
  6
Continuous
 62
     7
100
AcDbLine
 10
-65.95426450358589
 20
328.0098877718593
 30
0.0
 11
16.04573549641412
 21
328.0098877718593
 31
0.0
  0
ARC
  5
167
330
3DE
100
AcDbEntity
  8
DATA
  6
Continuous
 62
     7
100
AcDbCircle
 10
-67.54314095957427
 20
328.0098877718593
 30
0.0
 40
2.0
100
AcDbArc
 50
180.0
 51
270.0
  0
ARC
  5
168
330
3DE
100
AcDbEntity
  8
DATA
  6
Continuous
 62
     7
100
AcDbCircle
 10
-65.54314095957427
 20
330.0098877718593
 30
0.0
 40
2.0
100
AcDbArc
 50
180.0
 51
270.0
  0
ARC
  5
169
330
3DE
100
AcDbEntity
  8
DATA
  6
Continuous
 62
     7
100
AcDbCircle
 10
-71.54314095957428
 20
346.0
 30
0.0
 40
2.0
100
AcDbArc
 50
0.0
 51
90.0
  0
ARC
  5
16A
330
3DE
100
AcDbEntity
  8
DATA
  6
Continuous
 62
     7
100
AcDbCircle
 10
17.40163481205527
 20
328.0098877718593
 30
0.0
 40
2.0
100
AcDbArc
 50
270.0
 51
0.0
  0
ARC
  5
16B
330
3DE
100
AcDbEntity
  8
DATA
  6
Continuous
 62
     7
100
AcDbCircle
 10
15.40163481205528
 20
330.0098877718593
 30
0.0
 40
2.0
100
AcDbArc
 50
270.0
 51
0.0
  0
ARC
  5
16C
330
3DE
100
AcDbEntity
  8
DATA
  6
Continuous
 62
     7
100
AcDbCircle
 10
21.40163481205528
 20
346.0
 30
0.0
 40
2.0
100
AcDbArc
 50
90.0
 51
180.0
  0
ARC
  5
16D
330
3DE
100
AcDbEntity
  8
DATA
  6
Continuous
 62
     7
100
AcDbCircle
 10
19.40163481205528
 20
348.0
 30
0.0
 40
2.0
100
AcDbArc
 50
90.0
 51
180.0
  0
LINE
  5
16E
330
3DE
100
AcDbEntity
  8
DATA
  6
Continuous
 62
     7
100
AcDbLine
 10
-80.04314095957427
 20
350.0
 30
0.0
 11
-69.54314095957427
 21
350.0
 31
0.0
  0
ARC
  5
16F
330
3DE
100
AcDbEntity
  8
DATA
  6
Continuous
 62
     7
100
AcDbCircle
 10
-69.54314095957427
 20
348.0
 30
0.0
 40
2.0
100
AcDbArc
 50
0.0
 51
90.0
  0
LINE
  5
170
330
3DE
100
AcDbEntity
  8
DATA
  6
Continuous
 62
     7
100
AcDbLine
 10
-67.54314095957427
 20
348.0
 30
0.0
 11
-67.54314095957427
 21
350.0
 31
0.0
  0
LINE
  5
171
330
3DE
100
AcDbEntity
  8
DATA
  6
Continuous
 62
     7
100
AcDbLine
 10
17.40163481205527
 20
348.0
 30
0.0
 11
17.40163481205527
 21
350.0
 31
0.0
  0
LINE
  5
172
330
3DE
100
AcDbEntity
  8
DATA
  6
Continuous
 62
     7
100
AcDbLine
 10
-67.40587336679415
 20
350.0
 30
0.0
 11
17.59412663320583
 21
350.0
 31
0.0
  0
LINE
  5
173
330
3DE
100
AcDbEntity
  8
DATA
  6
Continuous
 62
     7
100
AcDbLine
 10
8.346072659955424
 20
144.1015216859988
 30
0.0
 11
8.346072659955424
 21
130.8015216859988
 31
0.0
  0
LINE
  5
174
330
3DE
100
AcDbEntity
  8
DATA
  6
Continuous
 62
     7
100
AcDbLine
 10
-7.353927340044606
 20
144.1015216859988
 30
0.0
 11
-7.353927340044606
 21
130.8015216859988
 31
0.0
  0
LINE
  5
175
330
3DE
100
AcDbEntity
  8
DATA
  6
Continuous
 62
     7
100
AcDbLine
 10
-7.353927340044606
 20
130.8015216859988
 30
0.0
 11
8.346072659955424
 21
130.8015216859988
 31
0.0
  0
LINE
  5
176
330
3DE
100
AcDbEntity
  8
DATA
  6
Continuous
 62
     7
100
AcDbLine
 10
-7.353927340044606
 20
144.1015216859988
 30
0.0
 11
8.346072659955424
 21
144.1015216859988
 31
0.0
  0
LINE
  5
177
330
3DE
100
AcDbEntity
  8
DATA
  6
Continuous
 62
     7
100
AcDbLine
 10
-5.65392734004456
 20
141.1015216859988
 30
0.0
 11
6.646072659955379
 21
141.1015216859988
 31
0.0
  0
LINE
  5
178
330
3DE
100
AcDbEntity
  8
DATA
  6
Continuous
 62
     7
100
AcDbLine
 10
-5.65392734004456
 20
141.1015216859988
 30
0.0
 11
-5.65392734004456
 21
133.8015216859988
 31
0.0
  0
LINE
  5
179
330
3DE
100
AcDbEntity
  8
DATA
  6
Continuous
 62
     7
100
AcDbLine
 10
6.646072659955379
 20
141.1015216859988
 30
0.0
 11
6.646072659955379
 21
133.8015216859988
 31
0.0
  0
LINE
  5
17A
330
3DE
100
AcDbEntity
  8
DATA
  6
Continuous
 62
     7
100
AcDbLine
 10
-1.72892734004462
 20
130.8015216859988
 30
0.0
 11
-1.72892734004462
 21
132.3015216859988
 31
0.0
  0
LINE
  5
17B
330
3DE
100
AcDbEntity
  8
DATA
  6
Continuous
 62
     7
100
AcDbLine
 10
2.721072659955424
 20
132.3015216859988
 30
0.0
 11
2.721072659955424
 21
130.8015216859988
 31
0.0
  0
LINE
  5
17C
330
3DE
100
AcDbEntity
  8
DATA
  6
Continuous
 62
     7
100
AcDbLine
 10
-2.85392734004462
 20
132.3015216859988
 30
0.0
 11
-1.72892734004462
 21
132.3015216859988
 31
0.0
  0
LINE
  5
17D
330
3DE
100
AcDbEntity
  8
DATA
  6
Continuous
 62
     7
100
AcDbLine
 10
2.721072659955424
 20
132.3015216859988
 30
0.0
 11
3.846072659955424
 21
132.3015216859988
 31
0.0
  0
LINE
  5
17E
330
3DE
100
AcDbEntity
  8
DATA
  6
Continuous
 62
     7
100
AcDbLine
 10
-5.65392734004456
 20
133.8015216859988
 30
0.0
 11
-2.85392734004462
 21
133.8015216859988
 31
0.0
  0
LINE
  5
17F
330
3DE
100
AcDbEntity
  8
DATA
  6
Continuous
 62
     7
100
AcDbLine
 10
3.846072659955424
 20
133.8015216859988
 30
0.0
 11
6.646072659955379
 21
133.8015216859988
 31
0.0
  0
LINE
  5
180
330
3DE
100
AcDbEntity
  8
DATA
  6
Continuous
 62
     7
100
AcDbLine
 10
-2.85392734004462
 20
132.3015216859988
 30
0.0
 11
-2.85392734004462
 21
133.8015216859988
 31
0.0
  0
LINE
  5
181
330
3DE
100
AcDbEntity
  8
DATA
  6
Continuous
 62
     7
100
AcDbLine
 10
3.846072659955424
 20
133.8015216859988
 30
0.0
 11
3.846072659955424
 21
132.3015216859988
 31
0.0
  0
TEXT
  5
182
330
3DE
100
AcDbEntity
  8
DATA
 62
     7
100
AcDbText
 10
3.321335537993053
 20
233.0939414892525
 30
0.0
 40
5.700944010416665
  1
   4K Ultra HD S
 50
90.0
 41
0.7
 11
-2.379608472423612
 21
233.0939414892525
 31
0.0
100
AcDbText
 73
     3
  0
TEXT
  5
183
330
3DE
100
AcDbEntity
  8
DATA
 62
     7
100
AcDbText
 10
10.02411331577082
 20
233.0939414892525
 30
0.0
 40
5.700944010416665
  1
ELR-POL Extender
 50
90.0
 41
0.7
 11
4.323169305354156
 21
233.0939414892525
 31
0.0
100
AcDbText
 73
     3
  0
TEXT
  5
184
330
3DE
100
AcDbEntity
  8
DATA
 62
     7
100
AcDbText
 10
16.7268910935486
 20
233.0939414892525
 30
0.0
 40
5.700944010416665
  1
w/RS-232 and 2-way IR 
 50
90.0
 41
0.7
 11
11.02594708313194
 21
233.0939414892525
 31
0.0
100
AcDbText
 73
     3
  0
LINE
  5
185
330
3DE
100
AcDbEntity
  8
DATA
  6
Continuous
 62
     7
100
AcDbLine
 10
111.3647280703053
 20
225.0
 30
0.0
 11
111.3647280703053
 21
305.0
 31
0.0
  0
CIRCLE
  5
186
330
3DE
100
AcDbEntity
  8
DATA
  6
Continuous
 62
     7
100
AcDbCircle
 10
106.3647280703053
 20
287.3998312867095
 30
0.0
 40
2.5
  0
LINE
  5
187
330
3DE
100
AcDbEntity
  8
DATA
  6
Continuous
 62
     7
100
AcDbLine
 10
104.9828091146497
 20
287.3998312867095
 30
0.0
 11
107.7466470259607
 21
287.3998312867095
 31
0.0
  0
LINE
  5
188
330
3DE
100
AcDbEntity
  8
DATA
  6
Continuous
 62
     7
100
AcDbLine
 10
106.3647280703053
 20
286.017912331054
 30
0.0
 11
106.3647280703053
 21
288.7817502423651
 31
0.0
  0
LINE
  5
189
330
3DE
100
AcDbEntity
  8
DATA
  6
Continuous
 62
     7
100
AcDbLine
 10
97.98504327576734
 20
220.0
 30
0.0
 11
105.8350432757673
 21
220.0
 31
0.0
  0
LINE
  5
18A
330
3DE
100
AcDbEntity
  8
DATA
  6
Continuous
 62
     7
100
AcDbLine
 10
99.21004327576737
 20
225.0
 30
0.0
 11
99.21004327576737
 21
220.5
 31
0.0
  0
LINE
  5
18B
330
3DE
100
AcDbEntity
  8
DATA
  6
Continuous
 62
     7
100
AcDbLine
 10
104.6100432757673
 20
225.0
 30
0.0
 11
104.6100432757673
 21
220.5
 31
0.0
  0
LINE
  5
18C
330
3DE
100
AcDbEntity
  8
DATA
  6
Continuous
 62
     7
100
AcDbLine
 10
99.21004327576737
 20
220.5
 30
0.0
 11
104.6100432757673
 21
220.5
 31
0.0
  0
LINE
  5
18D
330
3DE
100
AcDbEntity
  8
DATA
  6
Continuous
 62
     7
100
AcDbLine
 10
97.98504327576734
 20
225.0
 30
0.0
 11
97.98504327576734
 21
220.0
 31
0.0
  0
LINE
  5
18E
330
3DE
100
AcDbEntity
  8
DATA
  6
Continuous
 62
     7
100
AcDbLine
 10
105.8350432757673
 20
225.0
 30
0.0
 11
105.8350432757673
 21
220.0
 31
0.0
  0
TEXT
  5
18F
330
3DE
100
AcDbEntity
  8
DATA
 62
     7
100
AcDbText
 10
75.0
 20
128.3983333333333
 30
0.0
 40
8.144205729166666
  1
GTB-UHD2IRS-ELRPOL-BLK
 41
0.7
 11
75.0
 21
136.5425390625
 31
0.0
100
AcDbText
 73
     3
  0
TEXT
  5
190
330
3DE
100
AcDbEntity
  8
DATA
 62
     7
100
AcDbText
 10
75.0
 20
117.815
 30
0.0
 40
8.144205729166666
  1
(送信機）
 41
0.7
 11
75.0
 21
125.9592057291667
 31
0.0
100
AcDbText
 73
     3
  0
LINE
  5
191
330
3DE
100
AcDbEntity
  8
DATA
  6
Continuous
 62
     7
100
AcDbLine
 10
-162.5
 20
81.25
 30
0.0
 11
362.5
 21
81.25
 31
0.0
  0
LINE
  5
192
330
3DE
100
AcDbEntity
  8
DATA
  6
Continuous
 62
     7
100
AcDbLine
 10
279.5575507755283
 20
225.0
 30
0.0
 11
279.5575507755283
 21
305.0
 31
0.0
  0
LINE
  5
193
330
3DE
100
AcDbEntity
  8
DATA
  6
Continuous
 62
     7
100
AcDbLine
 10
169.7196406465855
 20
225.0
 30
0.0
 11
279.7196406465855
 21
225.0
 31
0.0
  0
LINE
  5
194
330
3DE
100
AcDbEntity
  8
DATA
  6
Continuous
 62
     7
100
AcDbLine
 10
169.5118125438783
 20
305.0121255350266
 30
0.0
 11
169.5118125438783
 21
225.0121255350266
 31
0.0
  0
LINE
  5
195
330
3DE
100
AcDbEntity
  8
DATA
  6
Continuous
 62
     7
100
AcDbLine
 10
279.5575507755283
 20
305.0121255350266
 30
0.0
 11
169.5575507755283
 21
305.0121255350266
 31
0.0
  0
LINE
  5
196
330
3DE
100
AcDbEntity
  8
DATA
  6
Continuous
 62
     7
100
AcDbLine
 10
269.0575507755283
 20
225.0
 30
0.0
 11
269.0575507755283
 21
305.0
 31
0.0
  0
LINE
  5
197
330
3DE
100
AcDbEntity
  8
DATA
  6
Continuous
 62
     7
100
AcDbLine
 10
180.0118125438783
 20
225.0
 30
0.0
 11
180.0118125438783
 21
305.0
 31
0.0
  0
CIRCLE
  5
198
330
3DE
100
AcDbEntity
  8
DATA
  6
Continuous
 62
     7
100
AcDbCircle
 10
190.5118125438782
 20
297.0018051049842
 30
0.0
 40
3.650000000000005
  0
CIRCLE
  5
199
330
3DE
100
AcDbEntity
  8
DATA
  6
Continuous
 62
     7
100
AcDbCircle
 10
258.5575507755284
 20
297.0018051049842
 30
0.0
 40
3.649999999999976
  0
CIRCLE
  5
19A
330
3DE
100
AcDbEntity
  8
DATA
  6
Continuous
 62
     7
100
AcDbCircle
 10
190.5118125438782
 20
233.0103204300424
 30
0.0
 40
3.650000000000005
  0
CIRCLE
  5
19B
330
3DE
100
AcDbEntity
  8
DATA
  6
Continuous
 62
     7
100
AcDbCircle
 10
258.5575507755284
 20
233.0103204300424
 30
0.0
 40
3.649999999999976
  0
LINE
  5
19C
330
3DE
100
AcDbEntity
  8
DATA
  6
Continuous
 62
     7
100
AcDbLine
 10
-39.01704553355934
 20
225.0
 30
0.0
 11
-39.01704553355934
 21
219.5000000000002
 31
0.0
  0
LINE
  5
19D
330
3DE
100
AcDbEntity
  8
DATA
  6
Continuous
 62
     7
100
AcDbLine
 10
-36.42267815939887
 20
225.0
 30
0.0
 11
-36.42267815939887
 21
219.3634543487284
 31
0.0
  0
LINE
  5
19E
330
3DE
100
AcDbEntity
  8
DATA
  6
Continuous
 62
     7
100
AcDbLine
 10
-13.65283556334071
 20
225.0
 30
0.0
 11
-13.65283556334071
 21
219.4999999999999
 31
0.0
  0
LINE
  5
19F
330
3DE
100
AcDbEntity
  8
DATA
  6
Continuous
 62
     7
100
AcDbLine
 10
-11.05846818918064
 20
225.0
 30
0.0
 11
-11.05846818918064
 21
219.4999999999998
 31
0.0
  0
CIRCLE
  5
1A0
330
3DE
100
AcDbEntity
  8
DATA
  6
Continuous
 62
     7
100
AcDbCircle
 10
-12.53386053239472
 20
136.255305049565
 30
0.0
 40
1.175000000000125
  0
LWPOLYLINE
  5
1A1
330
3DE
100
AcDbEntity
  8
DATA
  6
Continuous
 62
     7
100
AcDbPolyline
 90
        6
 70
     1
 43
0.0
 10
-12.53386053239472
 20
138.9553050495649
 10
-14.87212912261268
 20
137.605305049565
 10
-14.87212912261268
 20
134.905305049565
 10
-12.53386053239472
 20
133.555305049565
 10
-10.19559194217663
 20
134.905305049565
 10
-10.19559194217663
 20
137.605305049565
  0
CIRCLE
  5
1AA
330
3DE
100
AcDbEntity
  8
DATA
  6
Continuous
 62
     7
100
AcDbCircle
 10
-37.53386053239292
 20
136.255305049565
 30
0.0
 40
1.174999999999954
  0
LWPOLYLINE
  5
1AB
330
3DE
100
AcDbEntity
  8
DATA
  6
Continuous
 62
     7
100
AcDbPolyline
 90
        6
 70
     1
 43
0.0
 10
-37.53386053239292
 20
138.9553050495649
 10
-39.87212912261057
 20
137.605305049565
 10
-39.87212912261057
 20
134.905305049565
 10
-37.53386053239292
 20
133.555305049565
 10
-35.19559194217511
 20
134.905305049565
 10
-35.19559194217511
 20
137.605305049565
  0
LINE
  5
1B4
330
3DE
100
AcDbEntity
  8
DATA
  6
Continuous
 62
     7
100
AcDbLine
 10
-19.43209732220589
 20
132.2553050495651
 30
0.0
 11
-30.63562374258227
 21
132.2553050495651
 31
0.0
  0
LINE
  5
1B5
330
3DE
100
AcDbEntity
  8
DATA
  6
Continuous
 62
     7
100
AcDbLine
 10
-31.44812374258209
 20
140.255305049565
 30
0.0
 11
-18.61959732220595
 21
140.255305049565
 31
0.0
  0
LINE
  5
1B6
330
3DE
100
AcDbEntity
  8
DATA
  6
Continuous
 62
     7
100
AcDbLine
 10
-32.01884058983372
 20
133.439177417182
 30
0.0
 11
-32.83134058983349
 21
138.6391774171819
 31
0.0
  0
LINE
  5
1B7
330
3DE
100
AcDbEntity
  8
DATA
  6
Continuous
 62
     7
100
AcDbLine
 10
-17.2363804749545
 20
138.6391774171819
 30
0.0
 11
-18.04888047495444
 21
133.439177417182
 31
0.0
  0
CIRCLE
  5
1B8
330
3DE
100
AcDbEntity
  8
DATA
  6
Continuous
 62
     7
100
AcDbCircle
 10
-25.06049030286905
 20
137.8916132207187
 30
0.0
 40
0.4999999999999716
  0
ARC
  5
1B9
330
3DE
100
AcDbEntity
  8
DATA
  6
Continuous
 62
     7
100
AcDbCircle
 10
-31.44812374258209
 20
138.855305049565
 30
0.0
 40
1.400000000000034
100
AcDbArc
 50
90.0
 51
188.8806591505215
  0
ARC
  5
1BA
330
3DE
100
AcDbEntity
  8
DATA
  6
Continuous
 62
     7
100
AcDbCircle
 10
-18.61959732220595
 20
138.855305049565
 30
0.0
 40
1.399999999999906
100
AcDbArc
 50
351.119340849479
 51
90.0
  0
ARC
  5
1BB
330
3DE
100
AcDbEntity
  8
DATA
  6
Continuous
 62
     7
100
AcDbCircle
 10
-30.63562374258227
 20
133.655305049565
 30
0.0
 40
1.399999999999907
100
AcDbArc
 50
188.8806591505213
 51
270.0
  0
ARC
  5
1BC
330
3DE
100
AcDbEntity
  8
DATA
  6
Continuous
 62
     7
100
AcDbCircle
 10
-19.43209732220589
 20
133.655305049565
 30
0.0
 40
1.399999999999966
100
AcDbArc
 50
270.0
 51
351.1193408494787
  0
CIRCLE
  5
1BD
330
3DE
100
AcDbEntity
  8
DATA
  6
Continuous
 62
     7
100
AcDbCircle
 10
-27.56049030286888
 20
137.8916132207187
 30
0.0
 40
0.4999999999999716
  0
CIRCLE
  5
1BE
330
3DE
100
AcDbEntity
  8
DATA
  6
Continuous
 62
     7
100
AcDbCircle
 10
-30.06049030286864
 20
137.8916132207187
 30
0.0
 40
0.4999999999999433
  0
CIRCLE
  5
1BF
330
3DE
100
AcDbEntity
  8
DATA
  6
Continuous
 62
     7
100
AcDbCircle
 10
-22.56049030286923
 20
137.8916132207187
 30
0.0
 40
0.4999999999999716
  0
CIRCLE
  5
1C0
330
3DE
100
AcDbEntity
  8
DATA
  6
Continuous
 62
     7
100
AcDbCircle
 10
-20.0604903028694
 20
137.8916132207187
 30
0.0
 40
0.4999999999999716
  0
CIRCLE
  5
1C1
330
3DE
100
AcDbEntity
  8
DATA
  6
Continuous
 62
     7
100
AcDbCircle
 10
-26.25600147894022
 20
134.273092801956
 30
0.0
 40
0.4999999999999716
  0
CIRCLE
  5
1C2
330
3DE
100
AcDbEntity
  8
DATA
  6
Continuous
 62
     7
100
AcDbCircle
 10
-28.75600147894007
 20
134.273092801956
 30
0.0
 40
0.5
  0
CIRCLE
  5
1C3
330
3DE
100
AcDbEntity
  8
DATA
  6
Continuous
 62
     7
100
AcDbCircle
 10
-23.75600147894039
 20
134.273092801956
 30
0.0
 40
0.4999999999999716
  0
CIRCLE
  5
1C4
330
3DE
100
AcDbEntity
  8
DATA
  6
Continuous
 62
     7
100
AcDbCircle
 10
-21.25600147894056
 20
134.273092801956
 30
0.0
 40
0.4999999999999716
  0
CIRCLE
  5
1C5
330
3DE
100
AcDbEntity
  8
DATA
  6
Continuous
 62
     7
100
AcDbCircle
 10
-48.79314095957427
 20
341.0695301505092
 30
0.0
 40
2.300000000000011
  0
LINE
  5
1C6
330
3DE
100
AcDbEntity
  8
DATA
  6
Continuous
 62
     7
100
AcDbLine
 10
-27.82366456408249
 20
333.2538257085517
 30
0.0
 11
-25.78242311176314
 21
335.295067160871
 31
0.0
  0
LINE
  5
1C7
330
3DE
100
AcDbEntity
  8
DATA
  6
Continuous
 62
     7
100
AcDbLine
 10
-27.07651833727573
 20
330.4654380294257
 30
0.0
 11
-27.82366456408249
 21
333.2538257085517
 31
0.0
  0
LINE
  5
1C8
330
3DE
100
AcDbEntity
  8
DATA
  6
Continuous
 62
     7
100
AcDbLine
 10
-24.28813065814973
 20
329.7182918026189
 30
0.0
 11
-27.07651833727573
 21
330.4654380294257
 31
0.0
  0
LINE
  5
1C9
330
3DE
100
AcDbEntity
  8
DATA
  6
Continuous
 62
     7
100
AcDbLine
 10
-22.2468892058306
 20
331.7595332549384
 30
0.0
 11
-24.28813065814973
 21
329.7182918026189
 31
0.0
  0
LINE
  5
1CA
330
3DE
100
AcDbEntity
  8
DATA
  6
Continuous
 62
     7
100
AcDbLine
 10
-22.99403543263719
 20
334.5479209340644
 30
0.0
 11
-22.2468892058306
 21
331.7595332549384
 31
0.0
  0
LINE
  5
1CB
330
3DE
100
AcDbEntity
  8
DATA
  6
Continuous
 62
     7
100
AcDbLine
 10
-25.78242311176314
 20
335.295067160871
 30
0.0
 11
-22.99403543263719
 21
334.5479209340644
 31
0.0
  0
CIRCLE
  5
1CC
330
3DE
100
AcDbEntity
  8
DATA
  6
Continuous
 62
     7
100
AcDbCircle
 10
-25.03527688495643
 20
332.5066794817449
 30
0.0
 40
1.275000000000034
  0
LINE
  5
1CD
330
3DE
100
AcDbEntity
  8
DATA
  6
Continuous
 62
     7
100
AcDbLine
 10
-32.88527688495641
 20
339.5695301505092
 30
0.0
 11
-32.88527688495641
 21
343.8695301505093
 31
0.0
  0
LINE
  5
1CE
330
3DE
100
AcDbEntity
  8
DATA
  6
Continuous
 62
     7
100
AcDbLine
 10
-17.18527688495709
 20
339.5695301505092
 30
0.0
 11
-32.88527688495641
 21
339.5695301505092
 31
0.0
  0
LINE
  5
1CF
330
3DE
100
AcDbEntity
  8
DATA
  6
Continuous
 62
     7
100
AcDbLine
 10
-17.18527688495709
 20
343.8695301505093
 30
0.0
 11
-17.18527688495709
 21
339.5695301505092
 31
0.0
  0
LINE
  5
1D0
330
3DE
100
AcDbEntity
  8
DATA
  6
Continuous
 62
     7
100
AcDbLine
 10
-19.78527688495676
 20
345.5695301505094
 30
0.0
 11
-17.18527688495709
 21
343.8695301505093
 31
0.0
  0
LINE
  5
1D1
330
3DE
100
AcDbEntity
  8
DATA
  6
Continuous
 62
     7
100
AcDbLine
 10
-30.28527688495645
 20
345.5695301505094
 30
0.0
 11
-19.78527688495676
 21
345.5695301505094
 31
0.0
  0
LINE
  5
1D2
330
3DE
100
AcDbEntity
  8
DATA
  6
Continuous
 62
     7
100
AcDbLine
 10
-32.88527688495641
 20
343.8695301505093
 30
0.0
 11
-30.28527688495645
 21
345.5695301505094
 31
0.0
  0
LINE
  5
1D3
330
3DE
100
AcDbEntity
  8
DATA
  6
Continuous
 62
     7
100
AcDbLine
 10
-30.03527688495645
 20
342.355693325002
 30
0.0
 11
-30.03527688495645
 21
341.855693325002
 31
0.0
  0
LINE
  5
1D4
330
3DE
100
AcDbEntity
  8
DATA
  6
Continuous
 62
     7
100
AcDbLine
 10
-20.03527688495644
 20
342.355693325002
 30
0.0
 11
-30.03527688495645
 21
342.355693325002
 31
0.0
  0
LINE
  5
1D5
330
3DE
100
AcDbEntity
  8
DATA
  6
Continuous
 62
     7
100
AcDbLine
 10
-20.03527688495644
 20
341.855693325002
 30
0.0
 11
-20.03527688495644
 21
342.355693325002
 31
0.0
  0
LINE
  5
1D6
330
3DE
100
AcDbEntity
  8
DATA
  6
Continuous
 62
     7
100
AcDbLine
 10
-30.03527688495645
 20
341.855693325002
 30
0.0
 11
-20.03527688495644
 21
341.855693325002
 31
0.0
  0
CIRCLE
  5
1D7
330
3DE
100
AcDbEntity
  8
DATA
  6
Continuous
 62
     7
100
AcDbCircle
 10
-48.79314095957461
 20
341.0695301505088
 30
0.0
 40
3.5
  0
CIRCLE
  5
1D8
330
3DE
100
AcDbEntity
  8
DATA
  6
Continuous
 62
     7
100
AcDbCircle
 10
-0.6723134891314402
 20
337.7209501667492
 30
0.0
 40
5.0
  0
CIRCLE
  5
1D9
330
3DE
100
AcDbEntity
  8
DATA
  6
Continuous
 62
     7
100
AcDbCircle
 10
-0.6723134891317529
 20
337.7209501667489
 30
0.0
 40
4.0
  0
CIRCLE
  5
1DA
330
3DE
100
AcDbEntity
  8
DATA
  6
Continuous
 62
     7
100
AcDbCircle
 10
-10.42032253066247
 20
344.2532783085606
 30
0.0
 40
1.275000000000034
  0
CIRCLE
  5
1DB
330
3DE
100
AcDbEntity
  8
DATA
  6
Continuous
 62
     7
100
AcDbCircle
 10
-1.951844306679205
 20
339.1995090458603
 30
0.0
 40
0.9000000000000056
  0
CIRCLE
  5
1DC
330
3DE
100
AcDbEntity
  8
DATA
  6
Continuous
 62
     7
100
AcDbCircle
 10
0.9165112207987817
 20
339.1995090458601
 30
0.0
 40
0.9000000000000056
  0
CIRCLE
  5
1DD
330
3DE
100
AcDbEntity
  8
DATA
  6
Continuous
 62
     7
100
AcDbCircle
 10
-2.225021023582556
 20
336.3311535183815
 30
0.0
 40
0.9000000000000056
  0
CIRCLE
  5
1DE
330
3DE
100
AcDbEntity
  8
DATA
  6
Continuous
 62
     7
100
AcDbCircle
 10
0.9165112207981279
 20
336.3311535183812
 30
0.0
 40
0.9000000000000056
  0
CIRCLE
  5
1DF
330
3DE
100
AcDbEntity
  8
DATA
  6
Continuous
 62
     7
100
AcDbCircle
 10
-1.951844306679532
 20
339.1995090458601
 30
0.0
 40
0.7000000000000029
  0
CIRCLE
  5
1E0
330
3DE
100
AcDbEntity
  8
DATA
  6
Continuous
 62
     7
100
AcDbCircle
 10
0.9771792462966148
 20
339.2449247639029
 30
0.0
 40
0.7000000000000029
  0
CIRCLE
  5
1E1
330
3DE
100
AcDbEntity
  8
DATA
  6
Continuous
 62
     7
100
AcDbCircle
 10
-2.209768716127854
 20
336.3159012109262
 30
0.0
 40
0.7000000000000029
  0
CIRCLE
  5
1E2
330
3DE
100
AcDbEntity
  8
DATA
  6
Continuous
 62
     7
100
AcDbCircle
 10
0.9165112207978012
 20
336.3311535183809
 30
0.0
 40
0.7000000000000029
  0
LINE
  5
1E3
330
3DE
100
AcDbEntity
  8
DATA
  6
Continuous
 62
     7
100
AcDbLine
 10
-27.58402265070072
 20
304.9586730743206
 30
0.0
 11
-27.58402265070072
 21
309.4586730743206
 31
0.0
  0
LINE
  5
1E4
330
3DE
100
AcDbEntity
  8
DATA
  6
Continuous
 62
     7
100
AcDbLine
 10
-22.90748547026476
 20
304.9586730743206
 30
0.0
 11
-22.90748547026476
 21
309.4586730743206
 31
0.0
  0
LINE
  5
1E5
330
3DE
100
AcDbEntity
  8
DATA
  6
Continuous
 62
     7
100
AcDbLine
 10
-27.58402265070072
 20
309.4586730743206
 30
0.0
 11
-22.90748547026476
 21
309.4586730743206
 31
0.0
  0
LINE
  5
1E6
330
3DE
100
AcDbEntity
  8
DATA
  6
Continuous
 62
     7
100
AcDbLine
 10
-26.45869608847749
 20
304.9586730743207
 30
0.0
 11
-26.45869608847749
 21
309.4586730743207
 31
0.0
  0
LINE
  5
1E7
330
3DE
100
AcDbEntity
  8
DATA
  6
Continuous
 62
     7
100
AcDbLine
 10
-23.86432871431743
 20
304.9586730743208
 30
0.0
 11
-23.86432871431743
 21
309.4586730743208
 31
0.0
  0
CIRCLE
  5
1E8
330
3DE
100
AcDbEntity
  8
DATA
  6
Continuous
 62
     7
100
AcDbCircle
 10
-50.71488725849567
 20
137.431042587717
 30
0.0
 40
2.0
  0
CIRCLE
  5
1E9
330
3DE
100
AcDbEntity
  8
DATA
  6
Continuous
 62
     7
100
AcDbCircle
 10
-50.71488725849594
 20
137.4310425877167
 30
0.0
 40
3.0
  0
LINE
  5
1EA
330
3DE
100
AcDbEntity
  8
DATA
  6
Continuous
 62
     7
100
AcDbLine
 10
91.66031918620932
 20
304.9398362321372
 30
0.0
 11
91.66031918620932
 21
309.4398362321371
 31
0.0
  0
LINE
  5
1EB
330
3DE
100
AcDbEntity
  8
DATA
  6
Continuous
 62
     7
100
AcDbLine
 10
96.33685636664528
 20
304.9398362321372
 30
0.0
 11
96.33685636664528
 21
309.4398362321371
 31
0.0
  0
LINE
  5
1EC
330
3DE
100
AcDbEntity
  8
DATA
  6
Continuous
 62
     7
100
AcDbLine
 10
91.66031918620932
 20
309.4398362321371
 30
0.0
 11
96.33685636664528
 21
309.4398362321371
 31
0.0
  0
LINE
  5
1ED
330
3DE
100
AcDbEntity
  8
DATA
  6
Continuous
 62
     7
100
AcDbLine
 10
92.78564574843256
 20
304.9398362321373
 30
0.0
 11
92.78564574843256
 21
309.4398362321373
 31
0.0
  0
LINE
  5
1EE
330
3DE
100
AcDbEntity
  8
DATA
  6
Continuous
 62
     7
100
AcDbLine
 10
95.38001312259265
 20
304.9398362321375
 30
0.0
 11
95.38001312259265
 21
309.4398362321375
 31
0.0
  0
CIRCLE
  5
1EF
330
3DE
100
AcDbEntity
  8
DATA
  6
Continuous
 62
     7
100
AcDbCircle
 10
106.3647280703052
 20
241.7739976624121
 30
0.0
 40
2.5
  0
LINE
  5
1F0
330
3DE
100
AcDbEntity
  8
DATA
  6
Continuous
 62
     7
100
AcDbLine
 10
104.9828091146497
 20
241.7739976624121
 30
0.0
 11
107.7466470259607
 21
241.7739976624121
 31
0.0
  0
LINE
  5
1F1
330
3DE
100
AcDbEntity
  8
DATA
  6
Continuous
 62
     7
100
AcDbLine
 10
106.3647280703052
 20
240.3920787067567
 30
0.0
 11
106.3647280703052
 21
243.1559166180674
 31
0.0
  0
ARC
  5
1F2
330
3DE
100
AcDbEntity
  8
DATA
  6
Continuous
 62
     7
100
AcDbCircle
 10
174.7154829528847
 20
292.4374917186947
 30
0.0
 40
1.999999999999928
100
AcDbArc
 50
0.0
 51
180.0
  0
ARC
  5
1F3
330
3DE
100
AcDbEntity
  8
DATA
  6
Continuous
 62
     7
100
AcDbCircle
 10
174.7154829528847
 20
290.0374917186947
 30
0.0
 40
1.999999999999928
100
AcDbArc
 50
180.0
 51
0.0
  0
LINE
  5
1F4
330
3DE
100
AcDbEntity
  8
DATA
  6
Continuous
 62
     7
100
AcDbLine
 10
176.7154829528847
 20
290.0374917186947
 30
0.0
 11
176.7154829528847
 21
292.4374917186947
 31
0.0
  0
LINE
  5
1F5
330
3DE
100
AcDbEntity
  8
DATA
  6
Continuous
 62
     7
100
AcDbLine
 10
172.7154829528848
 20
290.0374917186947
 30
0.0
 11
172.7154829528848
 21
292.4374917186947
 31
0.0
  0
ARC
  5
1F6
330
3DE
100
AcDbEntity
  8
DATA
  6
Continuous
 62
     7
100
AcDbCircle
 10
174.7154829528847
 20
237.952654558173
 30
0.0
 40
1.999999999999928
100
AcDbArc
 50
180.0
 51
0.0
  0
ARC
  5
1F7
330
3DE
100
AcDbEntity
  8
DATA
  6
Continuous
 62
     7
100
AcDbCircle
 10
174.7154829528847
 20
240.352654558173
 30
0.0
 40
1.999999999999928
100
AcDbArc
 50
0.0
 51
180.0
  0
LINE
  5
1F8
330
3DE
100
AcDbEntity
  8
DATA
  6
Continuous
 62
     7
100
AcDbLine
 10
176.7154829528847
 20
240.352654558173
 30
0.0
 11
176.7154829528847
 21
237.952654558173
 31
0.0
  0
LINE
  5
1F9
330
3DE
100
AcDbEntity
  8
DATA
  6
Continuous
 62
     7
100
AcDbLine
 10
172.7154829528848
 20
240.352654558173
 30
0.0
 11
172.7154829528848
 21
237.952654558173
 31
0.0
  0
ARC
  5
1FA
330
3DE
100
AcDbEntity
  8
DATA
  6
Continuous
 62
     7
100
AcDbCircle
 10
174.7154829528847
 20
266.548734929205
 30
0.0
 40
1.999999999999928
100
AcDbArc
 50
0.0
 51
180.0
  0
ARC
  5
1FB
330
3DE
100
AcDbEntity
  8
DATA
  6
Continuous
 62
     7
100
AcDbCircle
 10
174.7154829528847
 20
264.148734929205
 30
0.0
 40
1.999999999999928
100
AcDbArc
 50
180.0
 51
0.0
  0
LINE
  5
1FC
330
3DE
100
AcDbEntity
  8
DATA
  6
Continuous
 62
     7
100
AcDbLine
 10
176.7154829528847
 20
264.148734929205
 30
0.0
 11
176.7154829528847
 21
266.548734929205
 31
0.0
  0
LINE
  5
1FD
330
3DE
100
AcDbEntity
  8
DATA
  6
Continuous
 62
     7
100
AcDbLine
 10
172.7154829528848
 20
264.148734929205
 30
0.0
 11
172.7154829528848
 21
266.548734929205
 31
0.0
  0
ARC
  5
1FE
330
3DE
100
AcDbEntity
  8
DATA
  6
Continuous
 62
     7
100
AcDbCircle
 10
274.4376017286687
 20
292.4374917186944
 30
0.0
 40
2.0
100
AcDbArc
 50
0.0
 51
180.0
  0
ARC
  5
1FF
330
3DE
100
AcDbEntity
  8
DATA
  6
Continuous
 62
     7
100
AcDbCircle
 10
274.4376017286687
 20
290.0374917186944
 30
0.0
 40
2.0
100
AcDbArc
 50
180.0
 51
0.0
  0
LINE
  5
200
330
3DE
100
AcDbEntity
  8
DATA
  6
Continuous
 62
     7
100
AcDbLine
 10
276.4376017286687
 20
290.0374917186944
 30
0.0
 11
276.4376017286687
 21
292.4374917186944
 31
0.0
  0
LINE
  5
201
330
3DE
100
AcDbEntity
  8
DATA
  6
Continuous
 62
     7
100
AcDbLine
 10
272.4376017286687
 20
290.0374917186944
 30
0.0
 11
272.4376017286687
 21
292.4374917186944
 31
0.0
  0
ARC
  5
202
330
3DE
100
AcDbEntity
  8
DATA
  6
Continuous
 62
     7
100
AcDbCircle
 10
274.4376017286687
 20
237.9526545581727
 30
0.0
 40
2.0
100
AcDbArc
 50
180.0
 51
0.0
  0
ARC
  5
203
330
3DE
100
AcDbEntity
  8
DATA
  6
Continuous
 62
     7
100
AcDbCircle
 10
274.4376017286687
 20
240.3526545581727
 30
0.0
 40
2.0
100
AcDbArc
 50
0.0
 51
180.0
  0
LINE
  5
204
330
3DE
100
AcDbEntity
  8
DATA
  6
Continuous
 62
     7
100
AcDbLine
 10
276.4376017286687
 20
240.3526545581727
 30
0.0
 11
276.4376017286687
 21
237.9526545581727
 31
0.0
  0
LINE
  5
205
330
3DE
100
AcDbEntity
  8
DATA
  6
Continuous
 62
     7
100
AcDbLine
 10
272.4376017286687
 20
240.3526545581727
 30
0.0
 11
272.4376017286687
 21
237.9526545581727
 31
0.0
  0
ARC
  5
206
330
3DE
100
AcDbEntity
  8
DATA
  6
Continuous
 62
     7
100
AcDbCircle
 10
274.4376017286687
 20
266.5487349292047
 30
0.0
 40
2.0
100
AcDbArc
 50
0.0
 51
180.0
  0
ARC
  5
207
330
3DE
100
AcDbEntity
  8
DATA
  6
Continuous
 62
     7
100
AcDbCircle
 10
274.4376017286687
 20
264.1487349292047
 30
0.0
 40
2.0
100
AcDbArc
 50
180.0
 51
0.0
  0
LINE
  5
208
330
3DE
100
AcDbEntity
  8
DATA
  6
Continuous
 62
     7
100
AcDbLine
 10
276.4376017286687
 20
264.1487349292047
 30
0.0
 11
276.4376017286687
 21
266.5487349292047
 31
0.0
  0
LINE
  5
209
330
3DE
100
AcDbEntity
  8
DATA
  6
Continuous
 62
     7
100
AcDbLine
 10
272.4376017286687
 20
264.1487349292047
 30
0.0
 11
272.4376017286687
 21
266.5487349292047
 31
0.0
  0
LINE
  5
20A
330
3DE
100
AcDbEntity
  8
DATA
  6
Continuous
 62
     7
100
AcDbLine
 10
216.9724582567513
 20
220.0
 30
0.0
 11
232.5557093295083
 21
220.0
 31
0.0
  0
LINE
  5
20B
330
3DE
100
AcDbEntity
  8
DATA
  6
Continuous
 62
     7
100
AcDbLine
 10
209.6809528262386
 20
225.0
 30
0.0
 11
209.6809528262386
 21
220.5
 31
0.0
  0
LINE
  5
20C
330
3DE
100
AcDbEntity
  8
DATA
  6
Continuous
 62
     7
100
AcDbLine
 10
214.3574900066746
 20
225.0
 30
0.0
 11
214.3574900066746
 21
220.5
 31
0.0
  0
LINE
  5
20D
330
3DE
100
AcDbEntity
  8
DATA
  6
Continuous
 62
     7
100
AcDbLine
 10
235.0472977938212
 20
225.0
 30
0.0
 11
235.0472977938212
 21
220.5
 31
0.0
  0
LINE
  5
20E
330
3DE
100
AcDbEntity
  8
DATA
  6
Continuous
 62
     7
100
AcDbLine
 10
239.7238349742571
 20
225.0
 30
0.0
 11
239.7238349742571
 21
220.5
 31
0.0
  0
LINE
  5
20F
330
3DE
100
AcDbEntity
  8
DATA
  6
Continuous
 62
     7
100
AcDbLine
 10
217.0283969044029
 20
225.0
 30
0.0
 11
217.0283969044029
 21
220.0
 31
0.0
  0
LINE
  5
210
330
3DE
100
AcDbEntity
  8
DATA
  6
Continuous
 62
     7
100
AcDbLine
 10
232.650762243492
 20
225.0
 30
0.0
 11
232.650762243492
 21
220.0
 31
0.0
  0
LINE
  5
211
330
3DE
100
AcDbEntity
  8
DATA
  6
Continuous
 62
     7
100
AcDbLine
 10
209.6809528262386
 20
220.5
 30
0.0
 11
214.3574900066746
 21
220.5
 31
0.0
  0
LINE
  5
212
330
3DE
100
AcDbEntity
  8
DATA
  6
Continuous
 62
     7
100
AcDbLine
 10
235.0472977938212
 20
220.5
 30
0.0
 11
239.7238349742571
 21
220.5
 31
0.0
  0
LINE
  5
213
330
3DE
100
AcDbEntity
  8
DATA
  6
Continuous
 62
     7
100
AcDbLine
 10
210.8084143858257
 20
225.0000000000001
 30
0.0
 11
210.8084143858257
 21
220.5000000000001
 31
0.0
  0
LINE
  5
214
330
3DE
100
AcDbEntity
  8
DATA
  6
Continuous
 62
     7
100
AcDbLine
 10
213.4027817599863
 20
224.8634543487284
 30
0.0
 11
213.4027817599863
 21
220.3634543487284
 31
0.0
  0
LINE
  5
215
330
3DE
100
AcDbEntity
  8
DATA
  6
Continuous
 62
     7
100
AcDbLine
 10
236.1726243560444
 20
224.9999999999999
 30
0.0
 11
236.1726243560444
 21
220.4999999999999
 31
0.0
  0
LINE
  5
216
330
3DE
100
AcDbEntity
  8
DATA
  6
Continuous
 62
     7
100
AcDbLine
 10
238.7669917302044
 20
224.9999999999997
 30
0.0
 11
238.7669917302044
 21
220.4999999999997
 31
0.0
  0
LINE
  5
217
330
3DE
100
AcDbEntity
  8
DATA
  6
Continuous
 62
     7
100
AcDbLine
 10
222.2414372686844
 20
304.9586730743206
 30
0.0
 11
222.2414372686844
 21
309.4586730743206
 31
0.0
  0
LINE
  5
218
330
3DE
100
AcDbEntity
  8
DATA
  6
Continuous
 62
     7
100
AcDbLine
 10
226.9179744491203
 20
304.9586730743206
 30
0.0
 11
226.9179744491203
 21
309.4586730743206
 31
0.0
  0
LINE
  5
219
330
3DE
100
AcDbEntity
  8
DATA
  6
Continuous
 62
     7
100
AcDbLine
 10
222.2414372686844
 20
309.4586730743206
 30
0.0
 11
226.9179744491203
 21
309.4586730743206
 31
0.0
  0
LINE
  5
21A
330
3DE
100
AcDbEntity
  8
DATA
  6
Continuous
 62
     7
100
AcDbLine
 10
223.3667638309076
 20
304.9586730743206
 30
0.0
 11
223.3667638309076
 21
309.4586730743206
 31
0.0
  0
LINE
  5
21B
330
3DE
100
AcDbEntity
  8
DATA
  6
Continuous
 62
     7
100
AcDbLine
 10
225.9611312050676
 20
304.9586730743208
 30
0.0
 11
225.9611312050676
 21
309.4586730743208
 31
0.0
  0
LINE
  5
21C
330
3DE
100
AcDbEntity
  8
DATA
  6
Continuous
 62
     7
100
AcDbLine
 10
-79.76278160615978
 20
-75.0
 30
0.0
 11
-79.76278160615978
 21
5.0
 31
0.0
  0
LINE
  5
21D
330
3DE
100
AcDbEntity
  8
DATA
  6
Continuous
 62
     7
100
AcDbLine
 10
30.28035935341522
 20
-75.0
 30
0.0
 11
-79.7196406465863
 21
-75.0
 31
0.0
  0
LINE
  5
21E
330
3DE
100
AcDbEntity
  8
DATA
  6
Continuous
 62
     7
100
AcDbLine
 10
30.14136214872325
 20
4.909912821649982
 30
0.0
 11
30.14136214872325
 21
-75.0900871783498
 31
0.0
  0
LINE
  5
21F
330
3DE
100
AcDbEntity
  8
DATA
  6
Continuous
 62
     7
100
AcDbLine
 10
-79.59503631568885
 20
4.979294326168428
 30
0.0
 11
30.40496368431102
 21
4.979294326168428
 31
0.0
  0
LINE
  5
220
330
3DE
100
AcDbEntity
  8
DATA
  6
Continuous
 62
     7
100
AcDbLine
 10
-79.76278160615978
 20
-175.0
 30
0.0
 11
-79.76278160615978
 21
-173.0000000000001
 31
0.0
  0
LINE
  5
221
330
3DE
100
AcDbEntity
  8
DATA
  6
Continuous
 62
     7
100
AcDbLine
 10
30.2731090854479
 20
-175.0
 30
0.0
 11
19.77310908544853
 21
-175.0
 31
0.0
  0
LINE
  5
222
330
3DE
100
AcDbEntity
  8
DATA
  6
Continuous
 62
     7
100
AcDbLine
 10
30.2731090854479
 20
-173.0000000000001
 30
0.0
 11
30.2731090854479
 21
-175.0
 31
0.0
  0
LINE
  5
223
330
3DE
100
AcDbEntity
  8
DATA
  6
Continuous
 62
     7
100
AcDbLine
 10
-67.26278160615978
 20
-148.9642016001994
 30
0.0
 11
17.73721839384021
 21
-148.9642016001994
 31
0.0
  0
LINE
  5
224
330
3DE
100
AcDbEntity
  8
DATA
  6
Continuous
 62
     7
100
AcDbLine
 10
-69.26278160615978
 20
-75.0
 30
0.0
 11
-69.26278160615978
 21
5.0
 31
0.0
  0
LINE
  5
225
330
3DE
100
AcDbEntity
  8
DATA
  6
Continuous
 62
     7
100
AcDbLine
 10
19.7752045045779
 20
-74.98982033512442
 30
0.0
 11
19.7752045045779
 21
5.010179664875579
 31
0.0
  0
ARC
  5
226
330
3DE
100
AcDbEntity
  8
DATA
  6
Continuous
 62
     7
100
AcDbCircle
 10
-75.00000000000001
 20
-7.795281041993291
 30
0.0
 40
2.0
100
AcDbArc
 50
0.0
 51
180.0
  0
ARC
  5
227
330
3DE
100
AcDbEntity
  8
DATA
  6
Continuous
 62
     7
100
AcDbCircle
 10
-75.00000000000001
 20
-10.19528104199312
 30
0.0
 40
2.0
100
AcDbArc
 50
180.0
 51
0.0
  0
LINE
  5
228
330
3DE
100
AcDbEntity
  8
DATA
  6
Continuous
 62
     7
100
AcDbLine
 10
-77.00000000000001
 20
-10.19528104199312
 30
0.0
 11
-77.00000000000001
 21
-7.795281041993291
 31
0.0
  0
LINE
  5
229
330
3DE
100
AcDbEntity
  8
DATA
  6
Continuous
 62
     7
100
AcDbLine
 10
-73.00000000000001
 20
-10.19528104199312
 30
0.0
 11
-73.00000000000001
 21
-7.795281041993291
 31
0.0
  0
ARC
  5
22A
330
3DE
100
AcDbEntity
  8
DATA
  6
Continuous
 62
     7
100
AcDbCircle
 10
-75.00000000000001
 20
-62.19528104199318
 30
0.0
 40
2.0
100
AcDbArc
 50
180.0
 51
0.0
  0
ARC
  5
22B
330
3DE
100
AcDbEntity
  8
DATA
  6
Continuous
 62
     7
100
AcDbCircle
 10
-75.00000000000001
 20
-59.79528104199321
 30
0.0
 40
2.0
100
AcDbArc
 50
0.0
 51
180.0
  0
LINE
  5
22C
330
3DE
100
AcDbEntity
  8
DATA
  6
Continuous
 62
     7
100
AcDbLine
 10
-77.00000000000001
 20
-59.79528104199321
 30
0.0
 11
-77.00000000000001
 21
-62.19528104199318
 31
0.0
  0
LINE
  5
22D
330
3DE
100
AcDbEntity
  8
DATA
  6
Continuous
 62
     7
100
AcDbLine
 10
-73.00000000000001
 20
-59.79528104199321
 30
0.0
 11
-73.00000000000001
 21
-62.19528104199318
 31
0.0
  0
ARC
  5
22E
330
3DE
100
AcDbEntity
  8
DATA
  6
Continuous
 62
     7
100
AcDbCircle
 10
-75.00000000000001
 20
-33.80000000000001
 30
0.0
 40
2.0
100
AcDbArc
 50
0.0
 51
180.0
  0
ARC
  5
22F
330
3DE
100
AcDbEntity
  8
DATA
  6
Continuous
 62
     7
100
AcDbCircle
 10
-75.00000000000001
 20
-36.19999999999999
 30
0.0
 40
2.0
100
AcDbArc
 50
180.0
 51
0.0
  0
LINE
  5
230
330
3DE
100
AcDbEntity
  8
DATA
  6
Continuous
 62
     7
100
AcDbLine
 10
-77.00000000000001
 20
-36.19999999999999
 30
0.0
 11
-77.00000000000001
 21
-33.80000000000001
 31
0.0
  0
LINE
  5
231
330
3DE
100
AcDbEntity
  8
DATA
  6
Continuous
 62
     7
100
AcDbLine
 10
-73.00000000000001
 20
-36.19999999999999
 30
0.0
 11
-73.00000000000001
 21
-33.80000000000001
 31
0.0
  0
ARC
  5
232
330
3DE
100
AcDbEntity
  8
DATA
  6
Continuous
 62
     7
100
AcDbCircle
 10
24.99999999999999
 20
-7.487957460451183
 30
0.0
 40
1.999999999999971
100
AcDbArc
 50
0.0
 51
180.0
  0
ARC
  5
233
330
3DE
100
AcDbEntity
  8
DATA
  6
Continuous
 62
     7
100
AcDbCircle
 10
24.99999999999999
 20
-9.887957460451021
 30
0.0
 40
1.999999999999985
100
AcDbArc
 50
180.0
 51
0.0
  0
LINE
  5
234
330
3DE
100
AcDbEntity
  8
DATA
  6
Continuous
 62
     7
100
AcDbLine
 10
26.99999999999996
 20
-9.887957460451021
 30
0.0
 11
26.99999999999996
 21
-7.487957460451183
 31
0.0
  0
LINE
  5
235
330
3DE
100
AcDbEntity
  8
DATA
  6
Continuous
 62
     7
100
AcDbLine
 10
23.0
 20
-9.887957460451021
 30
0.0
 11
23.0
 21
-7.487957460451183
 31
0.0
  0
ARC
  5
236
330
3DE
100
AcDbEntity
  8
DATA
  6
Continuous
 62
     7
100
AcDbCircle
 10
24.99999999999999
 20
-62.19528104199318
 30
0.0
 40
1.999999999999985
100
AcDbArc
 50
180.0
 51
0.0
  0
ARC
  5
237
330
3DE
100
AcDbEntity
  8
DATA
  6
Continuous
 62
     7
100
AcDbCircle
 10
24.99999999999999
 20
-59.79528104199321
 30
0.0
 40
1.999999999999971
100
AcDbArc
 50
0.0
 51
180.0
  0
LINE
  5
238
330
3DE
100
AcDbEntity
  8
DATA
  6
Continuous
 62
     7
100
AcDbLine
 10
26.99999999999996
 20
-59.79528104199321
 30
0.0
 11
26.99999999999996
 21
-62.19528104199318
 31
0.0
  0
LINE
  5
239
330
3DE
100
AcDbEntity
  8
DATA
  6
Continuous
 62
     7
100
AcDbLine
 10
23.0
 20
-59.79528104199321
 30
0.0
 11
23.0
 21
-62.19528104199318
 31
0.0
  0
ARC
  5
23A
330
3DE
100
AcDbEntity
  8
DATA
  6
Continuous
 62
     7
100
AcDbCircle
 10
24.99999999999999
 20
-33.80000000000001
 30
0.0
 40
1.999999999999971
100
AcDbArc
 50
0.0
 51
180.0
  0
ARC
  5
23B
330
3DE
100
AcDbEntity
  8
DATA
  6
Continuous
 62
     7
100
AcDbCircle
 10
24.99999999999999
 20
-36.19999999999999
 30
0.0
 40
1.999999999999985
100
AcDbArc
 50
180.0
 51
0.0
  0
LINE
  5
23C
330
3DE
100
AcDbEntity
  8
DATA
  6
Continuous
 62
     7
100
AcDbLine
 10
26.99999999999996
 20
-36.19999999999999
 30
0.0
 11
26.99999999999996
 21
-33.80000000000001
 31
0.0
  0
LINE
  5
23D
330
3DE
100
AcDbEntity
  8
DATA
  6
Continuous
 62
     7
100
AcDbLine
 10
23.0
 20
-36.19999999999999
 30
0.0
 11
23.0
 21
-33.80000000000001
 31
0.0
  0
LINE
  5
23E
330
3DE
100
AcDbEntity
  8
DATA
  6
Continuous
 62
     7
100
AcDbLine
 10
87.50000000000001
 20
-75.0
 30
0.0
 11
87.50000000000001
 21
5.0
 31
0.0
  0
LINE
  5
23F
330
3DE
100
AcDbEntity
  8
DATA
  6
Continuous
 62
     7
100
AcDbLine
 10
113.3647280703053
 20
-75.0
 30
0.0
 11
113.3647280703053
 21
5.0
 31
0.0
  0
LINE
  5
240
330
3DE
100
AcDbEntity
  8
DATA
  6
Continuous
 62
     7
100
AcDbLine
 10
87.50000000000001
 20
-75.0
 30
0.0
 11
113.5
 21
-75.0
 31
0.0
  0
LINE
  5
241
330
3DE
100
AcDbEntity
  8
DATA
  6
Continuous
 62
     7
100
AcDbLine
 10
87.50000000000001
 20
4.899831286709542
 30
0.0
 11
113.5
 21
4.899831286709542
 31
0.0
  0
LINE
  5
242
330
3DE
100
AcDbEntity
  8
DATA
  6
Continuous
 62
     7
100
AcDbLine
 10
-69.26278160615978
 20
-151.1692443024227
 30
0.0
 11
-69.26278160615978
 21
-171.1692443024226
 31
0.0
  0
LINE
  5
243
330
3DE
100
AcDbEntity
  8
DATA
  6
Continuous
 62
     7
100
AcDbLine
 10
19.77310908544853
 20
-150.9642016001994
 30
0.0
 11
19.77310908544853
 21
-170.9642016001992
 31
0.0
  0
LINE
  5
244
330
3DE
100
AcDbEntity
  8
DATA
  6
Continuous
 62
     7
100
AcDbLine
 10
30.2731090854479
 20
-173.0000000000001
 30
0.0
 11
21.77310908544843
 21
-173.0000000000001
 31
0.0
  0
LINE
  5
245
330
3DE
100
AcDbEntity
  8
DATA
  6
Continuous
 62
     7
100
AcDbLine
 10
-71.26278160615978
 20
-173.0000000000001
 30
0.0
 11
-79.76278160615978
 21
-173.0000000000001
 31
0.0
  0
LINE
  5
246
330
3DE
100
AcDbEntity
  8
DATA
  6
Continuous
 62
     7
100
AcDbLine
 10
-67.26278160615978
 20
-152.8958113422436
 30
0.0
 11
-67.26278160615978
 21
-172.8958113422434
 31
0.0
  0
LINE
  5
247
330
3DE
100
AcDbEntity
  8
DATA
  6
Continuous
 62
     7
100
AcDbLine
 10
17.77310908544865
 20
-152.9642016001994
 30
0.0
 11
17.77310908544865
 21
-172.9642016001992
 31
0.0
  0
LINE
  5
248
330
3DE
100
AcDbEntity
  8
DATA
  6
Continuous
 62
     7
100
AcDbLine
 10
-65.26278160615977
 20
-150.9642016001994
 30
0.0
 11
15.73721839384021
 21
-150.9642016001994
 31
0.0
  0
ARC
  5
249
330
3DE
100
AcDbEntity
  8
DATA
  6
Continuous
 62
     7
100
AcDbCircle
 10
-67.26278160615978
 20
-150.9642016001994
 30
0.0
 40
2.0
100
AcDbArc
 50
90.0
 51
180.0
  0
ARC
  5
24A
330
3DE
100
AcDbEntity
  8
DATA
  6
Continuous
 62
     7
100
AcDbCircle
 10
-65.26278160615977
 20
-152.9642016001994
 30
0.0
 40
2.0
100
AcDbArc
 50
90.0
 51
180.0
  0
ARC
  5
24B
330
3DE
100
AcDbEntity
  8
DATA
  6
Continuous
 62
     7
100
AcDbCircle
 10
-71.26278160615978
 20
-171.0000000000001
 30
0.0
 40
2.0
100
AcDbArc
 50
270.0
 51
0.0
  0
ARC
  5
24C
330
3DE
100
AcDbEntity
  8
DATA
  6
Continuous
 62
     7
100
AcDbCircle
 10
17.77310908544865
 20
-150.9642016001994
 30
0.0
 40
1.999999999999886
100
AcDbArc
 50
0.0
 51
90.0
  0
ARC
  5
24D
330
3DE
100
AcDbEntity
  8
DATA
  6
Continuous
 62
     7
100
AcDbCircle
 10
15.77310908544876
 20
-152.9642016001994
 30
0.0
 40
1.999999999999886
100
AcDbArc
 50
0.0
 51
90.0
  0
ARC
  5
24E
330
3DE
100
AcDbEntity
  8
DATA
  6
Continuous
 62
     7
100
AcDbCircle
 10
21.77310908544843
 20
-171.0000000000001
 30
0.0
 40
1.999999999999886
100
AcDbArc
 50
180.0
 51
270.0
  0
ARC
  5
24F
330
3DE
100
AcDbEntity
  8
DATA
  6
Continuous
 62
     7
100
AcDbCircle
 10
19.77310908544853
 20
-173.0000000000001
 30
0.0
 40
1.999999999999886
100
AcDbArc
 50
180.0
 51
270.0
  0
LINE
  5
250
330
3DE
100
AcDbEntity
  8
DATA
  6
Continuous
 62
     7
100
AcDbLine
 10
-79.76278160615978
 20
-175.0
 30
0.0
 11
-69.26278160615978
 21
-175.0
 31
0.0
  0
ARC
  5
251
330
3DE
100
AcDbEntity
  8
DATA
  6
Continuous
 62
     7
100
AcDbCircle
 10
-69.26278160615978
 20
-173.0000000000001
 30
0.0
 40
1.999999999999886
100
AcDbArc
 50
270.0
 51
0.0
  0
LINE
  5
252
330
3DE
100
AcDbEntity
  8
DATA
  6
Continuous
 62
     7
100
AcDbLine
 10
-67.26278160615978
 20
-173.0000000000001
 30
0.0
 11
-67.26278160615978
 21
-175.0
 31
0.0
  0
LINE
  5
253
330
3DE
100
AcDbEntity
  8
DATA
  6
Continuous
 62
     7
100
AcDbLine
 10
17.77310908544865
 20
-173.0000000000001
 30
0.0
 11
17.77310908544865
 21
-175.0
 31
0.0
  0
LINE
  5
254
330
3DE
100
AcDbEntity
  8
DATA
  6
Continuous
 62
     7
100
AcDbLine
 10
-67.26278160615978
 20
-175.0
 30
0.0
 11
17.73721839384021
 21
-175.0
 31
0.0
  0
LINE
  5
255
330
3DE
100
AcDbEntity
  8
DATA
  6
Continuous
 62
     7
100
AcDbLine
 10
-32.57264230921926
 20
-81.0
 30
0.0
 11
-16.98939123646229
 21
-81.0
 31
0.0
  0
LINE
  5
256
330
3DE
100
AcDbEntity
  8
DATA
  6
Continuous
 62
     7
100
AcDbLine
 10
-39.86414773973202
 20
-76.0
 30
0.0
 11
-39.86414773973202
 21
-80.5
 31
0.0
  0
LINE
  5
257
330
3DE
100
AcDbEntity
  8
DATA
  6
Continuous
 62
     7
100
AcDbLine
 10
-35.18761055929589
 20
-76.0
 30
0.0
 11
-35.18761055929589
 21
-80.5
 31
0.0
  0
LINE
  5
258
330
3DE
100
AcDbEntity
  8
DATA
  6
Continuous
 62
     7
100
AcDbLine
 10
-14.49780277214944
 20
-76.0
 30
0.0
 11
-14.49780277214944
 21
-80.5
 31
0.0
  0
LINE
  5
259
330
3DE
100
AcDbEntity
  8
DATA
  6
Continuous
 62
     7
100
AcDbLine
 10
-9.821265591713485
 20
-76.0
 30
0.0
 11
-9.821265591713485
 21
-80.5
 31
0.0
  0
LINE
  5
25A
330
3DE
100
AcDbEntity
  8
DATA
  6
Continuous
 62
     7
100
AcDbLine
 10
-32.51670366156766
 20
-76.0
 30
0.0
 11
-32.51670366156766
 21
-81.0
 31
0.0
  0
LINE
  5
25B
330
3DE
100
AcDbEntity
  8
DATA
  6
Continuous
 62
     7
100
AcDbLine
 10
-16.89433832247863
 20
-76.0
 30
0.0
 11
-16.89433832247863
 21
-81.0
 31
0.0
  0
LINE
  5
25C
330
3DE
100
AcDbEntity
  8
DATA
  6
Continuous
 62
     7
100
AcDbLine
 10
-39.86414773973202
 20
-80.5
 30
0.0
 11
-35.18761055929589
 21
-80.5
 31
0.0
  0
LINE
  5
25D
330
3DE
100
AcDbEntity
  8
DATA
  6
Continuous
 62
     7
100
AcDbLine
 10
-14.49780277214944
 20
-80.5
 30
0.0
 11
-9.821265591713485
 21
-80.5
 31
0.0
  0
LINE
  5
25E
330
3DE
100
AcDbEntity
  8
DATA
  6
Continuous
 62
     7
100
AcDbLine
 10
-79.76278160615978
 20
50.0
 30
0.0
 11
-79.76278160615978
 21
48.0
 31
0.0
  0
LINE
  5
25F
330
3DE
100
AcDbEntity
  8
DATA
  6
Continuous
 62
     7
100
AcDbLine
 10
30.18199416546966
 20
50.0
 30
0.0
 11
19.68199416546976
 21
50.0
 31
0.0
  0
LINE
  5
260
330
3DE
100
AcDbEntity
  8
DATA
  6
Continuous
 62
     7
100
AcDbLine
 10
30.18199416546966
 20
48.0
 30
0.0
 11
30.18199416546966
 21
50.0
 31
0.0
  0
LINE
  5
261
330
3DE
100
AcDbEntity
  8
DATA
  6
Continuous
 62
     7
100
AcDbLine
 10
-67.53715295356046
 20
26.00988777185933
 30
0.0
 11
18.46284704643952
 21
26.00988777185933
 31
0.0
  0
LINE
  5
262
330
3DE
100
AcDbEntity
  8
DATA
  6
Continuous
 62
     7
100
AcDbLine
 10
-69.26278160615978
 20
27.60012269650528
 30
0.0
 11
-69.26278160615978
 21
46.60012269650528
 31
0.0
  0
LINE
  5
263
330
3DE
100
AcDbEntity
  8
DATA
  6
Continuous
 62
     7
100
AcDbLine
 10
19.68199416546976
 20
27.73671105495663
 30
0.0
 11
19.68199416546976
 21
46.73671105495663
 31
0.0
  0
LINE
  5
264
330
3DE
100
AcDbEntity
  8
DATA
  6
Continuous
 62
     7
100
AcDbLine
 10
30.18199416546966
 20
48.0
 30
0.0
 11
21.68199416546975
 21
48.0
 31
0.0
  0
LINE
  5
265
330
3DE
100
AcDbEntity
  8
DATA
  6
Continuous
 62
     7
100
AcDbLine
 10
-71.26278160615978
 20
48.0
 30
0.0
 11
-79.76278160615978
 21
48.0
 31
0.0
  0
LINE
  5
266
330
3DE
100
AcDbEntity
  8
DATA
  6
Continuous
 62
     7
100
AcDbLine
 10
-67.26278160615978
 20
29.73671105495663
 30
0.0
 11
-67.26278160615978
 21
48.73671105495663
 31
0.0
  0
LINE
  5
267
330
3DE
100
AcDbEntity
  8
DATA
  6
Continuous
 62
     7
100
AcDbLine
 10
17.68199416546977
 20
29.73671105495663
 30
0.0
 11
17.68199416546977
 21
48.73671105495663
 31
0.0
  0
LINE
  5
268
330
3DE
100
AcDbEntity
  8
DATA
  6
Continuous
 62
     7
100
AcDbLine
 10
-65.67390515017139
 20
28.00988777185934
 30
0.0
 11
16.32609484982862
 21
28.00988777185934
 31
0.0
  0
ARC
  5
269
330
3DE
100
AcDbEntity
  8
DATA
  6
Continuous
 62
     7
100
AcDbCircle
 10
-67.26278160615978
 20
28.00988777185934
 30
0.0
 40
2.0
100
AcDbArc
 50
180.0
 51
270.0
  0
ARC
  5
26A
330
3DE
100
AcDbEntity
  8
DATA
  6
Continuous
 62
     7
100
AcDbCircle
 10
-65.26278160615977
 20
30.00988777185933
 30
0.0
 40
2.0
100
AcDbArc
 50
180.0
 51
270.0
  0
ARC
  5
26B
330
3DE
100
AcDbEntity
  8
DATA
  6
Continuous
 62
     7
100
AcDbCircle
 10
-71.26278160615978
 20
46.0
 30
0.0
 40
2.0
100
AcDbArc
 50
0.0
 51
90.0
  0
ARC
  5
26C
330
3DE
100
AcDbEntity
  8
DATA
  6
Continuous
 62
     7
100
AcDbCircle
 10
17.68199416546977
 20
28.00988777185934
 30
0.0
 40
2.000000000000014
100
AcDbArc
 50
270.0
 51
0.0
  0
ARC
  5
26D
330
3DE
100
AcDbEntity
  8
DATA
  6
Continuous
 62
     7
100
AcDbCircle
 10
15.68199416546977
 20
30.00988777185933
 30
0.0
 40
1.999999999999985
100
AcDbArc
 50
270.0
 51
0.0
  0
ARC
  5
26E
330
3DE
100
AcDbEntity
  8
DATA
  6
Continuous
 62
     7
100
AcDbCircle
 10
21.68199416546975
 20
46.0
 30
0.0
 40
2.0
100
AcDbArc
 50
90.0
 51
180.0
  0
ARC
  5
26F
330
3DE
100
AcDbEntity
  8
DATA
  6
Continuous
 62
     7
100
AcDbCircle
 10
19.68199416546976
 20
48.0
 30
0.0
 40
2.0
100
AcDbArc
 50
90.0
 51
180.0
  0
LINE
  5
270
330
3DE
100
AcDbEntity
  8
DATA
  6
Continuous
 62
     7
100
AcDbLine
 10
-79.76278160615978
 20
50.0
 30
0.0
 11
-69.26278160615978
 21
50.0
 31
0.0
  0
ARC
  5
271
330
3DE
100
AcDbEntity
  8
DATA
  6
Continuous
 62
     7
100
AcDbCircle
 10
-69.26278160615978
 20
48.0
 30
0.0
 40
2.0
100
AcDbArc
 50
0.0
 51
90.0
  0
LINE
  5
272
330
3DE
100
AcDbEntity
  8
DATA
  6
Continuous
 62
     7
100
AcDbLine
 10
-67.26278160615978
 20
48.0
 30
0.0
 11
-67.26278160615978
 21
50.0
 31
0.0
  0
LINE
  5
273
330
3DE
100
AcDbEntity
  8
DATA
  6
Continuous
 62
     7
100
AcDbLine
 10
17.68199416546977
 20
48.0
 30
0.0
 11
17.68199416546977
 21
50.0
 31
0.0
  0
LINE
  5
274
330
3DE
100
AcDbEntity
  8
DATA
  6
Continuous
 62
     7
100
AcDbLine
 10
-67.12551401337965
 20
50.0
 30
0.0
 11
17.87448598662033
 21
50.0
 31
0.0
  0
LINE
  5
275
330
3DE
100
AcDbEntity
  8
DATA
  6
Continuous
 62
     7
100
AcDbLine
 10
8.626432013369921
 20
-155.8984783140013
 30
0.0
 11
8.626432013369921
 21
-169.1984783140012
 31
0.0
  0
LINE
  5
276
330
3DE
100
AcDbEntity
  8
DATA
  6
Continuous
 62
     7
100
AcDbLine
 10
-7.073567986630109
 20
-155.8984783140013
 30
0.0
 11
-7.073567986630109
 21
-169.1984783140012
 31
0.0
  0
LINE
  5
277
330
3DE
100
AcDbEntity
  8
DATA
  6
Continuous
 62
     7
100
AcDbLine
 10
-7.073567986630109
 20
-169.1984783140012
 30
0.0
 11
8.626432013369921
 21
-169.1984783140012
 31
0.0
  0
LINE
  5
278
330
3DE
100
AcDbEntity
  8
DATA
  6
Continuous
 62
     7
100
AcDbLine
 10
-7.073567986630109
 20
-155.8984783140013
 30
0.0
 11
8.626432013369921
 21
-155.8984783140013
 31
0.0
  0
LINE
  5
279
330
3DE
100
AcDbEntity
  8
DATA
  6
Continuous
 62
     7
100
AcDbLine
 10
-5.373567986630064
 20
-158.8984783140013
 30
0.0
 11
6.926432013369876
 21
-158.8984783140013
 31
0.0
  0
LINE
  5
27A
330
3DE
100
AcDbEntity
  8
DATA
  6
Continuous
 62
     7
100
AcDbLine
 10
-5.373567986630064
 20
-158.8984783140013
 30
0.0
 11
-5.373567986630064
 21
-166.1984783140012
 31
0.0
  0
LINE
  5
27B
330
3DE
100
AcDbEntity
  8
DATA
  6
Continuous
 62
     7
100
AcDbLine
 10
6.926432013369876
 20
-158.8984783140013
 30
0.0
 11
6.926432013369876
 21
-166.1984783140012
 31
0.0
  0
LINE
  5
27C
330
3DE
100
AcDbEntity
  8
DATA
  6
Continuous
 62
     7
100
AcDbLine
 10
-1.448567986630124
 20
-169.1984783140012
 30
0.0
 11
-1.448567986630124
 21
-167.6984783140012
 31
0.0
  0
LINE
  5
27D
330
3DE
100
AcDbEntity
  8
DATA
  6
Continuous
 62
     7
100
AcDbLine
 10
3.001432013369921
 20
-167.6984783140012
 30
0.0
 11
3.001432013369921
 21
-169.1984783140012
 31
0.0
  0
LINE
  5
27E
330
3DE
100
AcDbEntity
  8
DATA
  6
Continuous
 62
     7
100
AcDbLine
 10
-2.573567986630123
 20
-167.6984783140012
 30
0.0
 11
-1.448567986630124
 21
-167.6984783140012
 31
0.0
  0
LINE
  5
27F
330
3DE
100
AcDbEntity
  8
DATA
  6
Continuous
 62
     7
100
AcDbLine
 10
3.001432013369921
 20
-167.6984783140012
 30
0.0
 11
4.126432013369921
 21
-167.6984783140012
 31
0.0
  0
LINE
  5
280
330
3DE
100
AcDbEntity
  8
DATA
  6
Continuous
 62
     7
100
AcDbLine
 10
-5.373567986630064
 20
-166.1984783140012
 30
0.0
 11
-2.573567986630123
 21
-166.1984783140012
 31
0.0
  0
LINE
  5
281
330
3DE
100
AcDbEntity
  8
DATA
  6
Continuous
 62
     7
100
AcDbLine
 10
4.126432013369921
 20
-166.1984783140012
 30
0.0
 11
6.926432013369876
 21
-166.1984783140012
 31
0.0
  0
LINE
  5
282
330
3DE
100
AcDbEntity
  8
DATA
  6
Continuous
 62
     7
100
AcDbLine
 10
-2.573567986630123
 20
-167.6984783140012
 30
0.0
 11
-2.573567986630123
 21
-166.1984783140012
 31
0.0
  0
LINE
  5
283
330
3DE
100
AcDbEntity
  8
DATA
  6
Continuous
 62
     7
100
AcDbLine
 10
4.126432013369921
 20
-166.1984783140012
 30
0.0
 11
4.126432013369921
 21
-167.6984783140012
 31
0.0
  0
TEXT
  5
284
330
3DE
100
AcDbEntity
  8
DATA
 62
     7
100
AcDbText
 10
3.601694891407549
 20
-66.90605851074744
 30
0.0
 40
5.700944010416665
  1
   4K Ultra HD R
 50
90.0
 41
0.7
 11
-2.099249119009115
 21
-66.90605851074744
 31
0.0
100
AcDbText
 73
     3
  0
TEXT
  5
285
330
3DE
100
AcDbEntity
  8
DATA
 62
     7
100
AcDbText
 10
10.30447266918532
 20
-66.90605851074744
 30
0.0
 40
5.700944010416665
  1
ELR-POL Extender
 50
90.0
 41
0.7
 11
4.603528658768652
 21
-66.90605851074744
 31
0.0
100
AcDbText
 73
     3
  0
TEXT
  5
286
330
3DE
100
AcDbEntity
  8
DATA
 62
     7
100
AcDbText
 10
17.0072504469631
 20
-66.90605851074744
 30
0.0
 40
5.700944010416665
  1
w/RS-232 and 2-way IR 
 50
90.0
 41
0.7
 11
11.30630643654643
 21
-66.90605851074744
 31
0.0
100
AcDbText
 73
     3
  0
LINE
  5
287
330
3DE
100
AcDbEntity
  8
DATA
  6
Continuous
 62
     7
100
AcDbLine
 10
111.3647280703053
 20
-75.0
 30
0.0
 11
111.3647280703053
 21
5.0
 31
0.0
  0
CIRCLE
  5
288
330
3DE
100
AcDbEntity
  8
DATA
  6
Continuous
 62
     7
100
AcDbCircle
 10
106.3647280703053
 20
-12.60016871329046
 30
0.0
 40
2.499999999999992
  0
LINE
  5
289
330
3DE
100
AcDbEntity
  8
DATA
  6
Continuous
 62
     7
100
AcDbLine
 10
104.9828091146498
 20
-12.60016871329046
 30
0.0
 11
107.7466470259608
 21
-12.60016871329046
 31
0.0
  0
LINE
  5
28A
330
3DE
100
AcDbEntity
  8
DATA
  6
Continuous
 62
     7
100
AcDbLine
 10
106.3647280703053
 20
-13.98208766894595
 30
0.0
 11
106.3647280703053
 21
-11.21824975763496
 31
0.0
  0
LINE
  5
28B
330
3DE
100
AcDbEntity
  8
DATA
  6
Continuous
 62
     7
100
AcDbLine
 10
97.98504327576736
 20
-80.0
 30
0.0
 11
105.8350432757673
 21
-80.0
 31
0.0
  0
LINE
  5
28C
330
3DE
100
AcDbEntity
  8
DATA
  6
Continuous
 62
     7
100
AcDbLine
 10
99.2100432757674
 20
-75.0
 30
0.0
 11
99.2100432757674
 21
-79.5
 31
0.0
  0
LINE
  5
28D
330
3DE
100
AcDbEntity
  8
DATA
  6
Continuous
 62
     7
100
AcDbLine
 10
104.6100432757673
 20
-75.0
 30
0.0
 11
104.6100432757673
 21
-79.5
 31
0.0
  0
LINE
  5
28E
330
3DE
100
AcDbEntity
  8
DATA
  6
Continuous
 62
     7
100
AcDbLine
 10
99.2100432757674
 20
-79.5
 30
0.0
 11
104.6100432757673
 21
-79.5
 31
0.0
  0
LINE
  5
28F
330
3DE
100
AcDbEntity
  8
DATA
  6
Continuous
 62
     7
100
AcDbLine
 10
97.98504327576736
 20
-75.0
 30
0.0
 11
97.98504327576736
 21
-80.0
 31
0.0
  0
LINE
  5
290
330
3DE
100
AcDbEntity
  8
DATA
  6
Continuous
 62
     7
100
AcDbLine
 10
105.8350432757673
 20
-75.0
 30
0.0
 11
105.8350432757673
 21
-80.0
 31
0.0
  0
TEXT
  5
291
330
3DE
100
AcDbEntity
  8
DATA
 62
     7
100
AcDbText
 10
75.0
 20
-134.1016666666666
 30
0.0
 40
8.144205729166666
  1
GTB-UHD2IRS-ELRPOL-BLK
 41
0.7
 11
75.0
 21
-125.9574609375
 31
0.0
100
AcDbText
 73
     3
  0
TEXT
  5
292
330
3DE
100
AcDbEntity
  8
DATA
 62
     7
100
AcDbText
 10
75.0
 20
-144.6849999999999
 30
0.0
 40
8.144205729166666
  1
(受信機）
 41
0.7
 11
75.0
 21
-136.5407942708333
 31
0.0
100
AcDbText
 73
     3
  0
LINE
  5
293
330
3DE
100
AcDbEntity
  8
DATA
  6
Continuous
 62
     7
100
AcDbLine
 10
279.8379101289428
 20
-75.0
 30
0.0
 11
279.8379101289428
 21
5.0
 31
0.0
  0
LINE
  5
294
330
3DE
100
AcDbEntity
  8
DATA
  6
Continuous
 62
     7
100
AcDbLine
 10
170.0
 20
-75.0
 30
0.0
 11
280.0
 21
-75.0
 31
0.0
  0
LINE
  5
295
330
3DE
100
AcDbEntity
  8
DATA
  6
Continuous
 62
     7
100
AcDbLine
 10
169.7921718972928
 20
5.012125535026598
 30
0.0
 11
169.7921718972928
 21
-74.9878744649734
 31
0.0
  0
LINE
  5
296
330
3DE
100
AcDbEntity
  8
DATA
  6
Continuous
 62
     7
100
AcDbLine
 10
279.8379101289428
 20
5.012125535026598
 30
0.0
 11
169.8379101289428
 21
5.012125535026598
 31
0.0
  0
LINE
  5
297
330
3DE
100
AcDbEntity
  8
DATA
  6
Continuous
 62
     7
100
AcDbLine
 10
269.3379101289428
 20
-75.0
 30
0.0
 11
269.3379101289428
 21
5.0
 31
0.0
  0
LINE
  5
298
330
3DE
100
AcDbEntity
  8
DATA
  6
Continuous
 62
     7
100
AcDbLine
 10
180.2921718972928
 20
-75.0
 30
0.0
 11
180.2921718972928
 21
5.0
 31
0.0
  0
CIRCLE
  5
299
330
3DE
100
AcDbEntity
  8
DATA
  6
Continuous
 62
     7
100
AcDbCircle
 10
190.7921718972927
 20
-2.998194895015814
 30
0.0
 40
3.650000000000019
  0
CIRCLE
  5
29A
330
3DE
100
AcDbEntity
  8
DATA
  6
Continuous
 62
     7
100
AcDbCircle
 10
258.8379101289429
 20
-2.998194895015814
 30
0.0
 40
3.649999999999976
  0
CIRCLE
  5
29B
330
3DE
100
AcDbEntity
  8
DATA
  6
Continuous
 62
     7
100
AcDbCircle
 10
190.7921718972927
 20
-66.98967956995756
 30
0.0
 40
3.650000000000019
  0
CIRCLE
  5
29C
330
3DE
100
AcDbEntity
  8
DATA
  6
Continuous
 62
     7
100
AcDbCircle
 10
258.8379101289429
 20
-66.98967956995756
 30
0.0
 40
3.649999999999976
  0
LWPOLYLINE
  5
29D
330
3DE
100
AcDbEntity
  8
DATA
  6
Continuous
 62
     7
100
AcDbPolyline
 90
        4
 70
     1
 43
0.0
 10
287.5
 20
-95.50000000000034
 10
312.5
 20
-95.50000000000034
 10
312.5
 20
-137.5
 10
287.5
 20
-137.5
  0
LINE
  5
2A4
330
3DE
100
AcDbEntity
  8
DATA
  6
Continuous
 62
     7
100
AcDbLine
 10
304.9000000000001
 20
-116.5000000000001
 30
0.0
 11
304.9000000000001
 21
-125.5000000000001
 31
0.0
  0
LINE
  5
2A5
330
3DE
100
AcDbEntity
  8
DATA
  6
Continuous
 62
     7
100
AcDbLine
 10
295.9000000000001
 20
-125.5000000000001
 30
0.0
 11
295.9000000000001
 21
-116.5000000000001
 31
0.0
  0
LINE
  5
2A6
330
3DE
100
AcDbEntity
  8
DATA
  6
Continuous
 62
     7
100
AcDbLine
 10
304.9000000000001
 20
-125.5000000000001
 30
0.0
 11
295.9000000000001
 21
-125.5000000000001
 31
0.0
  0
LINE
  5
2A7
330
3DE
100
AcDbEntity
  8
DATA
  6
Continuous
 62
     7
100
AcDbLine
 10
304.9000000000001
 20
-107.5000000000002
 30
0.0
 11
304.9000000000001
 21
-116.5000000000001
 31
0.0
  0
LINE
  5
2A8
330
3DE
100
AcDbEntity
  8
DATA
  6
Continuous
 62
     7
100
AcDbLine
 10
295.9000000000001
 20
-107.5000000000002
 30
0.0
 11
304.9000000000001
 21
-107.5000000000002
 31
0.0
  0
LINE
  5
2A9
330
3DE
100
AcDbEntity
  8
DATA
  6
Continuous
 62
     7
100
AcDbLine
 10
295.9000000000001
 20
-116.5000000000001
 30
0.0
 11
295.9000000000001
 21
-107.5000000000002
 31
0.0
  0
LINE
  5
2AA
330
3DE
100
AcDbEntity
  8
DATA
  6
Continuous
 62
     7
100
AcDbLine
 10
304.9000000000001
 20
-117.4744448416017
 30
0.0
 11
295.9000000000001
 21
-117.4744448416017
 31
0.0
  0
TEXT
  5
2AB
330
3DE
100
AcDbEntity
  8
DATA
 62
     7
100
AcDbText
 10
298.254541118389
 20
-133.5822822333643
 30
0.0
 40
5.863828125
  1
1
 41
0.7
 11
298.254541118389
 21
-127.7184541083643
 31
0.0
100
AcDbText
 73
     3
  0
TEXT
  5
2AC
330
3DE
100
AcDbEntity
  8
DATA
 62
     7
100
AcDbText
 10
296.3824091391268
 20
-104.7170335038694
 30
0.0
 40
5.863828125
  1
ON
 41
0.7
 11
296.3824091391268
 21
-98.85320537886947
 31
0.0
100
AcDbText
 73
     3
  0
TEXT
  5
2AD
330
3DE
100
AcDbEntity
  8
DATA
 62
     7
100
AcDbText
 10
276.8161610243055
 20
-154.0721028645833
 30
0.0
 40
8.144205729166666
  1
スイッチ拡大図
 41
0.7
 72
     1
 11
300.0
 21
-150.0
 31
0.0
100
AcDbText
 73
     2
  0
LINE
  5
2AE
330
3DE
100
AcDbEntity
  8
DATA
  6
Continuous
 62
     7
100
AcDbLine
 10
343.75
 20
-162.5
 30
0.0
 11
256.25
 21
-162.5
 31
0.0
  0
LINE
  5
2AF
330
3DE
100
AcDbEntity
  8
DATA
  6
Continuous
 62
     7
100
AcDbLine
 10
204.7152355928568
 20
-150.0
 30
0.0
 11
70.28476440714327
 21
-150.0
 31
0.0
  0
LINE
  5
2B0
330
3DE
100
AcDbEntity
  8
DATA
  6
Continuous
 62
     7
100
AcDbLine
 10
-38.73668618014485
 20
-75.99999999999981
 30
0.0
 11
-38.73668618014485
 21
-80.49999999999981
 31
0.0
  0
LINE
  5
2B1
330
3DE
100
AcDbEntity
  8
DATA
  6
Continuous
 62
     7
100
AcDbLine
 10
-36.14231880598437
 20
-76.13654565127155
 30
0.0
 11
-36.14231880598437
 21
-80.63654565127155
 31
0.0
  0
LINE
  5
2B2
330
3DE
100
AcDbEntity
  8
DATA
  6
Continuous
 62
     7
100
AcDbLine
 10
-13.37247620992622
 20
-76.00000000000007
 30
0.0
 11
-13.37247620992622
 21
-80.50000000000007
 31
0.0
  0
LINE
  5
2B3
330
3DE
100
AcDbEntity
  8
DATA
  6
Continuous
 62
     7
100
AcDbLine
 10
-10.77810883576615
 20
-76.00000000000021
 30
0.0
 11
-10.77810883576615
 21
-80.50000000000022
 31
0.0
  0
CIRCLE
  5
2B4
330
3DE
100
AcDbEntity
  8
DATA
  6
Continuous
 62
     7
100
AcDbCircle
 10
-12.25350117898023
 20
-163.7446949504351
 30
0.0
 40
1.175000000000125
  0
LWPOLYLINE
  5
2B5
330
3DE
100
AcDbEntity
  8
DATA
  6
Continuous
 62
     7
100
AcDbPolyline
 90
        6
 70
     1
 43
0.0
 10
-12.25350117898023
 20
-161.0446949504352
 10
-14.59176976919818
 20
-162.3946949504351
 10
-14.59176976919818
 20
-165.094694950435
 10
-12.25350117898023
 20
-166.444694950435
 10
-9.915232588762135
 20
-165.094694950435
 10
-9.915232588762135
 20
-162.3946949504351
  0
CIRCLE
  5
2BE
330
3DE
100
AcDbEntity
  8
DATA
  6
Continuous
 62
     7
100
AcDbCircle
 10
-37.25350117897843
 20
-163.7446949504351
 30
0.0
 40
1.174999999999954
  0
LWPOLYLINE
  5
2BF
330
3DE
100
AcDbEntity
  8
DATA
  6
Continuous
 62
     7
100
AcDbPolyline
 90
        6
 70
     1
 43
0.0
 10
-37.25350117897843
 20
-161.0446949504352
 10
-39.59176976919606
 20
-162.3946949504351
 10
-39.59176976919606
 20
-165.094694950435
 10
-37.25350117897843
 20
-166.444694950435
 10
-34.91523258876062
 20
-165.094694950435
 10
-34.91523258876062
 20
-162.3946949504351
  0
LINE
  5
2C8
330
3DE
100
AcDbEntity
  8
DATA
  6
Continuous
 62
     7
100
AcDbLine
 10
-19.15173796879139
 20
-167.744694950435
 30
0.0
 11
-30.35526438916777
 21
-167.744694950435
 31
0.0
  0
LINE
  5
2C9
330
3DE
100
AcDbEntity
  8
DATA
  6
Continuous
 62
     7
100
AcDbLine
 10
-31.1677643891676
 20
-159.7446949504351
 30
0.0
 11
-18.33923796879145
 21
-159.7446949504351
 31
0.0
  0
LINE
  5
2CA
330
3DE
100
AcDbEntity
  8
DATA
  6
Continuous
 62
     7
100
AcDbLine
 10
-31.73848123641922
 20
-166.560822582818
 30
0.0
 11
-32.55098123641899
 21
-161.3608225828182
 31
0.0
  0
LINE
  5
2CB
330
3DE
100
AcDbEntity
  8
DATA
  6
Continuous
 62
     7
100
AcDbLine
 10
-16.95602112154
 20
-161.3608225828182
 30
0.0
 11
-17.76852112153995
 21
-166.560822582818
 31
0.0
  0
CIRCLE
  5
2CC
330
3DE
100
AcDbEntity
  8
DATA
  6
Continuous
 62
     7
100
AcDbCircle
 10
-24.78013094945456
 20
-162.1083867792814
 30
0.0
 40
0.4999999999999716
  0
ARC
  5
2CD
330
3DE
100
AcDbEntity
  8
DATA
  6
Continuous
 62
     7
100
AcDbCircle
 10
-31.1677643891676
 20
-161.1446949504351
 30
0.0
 40
1.399999999999977
100
AcDbArc
 50
90.0
 51
188.8806591505216
  0
ARC
  5
2CE
330
3DE
100
AcDbEntity
  8
DATA
  6
Continuous
 62
     7
100
AcDbCircle
 10
-18.33923796879145
 20
-161.1446949504351
 30
0.0
 40
1.399999999999907
100
AcDbArc
 50
351.1193408494787
 51
90.0
  0
ARC
  5
2CF
330
3DE
100
AcDbEntity
  8
DATA
  6
Continuous
 62
     7
100
AcDbCircle
 10
-30.35526438916777
 20
-166.344694950435
 30
0.0
 40
1.399999999999907
100
AcDbArc
 50
188.8806591505213
 51
270.0
  0
ARC
  5
2D0
330
3DE
100
AcDbEntity
  8
DATA
  6
Continuous
 62
     7
100
AcDbCircle
 10
-19.15173796879139
 20
-166.344694950435
 30
0.0
 40
1.399999999999977
100
AcDbArc
 50
270.0
 51
351.1193408494787
  0
CIRCLE
  5
2D1
330
3DE
100
AcDbEntity
  8
DATA
  6
Continuous
 62
     7
100
AcDbCircle
 10
-27.28013094945439
 20
-162.1083867792814
 30
0.0
 40
0.4999999999999716
  0
CIRCLE
  5
2D2
330
3DE
100
AcDbEntity
  8
DATA
  6
Continuous
 62
     7
100
AcDbCircle
 10
-29.78013094945415
 20
-162.1083867792814
 30
0.0
 40
0.4999999999999433
  0
CIRCLE
  5
2D3
330
3DE
100
AcDbEntity
  8
DATA
  6
Continuous
 62
     7
100
AcDbCircle
 10
-22.28013094945473
 20
-162.1083867792814
 30
0.0
 40
0.4999999999999716
  0
CIRCLE
  5
2D4
330
3DE
100
AcDbEntity
  8
DATA
  6
Continuous
 62
     7
100
AcDbCircle
 10
-19.7801309494549
 20
-162.1083867792814
 30
0.0
 40
0.4999999999999716
  0
CIRCLE
  5
2D5
330
3DE
100
AcDbEntity
  8
DATA
  6
Continuous
 62
     7
100
AcDbCircle
 10
-25.97564212552573
 20
-165.7269071980441
 30
0.0
 40
0.4999999999999716
  0
CIRCLE
  5
2D6
330
3DE
100
AcDbEntity
  8
DATA
  6
Continuous
 62
     7
100
AcDbCircle
 10
-28.47564212552557
 20
-165.7269071980441
 30
0.0
 40
0.4999999999999858
  0
CIRCLE
  5
2D7
330
3DE
100
AcDbEntity
  8
DATA
  6
Continuous
 62
     7
100
AcDbCircle
 10
-23.47564212552589
 20
-165.7269071980441
 30
0.0
 40
0.4999999999999716
  0
CIRCLE
  5
2D8
330
3DE
100
AcDbEntity
  8
DATA
  6
Continuous
 62
     7
100
AcDbCircle
 10
-20.97564212552606
 20
-165.7269071980441
 30
0.0
 40
0.4999999999999716
  0
CIRCLE
  5
2D9
330
3DE
100
AcDbEntity
  8
DATA
  6
Continuous
 62
     7
100
AcDbCircle
 10
-48.51278160615978
 20
41.0695301505092
 30
0.0
 40
2.300000000000011
  0
LINE
  5
2DA
330
3DE
100
AcDbEntity
  8
DATA
  6
Continuous
 62
     7
100
AcDbLine
 10
-27.543305210668
 20
33.25382570855174
 30
0.0
 11
-25.50206375834864
 21
35.29506716087104
 31
0.0
  0
LINE
  5
2DB
330
3DE
100
AcDbEntity
  8
DATA
  6
Continuous
 62
     7
100
AcDbLine
 10
-26.79615898386124
 20
30.46543802942569
 30
0.0
 11
-27.543305210668
 21
33.25382570855174
 31
0.0
  0
LINE
  5
2DC
330
3DE
100
AcDbEntity
  8
DATA
  6
Continuous
 62
     7
100
AcDbLine
 10
-24.00777130473523
 20
29.71829180261897
 30
0.0
 11
-26.79615898386124
 21
30.46543802942569
 31
0.0
  0
LINE
  5
2DD
330
3DE
100
AcDbEntity
  8
DATA
  6
Continuous
 62
     7
100
AcDbLine
 10
-21.96652985241611
 20
31.75953325493833
 30
0.0
 11
-24.00777130473523
 21
29.71829180261897
 31
0.0
  0
LINE
  5
2DE
330
3DE
100
AcDbEntity
  8
DATA
  6
Continuous
 62
     7
100
AcDbLine
 10
-22.71367607922269
 20
34.54792093406434
 30
0.0
 11
-21.96652985241611
 21
31.75953325493833
 31
0.0
  0
LINE
  5
2DF
330
3DE
100
AcDbEntity
  8
DATA
  6
Continuous
 62
     7
100
AcDbLine
 10
-25.50206375834864
 20
35.29506716087104
 30
0.0
 11
-22.71367607922269
 21
34.54792093406434
 31
0.0
  0
CIRCLE
  5
2E0
330
3DE
100
AcDbEntity
  8
DATA
  6
Continuous
 62
     7
100
AcDbCircle
 10
-24.75491753154193
 20
32.50667948174499
 30
0.0
 40
1.275000000000034
  0
LINE
  5
2E1
330
3DE
100
AcDbEntity
  8
DATA
  6
Continuous
 62
     7
100
AcDbLine
 10
-32.60491753154191
 20
39.5695301505092
 30
0.0
 11
-32.60491753154191
 21
43.86953015050937
 31
0.0
  0
LINE
  5
2E2
330
3DE
100
AcDbEntity
  8
DATA
  6
Continuous
 62
     7
100
AcDbLine
 10
-16.9049175315426
 20
39.5695301505092
 30
0.0
 11
-32.60491753154191
 21
39.5695301505092
 31
0.0
  0
LINE
  5
2E3
330
3DE
100
AcDbEntity
  8
DATA
  6
Continuous
 62
     7
100
AcDbLine
 10
-16.9049175315426
 20
43.86953015050937
 30
0.0
 11
-16.9049175315426
 21
39.5695301505092
 31
0.0
  0
LINE
  5
2E4
330
3DE
100
AcDbEntity
  8
DATA
  6
Continuous
 62
     7
100
AcDbLine
 10
-19.50491753154228
 20
45.56953015050942
 30
0.0
 11
-16.9049175315426
 21
43.86953015050937
 31
0.0
  0
LINE
  5
2E5
330
3DE
100
AcDbEntity
  8
DATA
  6
Continuous
 62
     7
100
AcDbLine
 10
-30.00491753154195
 20
45.56953015050942
 30
0.0
 11
-19.50491753154228
 21
45.56953015050942
 31
0.0
  0
LINE
  5
2E6
330
3DE
100
AcDbEntity
  8
DATA
  6
Continuous
 62
     7
100
AcDbLine
 10
-32.60491753154191
 20
43.86953015050937
 30
0.0
 11
-30.00491753154195
 21
45.56953015050942
 31
0.0
  0
LINE
  5
2E7
330
3DE
100
AcDbEntity
  8
DATA
  6
Continuous
 62
     7
100
AcDbLine
 10
-29.75491753154195
 20
42.3556933250021
 30
0.0
 11
-29.75491753154195
 21
41.8556933250021
 31
0.0
  0
LINE
  5
2E8
330
3DE
100
AcDbEntity
  8
DATA
  6
Continuous
 62
     7
100
AcDbLine
 10
-19.75491753154193
 20
42.3556933250021
 30
0.0
 11
-29.75491753154195
 21
42.3556933250021
 31
0.0
  0
LINE
  5
2E9
330
3DE
100
AcDbEntity
  8
DATA
  6
Continuous
 62
     7
100
AcDbLine
 10
-19.75491753154193
 20
41.8556933250021
 30
0.0
 11
-19.75491753154193
 21
42.3556933250021
 31
0.0
  0
LINE
  5
2EA
330
3DE
100
AcDbEntity
  8
DATA
  6
Continuous
 62
     7
100
AcDbLine
 10
-29.75491753154195
 20
41.8556933250021
 30
0.0
 11
-19.75491753154193
 21
41.8556933250021
 31
0.0
  0
CIRCLE
  5
2EB
330
3DE
100
AcDbEntity
  8
DATA
  6
Continuous
 62
     7
100
AcDbCircle
 10
-48.51278160616011
 20
41.06953015050888
 30
0.0
 40
3.5
  0
CIRCLE
  5
2EC
330
3DE
100
AcDbEntity
  8
DATA
  6
Continuous
 62
     7
100
AcDbCircle
 10
-10.13996317724797
 20
44.25327830856064
 30
0.0
 40
1.275000000000034
  0
LINE
  5
2ED
330
3DE
100
AcDbEntity
  8
DATA
  6
Continuous
 62
     7
100
AcDbLine
 10
-27.30366329728622
 20
4.958673074320643
 30
0.0
 11
-27.30366329728622
 21
9.458673074320614
 31
0.0
  0
LINE
  5
2EE
330
3DE
100
AcDbEntity
  8
DATA
  6
Continuous
 62
     7
100
AcDbLine
 10
-22.62712611685027
 20
4.958673074320643
 30
0.0
 11
-22.62712611685027
 21
9.458673074320614
 31
0.0
  0
LINE
  5
2EF
330
3DE
100
AcDbEntity
  8
DATA
  6
Continuous
 62
     7
100
AcDbLine
 10
-27.30366329728622
 20
9.458673074320614
 30
0.0
 11
-22.62712611685027
 21
9.458673074320614
 31
0.0
  0
LINE
  5
2F0
330
3DE
100
AcDbEntity
  8
DATA
  6
Continuous
 62
     7
100
AcDbLine
 10
-26.178336735063
 20
4.958673074320699
 30
0.0
 11
-26.178336735063
 21
9.458673074320701
 31
0.0
  0
LINE
  5
2F1
330
3DE
100
AcDbEntity
  8
DATA
  6
Continuous
 62
     7
100
AcDbLine
 10
-23.58396936090293
 20
4.958673074320871
 30
0.0
 11
-23.58396936090293
 21
9.458673074320842
 31
0.0
  0
CIRCLE
  5
2F2
330
3DE
100
AcDbEntity
  8
DATA
  6
Continuous
 62
     7
100
AcDbCircle
 10
-50.43452790508117
 20
-163.8211476808244
 30
0.0
 40
2.0
  0
CIRCLE
  5
2F3
330
3DE
100
AcDbEntity
  8
DATA
  6
Continuous
 62
     7
100
AcDbCircle
 10
-50.43452790508145
 20
-163.8211476808247
 30
0.0
 40
3.0
  0
LINE
  5
2F4
330
3DE
100
AcDbEntity
  8
DATA
  6
Continuous
 62
     7
100
AcDbLine
 10
91.66031918620932
 20
4.939836232137224
 30
0.0
 11
91.66031918620932
 21
9.439836232137224
 31
0.0
  0
LINE
  5
2F5
330
3DE
100
AcDbEntity
  8
DATA
  6
Continuous
 62
     7
100
AcDbLine
 10
96.33685636664532
 20
4.939836232137224
 30
0.0
 11
96.33685636664532
 21
9.439836232137224
 31
0.0
  0
LINE
  5
2F6
330
3DE
100
AcDbEntity
  8
DATA
  6
Continuous
 62
     7
100
AcDbLine
 10
91.66031918620932
 20
9.439836232137224
 30
0.0
 11
96.33685636664532
 21
9.439836232137224
 31
0.0
  0
LINE
  5
2F7
330
3DE
100
AcDbEntity
  8
DATA
  6
Continuous
 62
     7
100
AcDbLine
 10
92.78564574843256
 20
4.939836232137337
 30
0.0
 11
92.78564574843256
 21
9.439836232137309
 31
0.0
  0
LINE
  5
2F8
330
3DE
100
AcDbEntity
  8
DATA
  6
Continuous
 62
     7
100
AcDbLine
 10
95.38001312259265
 20
4.939836232137452
 30
0.0
 11
95.38001312259265
 21
9.439836232137453
 31
0.0
  0
CIRCLE
  5
2F9
330
3DE
100
AcDbEntity
  8
DATA
  6
Continuous
 62
     7
100
AcDbCircle
 10
106.3647280703053
 20
-58.22600233758796
 30
0.0
 40
2.499999999999992
  0
LINE
  5
2FA
330
3DE
100
AcDbEntity
  8
DATA
  6
Continuous
 62
     7
100
AcDbLine
 10
104.9828091146497
 20
-58.22600233758796
 30
0.0
 11
107.7466470259607
 21
-58.22600233758796
 31
0.0
  0
LINE
  5
2FB
330
3DE
100
AcDbEntity
  8
DATA
  6
Continuous
 62
     7
100
AcDbLine
 10
106.3647280703053
 20
-59.60792129324332
 30
0.0
 11
106.3647280703053
 21
-56.84408338193262
 31
0.0
  0
ARC
  5
2FC
330
3DE
100
AcDbEntity
  8
DATA
  6
Continuous
 62
     7
100
AcDbCircle
 10
174.9958423062993
 20
-7.562508281305327
 30
0.0
 40
1.999999999999928
100
AcDbArc
 50
0.0
 51
180.0
  0
ARC
  5
2FD
330
3DE
100
AcDbEntity
  8
DATA
  6
Continuous
 62
     7
100
AcDbCircle
 10
174.9958423062993
 20
-9.962508281305304
 30
0.0
 40
1.999999999999928
100
AcDbArc
 50
180.0
 51
0.0
  0
LINE
  5
2FE
330
3DE
100
AcDbEntity
  8
DATA
  6
Continuous
 62
     7
100
AcDbLine
 10
176.9958423062992
 20
-9.962508281305304
 30
0.0
 11
176.9958423062992
 21
-7.562508281305327
 31
0.0
  0
LINE
  5
2FF
330
3DE
100
AcDbEntity
  8
DATA
  6
Continuous
 62
     7
100
AcDbLine
 10
172.9958423062993
 20
-9.962508281305304
 30
0.0
 11
172.9958423062993
 21
-7.562508281305327
 31
0.0
  0
ARC
  5
300
330
3DE
100
AcDbEntity
  8
DATA
  6
Continuous
 62
     7
100
AcDbCircle
 10
174.9958423062993
 20
-62.04734544182696
 30
0.0
 40
1.999999999999928
100
AcDbArc
 50
180.0
 51
0.0
  0
ARC
  5
301
330
3DE
100
AcDbEntity
  8
DATA
  6
Continuous
 62
     7
100
AcDbCircle
 10
174.9958423062993
 20
-59.64734544182697
 30
0.0
 40
1.999999999999928
100
AcDbArc
 50
0.0
 51
180.0
  0
LINE
  5
302
330
3DE
100
AcDbEntity
  8
DATA
  6
Continuous
 62
     7
100
AcDbLine
 10
176.9958423062992
 20
-59.64734544182697
 30
0.0
 11
176.9958423062992
 21
-62.04734544182696
 31
0.0
  0
LINE
  5
303
330
3DE
100
AcDbEntity
  8
DATA
  6
Continuous
 62
     7
100
AcDbLine
 10
172.9958423062993
 20
-59.64734544182697
 30
0.0
 11
172.9958423062993
 21
-62.04734544182696
 31
0.0
  0
ARC
  5
304
330
3DE
100
AcDbEntity
  8
DATA
  6
Continuous
 62
     7
100
AcDbCircle
 10
174.9958423062993
 20
-33.45126507079502
 30
0.0
 40
1.999999999999928
100
AcDbArc
 50
0.0
 51
180.0
  0
ARC
  5
305
330
3DE
100
AcDbEntity
  8
DATA
  6
Continuous
 62
     7
100
AcDbCircle
 10
174.9958423062993
 20
-35.85126507079499
 30
0.0
 40
1.999999999999928
100
AcDbArc
 50
180.0
 51
0.0
  0
LINE
  5
306
330
3DE
100
AcDbEntity
  8
DATA
  6
Continuous
 62
     7
100
AcDbLine
 10
176.9958423062992
 20
-35.85126507079499
 30
0.0
 11
176.9958423062992
 21
-33.45126507079502
 31
0.0
  0
LINE
  5
307
330
3DE
100
AcDbEntity
  8
DATA
  6
Continuous
 62
     7
100
AcDbLine
 10
172.9958423062993
 20
-35.85126507079499
 30
0.0
 11
172.9958423062993
 21
-33.45126507079502
 31
0.0
  0
ARC
  5
308
330
3DE
100
AcDbEntity
  8
DATA
  6
Continuous
 62
     7
100
AcDbCircle
 10
274.7179610820832
 20
-7.562508281305668
 30
0.0
 40
2.0
100
AcDbArc
 50
0.0
 51
180.0
  0
ARC
  5
309
330
3DE
100
AcDbEntity
  8
DATA
  6
Continuous
 62
     7
100
AcDbCircle
 10
274.7179610820832
 20
-9.962508281305645
 30
0.0
 40
2.0
100
AcDbArc
 50
180.0
 51
0.0
  0
LINE
  5
30A
330
3DE
100
AcDbEntity
  8
DATA
  6
Continuous
 62
     7
100
AcDbLine
 10
276.7179610820832
 20
-9.962508281305645
 30
0.0
 11
276.7179610820832
 21
-7.562508281305668
 31
0.0
  0
LINE
  5
30B
330
3DE
100
AcDbEntity
  8
DATA
  6
Continuous
 62
     7
100
AcDbLine
 10
272.7179610820832
 20
-9.962508281305645
 30
0.0
 11
272.7179610820832
 21
-7.562508281305668
 31
0.0
  0
ARC
  5
30C
330
3DE
100
AcDbEntity
  8
DATA
  6
Continuous
 62
     7
100
AcDbCircle
 10
274.7179610820832
 20
-62.0473454418273
 30
0.0
 40
2.0
100
AcDbArc
 50
180.0
 51
0.0
  0
ARC
  5
30D
330
3DE
100
AcDbEntity
  8
DATA
  6
Continuous
 62
     7
100
AcDbCircle
 10
274.7179610820832
 20
-59.64734544182732
 30
0.0
 40
2.0
100
AcDbArc
 50
0.0
 51
180.0
  0
LINE
  5
30E
330
3DE
100
AcDbEntity
  8
DATA
  6
Continuous
 62
     7
100
AcDbLine
 10
276.7179610820832
 20
-59.64734544182732
 30
0.0
 11
276.7179610820832
 21
-62.0473454418273
 31
0.0
  0
LINE
  5
30F
330
3DE
100
AcDbEntity
  8
DATA
  6
Continuous
 62
     7
100
AcDbLine
 10
272.7179610820832
 20
-59.64734544182732
 30
0.0
 11
272.7179610820832
 21
-62.0473454418273
 31
0.0
  0
ARC
  5
310
330
3DE
100
AcDbEntity
  8
DATA
  6
Continuous
 62
     7
100
AcDbCircle
 10
274.7179610820832
 20
-33.45126507079536
 30
0.0
 40
2.0
100
AcDbArc
 50
0.0
 51
180.0
  0
ARC
  5
311
330
3DE
100
AcDbEntity
  8
DATA
  6
Continuous
 62
     7
100
AcDbCircle
 10
274.7179610820832
 20
-35.85126507079534
 30
0.0
 40
2.0
100
AcDbArc
 50
180.0
 51
0.0
  0
LINE
  5
312
330
3DE
100
AcDbEntity
  8
DATA
  6
Continuous
 62
     7
100
AcDbLine
 10
276.7179610820832
 20
-35.85126507079534
 30
0.0
 11
276.7179610820832
 21
-33.45126507079536
 31
0.0
  0
LINE
  5
313
330
3DE
100
AcDbEntity
  8
DATA
  6
Continuous
 62
     7
100
AcDbLine
 10
272.7179610820832
 20
-35.85126507079534
 30
0.0
 11
272.7179610820832
 21
-33.45126507079536
 31
0.0
  0
LWPOLYLINE
  5
314
330
3DE
100
AcDbEntity
  8
DATA
  6
Continuous
 62
     7
100
AcDbPolyline
 90
        4
 70
     1
 43
0.0
 10
241.6868103373592
 20
-37.36369665542103
 10
245.6868103373592
 20
-37.36369665542103
 10
245.6868103373592
 20
-44.36369665542103
 10
241.6868103373592
 20
-44.36369665542103
  0
LINE
  5
31B
330
3DE
100
AcDbEntity
  8
DATA
  6
Continuous
 62
     7
100
AcDbLine
 10
242.9623066557635
 20
-40.86369665542102
 30
0.0
 11
242.9623066557635
 21
-42.36369665542102
 31
0.0
  0
LINE
  5
31C
330
3DE
100
AcDbEntity
  8
DATA
  6
Continuous
 62
     7
100
AcDbLine
 10
244.4623066557635
 20
-42.36369665542102
 30
0.0
 11
244.4623066557635
 21
-40.86369665542102
 31
0.0
  0
LINE
  5
31D
330
3DE
100
AcDbEntity
  8
DATA
  6
Continuous
 62
     7
100
AcDbLine
 10
242.9623066557635
 20
-42.36369665542102
 30
0.0
 11
244.4623066557635
 21
-42.36369665542102
 31
0.0
  0
LINE
  5
31E
330
3DE
100
AcDbEntity
  8
DATA
  6
Continuous
 62
     7
100
AcDbLine
 10
242.9623066557635
 20
-39.36369665542102
 30
0.0
 11
242.9623066557635
 21
-40.86369665542102
 31
0.0
  0
LINE
  5
31F
330
3DE
100
AcDbEntity
  8
DATA
  6
Continuous
 62
     7
100
AcDbLine
 10
244.4623066557635
 20
-39.36369665542102
 30
0.0
 11
242.9623066557635
 21
-39.36369665542102
 31
0.0
  0
LINE
  5
320
330
3DE
100
AcDbEntity
  8
DATA
  6
Continuous
 62
     7
100
AcDbLine
 10
244.4623066557635
 20
-40.86369665542102
 30
0.0
 11
244.4623066557635
 21
-39.36369665542102
 31
0.0
  0
LINE
  5
321
330
3DE
100
AcDbEntity
  8
DATA
  6
Continuous
 62
     7
100
AcDbLine
 10
242.9623066557635
 20
-41.02610412902128
 30
0.0
 11
244.4623066557635
 21
-41.02610412902128
 31
0.0
  0
TEXT
  5
322
330
3DE
100
AcDbEntity
  8
DATA
 62
     7
100
AcDbText
 10
243.4348831107994
 20
-43.71074369431507
 30
0.0
 40
0.9773046875
  1
1
 41
0.7
 11
243.4348831107994
 21
-42.73343900681507
 31
0.0
100
AcDbText
 73
     3
  0
TEXT
  5
323
330
3DE
100
AcDbEntity
  8
DATA
 62
     7
100
AcDbText
 10
243.1119050821105
 20
-38.8998689060659
 30
0.0
 40
0.9773046875
  1
ON
 41
0.7
 11
243.1119050821105
 21
-37.9225642185659
 31
0.0
100
AcDbText
 73
     3
  0
LINE
  5
324
330
3DE
100
AcDbEntity
  8
DATA
  6
Continuous
 62
     7
100
AcDbLine
 10
217.2528176101658
 20
-80.00000000000005
 30
0.0
 11
232.8360686829228
 21
-80.00000000000005
 31
0.0
  0
LINE
  5
325
330
3DE
100
AcDbEntity
  8
DATA
  6
Continuous
 62
     7
100
AcDbLine
 10
209.9613121796531
 20
-75.00000000000004
 30
0.0
 11
209.9613121796531
 21
-79.50000000000004
 31
0.0
  0
LINE
  5
326
330
3DE
100
AcDbEntity
  8
DATA
  6
Continuous
 62
     7
100
AcDbLine
 10
214.6378493600892
 20
-75.00000000000004
 30
0.0
 11
214.6378493600892
 21
-79.50000000000004
 31
0.0
  0
LINE
  5
327
330
3DE
100
AcDbEntity
  8
DATA
  6
Continuous
 62
     7
100
AcDbLine
 10
235.3276571472356
 20
-75.00000000000004
 30
0.0
 11
235.3276571472356
 21
-79.50000000000004
 31
0.0
  0
LINE
  5
328
330
3DE
100
AcDbEntity
  8
DATA
  6
Continuous
 62
     7
100
AcDbLine
 10
240.0041943276716
 20
-75.00000000000004
 30
0.0
 11
240.0041943276716
 21
-79.50000000000004
 31
0.0
  0
LINE
  5
329
330
3DE
100
AcDbEntity
  8
DATA
  6
Continuous
 62
     7
100
AcDbLine
 10
217.3087562578174
 20
-75.00000000000004
 30
0.0
 11
217.3087562578174
 21
-80.00000000000005
 31
0.0
  0
LINE
  5
32A
330
3DE
100
AcDbEntity
  8
DATA
  6
Continuous
 62
     7
100
AcDbLine
 10
232.9311215969064
 20
-75.00000000000004
 30
0.0
 11
232.9311215969064
 21
-80.00000000000005
 31
0.0
  0
LINE
  5
32B
330
3DE
100
AcDbEntity
  8
DATA
  6
Continuous
 62
     7
100
AcDbLine
 10
209.9613121796531
 20
-79.50000000000004
 30
0.0
 11
214.6378493600892
 21
-79.50000000000004
 31
0.0
  0
LINE
  5
32C
330
3DE
100
AcDbEntity
  8
DATA
  6
Continuous
 62
     7
100
AcDbLine
 10
235.3276571472356
 20
-79.50000000000004
 30
0.0
 11
240.0041943276716
 21
-79.50000000000004
 31
0.0
  0
LINE
  5
32D
330
3DE
100
AcDbEntity
  8
DATA
  6
Continuous
 62
     7
100
AcDbLine
 10
211.0887737392402
 20
-74.99999999999987
 30
0.0
 11
211.0887737392402
 21
-79.49999999999987
 31
0.0
  0
LINE
  5
32E
330
3DE
100
AcDbEntity
  8
DATA
  6
Continuous
 62
     7
100
AcDbLine
 10
213.6831411134007
 20
-75.13654565127159
 30
0.0
 11
213.6831411134007
 21
-79.63654565127159
 31
0.0
  0
LINE
  5
32F
330
3DE
100
AcDbEntity
  8
DATA
  6
Continuous
 62
     7
100
AcDbLine
 10
236.4529837094589
 20
-75.00000000000014
 30
0.0
 11
236.4529837094589
 21
-79.50000000000014
 31
0.0
  0
LINE
  5
330
330
3DE
100
AcDbEntity
  8
DATA
  6
Continuous
 62
     7
100
AcDbLine
 10
239.0473510836189
 20
-75.0000000000003
 30
0.0
 11
239.0473510836189
 21
-79.5000000000003
 31
0.0
  0
LINE
  5
331
330
3DE
100
AcDbEntity
  8
DATA
  6
Continuous
 62
     7
100
AcDbLine
 10
222.5217966220989
 20
4.958673074320585
 30
0.0
 11
222.5217966220989
 21
9.458673074320556
 31
0.0
  0
LINE
  5
332
330
3DE
100
AcDbEntity
  8
DATA
  6
Continuous
 62
     7
100
AcDbLine
 10
227.1983338025348
 20
4.958673074320585
 30
0.0
 11
227.1983338025348
 21
9.458673074320556
 31
0.0
  0
LINE
  5
333
330
3DE
100
AcDbEntity
  8
DATA
  6
Continuous
 62
     7
100
AcDbLine
 10
222.5217966220989
 20
9.458673074320556
 30
0.0
 11
227.1983338025348
 21
9.458673074320556
 31
0.0
  0
LINE
  5
334
330
3DE
100
AcDbEntity
  8
DATA
  6
Continuous
 62
     7
100
AcDbLine
 10
223.6471231843221
 20
4.958673074320643
 30
0.0
 11
223.6471231843221
 21
9.458673074320643
 31
0.0
  0
LINE
  5
335
330
3DE
100
AcDbEntity
  8
DATA
  6
Continuous
 62
     7
100
AcDbLine
 10
226.2414905584822
 20
4.958673074320813
 30
0.0
 11
226.2414905584822
 21
9.458673074320783
 31
0.0
  0
LINE
  5
336
330
3DE
100
AcDbEntity
  8
DATA
  6
Continuous
 62
     7
100
AcDbLine
 10
-62.65119053426861
 20
124.0
 30
0.0
 11
-62.7121241155902
 21
125.0
 31
0.0
  0
LINE
  5
337
330
3DE
100
AcDbEntity
  8
DATA
  6
Continuous
 62
     7
100
AcDbLine
 10
12.59019236985229
 20
123.8994336691259
 30
0.0
 11
12.65725381787443
 21
125.0
 31
0.0
  0
LINE
  5
338
330
3DE
100
AcDbEntity
  8
DATA
  6
Continuous
 62
     7
100
AcDbLine
 10
5.400287731068473
 20
123.8994336691259
 30
0.0
 11
12.59019236985229
 21
123.8994336691259
 31
0.0
  0
LINE
  5
339
330
3DE
100
AcDbEntity
  8
DATA
  6
Continuous
 62
     7
100
AcDbLine
 10
5.400287731068473
 20
123.8994336691257
 30
0.0
 11
5.333226283046315
 21
125.0
 31
0.0
  0
LINE
  5
33A
330
3DE
100
AcDbEntity
  8
DATA
  6
Continuous
 62
     7
100
AcDbLine
 10
-55.60086719002228
 20
51.07217863627504
 30
0.0
 11
-55.53272225411179
 21
49.95383084787225
 31
0.0
  0
LINE
  5
33B
330
3DE
100
AcDbEntity
  8
DATA
  6
Continuous
 62
     7
100
AcDbLine
 10
-62.79077182880606
 20
51.07217863627504
 30
0.0
 11
-55.60086719002228
 21
51.07217863627504
 31
0.0
  0
LINE
  5
33C
330
3DE
100
AcDbEntity
  8
DATA
  6
Continuous
 62
     7
100
AcDbLine
 10
-62.79077182880606
 20
51.07217863627518
 30
0.0
 11
-62.85891676471654
 21
49.95383084787238
 31
0.0
  0
LINE
  5
33D
330
3DE
100
AcDbEntity
  8
DATA
  6
Continuous
 62
     7
100
AcDbLine
 10
12.45061107531482
 20
51.17274496714927
 30
0.0
 11
12.5187560112253
 21
50.05439717874648
 31
0.0
  0
LINE
  5
33E
330
3DE
100
AcDbEntity
  8
DATA
  6
Continuous
 62
     7
100
AcDbLine
 10
5.260706436531009
 20
51.17274496714927
 30
0.0
 11
12.45061107531482
 21
51.17274496714927
 31
0.0
  0
LINE
  5
33F
330
3DE
100
AcDbEntity
  8
DATA
  6
Continuous
 62
     7
100
AcDbLine
 10
5.260706436531009
 20
51.17274496714941
 30
0.0
 11
5.192561500620527
 21
50.05439717874661
 31
0.0
  0
LINE
  5
340
330
3DE
100
AcDbEntity
  8
DATA
  6
Continuous
 62
     7
100
AcDbLine
 10
-55.95438035149472
 20
350.9708374107262
 30
0.0
 11
-55.88623541558424
 21
349.8524896223234
 31
0.0
  0
LINE
  5
341
330
3DE
100
AcDbEntity
  8
DATA
  6
Continuous
 62
     7
100
AcDbLine
 10
-63.14428499027855
 20
350.9708374107262
 30
0.0
 11
-55.95438035149472
 21
350.9708374107262
 31
0.0
  0
LINE
  5
342
330
3DE
100
AcDbEntity
  8
DATA
  6
Continuous
 62
     7
100
AcDbLine
 10
-63.14428499027855
 20
350.9708374107264
 30
0.0
 11
-63.21242992618905
 21
349.8524896223236
 31
0.0
  0
LINE
  5
343
330
3DE
100
AcDbEntity
  8
DATA
  6
Continuous
 62
     7
100
AcDbLine
 10
12.09709791384234
 20
351.0714037416005
 30
0.0
 11
12.16524284975283
 21
349.9530559531977
 31
0.0
  0
LINE
  5
344
330
3DE
100
AcDbEntity
  8
DATA
  6
Continuous
 62
     7
100
AcDbLine
 10
4.907193275058531
 20
351.0714037416005
 30
0.0
 11
12.09709791384234
 21
351.0714037416005
 31
0.0
  0
LINE
  5
345
330
3DE
100
AcDbEntity
  8
DATA
  6
Continuous
 62
     7
100
AcDbLine
 10
4.907193275058531
 20
351.0714037416006
 30
0.0
 11
4.839048339148049
 21
349.9530559531978
 31
0.0
  0
LINE
  5
346
330
3DE
100
AcDbEntity
  8
DATA
  6
Continuous
 62
     7
100
AcDbLine
 10
-55.1691066906558
 20
-175.9999999999999
 30
0.0
 11
-55.1081731093342
 21
-175.0
 31
0.0
  0
LINE
  5
347
330
3DE
100
AcDbEntity
  8
DATA
  6
Continuous
 62
     7
100
AcDbLine
 10
-62.35901132943964
 20
-175.9999999999999
 30
0.0
 11
-55.1691066906558
 21
-175.9999999999999
 31
0.0
  0
LINE
  5
348
330
3DE
100
AcDbEntity
  8
DATA
  6
Continuous
 62
     7
100
AcDbLine
 10
-62.35901132943964
 20
-176.0
 30
0.0
 11
-62.41994491076122
 21
-175.0
 31
0.0
  0
LINE
  5
349
330
3DE
100
AcDbEntity
  8
DATA
  6
Continuous
 62
     7
100
AcDbLine
 10
12.88237157468136
 20
-176.100566330874
 30
0.0
 11
12.94943302270347
 21
-175.0
 31
0.0
  0
LINE
  5
34A
330
3DE
100
AcDbEntity
  8
DATA
  6
Continuous
 62
     7
100
AcDbLine
 10
5.692466935897542
 20
-176.100566330874
 30
0.0
 11
12.88237157468136
 21
-176.100566330874
 31
0.0
  0
LINE
  5
34B
330
3DE
100
AcDbEntity
  8
DATA
  6
Continuous
 62
     7
100
AcDbLine
 10
5.692466935897542
 20
-176.1005663308742
 30
0.0
 11
5.625405487875397
 21
-175.0
 31
0.0
  0
INSERT
  5
34C
330
3DE
100
AcDbEntity
  8
DATA
 62
     7
100
AcDbBlockReference
  2
____
 10
100.0
 20
140.0
 30
0.0
  0
LINE
  5
34D
330
3DE
100
AcDbEntity
  8
DATA
  6
Continuous
 62
     7
100
AcDbLine
 10
114.514161739431
 20
236.6661399357981
 30
0.0
 11
113.3958139510283
 21
236.7342848717087
 31
0.0
  0
LINE
  5
34E
330
3DE
100
AcDbEntity
  8
DATA
  6
Continuous
 62
     7
100
AcDbLine
 10
114.514161739431
 20
229.4762352970144
 30
0.0
 11
114.514161739431
 21
236.6661399357981
 31
0.0
  0
LINE
  5
34F
330
3DE
100
AcDbEntity
  8
DATA
  6
Continuous
 62
     7
100
AcDbLine
 10
114.5141617394311
 20
229.4762352970144
 30
0.0
 11
113.3958139510284
 21
229.4080903611039
 31
0.0
  0
LINE
  5
350
330
3DE
100
AcDbEntity
  8
DATA
  6
Continuous
 62
     7
100
AcDbLine
 10
114.6147280703053
 20
300.3672879093797
 30
0.0
 11
113.4963802819024
 21
300.4354328452901
 31
0.0
  0
LINE
  5
351
330
3DE
100
AcDbEntity
  8
DATA
  6
Continuous
 62
     7
100
AcDbLine
 10
114.6147280703053
 20
293.1773832705959
 30
0.0
 11
114.6147280703053
 21
300.3672879093797
 31
0.0
  0
LINE
  5
352
330
3DE
100
AcDbEntity
  8
DATA
  6
Continuous
 62
     7
100
AcDbLine
 10
114.6147280703053
 20
293.1773832705959
 30
0.0
 11
113.4963802819025
 21
293.1092383346854
 31
0.0
  0
ARC
  5
353
330
3DE
100
AcDbEntity
  8
DATA
  6
Continuous
 62
     7
100
AcDbCircle
 10
-75.28035935341451
 20
292.2047189580068
 30
0.0
 40
2.0
100
AcDbArc
 50
0.0
 51
180.0
  0
ARC
  5
354
330
3DE
100
AcDbEntity
  8
DATA
  6
Continuous
 62
     7
100
AcDbCircle
 10
-75.28035935341451
 20
289.8047189580069
 30
0.0
 40
2.0
100
AcDbArc
 50
180.0
 51
0.0
  0
LINE
  5
355
330
3DE
100
AcDbEntity
  8
DATA
  6
Continuous
 62
     7
100
AcDbLine
 10
-77.28035935341451
 20
289.8047189580069
 30
0.0
 11
-77.28035935341451
 21
292.2047189580068
 31
0.0
  0
LINE
  5
356
330
3DE
100
AcDbEntity
  8
DATA
  6
Continuous
 62
     7
100
AcDbLine
 10
-73.28035935341451
 20
289.8047189580069
 30
0.0
 11
-73.28035935341451
 21
292.2047189580068
 31
0.0
  0
ARC
  5
357
330
3DE
100
AcDbEntity
  8
DATA
  6
Continuous
 62
     7
100
AcDbCircle
 10
-75.28035935341451
 20
237.8047189580068
 30
0.0
 40
2.0
100
AcDbArc
 50
180.0
 51
0.0
  0
ARC
  5
358
330
3DE
100
AcDbEntity
  8
DATA
  6
Continuous
 62
     7
100
AcDbCircle
 10
-75.28035935341451
 20
240.2047189580068
 30
0.0
 40
2.0
100
AcDbArc
 50
0.0
 51
180.0
  0
LINE
  5
359
330
3DE
100
AcDbEntity
  8
DATA
  6
Continuous
 62
     7
100
AcDbLine
 10
-77.28035935341451
 20
240.2047189580068
 30
0.0
 11
-77.28035935341451
 21
237.8047189580068
 31
0.0
  0
LINE
  5
35A
330
3DE
100
AcDbEntity
  8
DATA
  6
Continuous
 62
     7
100
AcDbLine
 10
-73.28035935341451
 20
240.2047189580068
 30
0.0
 11
-73.28035935341451
 21
237.8047189580068
 31
0.0
  0
ARC
  5
35B
330
3DE
100
AcDbEntity
  8
DATA
  6
Continuous
 62
     7
100
AcDbCircle
 10
-75.28035935341451
 20
266.2
 30
0.0
 40
2.0
100
AcDbArc
 50
0.0
 51
180.0
  0
ARC
  5
35C
330
3DE
100
AcDbEntity
  8
DATA
  6
Continuous
 62
     7
100
AcDbCircle
 10
-75.28035935341451
 20
263.8
 30
0.0
 40
2.0
100
AcDbArc
 50
180.0
 51
0.0
  0
LINE
  5
35D
330
3DE
100
AcDbEntity
  8
DATA
  6
Continuous
 62
     7
100
AcDbLine
 10
-77.28035935341451
 20
263.8
 30
0.0
 11
-77.28035935341451
 21
266.2
 31
0.0
  0
LINE
  5
35E
330
3DE
100
AcDbEntity
  8
DATA
  6
Continuous
 62
     7
100
AcDbLine
 10
-73.28035935341451
 20
263.8
 30
0.0
 11
-73.28035935341451
 21
266.2
 31
0.0
  0
ARC
  5
35F
330
3DE
100
AcDbEntity
  8
DATA
  6
Continuous
 62
     7
100
AcDbCircle
 10
24.71964064658549
 20
292.5120425395488
 30
0.0
 40
1.999999999999971
100
AcDbArc
 50
0.0
 51
180.0
  0
ARC
  5
360
330
3DE
100
AcDbEntity
  8
DATA
  6
Continuous
 62
     7
100
AcDbCircle
 10
24.71964064658549
 20
290.112042539549
 30
0.0
 40
1.999999999999985
100
AcDbArc
 50
180.0
 51
0.0
  0
LINE
  5
361
330
3DE
100
AcDbEntity
  8
DATA
  6
Continuous
 62
     7
100
AcDbLine
 10
26.71964064658546
 20
290.112042539549
 30
0.0
 11
26.71964064658546
 21
292.5120425395488
 31
0.0
  0
LINE
  5
362
330
3DE
100
AcDbEntity
  8
DATA
  6
Continuous
 62
     7
100
AcDbLine
 10
22.71964064658551
 20
290.112042539549
 30
0.0
 11
22.71964064658551
 21
292.5120425395488
 31
0.0
  0
ARC
  5
363
330
3DE
100
AcDbEntity
  8
DATA
  6
Continuous
 62
     7
100
AcDbCircle
 10
24.71964064658549
 20
237.8047189580068
 30
0.0
 40
1.999999999999985
100
AcDbArc
 50
180.0
 51
0.0
  0
ARC
  5
364
330
3DE
100
AcDbEntity
  8
DATA
  6
Continuous
 62
     7
100
AcDbCircle
 10
24.71964064658549
 20
240.2047189580068
 30
0.0
 40
1.999999999999971
100
AcDbArc
 50
0.0
 51
180.0
  0
LINE
  5
365
330
3DE
100
AcDbEntity
  8
DATA
  6
Continuous
 62
     7
100
AcDbLine
 10
26.71964064658546
 20
240.2047189580068
 30
0.0
 11
26.71964064658546
 21
237.8047189580068
 31
0.0
  0
LINE
  5
366
330
3DE
100
AcDbEntity
  8
DATA
  6
Continuous
 62
     7
100
AcDbLine
 10
22.71964064658551
 20
240.2047189580068
 30
0.0
 11
22.71964064658551
 21
237.8047189580068
 31
0.0
  0
ARC
  5
367
330
3DE
100
AcDbEntity
  8
DATA
  6
Continuous
 62
     7
100
AcDbCircle
 10
24.71964064658549
 20
266.2
 30
0.0
 40
1.999999999999971
100
AcDbArc
 50
0.0
 51
180.0
  0
ARC
  5
368
330
3DE
100
AcDbEntity
  8
DATA
  6
Continuous
 62
     7
100
AcDbCircle
 10
24.71964064658549
 20
263.8
 30
0.0
 40
1.999999999999985
100
AcDbArc
 50
180.0
 51
0.0
  0
LINE
  5
369
330
3DE
100
AcDbEntity
  8
DATA
  6
Continuous
 62
     7
100
AcDbLine
 10
26.71964064658546
 20
263.8
 30
0.0
 11
26.71964064658546
 21
266.2
 31
0.0
  0
LINE
  5
36A
330
3DE
100
AcDbEntity
  8
DATA
  6
Continuous
 62
     7
100
AcDbLine
 10
22.71964064658551
 20
263.8
 30
0.0
 11
22.71964064658551
 21
266.2
 31
0.0
  0
DIMENSION
  5
36B
330
3DE
100
AcDbEntity
  8
DATA
  6
Continuous
 62
     7
100
AcDbDimension
  2
*D2
 10
23.98748072218001
 20
290.6508757428595
 30
0.0
 11
43.50000000000007
 21
325.0
 31
0.0
 70
     3
 71
     5
 42
-1.0
  3
HIBINO
100
AcDbDiametricDimension
 15
25.45180057099099
 25
294.3732093362381
 35
0.0
 40
32.91138732783936
  0
DIMENSION
  5
36C
330
3DE
100
AcDbEntity
  8
DATA
  6
Continuous
 62
     7
100
AcDbDimension
  2
*D3
 10
24.28181002257736
 20
-9.354559495253425
 30
0.0
 11
43.50000000000009
 21
24.99999999999997
 31
0.0
 70
     3
 71
     5
 42
-1.0
  3
HIBINO
100
AcDbDiametricDimension
 15
25.71818997742261
 25
-5.621355425648857
 35
0.0
 40
32.80973111002313
  0
LINE
  5
36D
330
3DE
100
AcDbEntity
  8
DATA
  6
Continuous
 62
     7
100
AcDbLine
 10
204.7152355928568
 20
112.5
 30
0.0
 11
70.28476440714327
 21
112.5
 31
0.0
  0
ENDSEC
  0
SECTION
  2
OBJECTS
  0
DICTIONARY
  5
37B
330
0
100
AcDbDictionary
281
     1
  3
ACAD_CIP_PREVIOUS_PRODUCT_INFO
350
3FC
  3
ACAD_COLOR
350
3D1
  3
ACAD_DETAILVIEWSTYLE
350
3D8
  3
ACAD_GROUP
350
37C
  3
ACAD_LAYOUT
350
3D0
  3
ACAD_MATERIAL
350
37F
  3
ACAD_MLEADERSTYLE
350
3D4
  3
ACAD_MLINESTYLE
350
3CD
  3
ACAD_PLOTSETTINGS
350
3CF
  3
ACAD_PLOTSTYLENAME
350
37D
  3
ACAD_SCALELIST
350
3B1
  3
ACAD_SECTIONVIEWSTYLE
350
3D6
  3
ACAD_TABLESTYLE
350
3D2
  3
ACAD_VISUALSTYLE
350
398
  3
ACDB_RECOMPOSE_DATA
350
414
  3
AcDbVariableDictionary
350
407
  3
DWGPROPS
350
415
  0
DICTIONARY
  5
3FD
330
3C3
100
AcDbDictionary
280
     1
281
     1
  3
ADSK_XREC_LAYER_RECONCILED
360
3FE
  0
DICTIONARY
  5
3FF
330
3E2
100
AcDbDictionary
280
     1
281
     1
  3
ADSK_XREC_LAYER_RECONCILED
360
400
  0
DICTIONARY
  5
401
330
3EE
100
AcDbDictionary
280
     1
281
     1
  3
ADSK_XREC_LAYER_RECONCILED
360
402
  0
DICTIONARY
  5
403
330
3EF
100
AcDbDictionary
280
     1
281
     1
  3
ADSK_XREC_LAYER_RECONCILED
360
404
  0
DICTIONARY
  5
405
330
3F0
100
AcDbDictionary
280
     1
281
     1
  3
ADSK_XREC_LAYER_RECONCILED
360
406
  0
XRECORD
  5
3FC
102
{ACAD_REACTORS
330
37B
102
}
330
37B
100
AcDbXrecord
280
     1
300
ACDLT
300
2016
300
ACDLT_F_S
  0
DICTIONARY
  5
3D1
102
{ACAD_REACTORS
330
37B
102
}
330
37B
100
AcDbDictionary
281
     1
  0
DICTIONARY
  5
3D8
102
{ACAD_REACTORS
330
37B
102
}
330
37B
100
AcDbDictionary
281
     1
  3
Imperial24
350
3D9
  0
DICTIONARY
  5
37C
102
{ACAD_REACTORS
330
37B
102
}
330
37B
100
AcDbDictionary
281
     1
  0
DICTIONARY
  5
3D0
102
{ACAD_REACTORS
330
37B
102
}
330
37B
100
AcDbDictionary
281
     1
  3
Model
350
3E1
  3
レイアウト1
350
3DD
  0
DICTIONARY
  5
37F
102
{ACAD_REACTORS
330
37B
102
}
330
37B
100
AcDbDictionary
281
     1
  3
ByBlock
350
388
  3
ByLayer
350
380
  3
Global
350
390
  0
DICTIONARY
  5
3D4
102
{ACAD_REACTORS
330
37B
102
}
330
37B
100
AcDbDictionary
281
     1
  3
Standard
350
3D5
  0
DICTIONARY
  5
3CD
102
{ACAD_REACTORS
330
37B
102
}
330
37B
100
AcDbDictionary
281
     1
  3
Standard
350
3CE
  0
DICTIONARY
  5
3CF
102
{ACAD_REACTORS
330
37B
102
}
330
37B
100
AcDbDictionary
281
     1
  0
ACDBDICTIONARYWDFLT
  5
37D
102
{ACAD_REACTORS
330
37B
102
}
330
37B
100
AcDbDictionary
281
     1
  3
Normal
350
37E
100
AcDbDictionaryWithDefault
340
37E
  0
DICTIONARY
  5
3B1
102
{ACAD_REACTORS
330
37B
102
}
330
37B
100
AcDbDictionary
281
     1
  3
A0
350
3B2
  3
A1
350
3B3
  3
A2
350
3B4
  3
A3
350
3B5
  3
A4
350
3B6
  3
A5
350
3B7
  3
A6
350
3B8
  3
A7
350
3B9
  3
A8
350
3BA
  3
A9
350
3BB
  3
B0
350
3BC
  3
B1
350
3BD
  3
B2
350
3BE
  3
B3
350
3BF
  3
B4
350
3C0
  3
B5
350
3C1
  3
B6
350
3C2
  0
DICTIONARY
  5
3D6
102
{ACAD_REACTORS
330
37B
102
}
330
37B
100
AcDbDictionary
281
     1
  3
Imperial24
350
3D7
  0
DICTIONARY
  5
3D2
102
{ACAD_REACTORS
330
37B
102
}
330
37B
100
AcDbDictionary
281
     1
  3
Standard
350
3D3
  0
DICTIONARY
  5
398
102
{ACAD_REACTORS
330
37B
102
}
330
37B
100
AcDbDictionary
281
     1
  3
2dWireframe
350
39E
  3
Basic
350
39D
  3
Brighten
350
3A4
  3
ColorChange
350
3A8
  3
Conceptual
350
3A1
  3
Dim
350
3A3
  3
EdgeColorOff
350
3B0
  3
Facepattern
350
3A7
  3
Flat
350
399
  3
FlatWithEdges
350
39A
  3
Gouraud
350
39B
  3
GouraudWithEdges
350
39C
  3
Hidden
350
3A0
  3
JitterOff
350
3AE
  3
Linepattern
350
3A6
  3
OverhangOff
350
3AF
  3
Realistic
350
3A2
  3
Shaded
350
3AD
  3
Shaded with edges
350
3AC
  3
Shades of Gray
350
3A9
  3
Sketchy
350
3AA
  3
Thicken
350
3A5
  3
Wireframe
350
39F
  3
X-Ray
350
3AB
  0
XRECORD
  5
414
102
{ACAD_REACTORS
330
37B
102
}
330
37B
100
AcDbXrecord
280
     1
 90
        1
330
3D3
  0
DICTIONARY
  5
407
102
{ACAD_REACTORS
330
37B
102
}
330
37B
100
AcDbDictionary
281
     1
  3
CANNOSCALE
350
40C
  3
CMLEADERSTYLE
350
409
  3
CTABLESTYLE
350
408
  3
CVIEWDETAILSTYLE
350
40A
  3
CVIEWSECTIONSTYLE
350
40B
  3
DIMASSOC
350
40F
  3
INDEXCTL
350
40E
  3
SORTENTS
350
40D
  3
XCLIPFRAME
350
410
  0
XRECORD
  5
415
102
{ACAD_REACTORS
330
37B
102
}
330
37B
100
AcDbXrecord
280
     1
  1
DWGPROPS COOKIE
  2

  3

  4

  6

  7

  8
sasaki_n
  9

300
=
301
=
302
=
303
=
304
=
305
=
306
=
307
=
308
=
309
=
 40
0.0004524189814815
 41
2457352.532476852
 42
2457352.543710915
  1

 90
        0
  0
XRECORD
  5
3FE
102
{ACAD_REACTORS
330
3FD
102
}
330
3FD
100
AcDbXrecord
280
     1
290
     1
  0
XRECORD
  5
400
102
{ACAD_REACTORS
330
3FF
102
}
330
3FF
100
AcDbXrecord
280
     1
290
     1
  0
XRECORD
  5
402
102
{ACAD_REACTORS
330
401
102
}
330
401
100
AcDbXrecord
280
     1
290
     1
  0
XRECORD
  5
404
102
{ACAD_REACTORS
330
403
102
}
330
403
100
AcDbXrecord
280
     1
290
     1
  0
XRECORD
  5
406
102
{ACAD_REACTORS
330
405
102
}
330
405
100
AcDbXrecord
280
     1
290
     1
  0
ACDBDETAILVIEWSTYLE
  5
3D9
102
{ACAD_XDICTIONARY
360
44D
102
}
102
{ACAD_REACTORS
330
3D8
102
}
330
3D8
100
AcDbModelDocViewStyle
 70
     0
  3
Imperial24
290
     0
100
AcDbDetailViewStyle
 70
     0
 71
     0
 90
        3
 71
     1
340
3C4
 40
0.24
340
0
 40
0.24
300

 40
0.36
280
     3
 71
     2
340
3CB
 90
       25
 71
     3
340
3C4
 40
0.24
 90
        1
 40
0.75
 90
        1
300
%<\AcVar ViewType \f "%tc1">% %<\AcVar ViewDetailId>%\PSCALE %<\AcVar ViewScale \f "%sn">%
 71
     4
340
3CB
 90
       25
340
3CB
 90
       25
280
     0
  0
LAYOUT
  5
3E1
102
{ACAD_XDICTIONARY
360
451
102
}
102
{ACAD_REACTORS
330
3D0
102
}
330
3D0
100
AcDbPlotSettings
  1

  2
DocuPrint 3000-2
  4

  6

 40
0.0
 41
0.0
 42
0.0
 43
0.0
 44
0.0
 45
0.0
 46
0.0
 47
0.0
 48
0.0
 49
0.0
140
0.0
141
0.0
142
1.0
143
1.0
 70
  1712
 72
     0
 73
     0
 74
     0
  7

 75
     0
147
1.0
148
0.0
149
0.0
100
AcDbLayout
  1
Model
 70
     1
 71
     0
 10
0.0
 20
0.0
 11
12.0
 21
9.0
 12
0.0
 22
0.0
 32
0.0
 14
0.0
 24
0.0
 34
0.0
 15
0.0
 25
0.0
 35
0.0
146
0.0
 13
0.0
 23
0.0
 33
0.0
 16
1.0
 26
0.0
 36
0.0
 17
0.0
 27
1.0
 37
0.0
 76
     0
330
3DE
331
3E3
  0
LAYOUT
  5
3DD
102
{ACAD_XDICTIONARY
360
44F
102
}
102
{ACAD_REACTORS
330
3D0
102
}
330
3D0
100
AcDbPlotSettings
  1

  2
DocuPrint 3000-2
  4

  6

 40
0.0
 41
0.0
 42
0.0
 43
0.0
 44
0.0
 45
0.0
 46
0.0
 47
0.0
 48
0.0
 49
0.0
140
0.0
141
0.0
142
1.0
143
1.0
 70
   688
 72
     0
 73
     0
 74
     5
  7

 75
    16
147
1.0
148
0.0
149
0.0
100
AcDbLayout
  1
レイアウト1
 70
     0
 71
     1
 10
0.0
 20
0.0
 11
12.0
 21
9.0
 12
0.0
 22
0.0
 32
0.0
 14
1.000000000000000E+20
 24
1.000000000000000E+20
 34
1.000000000000000E+20
 15
-1.000000000000000E+20
 25
-1.000000000000000E+20
 35
-1.000000000000000E+20
146
0.0
 13
0.0
 23
0.0
 33
0.0
 16
1.0
 26
0.0
 36
0.0
 17
0.0
 27
1.0
 37
0.0
 76
     0
330
3DA
  0
MATERIAL
  5
388
102
{ACAD_XDICTIONARY
360
389
102
}
102
{ACAD_REACTORS
330
37F
102
}
330
37F
100
AcDbMaterial
  1
ByBlock
 72
     0
 43
0.0208333333333333
 43
0.0
 43
0.0
 43
0.0
 43
0.0
 43
0.0208333333333333
 43
0.0
 43
0.0
 43
0.0
 43
0.0
 43
1.0
 43
0.0
 43
0.0
 43
0.0
 43
0.0
 43
1.0
 77
     0
 47
0.0208333333333333
 47
0.0
 47
0.0
 47
0.0
 47
0.0
 47
0.0208333333333333
 47
0.0
 47
0.0
 47
0.0
 47
0.0
 47
1.0
 47
0.0
 47
0.0
 47
0.0
 47
0.0
 47
1.0
171
     0
 49
0.0208333333333333
 49
0.0
 49
0.0
 49
0.0
 49
0.0
 49
0.0208333333333333
 49
0.0
 49
0.0
 49
0.0
 49
0.0
 49
1.0
 49
0.0
 49
0.0
 49
0.0
 49
0.0
 49
1.0
175
     0
142
0.0208333333333333
142
0.0
142
0.0
142
0.0
142
0.0
142
0.0208333333333333
142
0.0
142
0.0
142
0.0
142
0.0
142
1.0
142
0.0
142
0.0
142
0.0
142
0.0
142
1.0
179
     0
144
0.0208333333333333
144
0.0
144
0.0
144
0.0
144
0.0
144
0.0208333333333333
144
0.0
144
0.0
144
0.0
144
0.0
144
1.0
144
0.0
144
0.0
144
0.0
144
0.0
144
1.0
147
0.0208333333333333
147
0.0
147
0.0
147
0.0
147
0.0
147
0.0208333333333333
147
0.0
147
0.0
147
0.0
147
0.0
147
1.0
147
0.0
147
0.0
147
0.0
147
0.0
147
1.0
  0
MATERIAL
  5
380
102
{ACAD_XDICTIONARY
360
381
102
}
102
{ACAD_REACTORS
330
37F
102
}
330
37F
100
AcDbMaterial
  1
ByLayer
 72
     0
 43
0.0208333333333333
 43
0.0
 43
0.0
 43
0.0
 43
0.0
 43
0.0208333333333333
 43
0.0
 43
0.0
 43
0.0
 43
0.0
 43
1.0
 43
0.0
 43
0.0
 43
0.0
 43
0.0
 43
1.0
 77
     0
 47
0.0208333333333333
 47
0.0
 47
0.0
 47
0.0
 47
0.0
 47
0.0208333333333333
 47
0.0
 47
0.0
 47
0.0
 47
0.0
 47
1.0
 47
0.0
 47
0.0
 47
0.0
 47
0.0
 47
1.0
171
     0
 49
0.0208333333333333
 49
0.0
 49
0.0
 49
0.0
 49
0.0
 49
0.0208333333333333
 49
0.0
 49
0.0
 49
0.0
 49
0.0
 49
1.0
 49
0.0
 49
0.0
 49
0.0
 49
0.0
 49
1.0
175
     0
142
0.0208333333333333
142
0.0
142
0.0
142
0.0
142
0.0
142
0.0208333333333333
142
0.0
142
0.0
142
0.0
142
0.0
142
1.0
142
0.0
142
0.0
142
0.0
142
0.0
142
1.0
179
     0
144
0.0208333333333333
144
0.0
144
0.0
144
0.0
144
0.0
144
0.0208333333333333
144
0.0
144
0.0
144
0.0
144
0.0
144
1.0
144
0.0
144
0.0
144
0.0
144
0.0
144
1.0
147
0.0208333333333333
147
0.0
147
0.0
147
0.0
147
0.0
147
0.0208333333333333
147
0.0
147
0.0
147
0.0
147
0.0
147
1.0
147
0.0
147
0.0
147
0.0
147
0.0
147
1.0
  0
MATERIAL
  5
390
102
{ACAD_XDICTIONARY
360
391
102
}
102
{ACAD_REACTORS
330
37F
102
}
330
37F
100
AcDbMaterial
  1
Global
 72
     0
 43
0.0208333333333333
 43
0.0
 43
0.0
 43
0.0
 43
0.0
 43
0.0208333333333333
 43
0.0
 43
0.0
 43
0.0
 43
0.0
 43
1.0
 43
0.0
 43
0.0
 43
0.0
 43
0.0
 43
1.0
 77
     0
 47
0.0208333333333333
 47
0.0
 47
0.0
 47
0.0
 47
0.0
 47
0.0208333333333333
 47
0.0
 47
0.0
 47
0.0
 47
0.0
 47
1.0
 47
0.0
 47
0.0
 47
0.0
 47
0.0
 47
1.0
171
     0
 49
0.0208333333333333
 49
0.0
 49
0.0
 49
0.0
 49
0.0
 49
0.0208333333333333
 49
0.0
 49
0.0
 49
0.0
 49
0.0
 49
1.0
 49
0.0
 49
0.0
 49
0.0
 49
0.0
 49
1.0
175
     0
142
0.0208333333333333
142
0.0
142
0.0
142
0.0
142
0.0
142
0.0208333333333333
142
0.0
142
0.0
142
0.0
142
0.0
142
1.0
142
0.0
142
0.0
142
0.0
142
0.0
142
1.0
179
     0
144
0.0208333333333333
144
0.0
144
0.0
144
0.0
144
0.0
144
0.0208333333333333
144
0.0
144
0.0
144
0.0
144
0.0
144
1.0
144
0.0
144
0.0
144
0.0
144
0.0
144
1.0
147
0.0208333333333333
147
0.0
147
0.0
147
0.0
147
0.0
147
0.0208333333333333
147
0.0
147
0.0
147
0.0
147
0.0
147
1.0
147
0.0
147
0.0
147
0.0
147
0.0
147
1.0
  0
MLEADERSTYLE
  5
3D5
102
{ACAD_REACTORS
330
3D4
102
}
330
3D4
100
AcDbMLeaderStyle
170
     2
171
     1
172
     0
 90
        2
 40
0.0
 41
0.0
173
     1
 91
-1056964608
340
3C9
 92
       -2
290
     1
 42
0.09
291
     1
 43
0.36
  3
Standard
 44
0.18
300

342
3C4
174
     1
178
     6
175
     1
176
     0
 93
-1056964608
 45
0.18
292
     0
297
     0
 46
0.18
 94
-1056964608
 47
1.0
 49
1.0
140
1.0
293
     1
141
0.0
294
     1
177
     0
142
1.0
295
     0
296
     0
143
0.125
1001
ACAD_MLEADERVER
1070
     2
  0
MLINESTYLE
  5
3CE
102
{ACAD_REACTORS
330
3CD
102
}
330
3CD
100
AcDbMlineStyle
  2
STANDARD
 70
     0
  3

 62
   256
 51
90.0
 52
90.0
 71
     2
 49
0.5
 62
   256
  6
BYLAYER
 49
-0.5
 62
   256
  6
BYLAYER
  0
ACDBPLACEHOLDER
  5
37E
102
{ACAD_REACTORS
330
37D
102
}
330
37D
  0
SCALE
  5
3B2
102
{ACAD_REACTORS
330
3B1
102
}
330
3B1
100
AcDbScale
 70
     0
300
1:1
140
1.0
141
1.0
290
     1
  0
SCALE
  5
3B3
102
{ACAD_REACTORS
330
3B1
102
}
330
3B1
100
AcDbScale
 70
     0
300
1/128" = 1'-0"
140
0.0078125
141
12.0
290
     0
  0
SCALE
  5
3B4
102
{ACAD_REACTORS
330
3B1
102
}
330
3B1
100
AcDbScale
 70
     0
300
1/64" = 1'-0"
140
0.015625
141
12.0
290
     0
  0
SCALE
  5
3B5
102
{ACAD_REACTORS
330
3B1
102
}
330
3B1
100
AcDbScale
 70
     0
300
1/32" = 1'-0"
140
0.03125
141
12.0
290
     0
  0
SCALE
  5
3B6
102
{ACAD_REACTORS
330
3B1
102
}
330
3B1
100
AcDbScale
 70
     0
300
1/16" = 1'-0"
140
0.0625
141
12.0
290
     0
  0
SCALE
  5
3B7
102
{ACAD_REACTORS
330
3B1
102
}
330
3B1
100
AcDbScale
 70
     0
300
3/32" = 1'-0"
140
0.09375
141
12.0
290
     0
  0
SCALE
  5
3B8
102
{ACAD_REACTORS
330
3B1
102
}
330
3B1
100
AcDbScale
 70
     0
300
1/8" = 1'-0"
140
0.125
141
12.0
290
     0
  0
SCALE
  5
3B9
102
{ACAD_REACTORS
330
3B1
102
}
330
3B1
100
AcDbScale
 70
     0
300
3/16" = 1'-0"
140
0.1875
141
12.0
290
     0
  0
SCALE
  5
3BA
102
{ACAD_REACTORS
330
3B1
102
}
330
3B1
100
AcDbScale
 70
     0
300
1/4" = 1'-0"
140
0.25
141
12.0
290
     0
  0
SCALE
  5
3BB
102
{ACAD_REACTORS
330
3B1
102
}
330
3B1
100
AcDbScale
 70
     0
300
3/8" = 1'-0"
140
0.375
141
12.0
290
     0
  0
SCALE
  5
3BC
102
{ACAD_REACTORS
330
3B1
102
}
330
3B1
100
AcDbScale
 70
     0
300
1/2" = 1'-0"
140
0.5
141
12.0
290
     0
  0
SCALE
  5
3BD
102
{ACAD_REACTORS
330
3B1
102
}
330
3B1
100
AcDbScale
 70
     0
300
3/4" = 1'-0"
140
0.75
141
12.0
290
     0
  0
SCALE
  5
3BE
102
{ACAD_REACTORS
330
3B1
102
}
330
3B1
100
AcDbScale
 70
     0
300
1" = 1'-0"
140
1.0
141
12.0
290
     0
  0
SCALE
  5
3BF
102
{ACAD_REACTORS
330
3B1
102
}
330
3B1
100
AcDbScale
 70
     0
300
1-1/2" = 1'-0"
140
1.5
141
12.0
290
     0
  0
SCALE
  5
3C0
102
{ACAD_REACTORS
330
3B1
102
}
330
3B1
100
AcDbScale
 70
     0
300
3" = 1'-0"
140
3.0
141
12.0
290
     0
  0
SCALE
  5
3C1
102
{ACAD_REACTORS
330
3B1
102
}
330
3B1
100
AcDbScale
 70
     0
300
6" = 1'-0"
140
6.0
141
12.0
290
     0
  0
SCALE
  5
3C2
102
{ACAD_REACTORS
330
3B1
102
}
330
3B1
100
AcDbScale
 70
     0
300
1'-0" = 1'-0"
140
12.0
141
12.0
290
     0
  0
ACDBSECTIONVIEWSTYLE
  5
3D7
102
{ACAD_XDICTIONARY
360
44B
102
}
102
{ACAD_REACTORS
330
3D6
102
}
330
3D6
100
AcDbModelDocViewStyle
 70
     0
  3
Imperial24
290
     0
100
AcDbSectionViewStyle
 70
     0
 71
     0
 90
       78
 71
     1
340
3C4
 40
0.24
340
0
340
0
 40
0.24
300
I, O, Q, S, X, Z
 40
0.48
 90
        3
 40
0.18
 90
        1
 71
     2
340
3CB
 90
       25
340
3CB
 90
       50
 40
0.24
 40
0.0
 40
0.24
 71
     3
340
3C4
 40
0.24
 90
        1
 40
0.75
 90
        1
300
%<\AcVar ViewType \f "%tc1">% %<\AcVar ViewSectionStartId>%-%<\AcVar ViewSectionEndId>%\PSCALE %<\AcVar ViewScale \f "%sn">%
 71
     4
300
ANSI31
 40
1.0
 90
        0
290
     0
290
     0
 90
        6
 40
0.0
 40
1.570796326794896
 40
0.2617993877991494
 40
1.308996938995747
 40
-0.2617993877991494
 40
1.832595714594046
  0
TABLESTYLE
  5
3D3
102
{ACAD_XDICTIONARY
360
412
102
}
102
{ACAD_REACTORS
330
3D2
102
}
330
3D2
100
AcDbTableStyle
  3
Standard
 70
     0
 71
     0
 40
0.06
 41
0.06
280
     0
281
     0
  7
STANDARD
140
0.18
170
     2
 62
     0
 63
     7
283
     0
274
    -2
284
     1
 64
     0
275
    -2
285
     1
 65
     0
276
    -2
286
     1
 66
     0
277
    -2
287
     1
 67
     0
278
    -2
288
     1
 68
     0
279
    -2
289
     1
 69
     0
  7
STANDARD
140
0.25
170
     5
 62
     0
 63
     7
283
     0
274
    -2
284
     1
 64
     0
275
    -2
285
     1
 65
     0
276
    -2
286
     1
 66
     0
277
    -2
287
     1
 67
     0
278
    -2
288
     1
 68
     0
279
    -2
289
     1
 69
     0
  7
STANDARD
140
0.18
170
     5
 62
     0
 63
     7
283
     0
274
    -2
284
     1
 64
     0
275
    -2
285
     1
 65
     0
276
    -2
286
     1
 66
     0
277
    -2
287
     1
 67
     0
278
    -2
288
     1
 68
     0
279
    -2
289
     1
 69
     0
  0
VISUALSTYLE
  5
39E
102
{ACAD_XDICTIONARY
360
423
102
}
102
{ACAD_REACTORS
330
398
102
}
330
398
100
AcDbVisualStyle
  2
2dWireframe
 70
     4
 71
     0
 72
     2
 73
     0
 90
        0
 40
-0.6
 41
-30.0
 62
     5
 63
     7
 74
     1
 91
        4
 64
     7
 65
   257
 75
     1
175
     1
 42
1.0
 92
        0
 66
   257
 43
1.0
 76
     1
 77
     6
 78
     2
 67
     7
 79
     5
170
     0
171
     0
290
     0
174
     0
 93
        1
 44
0.0
173
     0
291
     0
 45
0.0
1001
ACAD
1000
AcDbSavedByObjectVersion
1070
     0
  0
VISUALSTYLE
  5
39D
102
{ACAD_XDICTIONARY
360
421
102
}
102
{ACAD_REACTORS
330
398
102
}
330
398
100
AcDbVisualStyle
  2
Basic
 70
     7
 71
     1
 72
     0
 73
     1
 90
        0
 40
-0.6
 41
-30.0
 62
     5
 63
     7
 74
     0
 91
        4
 64
     7
 65
   257
 75
     1
175
     1
 42
1.0
 92
        8
 66
     7
 43
1.0
 76
     1
 77
     6
 78
     2
 67
     7
 79
     5
170
     0
171
     0
290
     0
174
     0
 93
        1
 44
0.0
173
     0
291
     1
 45
0.0
1001
ACAD
1000
AcDbSavedByObjectVersion
1070
     0
  0
VISUALSTYLE
  5
3A4
102
{ACAD_XDICTIONARY
360
42F
102
}
102
{ACAD_REACTORS
330
398
102
}
330
398
100
AcDbVisualStyle
  2
Brighten
 70
    12
 71
     2
 72
     2
 73
     0
 90
        0
 40
-0.6
 41
-30.0
 62
     5
 63
     7
 74
     1
 91
        4
 64
     7
 65
   257
 75
     1
175
     1
 42
1.0
 92
        8
 66
     7
 43
1.0
 76
     1
 77
     6
 78
     2
 67
     7
 79
     5
170
     0
171
     0
290
     0
174
     0
 93
        1
 44
50.0
173
     0
291
     1
 45
0.0
1001
ACAD
1000
AcDbSavedByObjectVersion
1070
     0
  0
VISUALSTYLE
  5
3A8
102
{ACAD_XDICTIONARY
360
437
102
}
102
{ACAD_REACTORS
330
398
102
}
330
398
100
AcDbVisualStyle
  2
ColorChange
 70
    16
 71
     2
 72
     2
 73
     3
 90
        0
 40
-0.6
 41
-30.0
 62
     5
 63
     8
 74
     1
 91
        4
 64
     7
 65
   257
 75
     1
175
     1
 42
1.0
 92
        8
 66
     8
 43
1.0
 76
     1
 77
     6
 78
     2
 67
     7
 79
     5
170
     0
171
     0
290
     0
174
     0
 93
        1
 44
0.0
173
     0
291
     1
 45
0.0
1001
ACAD
1000
AcDbSavedByObjectVersion
1070
     0
  0
VISUALSTYLE
  5
3A1
102
{ACAD_XDICTIONARY
360
429
102
}
102
{ACAD_REACTORS
330
398
102
}
330
398
100
AcDbVisualStyle
  2
Conceptual
 70
     9
 71
     3
 72
     2
 73
     0
 90
        0
 40
-0.6
 41
-30.0
 62
     5
 63
     7
 74
     2
 91
        2
 64
     7
 65
   257
 75
     1
175
     1
 42
179.0
 92
        8
 66
     7
 43
1.0
 76
     1
 77
     6
 78
     2
 67
     7
 79
     3
170
     0
171
     0
290
     0
174
     0
 93
        1
 44
0.0
173
     0
291
     0
 45
0.0
1001
ACAD
1000
AcDbSavedByObjectVersion
1070
     0
  0
VISUALSTYLE
  5
3A3
102
{ACAD_XDICTIONARY
360
42D
102
}
102
{ACAD_REACTORS
330
398
102
}
330
398
100
AcDbVisualStyle
  2
Dim
 70
    11
 71
     2
 72
     2
 73
     0
 90
        0
 40
-0.6
 41
-30.0
 62
     5
 63
     7
 74
     1
 91
        4
 64
     7
 65
   257
 75
     1
175
     1
 42
1.0
 92
        8
 66
     7
 43
1.0
 76
     1
 77
     6
 78
     2
 67
     7
 79
     5
170
     0
171
     0
290
     0
174
     0
 93
        1
 44
-50.0
173
     0
291
     1
 45
0.0
1001
ACAD
1000
AcDbSavedByObjectVersion
1070
     0
  0
VISUALSTYLE
  5
3B0
102
{ACAD_XDICTIONARY
360
447
102
}
102
{ACAD_REACTORS
330
398
102
}
330
398
100
AcDbVisualStyle
  2
EdgeColorOff
 70
    22
 71
     2
 72
     2
 73
     0
 90
        0
 40
-0.6
 41
-30.0
 62
     5
 63
     7
 74
     1
 91
        4
 64
     7
 65
   257
 75
     1
175
     1
 42
1.0
 92
        8
 66
     7
 43
1.0
 76
     1
 77
     6
 78
     2
 67
     7
 79
     5
170
     0
171
     0
290
     0
174
     0
 93
        1
 44
0.0
173
     0
291
     1
 45
0.0
1001
ACAD
1000
AcDbSavedByObjectVersion
1070
     0
  0
VISUALSTYLE
  5
3A7
102
{ACAD_XDICTIONARY
360
435
102
}
102
{ACAD_REACTORS
330
398
102
}
330
398
100
AcDbVisualStyle
  2
Facepattern
 70
    15
 71
     2
 72
     2
 73
     0
 90
        0
 40
-0.6
 41
-30.0
 62
     5
 63
     7
 74
     1
 91
        4
 64
     7
 65
   257
 75
     1
175
     1
 42
1.0
 92
        8
 66
     7
 43
1.0
 76
     1
 77
     6
 78
     2
 67
     7
 79
     5
170
     0
171
     0
290
     0
174
     0
 93
        1
 44
0.0
173
     0
291
     1
 45
0.0
1001
ACAD
1000
AcDbSavedByObjectVersion
1070
     0
  0
VISUALSTYLE
  5
399
102
{ACAD_XDICTIONARY
360
419
102
}
102
{ACAD_REACTORS
330
398
102
}
330
398
100
AcDbVisualStyle
  2
Flat
 70
     0
 71
     2
 72
     1
 73
     1
 90
        2
 40
-0.6
 41
30.0
 62
     5
 63
     7
 74
     0
 91
        0
 64
     7
 65
   257
 75
     1
175
     1
 42
1.0
 92
        8
 66
     7
 43
1.0
 76
     1
 77
     6
 78
     2
 67
     7
 79
     5
170
     0
171
     0
290
     0
174
     0
 93
       13
 44
0.0
173
     0
291
     1
 45
0.0
1001
ACAD
1000
AcDbSavedByObjectVersion
1070
     0
  0
VISUALSTYLE
  5
39A
102
{ACAD_XDICTIONARY
360
41B
102
}
102
{ACAD_REACTORS
330
398
102
}
330
398
100
AcDbVisualStyle
  2
FlatWithEdges
 70
     1
 71
     2
 72
     1
 73
     1
 90
        2
 40
-0.6
 41
30.0
 62
     5
 63
     7
 74
     1
 91
        0
 64
     7
 65
   257
 75
     1
175
     1
 42
1.0
 92
        0
 66
   257
 43
1.0
 76
     1
 77
     6
 78
     2
 67
     7
 79
     5
170
     0
171
     0
290
     0
174
     0
 93
       13
 44
0.0
173
     0
291
     1
 45
0.0
1001
ACAD
1000
AcDbSavedByObjectVersion
1070
     0
  0
VISUALSTYLE
  5
39B
102
{ACAD_XDICTIONARY
360
41D
102
}
102
{ACAD_REACTORS
330
398
102
}
330
398
100
AcDbVisualStyle
  2
Gouraud
 70
     2
 71
     2
 72
     2
 73
     1
 90
        2
 40
-0.6
 41
30.0
 62
     5
 63
     7
 74
     0
 91
        0
 64
     7
 65
   257
 75
     1
175
     1
 42
1.0
 92
        0
 66
     7
 43
1.0
 76
     1
 77
     6
 78
     2
 67
     7
 79
     5
170
     0
171
     0
290
     0
174
     0
 93
       13
 44
0.0
173
     0
291
     1
 45
0.0
1001
ACAD
1000
AcDbSavedByObjectVersion
1070
     0
  0
VISUALSTYLE
  5
39C
102
{ACAD_XDICTIONARY
360
41F
102
}
102
{ACAD_REACTORS
330
398
102
}
330
398
100
AcDbVisualStyle
  2
GouraudWithEdges
 70
     3
 71
     2
 72
     2
 73
     1
 90
        2
 40
-0.6
 41
30.0
 62
     5
 63
     7
 74
     1
 91
        0
 64
     7
 65
   257
 75
     1
175
     1
 42
1.0
 92
        0
 66
   257
 43
1.0
 76
     1
 77
     6
 78
     2
 67
     7
 79
     5
170
     0
171
     0
290
     0
174
     0
 93
       13
 44
0.0
173
     0
291
     1
 45
0.0
1001
ACAD
1000
AcDbSavedByObjectVersion
1070
     0
  0
VISUALSTYLE
  5
3A0
102
{ACAD_XDICTIONARY
360
427
102
}
102
{ACAD_REACTORS
330
398
102
}
330
398
100
AcDbVisualStyle
  2
Hidden
 70
     6
 71
     1
 72
     2
 73
     2
 90
        0
 40
-0.6
 41
-30.0
 62
     5
 63
     7
 74
     2
 91
        2
 64
     7
 65
   257
 75
     2
175
     1
 42
40.0
 92
        0
 66
   257
 43
1.0
 76
     1
 77
     6
 78
     2
 67
     7
 79
     3
170
     0
171
     0
290
     0
174
     0
 93
        1
 44
0.0
173
     0
291
     0
 45
0.0
1001
ACAD
1000
AcDbSavedByObjectVersion
1070
     0
  0
VISUALSTYLE
  5
3AE
102
{ACAD_XDICTIONARY
360
443
102
}
102
{ACAD_REACTORS
330
398
102
}
330
398
100
AcDbVisualStyle
  2
JitterOff
 70
    20
 71
     2
 72
     2
 73
     0
 90
        0
 40
-0.6
 41
-30.0
 62
     5
 63
     7
 74
     1
 91
        4
 64
     7
 65
   257
 75
     1
175
     1
 42
1.0
 92
       10
 66
     7
 43
1.0
 76
     1
 77
     6
 78
     2
 67
     7
 79
     5
170
     0
171
     0
290
     0
174
     0
 93
        1
 44
0.0
173
     0
291
     1
 45
0.0
1001
ACAD
1000
AcDbSavedByObjectVersion
1070
     0
  0
VISUALSTYLE
  5
3A6
102
{ACAD_XDICTIONARY
360
433
102
}
102
{ACAD_REACTORS
330
398
102
}
330
398
100
AcDbVisualStyle
  2
Linepattern
 70
    14
 71
     2
 72
     2
 73
     0
 90
        0
 40
-0.6
 41
-30.0
 62
     5
 63
     7
 74
     1
 91
        4
 64
     7
 65
   257
 75
     7
175
     7
 42
1.0
 92
        8
 66
     7
 43
1.0
 76
     1
 77
     6
 78
     2
 67
     7
 79
     5
170
     0
171
     0
290
     0
174
     0
 93
        1
 44
0.0
173
     0
291
     1
 45
0.0
1001
ACAD
1000
AcDbSavedByObjectVersion
1070
     0
  0
VISUALSTYLE
  5
3AF
102
{ACAD_XDICTIONARY
360
445
102
}
102
{ACAD_REACTORS
330
398
102
}
330
398
100
AcDbVisualStyle
  2
OverhangOff
 70
    21
 71
     2
 72
     2
 73
     0
 90
        0
 40
-0.6
 41
-30.0
 62
     5
 63
     7
 74
     1
 91
        4
 64
     7
 65
   257
 75
     1
175
     1
 42
1.0
 92
        9
 66
     7
 43
1.0
 76
     1
 77
     6
 78
     2
 67
     7
 79
     5
170
     0
171
     0
290
     0
174
     0
 93
        1
 44
0.0
173
     0
291
     1
 45
0.0
1001
ACAD
1000
AcDbSavedByObjectVersion
1070
     0
  0
VISUALSTYLE
  5
3A2
102
{ACAD_XDICTIONARY
360
42B
102
}
102
{ACAD_REACTORS
330
398
102
}
330
398
100
AcDbVisualStyle
  2
Realistic
 70
     8
 71
     2
 72
     3
 73
     0
 90
        2
 40
-0.6
 41
30.0
 62
     5
 63
     7
 74
     0
 91
        0
 64
     7
 65
   257
 75
     1
175
     1
 42
1.0
 92
        8
 66
   257
 43
1.0
 76
     1
 77
     6
 78
     2
 67
     7
 79
     3
170
     0
171
     0
290
     0
174
     0
 93
       13
 44
0.0
173
     0
291
     0
 45
0.0
1001
ACAD
1000
AcDbSavedByObjectVersion
1070
     0
  0
VISUALSTYLE
  5
3AD
102
{ACAD_XDICTIONARY
360
441
102
}
102
{ACAD_REACTORS
330
398
102
}
330
398
100
AcDbVisualStyle
  2
Shaded
 70
    27
 71
     2
 72
     2
 73
     1
 90
        2
 40
-0.6
 41
30.0
 62
     5
 63
     7
 74
     0
 91
        4
 64
     7
 65
   257
 75
     1
175
     1
 42
1.0
 92
        8
 66
   257
 43
1.0
 76
     1
 77
     6
 78
     2
 67
     8
 79
     3
170
     0
171
     0
290
     0
174
     0
 93
        5
 44
0.0
173
     0
291
     0
 45
0.0
1001
ACAD
1000
AcDbSavedByObjectVersion
1070
     0
  0
VISUALSTYLE
  5
3AC
102
{ACAD_XDICTIONARY
360
43F
102
}
102
{ACAD_REACTORS
330
398
102
}
330
398
100
AcDbVisualStyle
  2
Shaded with edges
 70
    26
 71
     2
 72
     2
 73
     1
 90
        2
 40
-0.6
 41
30.0
 62
     5
 63
     7
 74
     1
 91
       10
 64
     7
 65
   257
 75
     2
175
     1
 42
1.0
 92
        8
 66
   257
 43
1.0
 76
     1
 77
     6
 78
     2
 67
     7
 79
     3
170
     0
171
     0
290
     0
174
     0
 93
        5
 44
0.0
173
     0
291
     0
 45
0.0
1001
ACAD
1000
AcDbSavedByObjectVersion
1070
     0
  0
VISUALSTYLE
  5
3A9
102
{ACAD_XDICTIONARY
360
439
102
}
102
{ACAD_REACTORS
330
398
102
}
330
398
100
AcDbVisualStyle
  2
Shades of Gray
 70
    23
 71
     2
 72
     2
 73
     3
 90
        0
 40
-0.6
 41
-30.0
 62
     5
 63
     7
 74
     2
 91
        2
 64
     7
 65
     7
 75
     1
175
     1
 42
40.0
 92
        8
 66
     7
 43
1.0
 76
     1
 77
     6
 78
     2
 67
     7
 79
     3
170
     0
171
     0
290
     0
174
     0
 93
        1
 44
0.0
173
     0
291
     0
 45
0.0
1001
ACAD
1000
AcDbSavedByObjectVersion
1070
     0
  0
VISUALSTYLE
  5
3AA
102
{ACAD_XDICTIONARY
360
43B
102
}
102
{ACAD_REACTORS
330
398
102
}
330
398
100
AcDbVisualStyle
  2
Sketchy
 70
    24
 71
     1
 72
     2
 73
     2
 90
        0
 40
-0.6
 41
-30.0
 62
     5
 63
     7
 74
     2
 91
        2
 64
     7
 65
     7
 75
     1
175
     1
 42
40.0
 92
       11
 66
     7
 43
1.0
 76
     1
 77
     6
 78
     2
 67
     7
 79
     6
170
     0
171
     0
290
     0
174
     0
 93
        1
 44
0.0
173
     0
291
     0
 45
0.0
1001
ACAD
1000
AcDbSavedByObjectVersion
1070
     0
  0
VISUALSTYLE
  5
3A5
102
{ACAD_XDICTIONARY
360
431
102
}
102
{ACAD_REACTORS
330
398
102
}
330
398
100
AcDbVisualStyle
  2
Thicken
 70
    13
 71
     2
 72
     2
 73
     0
 90
        0
 40
-0.6
 41
-30.0
 62
     5
 63
     7
 74
     1
 91
        4
 64
     7
 65
   257
 75
     1
175
     1
 42
1.0
 92
       12
 66
     7
 43
1.0
 76
     1
 77
     6
 78
     2
 67
     7
 79
     5
170
     0
171
     0
290
     0
174
     0
 93
        1
 44
0.0
173
     0
291
     1
 45
0.0
1001
ACAD
1000
AcDbSavedByObjectVersion
1070
     0
  0
VISUALSTYLE
  5
39F
102
{ACAD_XDICTIONARY
360
425
102
}
102
{ACAD_REACTORS
330
398
102
}
330
398
100
AcDbVisualStyle
  2
Wireframe
 70
     5
 71
     0
 72
     2
 73
     0
 90
        0
 40
-0.6
 41
-30.0
 62
     5
 63
     7
 74
     1
 91
        4
 64
     7
 65
   257
 75
     1
175
     1
 42
1.0
 92
        0
 66
   257
 43
1.0
 76
     1
 77
     6
 78
     2
 67
     7
 79
     3
170
     0
171
     0
290
     0
174
     0
 93
        1
 44
0.0
173
     0
291
     0
 45
0.0
1001
ACAD
1000
AcDbSavedByObjectVersion
1070
     0
  0
VISUALSTYLE
  5
3AB
102
{ACAD_XDICTIONARY
360
43D
102
}
102
{ACAD_REACTORS
330
398
102
}
330
398
100
AcDbVisualStyle
  2
X-Ray
 70
    25
 71
     2
 72
     2
 73
     1
 90
        1
 40
0.5
 41
-30.0
 62
     5
 63
     7
 74
     1
 91
        0
 64
     7
 65
   257
 75
     1
175
     1
 42
1.0
 92
        8
 66
     7
 43
1.0
 76
     1
 77
     6
 78
     2
 67
     7
 79
     3
170
     0
171
     0
290
     0
174
     0
 93
       13
 44
0.0
173
     0
291
     0
 45
0.0
1001
ACAD
1000
AcDbSavedByObjectVersion
1070
     0
  0
DICTIONARYVAR
  5
40C
102
{ACAD_REACTORS
330
407
102
}
330
407
100
DictionaryVariables
280
     0
  1
1:1
  0
DICTIONARYVAR
  5
409
102
{ACAD_REACTORS
330
407
102
}
330
407
100
DictionaryVariables
280
     0
  1
STANDARD
  0
DICTIONARYVAR
  5
408
102
{ACAD_REACTORS
330
407
102
}
330
407
100
DictionaryVariables
280
     0
  1
STANDARD
  0
DICTIONARYVAR
  5
40A
102
{ACAD_REACTORS
330
407
102
}
330
407
100
DictionaryVariables
280
     0
  1
Imperial24
  0
DICTIONARYVAR
  5
40B
102
{ACAD_REACTORS
330
407
102
}
330
407
100
DictionaryVariables
280
     0
  1
Imperial24
  0
DICTIONARYVAR
  5
40F
102
{ACAD_REACTORS
330
407
102
}
330
407
100
DictionaryVariables
280
     0
  1
1
  0
DICTIONARYVAR
  5
40E
102
{ACAD_REACTORS
330
407
102
}
330
407
100
DictionaryVariables
280
     0
  1
0
  0
DICTIONARYVAR
  5
40D
102
{ACAD_REACTORS
330
407
102
}
330
407
100
DictionaryVariables
280
     0
  1
127
  0
DICTIONARYVAR
  5
410
102
{ACAD_REACTORS
330
407
102
}
330
407
100
DictionaryVariables
280
     0
  1
2
  0
DICTIONARY
  5
44D
330
3D9
100
AcDbDictionary
280
     1
281
     1
  3
ACAD_XREC_ROUNDTRIP
360
44E
  0
DICTIONARY
  5
451
330
3E1
100
AcDbDictionary
280
     1
281
     1
  3
ACAD_XREC_ROUNDTRIP
360
452
  0
DICTIONARY
  5
44F
330
3DD
100
AcDbDictionary
280
     1
281
     1
  3
ACAD_XREC_ROUNDTRIP
360
450
  0
DICTIONARY
  5
389
330
388
100
AcDbDictionary
280
     1
281
     1
  3
ACAD_XREC_ROUNDTRIP
360
417
  3
BUMPTILE
360
38B
  3
DIFFUSETILE
360
38A
  3
OPACITYTILE
360
38E
  3
REFLECTIONTILE
360
38D
  3
REFRACTIONTILE
360
38F
  3
SPECULARTILE
360
38C
  0
DICTIONARY
  5
381
330
380
100
AcDbDictionary
280
     1
281
     1
  3
ACAD_XREC_ROUNDTRIP
360
416
  3
BUMPTILE
360
383
  3
DIFFUSETILE
360
382
  3
OPACITYTILE
360
386
  3
REFLECTIONTILE
360
385
  3
REFRACTIONTILE
360
387
  3
SPECULARTILE
360
384
  0
DICTIONARY
  5
391
330
390
100
AcDbDictionary
280
     1
281
     1
  3
ACAD_XREC_ROUNDTRIP
360
418
  3
BUMPTILE
360
393
  3
DIFFUSETILE
360
392
  3
OPACITYTILE
360
396
  3
REFLECTIONTILE
360
395
  3
REFRACTIONTILE
360
397
  3
SPECULARTILE
360
394
  0
DICTIONARY
  5
44B
330
3D7
100
AcDbDictionary
280
     1
281
     1
  3
ACAD_XREC_ROUNDTRIP
360
44C
  0
DICTIONARY
  5
412
330
3D3
100
AcDbDictionary
280
     1
281
     1
  3
ACAD_ROUNDTRIP_2008_TABLESTYLE_CELLSTYLEMAP
360
413
  3
ACAD_XREC_ROUNDTRIP
360
449
  0
DICTIONARY
  5
423
330
39E
100
AcDbDictionary
280
     1
281
     1
  3
ACAD_XREC_ROUNDTRIP
360
424
  0
DICTIONARY
  5
421
330
39D
100
AcDbDictionary
280
     1
281
     1
  3
ACAD_XREC_ROUNDTRIP
360
422
  0
DICTIONARY
  5
42F
330
3A4
100
AcDbDictionary
280
     1
281
     1
  3
ACAD_XREC_ROUNDTRIP
360
430
  0
DICTIONARY
  5
437
330
3A8
100
AcDbDictionary
280
     1
281
     1
  3
ACAD_XREC_ROUNDTRIP
360
438
  0
DICTIONARY
  5
429
330
3A1
100
AcDbDictionary
280
     1
281
     1
  3
ACAD_XREC_ROUNDTRIP
360
42A
  0
DICTIONARY
  5
42D
330
3A3
100
AcDbDictionary
280
     1
281
     1
  3
ACAD_XREC_ROUNDTRIP
360
42E
  0
DICTIONARY
  5
447
330
3B0
100
AcDbDictionary
280
     1
281
     1
  3
ACAD_XREC_ROUNDTRIP
360
448
  0
DICTIONARY
  5
435
330
3A7
100
AcDbDictionary
280
     1
281
     1
  3
ACAD_XREC_ROUNDTRIP
360
436
  0
DICTIONARY
  5
419
330
399
100
AcDbDictionary
280
     1
281
     1
  3
ACAD_XREC_ROUNDTRIP
360
41A
  0
DICTIONARY
  5
41B
330
39A
100
AcDbDictionary
280
     1
281
     1
  3
ACAD_XREC_ROUNDTRIP
360
41C
  0
DICTIONARY
  5
41D
330
39B
100
AcDbDictionary
280
     1
281
     1
  3
ACAD_XREC_ROUNDTRIP
360
41E
  0
DICTIONARY
  5
41F
330
39C
100
AcDbDictionary
280
     1
281
     1
  3
ACAD_XREC_ROUNDTRIP
360
420
  0
DICTIONARY
  5
427
330
3A0
100
AcDbDictionary
280
     1
281
     1
  3
ACAD_XREC_ROUNDTRIP
360
428
  0
DICTIONARY
  5
443
330
3AE
100
AcDbDictionary
280
     1
281
     1
  3
ACAD_XREC_ROUNDTRIP
360
444
  0
DICTIONARY
  5
433
330
3A6
100
AcDbDictionary
280
     1
281
     1
  3
ACAD_XREC_ROUNDTRIP
360
434
  0
DICTIONARY
  5
445
330
3AF
100
AcDbDictionary
280
     1
281
     1
  3
ACAD_XREC_ROUNDTRIP
360
446
  0
DICTIONARY
  5
42B
330
3A2
100
AcDbDictionary
280
     1
281
     1
  3
ACAD_XREC_ROUNDTRIP
360
42C
  0
DICTIONARY
  5
441
330
3AD
100
AcDbDictionary
280
     1
281
     1
  3
ACAD_XREC_ROUNDTRIP
360
442
  0
DICTIONARY
  5
43F
330
3AC
100
AcDbDictionary
280
     1
281
     1
  3
ACAD_XREC_ROUNDTRIP
360
440
  0
DICTIONARY
  5
439
330
3A9
100
AcDbDictionary
280
     1
281
     1
  3
ACAD_XREC_ROUNDTRIP
360
43A
  0
DICTIONARY
  5
43B
330
3AA
100
AcDbDictionary
280
     1
281
     1
  3
ACAD_XREC_ROUNDTRIP
360
43C
  0
DICTIONARY
  5
431
330
3A5
100
AcDbDictionary
280
     1
281
     1
  3
ACAD_XREC_ROUNDTRIP
360
432
  0
DICTIONARY
  5
425
330
39F
100
AcDbDictionary
280
     1
281
     1
  3
ACAD_XREC_ROUNDTRIP
360
426
  0
DICTIONARY
  5
43D
330
3AB
100
AcDbDictionary
280
     1
281
     1
  3
ACAD_XREC_ROUNDTRIP
360
43E
  0
XRECORD
  5
44E
102
{ACAD_REACTORS
330
44D
102
}
330
44D
100
AcDbXrecord
280
     1
102
DISPLAYNAME
  1
Imperial24
102
FLAGS
 90
        0
  0
XRECORD
  5
452
102
{ACAD_REACTORS
330
451
102
}
330
451
100
AcDbXrecord
280
     1
102
SHADEPLOT
 70
     0
102
SHADEPLOTRESLEVEL
 70
     2
102
SHADEPLOTCUSTOMDPI
 70
   300
  0
XRECORD
  5
450
102
{ACAD_REACTORS
330
44F
102
}
330
44F
100
AcDbXrecord
280
     1
102
SHADEPLOT
 70
     0
102
SHADEPLOTRESLEVEL
 70
     2
102
SHADEPLOTCUSTOMDPI
 70
   300
  0
XRECORD
  5
417
102
{ACAD_REACTORS
330
389
102
}
330
389
100
AcDbXrecord
280
     1
102
MATERIAL
148
0.0
149
0.0
149
0.0
 93
        0
 94
      127
282
     0
 72
     0
 77
     0
171
     0
175
     0
179
     0
273
     0
  0
XRECORD
  5
38B
102
{ACAD_REACTORS
330
389
102
}
330
389
100
AcDbXrecord
280
     1
270
     1
271
     1
  0
XRECORD
  5
38A
102
{ACAD_REACTORS
330
389
102
}
330
389
100
AcDbXrecord
280
     1
270
     1
271
     1
  0
XRECORD
  5
38E
102
{ACAD_REACTORS
330
389
102
}
330
389
100
AcDbXrecord
280
     1
270
     1
271
     1
  0
XRECORD
  5
38D
102
{ACAD_REACTORS
330
389
102
}
330
389
100
AcDbXrecord
280
     1
270
     1
271
     1
  0
XRECORD
  5
38F
102
{ACAD_REACTORS
330
389
102
}
330
389
100
AcDbXrecord
280
     1
270
     1
271
     1
  0
XRECORD
  5
38C
102
{ACAD_REACTORS
330
389
102
}
330
389
100
AcDbXrecord
280
     1
270
     1
271
     1
  0
XRECORD
  5
416
102
{ACAD_REACTORS
330
381
102
}
330
381
100
AcDbXrecord
280
     1
102
MATERIAL
148
0.0
149
0.0
149
0.0
 93
        0
 94
      127
282
     0
 72
     0
 77
     0
171
     0
175
     0
179
     0
273
     0
  0
XRECORD
  5
383
102
{ACAD_REACTORS
330
381
102
}
330
381
100
AcDbXrecord
280
     1
270
     1
271
     1
  0
XRECORD
  5
382
102
{ACAD_REACTORS
330
381
102
}
330
381
100
AcDbXrecord
280
     1
270
     1
271
     1
  0
XRECORD
  5
386
102
{ACAD_REACTORS
330
381
102
}
330
381
100
AcDbXrecord
280
     1
270
     1
271
     1
  0
XRECORD
  5
385
102
{ACAD_REACTORS
330
381
102
}
330
381
100
AcDbXrecord
280
     1
270
     1
271
     1
  0
XRECORD
  5
387
102
{ACAD_REACTORS
330
381
102
}
330
381
100
AcDbXrecord
280
     1
270
     1
271
     1
  0
XRECORD
  5
384
102
{ACAD_REACTORS
330
381
102
}
330
381
100
AcDbXrecord
280
     1
270
     1
271
     1
  0
XRECORD
  5
418
102
{ACAD_REACTORS
330
391
102
}
330
391
100
AcDbXrecord
280
     1
102
MATERIAL
148
0.0
149
0.0
149
0.0
 93
        0
 94
      127
282
     0
 72
     0
 77
     0
171
     0
175
     0
179
     0
273
     0
  0
XRECORD
  5
393
102
{ACAD_REACTORS
330
391
102
}
330
391
100
AcDbXrecord
280
     1
270
     1
271
     1
  0
XRECORD
  5
392
102
{ACAD_REACTORS
330
391
102
}
330
391
100
AcDbXrecord
280
     1
270
     1
271
     1
  0
XRECORD
  5
396
102
{ACAD_REACTORS
330
391
102
}
330
391
100
AcDbXrecord
280
     1
270
     1
271
     1
  0
XRECORD
  5
395
102
{ACAD_REACTORS
330
391
102
}
330
391
100
AcDbXrecord
280
     1
270
     1
271
     1
  0
XRECORD
  5
397
102
{ACAD_REACTORS
330
391
102
}
330
391
100
AcDbXrecord
280
     1
270
     1
271
     1
  0
XRECORD
  5
394
102
{ACAD_REACTORS
330
391
102
}
330
391
100
AcDbXrecord
280
     1
270
     1
271
     1
  0
XRECORD
  5
44C
102
{ACAD_REACTORS
330
44B
102
}
330
44B
100
AcDbXrecord
280
     1
102
DISPLAYNAME
  1
Imperial24
102
FLAGS
 90
        0
  0
CELLSTYLEMAP
  5
413
102
{ACAD_REACTORS
330
412
102
}
330
412
100
AcDbCellStyleMap
 90
        3
300
CELLSTYLE
  1
TABLEFORMAT_BEGIN
 90
        5
170
     1
 91
        0
 92
    32768
 62
   257
 93
        1
300
CONTENTFORMAT
  1
CONTENTFORMAT_BEGIN
 90
        0
 91
        0
 92
      512
 93
        0
300

 40
0.0
140
1.0
 94
        5
 62
     0
340
3C4
144
0.25
309
CONTENTFORMAT_END
171
     0
 94
        0
309
TABLEFORMAT_END
  1
CELLSTYLE_BEGIN
 90
        1
 91
        1
300
_TITLE
309
CELLSTYLE_END
300
CELLSTYLE
  1
TABLEFORMAT_BEGIN
 90
        5
170
     1
 91
        0
 92
        0
 62
   257
 93
        1
300
CONTENTFORMAT
  1
CONTENTFORMAT_BEGIN
 90
        0
 91
        0
 92
      512
 93
        0
300

 40
0.0
140
1.0
 94
        5
 62
     0
340
3C4
144
0.18
309
CONTENTFORMAT_END
171
     0
 94
        0
309
TABLEFORMAT_END
  1
CELLSTYLE_BEGIN
 90
        2
 91
        1
300
_HEADER
309
CELLSTYLE_END
300
CELLSTYLE
  1
TABLEFORMAT_BEGIN
 90
        5
170
     1
 91
        0
 92
        0
 62
   257
 93
        1
300
CONTENTFORMAT
  1
CONTENTFORMAT_BEGIN
 90
        0
 91
        0
 92
      512
 93
        0
300

 40
0.0
140
1.0
 94
        2
 62
     0
340
3C4
144
0.18
309
CONTENTFORMAT_END
171
     0
 94
        0
309
TABLEFORMAT_END
  1
CELLSTYLE_BEGIN
 90
        3
 91
        2
300
_DATA
309
CELLSTYLE_END
  0
XRECORD
  5
449
102
{ACAD_REACTORS
330
412
102
}
330
412
100
AcDbXrecord
280
     1
102
ACAD_ROUNDTRIP_PRE2007_TABLESTYLE
 90
      512
 91
        0
  1

 92
      512
 93
        0
  2

 94
      512
 95
        0
  3

  0
XRECORD
  5
424
102
{ACAD_REACTORS
330
423
102
}
330
423
100
AcDbXrecord
280
     1
102
RTVSPost2010Prop28
280
     1
102
RTVSPost2010PropOp28
 70
     1
102
RTVSPost2010Prop29
280
     1
102
RTVSPost2010PropOp29
 70
     1
102
RTVSPost2010Prop30
280
     0
102
RTVSPost2010PropOp30
 70
     1
102
RTVSPost2010Prop31
280
     0
102
RTVSPost2010PropOp31
 70
     1
102
RTVSPost2010Prop32
280
     0
102
RTVSPost2010PropOp32
 70
     1
102
RTVSPost2010Prop33
280
     0
102
RTVSPost2010PropOp33
 70
     1
102
RTVSPost2010Prop34
280
     0
102
RTVSPost2010PropOp34
 70
     1
102
RTVSPost2010Prop35
280
     0
102
RTVSPost2010PropOp35
 70
     1
102
RTVSPost2010Prop36
280
     0
102
RTVSPost2010PropOp36
 70
     1
102
RTVSPost2010Prop37
 90
       50
102
RTVSPost2010PropOp37
 70
     1
102
RTVSPost2010Prop38
140
0.0
102
RTVSPost2010PropOp38
 70
     1
102
RTVSPost2010Prop39
140
1.0
102
RTVSPost2010PropOp39
 70
     1
102
RTVSPost2010Prop40
 90
        0
102
RTVSPost2010PropOp40
 70
     1
102
RTVSPost2010Prop41ColorIndex
 90
       18
102
RTVSPost2010Prop41ColorRGB
 90
        0
102
RTVSPost2010PropOp41
 70
     1
102
RTVSPost2010Prop42
 90
       50
102
RTVSPost2010PropOp42
 70
     1
102
RTVSPost2010Prop43
 90
        3
102
RTVSPost2010PropOp43
 70
     1
102
RTVSPost2010Prop44ColorIndex
 90
        5
102
RTVSPost2010Prop44ColorRGB
 90
      255
102
RTVSPost2010PropOp44
 70
     1
102
RTVSPost2010Prop45
280
     0
102
RTVSPost2010PropOp45
 70
     1
102
RTVSPost2010Prop46
 90
       50
102
RTVSPost2010PropOp46
 70
     1
102
RTVSPost2010Prop47
 90
       50
102
RTVSPost2010PropOp47
 70
     1
102
RTVSPost2010Prop48
 90
       50
102
RTVSPost2010PropOp48
 70
     1
102
RTVSPost2010Prop49
280
     0
102
RTVSPost2010PropOp49
 70
     1
102
RTVSPost2010Prop50
 90
       50
102
RTVSPost2010PropOp50
 70
     1
102
RTVSPost2010Prop51ColorIndex
 90
      256
102
RTVSPost2010Prop51ColorRGB
 90
-16777216
102
RTVSPost2010PropOp51
 70
     0
102
RTVSPost2010Prop52
140
1.0
102
RTVSPost2010PropOp52
 70
     0
102
RTVSPost2010Prop53
 90
        2
102
RTVSPost2010PropOp53
 70
     1
102
RTVSPost2010Prop54
  1
strokes_ogs.tif
102
RTVSPost2010PropOp54
 70
     1
102
RTVSPost2010Prop55
280
     0
102
RTVSPost2010PropOp55
 70
     1
102
RTVSPost2010Prop56
140
1.0
102
RTVSPost2010PropOp56
 70
     1
102
RTVSPost2010Prop57
140
1.0
102
RTVSPost2010PropOp57
 70
     1
102
RTVSPropertyOp0
 70
     1
102
RTVSPropertyOp1
 70
     1
102
RTVSPropertyOp2
 70
     1
102
RTVSPropertyOp3
 70
     1
102
RTVSPropertyOp4
 70
     1
102
RTVSPropertyOp5
 70
     1
102
RTVSPropertyOp6
 70
     1
102
RTVSPropertyOp7
 70
     1
102
RTVSPropertyOp8
 70
     1
102
RTVSPropertyOp9
 70
     1
102
RTVSPropertyOp10
 70
     1
102
RTVSPropertyOp11
 70
     1
102
RTVSPropertyOp12
 70
     1
102
RTVSPropertyOp13
 70
     1
102
RTVSPropertyOp14
 70
     1
102
RTVSPropertyOp15
 70
     1
102
RTVSPropertyOp16
 70
     1
102
RTVSPropertyOp17
 70
     1
102
RTVSPropertyOp18
 70
     1
102
RTVSPropertyOp19
 70
     1
102
RTVSPropertyOp20
 70
     1
102
RTVSPropertyOp21
 70
     1
102
RTVSPropertyOp22
 70
     1
102
RTVSPropertyOp23
 70
     1
102
RTVSPropertyOp24
 70
     1
102
RTVSPropertyOp25
 70
     1
102
RTVSPropertyOp26
 70
     1
102
RTVSPropertyOp27
 70
     1
102
RTVSPropertyOp28
 70
     1
102
RTVSPropertyOp29
 70
     1
102
RTVSPropertyOp30
 70
     1
102
RTVSPropertyOp31
 70
     1
102
RTVSPropertyOp32
 70
     1
102
RTVSPropertyOp33
 70
     1
102
RTVSPropertyOp34
 70
     1
102
RTVSPropertyOp35
 70
     1
102
RTVSPropertyOp36
 70
     1
102
RTVSPropertyOp37
 70
     1
102
RTVSPropertyOp38
 70
     1
102
RTVSPropertyOp39
 70
     1
102
RTVSPropertyOp40
 70
     1
102
RTVSPropertyOp41
 70
     1
102
RTVSPropertyOp42
 70
     1
102
RTVSPropertyOp43
 70
     1
102
RTVSPropertyOp44
 70
     1
102
RTVSPropertyOp45
 70
     1
102
RTVSPropertyOp46
 70
     1
102
RTVSPropertyOp47
 70
     1
102
RTVSPropertyOp48
 70
     1
102
RTVSPropertyOp49
 70
     1
102
RTVSPropertyOp50
 70
     1
102
RTVSPropertyOp51
 70
     0
102
RTVSPropertyOp52
 70
     0
102
RTVSPropertyOp53
 70
     1
102
RTVSPropertyOp54
 70
     1
102
RTVSPropertyOp55
 70
     1
102
RTVSPropertyOp56
 70
     1
102
RTVSPropertyOp57
 70
     1
102
RTVSPropertyOp58
 70
     1
102
RTVSPropertyOp59
 70
     1
102
RTVSPropertyOp60
 70
     1
102
RTVSPropertyOp61
 70
     1
102
RTVSPropertyOp62
 70
     1
  0
XRECORD
  5
422
102
{ACAD_REACTORS
330
421
102
}
330
421
100
AcDbXrecord
280
     1
102
RTVSPost2010Prop28
280
     0
102
RTVSPost2010PropOp28
 70
     1
102
RTVSPost2010Prop29
280
     1
102
RTVSPost2010PropOp29
 70
     1
102
RTVSPost2010Prop30
280
     1
102
RTVSPost2010PropOp30
 70
     1
102
RTVSPost2010Prop31
280
     0
102
RTVSPost2010PropOp31
 70
     1
102
RTVSPost2010Prop32
280
     0
102
RTVSPost2010PropOp32
 70
     1
102
RTVSPost2010Prop33
280
     0
102
RTVSPost2010PropOp33
 70
     1
102
RTVSPost2010Prop34
280
     0
102
RTVSPost2010PropOp34
 70
     1
102
RTVSPost2010Prop35
280
     0
102
RTVSPost2010PropOp35
 70
     1
102
RTVSPost2010Prop36
280
     0
102
RTVSPost2010PropOp36
 70
     1
102
RTVSPost2010Prop37
 90
       50
102
RTVSPost2010PropOp37
 70
     1
102
RTVSPost2010Prop38
140
0.0
102
RTVSPost2010PropOp38
 70
     1
102
RTVSPost2010Prop39
140
1.0
102
RTVSPost2010PropOp39
 70
     1
102
RTVSPost2010Prop40
 90
        0
102
RTVSPost2010PropOp40
 70
     1
102
RTVSPost2010Prop41ColorIndex
 90
       18
102
RTVSPost2010Prop41ColorRGB
 90
        0
102
RTVSPost2010PropOp41
 70
     1
102
RTVSPost2010Prop42
 90
       50
102
RTVSPost2010PropOp42
 70
     1
102
RTVSPost2010Prop43
 90
        3
102
RTVSPost2010PropOp43
 70
     1
102
RTVSPost2010Prop44ColorIndex
 90
        5
102
RTVSPost2010Prop44ColorRGB
 90
      255
102
RTVSPost2010PropOp44
 70
     1
102
RTVSPost2010Prop45
280
     0
102
RTVSPost2010PropOp45
 70
     1
102
RTVSPost2010Prop46
 90
       50
102
RTVSPost2010PropOp46
 70
     1
102
RTVSPost2010Prop47
 90
       50
102
RTVSPost2010PropOp47
 70
     1
102
RTVSPost2010Prop48
 90
       50
102
RTVSPost2010PropOp48
 70
     1
102
RTVSPost2010Prop49
280
     0
102
RTVSPost2010PropOp49
 70
     1
102
RTVSPost2010Prop50
 90
       50
102
RTVSPost2010PropOp50
 70
     1
102
RTVSPost2010Prop51ColorIndex
 90
      256
102
RTVSPost2010Prop51ColorRGB
 90
-16777216
102
RTVSPost2010PropOp51
 70
     0
102
RTVSPost2010Prop52
140
1.0
102
RTVSPost2010PropOp52
 70
     0
102
RTVSPost2010Prop53
 90
        2
102
RTVSPost2010PropOp53
 70
     1
102
RTVSPost2010Prop54
  1
strokes_ogs.tif
102
RTVSPost2010PropOp54
 70
     1
102
RTVSPost2010Prop55
280
     0
102
RTVSPost2010PropOp55
 70
     1
102
RTVSPost2010Prop56
140
1.0
102
RTVSPost2010PropOp56
 70
     1
102
RTVSPost2010Prop57
140
1.0
102
RTVSPost2010PropOp57
 70
     1
102
RTVSPropertyOp0
 70
     1
102
RTVSPropertyOp1
 70
     1
102
RTVSPropertyOp2
 70
     1
102
RTVSPropertyOp3
 70
     1
102
RTVSPropertyOp4
 70
     1
102
RTVSPropertyOp5
 70
     1
102
RTVSPropertyOp6
 70
     1
102
RTVSPropertyOp7
 70
     1
102
RTVSPropertyOp8
 70
     1
102
RTVSPropertyOp9
 70
     1
102
RTVSPropertyOp10
 70
     1
102
RTVSPropertyOp11
 70
     1
102
RTVSPropertyOp12
 70
     1
102
RTVSPropertyOp13
 70
     1
102
RTVSPropertyOp14
 70
     1
102
RTVSPropertyOp15
 70
     1
102
RTVSPropertyOp16
 70
     1
102
RTVSPropertyOp17
 70
     1
102
RTVSPropertyOp18
 70
     1
102
RTVSPropertyOp19
 70
     1
102
RTVSPropertyOp20
 70
     1
102
RTVSPropertyOp21
 70
     1
102
RTVSPropertyOp22
 70
     1
102
RTVSPropertyOp23
 70
     1
102
RTVSPropertyOp24
 70
     1
102
RTVSPropertyOp25
 70
     1
102
RTVSPropertyOp26
 70
     1
102
RTVSPropertyOp27
 70
     1
102
RTVSPropertyOp28
 70
     1
102
RTVSPropertyOp29
 70
     1
102
RTVSPropertyOp30
 70
     1
102
RTVSPropertyOp31
 70
     1
102
RTVSPropertyOp32
 70
     1
102
RTVSPropertyOp33
 70
     1
102
RTVSPropertyOp34
 70
     1
102
RTVSPropertyOp35
 70
     1
102
RTVSPropertyOp36
 70
     1
102
RTVSPropertyOp37
 70
     1
102
RTVSPropertyOp38
 70
     1
102
RTVSPropertyOp39
 70
     1
102
RTVSPropertyOp40
 70
     1
102
RTVSPropertyOp41
 70
     1
102
RTVSPropertyOp42
 70
     1
102
RTVSPropertyOp43
 70
     1
102
RTVSPropertyOp44
 70
     1
102
RTVSPropertyOp45
 70
     1
102
RTVSPropertyOp46
 70
     1
102
RTVSPropertyOp47
 70
     1
102
RTVSPropertyOp48
 70
     1
102
RTVSPropertyOp49
 70
     1
102
RTVSPropertyOp50
 70
     1
102
RTVSPropertyOp51
 70
     0
102
RTVSPropertyOp52
 70
     0
102
RTVSPropertyOp53
 70
     1
102
RTVSPropertyOp54
 70
     1
102
RTVSPropertyOp55
 70
     1
102
RTVSPropertyOp56
 70
     1
102
RTVSPropertyOp57
 70
     1
102
RTVSPropertyOp58
 70
     1
102
RTVSPropertyOp59
 70
     1
102
RTVSPropertyOp60
 70
     1
102
RTVSPropertyOp61
 70
     1
102
RTVSPropertyOp62
 70
     1
  0
XRECORD
  5
430
102
{ACAD_REACTORS
330
42F
102
}
330
42F
100
AcDbXrecord
280
     1
102
RTVSPost2010Prop28
280
     0
102
RTVSPost2010PropOp28
 70
     1
102
RTVSPost2010Prop29
280
     1
102
RTVSPost2010PropOp29
 70
     1
102
RTVSPost2010Prop30
280
     1
102
RTVSPost2010PropOp30
 70
     1
102
RTVSPost2010Prop31
280
     0
102
RTVSPost2010PropOp31
 70
     1
102
RTVSPost2010Prop32
280
     0
102
RTVSPost2010PropOp32
 70
     1
102
RTVSPost2010Prop33
280
     0
102
RTVSPost2010PropOp33
 70
     1
102
RTVSPost2010Prop34
280
     0
102
RTVSPost2010PropOp34
 70
     1
102
RTVSPost2010Prop35
280
     0
102
RTVSPost2010PropOp35
 70
     1
102
RTVSPost2010Prop36
280
     0
102
RTVSPost2010PropOp36
 70
     1
102
RTVSPost2010Prop37
 90
       50
102
RTVSPost2010PropOp37
 70
     1
102
RTVSPost2010Prop38
140
0.0
102
RTVSPost2010PropOp38
 70
     1
102
RTVSPost2010Prop39
140
1.0
102
RTVSPost2010PropOp39
 70
     1
102
RTVSPost2010Prop40
 90
        0
102
RTVSPost2010PropOp40
 70
     1
102
RTVSPost2010Prop41ColorIndex
 90
       18
102
RTVSPost2010Prop41ColorRGB
 90
        0
102
RTVSPost2010PropOp41
 70
     1
102
RTVSPost2010Prop42
 90
       50
102
RTVSPost2010PropOp42
 70
     1
102
RTVSPost2010Prop43
 90
        3
102
RTVSPost2010PropOp43
 70
     1
102
RTVSPost2010Prop44ColorIndex
 90
        5
102
RTVSPost2010Prop44ColorRGB
 90
      255
102
RTVSPost2010PropOp44
 70
     1
102
RTVSPost2010Prop45
280
     0
102
RTVSPost2010PropOp45
 70
     1
102
RTVSPost2010Prop46
 90
       50
102
RTVSPost2010PropOp46
 70
     1
102
RTVSPost2010Prop47
 90
       50
102
RTVSPost2010PropOp47
 70
     1
102
RTVSPost2010Prop48
 90
       50
102
RTVSPost2010PropOp48
 70
     1
102
RTVSPost2010Prop49
280
     0
102
RTVSPost2010PropOp49
 70
     1
102
RTVSPost2010Prop50
 90
       50
102
RTVSPost2010PropOp50
 70
     1
102
RTVSPost2010Prop51ColorIndex
 90
      256
102
RTVSPost2010Prop51ColorRGB
 90
-16777216
102
RTVSPost2010PropOp51
 70
     0
102
RTVSPost2010Prop52
140
1.0
102
RTVSPost2010PropOp52
 70
     0
102
RTVSPost2010Prop53
 90
        2
102
RTVSPost2010PropOp53
 70
     1
102
RTVSPost2010Prop54
  1
strokes_ogs.tif
102
RTVSPost2010PropOp54
 70
     1
102
RTVSPost2010Prop55
280
     0
102
RTVSPost2010PropOp55
 70
     1
102
RTVSPost2010Prop56
140
1.0
102
RTVSPost2010PropOp56
 70
     1
102
RTVSPost2010Prop57
140
1.0
102
RTVSPost2010PropOp57
 70
     1
102
RTVSPropertyOp0
 70
     1
102
RTVSPropertyOp1
 70
     1
102
RTVSPropertyOp2
 70
     1
102
RTVSPropertyOp3
 70
     1
102
RTVSPropertyOp4
 70
     1
102
RTVSPropertyOp5
 70
     1
102
RTVSPropertyOp6
 70
     1
102
RTVSPropertyOp7
 70
     1
102
RTVSPropertyOp8
 70
     1
102
RTVSPropertyOp9
 70
     1
102
RTVSPropertyOp10
 70
     1
102
RTVSPropertyOp11
 70
     1
102
RTVSPropertyOp12
 70
     1
102
RTVSPropertyOp13
 70
     1
102
RTVSPropertyOp14
 70
     1
102
RTVSPropertyOp15
 70
     1
102
RTVSPropertyOp16
 70
     1
102
RTVSPropertyOp17
 70
     1
102
RTVSPropertyOp18
 70
     1
102
RTVSPropertyOp19
 70
     1
102
RTVSPropertyOp20
 70
     1
102
RTVSPropertyOp21
 70
     1
102
RTVSPropertyOp22
 70
     1
102
RTVSPropertyOp23
 70
     1
102
RTVSPropertyOp24
 70
     1
102
RTVSPropertyOp25
 70
     1
102
RTVSPropertyOp26
 70
     1
102
RTVSPropertyOp27
 70
     1
102
RTVSPropertyOp28
 70
     1
102
RTVSPropertyOp29
 70
     1
102
RTVSPropertyOp30
 70
     1
102
RTVSPropertyOp31
 70
     1
102
RTVSPropertyOp32
 70
     1
102
RTVSPropertyOp33
 70
     1
102
RTVSPropertyOp34
 70
     1
102
RTVSPropertyOp35
 70
     1
102
RTVSPropertyOp36
 70
     1
102
RTVSPropertyOp37
 70
     1
102
RTVSPropertyOp38
 70
     1
102
RTVSPropertyOp39
 70
     1
102
RTVSPropertyOp40
 70
     1
102
RTVSPropertyOp41
 70
     1
102
RTVSPropertyOp42
 70
     1
102
RTVSPropertyOp43
 70
     1
102
RTVSPropertyOp44
 70
     1
102
RTVSPropertyOp45
 70
     1
102
RTVSPropertyOp46
 70
     1
102
RTVSPropertyOp47
 70
     1
102
RTVSPropertyOp48
 70
     1
102
RTVSPropertyOp49
 70
     1
102
RTVSPropertyOp50
 70
     1
102
RTVSPropertyOp51
 70
     0
102
RTVSPropertyOp52
 70
     0
102
RTVSPropertyOp53
 70
     1
102
RTVSPropertyOp54
 70
     1
102
RTVSPropertyOp55
 70
     1
102
RTVSPropertyOp56
 70
     1
102
RTVSPropertyOp57
 70
     1
102
RTVSPropertyOp58
 70
     1
102
RTVSPropertyOp59
 70
     1
102
RTVSPropertyOp60
 70
     1
102
RTVSPropertyOp61
 70
     1
102
RTVSPropertyOp62
 70
     1
  0
XRECORD
  5
438
102
{ACAD_REACTORS
330
437
102
}
330
437
100
AcDbXrecord
280
     1
102
RTVSPost2010Prop28
280
     0
102
RTVSPost2010PropOp28
 70
     1
102
RTVSPost2010Prop29
280
     1
102
RTVSPost2010PropOp29
 70
     1
102
RTVSPost2010Prop30
280
     1
102
RTVSPost2010PropOp30
 70
     1
102
RTVSPost2010Prop31
280
     0
102
RTVSPost2010PropOp31
 70
     1
102
RTVSPost2010Prop32
280
     0
102
RTVSPost2010PropOp32
 70
     1
102
RTVSPost2010Prop33
280
     0
102
RTVSPost2010PropOp33
 70
     1
102
RTVSPost2010Prop34
280
     0
102
RTVSPost2010PropOp34
 70
     1
102
RTVSPost2010Prop35
280
     0
102
RTVSPost2010PropOp35
 70
     1
102
RTVSPost2010Prop36
280
     0
102
RTVSPost2010PropOp36
 70
     1
102
RTVSPost2010Prop37
 90
       50
102
RTVSPost2010PropOp37
 70
     1
102
RTVSPost2010Prop38
140
0.0
102
RTVSPost2010PropOp38
 70
     1
102
RTVSPost2010Prop39
140
1.0
102
RTVSPost2010PropOp39
 70
     1
102
RTVSPost2010Prop40
 90
        0
102
RTVSPost2010PropOp40
 70
     1
102
RTVSPost2010Prop41ColorIndex
 90
       18
102
RTVSPost2010Prop41ColorRGB
 90
        0
102
RTVSPost2010PropOp41
 70
     1
102
RTVSPost2010Prop42
 90
       50
102
RTVSPost2010PropOp42
 70
     1
102
RTVSPost2010Prop43
 90
        3
102
RTVSPost2010PropOp43
 70
     1
102
RTVSPost2010Prop44ColorIndex
 90
        5
102
RTVSPost2010Prop44ColorRGB
 90
      255
102
RTVSPost2010PropOp44
 70
     1
102
RTVSPost2010Prop45
280
     0
102
RTVSPost2010PropOp45
 70
     1
102
RTVSPost2010Prop46
 90
       50
102
RTVSPost2010PropOp46
 70
     1
102
RTVSPost2010Prop47
 90
       50
102
RTVSPost2010PropOp47
 70
     1
102
RTVSPost2010Prop48
 90
       50
102
RTVSPost2010PropOp48
 70
     1
102
RTVSPost2010Prop49
280
     0
102
RTVSPost2010PropOp49
 70
     1
102
RTVSPost2010Prop50
 90
       50
102
RTVSPost2010PropOp50
 70
     1
102
RTVSPost2010Prop51ColorIndex
 90
      256
102
RTVSPost2010Prop51ColorRGB
 90
-16777216
102
RTVSPost2010PropOp51
 70
     0
102
RTVSPost2010Prop52
140
1.0
102
RTVSPost2010PropOp52
 70
     0
102
RTVSPost2010Prop53
 90
        2
102
RTVSPost2010PropOp53
 70
     1
102
RTVSPost2010Prop54
  1
strokes_ogs.tif
102
RTVSPost2010PropOp54
 70
     1
102
RTVSPost2010Prop55
280
     0
102
RTVSPost2010PropOp55
 70
     1
102
RTVSPost2010Prop56
140
1.0
102
RTVSPost2010PropOp56
 70
     1
102
RTVSPost2010Prop57
140
1.0
102
RTVSPost2010PropOp57
 70
     1
102
RTVSPropertyOp0
 70
     1
102
RTVSPropertyOp1
 70
     1
102
RTVSPropertyOp2
 70
     1
102
RTVSPropertyOp3
 70
     1
102
RTVSPropertyOp4
 70
     1
102
RTVSPropertyOp5
 70
     1
102
RTVSPropertyOp6
 70
     1
102
RTVSPropertyOp7
 70
     1
102
RTVSPropertyOp8
 70
     1
102
RTVSPropertyOp9
 70
     1
102
RTVSPropertyOp10
 70
     1
102
RTVSPropertyOp11
 70
     1
102
RTVSPropertyOp12
 70
     1
102
RTVSPropertyOp13
 70
     1
102
RTVSPropertyOp14
 70
     1
102
RTVSPropertyOp15
 70
     1
102
RTVSPropertyOp16
 70
     1
102
RTVSPropertyOp17
 70
     1
102
RTVSPropertyOp18
 70
     1
102
RTVSPropertyOp19
 70
     1
102
RTVSPropertyOp20
 70
     1
102
RTVSPropertyOp21
 70
     1
102
RTVSPropertyOp22
 70
     1
102
RTVSPropertyOp23
 70
     1
102
RTVSPropertyOp24
 70
     1
102
RTVSPropertyOp25
 70
     1
102
RTVSPropertyOp26
 70
     1
102
RTVSPropertyOp27
 70
     1
102
RTVSPropertyOp28
 70
     1
102
RTVSPropertyOp29
 70
     1
102
RTVSPropertyOp30
 70
     1
102
RTVSPropertyOp31
 70
     1
102
RTVSPropertyOp32
 70
     1
102
RTVSPropertyOp33
 70
     1
102
RTVSPropertyOp34
 70
     1
102
RTVSPropertyOp35
 70
     1
102
RTVSPropertyOp36
 70
     1
102
RTVSPropertyOp37
 70
     1
102
RTVSPropertyOp38
 70
     1
102
RTVSPropertyOp39
 70
     1
102
RTVSPropertyOp40
 70
     1
102
RTVSPropertyOp41
 70
     1
102
RTVSPropertyOp42
 70
     1
102
RTVSPropertyOp43
 70
     1
102
RTVSPropertyOp44
 70
     1
102
RTVSPropertyOp45
 70
     1
102
RTVSPropertyOp46
 70
     1
102
RTVSPropertyOp47
 70
     1
102
RTVSPropertyOp48
 70
     1
102
RTVSPropertyOp49
 70
     1
102
RTVSPropertyOp50
 70
     1
102
RTVSPropertyOp51
 70
     0
102
RTVSPropertyOp52
 70
     0
102
RTVSPropertyOp53
 70
     1
102
RTVSPropertyOp54
 70
     1
102
RTVSPropertyOp55
 70
     1
102
RTVSPropertyOp56
 70
     1
102
RTVSPropertyOp57
 70
     1
102
RTVSPropertyOp58
 70
     1
102
RTVSPropertyOp59
 70
     1
102
RTVSPropertyOp60
 70
     1
102
RTVSPropertyOp61
 70
     1
102
RTVSPropertyOp62
 70
     1
  0
XRECORD
  5
42A
102
{ACAD_REACTORS
330
429
102
}
330
429
100
AcDbXrecord
280
     1
102
RTVSPost2010Prop28
280
     0
102
RTVSPost2010PropOp28
 70
     1
102
RTVSPost2010Prop29
280
     1
102
RTVSPost2010PropOp29
 70
     1
102
RTVSPost2010Prop30
280
     1
102
RTVSPost2010PropOp30
 70
     1
102
RTVSPost2010Prop31
280
     0
102
RTVSPost2010PropOp31
 70
     1
102
RTVSPost2010Prop32
280
     0
102
RTVSPost2010PropOp32
 70
     1
102
RTVSPost2010Prop33
280
     0
102
RTVSPost2010PropOp33
 70
     1
102
RTVSPost2010Prop34
280
     0
102
RTVSPost2010PropOp34
 70
     1
102
RTVSPost2010Prop35
280
     0
102
RTVSPost2010PropOp35
 70
     1
102
RTVSPost2010Prop36
280
     0
102
RTVSPost2010PropOp36
 70
     1
102
RTVSPost2010Prop37
 90
       50
102
RTVSPost2010PropOp37
 70
     1
102
RTVSPost2010Prop38
140
0.0
102
RTVSPost2010PropOp38
 70
     1
102
RTVSPost2010Prop39
140
1.0
102
RTVSPost2010PropOp39
 70
     1
102
RTVSPost2010Prop40
 90
        0
102
RTVSPost2010PropOp40
 70
     1
102
RTVSPost2010Prop41ColorIndex
 90
       18
102
RTVSPost2010Prop41ColorRGB
 90
        0
102
RTVSPost2010PropOp41
 70
     1
102
RTVSPost2010Prop42
 90
       50
102
RTVSPost2010PropOp42
 70
     1
102
RTVSPost2010Prop43
 90
        3
102
RTVSPost2010PropOp43
 70
     1
102
RTVSPost2010Prop44ColorIndex
 90
        5
102
RTVSPost2010Prop44ColorRGB
 90
      255
102
RTVSPost2010PropOp44
 70
     1
102
RTVSPost2010Prop45
280
     0
102
RTVSPost2010PropOp45
 70
     1
102
RTVSPost2010Prop46
 90
       50
102
RTVSPost2010PropOp46
 70
     1
102
RTVSPost2010Prop47
 90
       50
102
RTVSPost2010PropOp47
 70
     1
102
RTVSPost2010Prop48
 90
       50
102
RTVSPost2010PropOp48
 70
     1
102
RTVSPost2010Prop49
280
     0
102
RTVSPost2010PropOp49
 70
     1
102
RTVSPost2010Prop50
 90
       50
102
RTVSPost2010PropOp50
 70
     1
102
RTVSPost2010Prop51ColorIndex
 90
      256
102
RTVSPost2010Prop51ColorRGB
 90
-16777216
102
RTVSPost2010PropOp51
 70
     0
102
RTVSPost2010Prop52
140
1.0
102
RTVSPost2010PropOp52
 70
     0
102
RTVSPost2010Prop53
 90
        2
102
RTVSPost2010PropOp53
 70
     1
102
RTVSPost2010Prop54
  1
strokes_ogs.tif
102
RTVSPost2010PropOp54
 70
     1
102
RTVSPost2010Prop55
280
     0
102
RTVSPost2010PropOp55
 70
     1
102
RTVSPost2010Prop56
140
1.0
102
RTVSPost2010PropOp56
 70
     1
102
RTVSPost2010Prop57
140
1.0
102
RTVSPost2010PropOp57
 70
     1
102
RTVSPropertyOp0
 70
     1
102
RTVSPropertyOp1
 70
     1
102
RTVSPropertyOp2
 70
     1
102
RTVSPropertyOp3
 70
     1
102
RTVSPropertyOp4
 70
     1
102
RTVSPropertyOp5
 70
     1
102
RTVSPropertyOp6
 70
     1
102
RTVSPropertyOp7
 70
     1
102
RTVSPropertyOp8
 70
     1
102
RTVSPropertyOp9
 70
     1
102
RTVSPropertyOp10
 70
     1
102
RTVSPropertyOp11
 70
     1
102
RTVSPropertyOp12
 70
     1
102
RTVSPropertyOp13
 70
     1
102
RTVSPropertyOp14
 70
     1
102
RTVSPropertyOp15
 70
     1
102
RTVSPropertyOp16
 70
     1
102
RTVSPropertyOp17
 70
     1
102
RTVSPropertyOp18
 70
     1
102
RTVSPropertyOp19
 70
     1
102
RTVSPropertyOp20
 70
     1
102
RTVSPropertyOp21
 70
     1
102
RTVSPropertyOp22
 70
     1
102
RTVSPropertyOp23
 70
     1
102
RTVSPropertyOp24
 70
     1
102
RTVSPropertyOp25
 70
     1
102
RTVSPropertyOp26
 70
     1
102
RTVSPropertyOp27
 70
     1
102
RTVSPropertyOp28
 70
     1
102
RTVSPropertyOp29
 70
     1
102
RTVSPropertyOp30
 70
     1
102
RTVSPropertyOp31
 70
     1
102
RTVSPropertyOp32
 70
     1
102
RTVSPropertyOp33
 70
     1
102
RTVSPropertyOp34
 70
     1
102
RTVSPropertyOp35
 70
     1
102
RTVSPropertyOp36
 70
     1
102
RTVSPropertyOp37
 70
     1
102
RTVSPropertyOp38
 70
     1
102
RTVSPropertyOp39
 70
     1
102
RTVSPropertyOp40
 70
     1
102
RTVSPropertyOp41
 70
     1
102
RTVSPropertyOp42
 70
     1
102
RTVSPropertyOp43
 70
     1
102
RTVSPropertyOp44
 70
     1
102
RTVSPropertyOp45
 70
     1
102
RTVSPropertyOp46
 70
     1
102
RTVSPropertyOp47
 70
     1
102
RTVSPropertyOp48
 70
     1
102
RTVSPropertyOp49
 70
     1
102
RTVSPropertyOp50
 70
     1
102
RTVSPropertyOp51
 70
     0
102
RTVSPropertyOp52
 70
     0
102
RTVSPropertyOp53
 70
     1
102
RTVSPropertyOp54
 70
     1
102
RTVSPropertyOp55
 70
     1
102
RTVSPropertyOp56
 70
     1
102
RTVSPropertyOp57
 70
     1
102
RTVSPropertyOp58
 70
     1
102
RTVSPropertyOp59
 70
     1
102
RTVSPropertyOp60
 70
     1
102
RTVSPropertyOp61
 70
     1
102
RTVSPropertyOp62
 70
     1
  0
XRECORD
  5
42E
102
{ACAD_REACTORS
330
42D
102
}
330
42D
100
AcDbXrecord
280
     1
102
RTVSPost2010Prop28
280
     0
102
RTVSPost2010PropOp28
 70
     1
102
RTVSPost2010Prop29
280
     1
102
RTVSPost2010PropOp29
 70
     1
102
RTVSPost2010Prop30
280
     1
102
RTVSPost2010PropOp30
 70
     1
102
RTVSPost2010Prop31
280
     0
102
RTVSPost2010PropOp31
 70
     1
102
RTVSPost2010Prop32
280
     0
102
RTVSPost2010PropOp32
 70
     1
102
RTVSPost2010Prop33
280
     0
102
RTVSPost2010PropOp33
 70
     1
102
RTVSPost2010Prop34
280
     0
102
RTVSPost2010PropOp34
 70
     1
102
RTVSPost2010Prop35
280
     0
102
RTVSPost2010PropOp35
 70
     1
102
RTVSPost2010Prop36
280
     0
102
RTVSPost2010PropOp36
 70
     1
102
RTVSPost2010Prop37
 90
       50
102
RTVSPost2010PropOp37
 70
     1
102
RTVSPost2010Prop38
140
0.0
102
RTVSPost2010PropOp38
 70
     1
102
RTVSPost2010Prop39
140
1.0
102
RTVSPost2010PropOp39
 70
     1
102
RTVSPost2010Prop40
 90
        0
102
RTVSPost2010PropOp40
 70
     1
102
RTVSPost2010Prop41ColorIndex
 90
       18
102
RTVSPost2010Prop41ColorRGB
 90
        0
102
RTVSPost2010PropOp41
 70
     1
102
RTVSPost2010Prop42
 90
       50
102
RTVSPost2010PropOp42
 70
     1
102
RTVSPost2010Prop43
 90
        3
102
RTVSPost2010PropOp43
 70
     1
102
RTVSPost2010Prop44ColorIndex
 90
        5
102
RTVSPost2010Prop44ColorRGB
 90
      255
102
RTVSPost2010PropOp44
 70
     1
102
RTVSPost2010Prop45
280
     0
102
RTVSPost2010PropOp45
 70
     1
102
RTVSPost2010Prop46
 90
       50
102
RTVSPost2010PropOp46
 70
     1
102
RTVSPost2010Prop47
 90
       50
102
RTVSPost2010PropOp47
 70
     1
102
RTVSPost2010Prop48
 90
       50
102
RTVSPost2010PropOp48
 70
     1
102
RTVSPost2010Prop49
280
     0
102
RTVSPost2010PropOp49
 70
     1
102
RTVSPost2010Prop50
 90
       50
102
RTVSPost2010PropOp50
 70
     1
102
RTVSPost2010Prop51ColorIndex
 90
      256
102
RTVSPost2010Prop51ColorRGB
 90
-16777216
102
RTVSPost2010PropOp51
 70
     0
102
RTVSPost2010Prop52
140
1.0
102
RTVSPost2010PropOp52
 70
     0
102
RTVSPost2010Prop53
 90
        2
102
RTVSPost2010PropOp53
 70
     1
102
RTVSPost2010Prop54
  1
strokes_ogs.tif
102
RTVSPost2010PropOp54
 70
     1
102
RTVSPost2010Prop55
280
     0
102
RTVSPost2010PropOp55
 70
     1
102
RTVSPost2010Prop56
140
1.0
102
RTVSPost2010PropOp56
 70
     1
102
RTVSPost2010Prop57
140
1.0
102
RTVSPost2010PropOp57
 70
     1
102
RTVSPropertyOp0
 70
     1
102
RTVSPropertyOp1
 70
     1
102
RTVSPropertyOp2
 70
     1
102
RTVSPropertyOp3
 70
     1
102
RTVSPropertyOp4
 70
     1
102
RTVSPropertyOp5
 70
     1
102
RTVSPropertyOp6
 70
     1
102
RTVSPropertyOp7
 70
     1
102
RTVSPropertyOp8
 70
     1
102
RTVSPropertyOp9
 70
     1
102
RTVSPropertyOp10
 70
     1
102
RTVSPropertyOp11
 70
     1
102
RTVSPropertyOp12
 70
     1
102
RTVSPropertyOp13
 70
     1
102
RTVSPropertyOp14
 70
     1
102
RTVSPropertyOp15
 70
     1
102
RTVSPropertyOp16
 70
     1
102
RTVSPropertyOp17
 70
     1
102
RTVSPropertyOp18
 70
     1
102
RTVSPropertyOp19
 70
     1
102
RTVSPropertyOp20
 70
     1
102
RTVSPropertyOp21
 70
     1
102
RTVSPropertyOp22
 70
     1
102
RTVSPropertyOp23
 70
     1
102
RTVSPropertyOp24
 70
     1
102
RTVSPropertyOp25
 70
     1
102
RTVSPropertyOp26
 70
     1
102
RTVSPropertyOp27
 70
     1
102
RTVSPropertyOp28
 70
     1
102
RTVSPropertyOp29
 70
     1
102
RTVSPropertyOp30
 70
     1
102
RTVSPropertyOp31
 70
     1
102
RTVSPropertyOp32
 70
     1
102
RTVSPropertyOp33
 70
     1
102
RTVSPropertyOp34
 70
     1
102
RTVSPropertyOp35
 70
     1
102
RTVSPropertyOp36
 70
     1
102
RTVSPropertyOp37
 70
     1
102
RTVSPropertyOp38
 70
     1
102
RTVSPropertyOp39
 70
     1
102
RTVSPropertyOp40
 70
     1
102
RTVSPropertyOp41
 70
     1
102
RTVSPropertyOp42
 70
     1
102
RTVSPropertyOp43
 70
     1
102
RTVSPropertyOp44
 70
     1
102
RTVSPropertyOp45
 70
     1
102
RTVSPropertyOp46
 70
     1
102
RTVSPropertyOp47
 70
     1
102
RTVSPropertyOp48
 70
     1
102
RTVSPropertyOp49
 70
     1
102
RTVSPropertyOp50
 70
     1
102
RTVSPropertyOp51
 70
     0
102
RTVSPropertyOp52
 70
     0
102
RTVSPropertyOp53
 70
     1
102
RTVSPropertyOp54
 70
     1
102
RTVSPropertyOp55
 70
     1
102
RTVSPropertyOp56
 70
     1
102
RTVSPropertyOp57
 70
     1
102
RTVSPropertyOp58
 70
     1
102
RTVSPropertyOp59
 70
     1
102
RTVSPropertyOp60
 70
     1
102
RTVSPropertyOp61
 70
     1
102
RTVSPropertyOp62
 70
     1
  0
XRECORD
  5
448
102
{ACAD_REACTORS
330
447
102
}
330
447
100
AcDbXrecord
280
     1
102
RTVSPost2010Prop28
280
     0
102
RTVSPost2010PropOp28
 70
     1
102
RTVSPost2010Prop29
280
     1
102
RTVSPost2010PropOp29
 70
     1
102
RTVSPost2010Prop30
280
     1
102
RTVSPost2010PropOp30
 70
     1
102
RTVSPost2010Prop31
280
     0
102
RTVSPost2010PropOp31
 70
     1
102
RTVSPost2010Prop32
280
     0
102
RTVSPost2010PropOp32
 70
     1
102
RTVSPost2010Prop33
280
     0
102
RTVSPost2010PropOp33
 70
     1
102
RTVSPost2010Prop34
280
     0
102
RTVSPost2010PropOp34
 70
     1
102
RTVSPost2010Prop35
280
     0
102
RTVSPost2010PropOp35
 70
     1
102
RTVSPost2010Prop36
280
     0
102
RTVSPost2010PropOp36
 70
     1
102
RTVSPost2010Prop37
 90
       50
102
RTVSPost2010PropOp37
 70
     0
102
RTVSPost2010Prop38
140
0.0
102
RTVSPost2010PropOp38
 70
     0
102
RTVSPost2010Prop39
140
1.0
102
RTVSPost2010PropOp39
 70
     0
102
RTVSPost2010Prop40
 90
        0
102
RTVSPost2010PropOp40
 70
     0
102
RTVSPost2010Prop41ColorIndex
 90
       18
102
RTVSPost2010Prop41ColorRGB
 90
        0
102
RTVSPost2010PropOp41
 70
     0
102
RTVSPost2010Prop42
 90
       50
102
RTVSPost2010PropOp42
 70
     0
102
RTVSPost2010Prop43
 90
        3
102
RTVSPost2010PropOp43
 70
     0
102
RTVSPost2010Prop44ColorIndex
 90
        5
102
RTVSPost2010Prop44ColorRGB
 90
      255
102
RTVSPost2010PropOp44
 70
     0
102
RTVSPost2010Prop45
280
     0
102
RTVSPost2010PropOp45
 70
     1
102
RTVSPost2010Prop46
 90
       50
102
RTVSPost2010PropOp46
 70
     0
102
RTVSPost2010Prop47
 90
       50
102
RTVSPost2010PropOp47
 70
     0
102
RTVSPost2010Prop48
 90
       50
102
RTVSPost2010PropOp48
 70
     0
102
RTVSPost2010Prop49
280
     0
102
RTVSPost2010PropOp49
 70
     1
102
RTVSPost2010Prop50
 90
       50
102
RTVSPost2010PropOp50
 70
     0
102
RTVSPost2010Prop51ColorIndex
 90
      256
102
RTVSPost2010Prop51ColorRGB
 90
-16777216
102
RTVSPost2010PropOp51
 70
     0
102
RTVSPost2010Prop52
140
1.0
102
RTVSPost2010PropOp52
 70
     0
102
RTVSPost2010Prop53
 90
        2
102
RTVSPost2010PropOp53
 70
     0
102
RTVSPost2010Prop54
  1
strokes_ogs.tif
102
RTVSPost2010PropOp54
 70
     0
102
RTVSPost2010Prop55
280
     0
102
RTVSPost2010PropOp55
 70
     1
102
RTVSPost2010Prop56
140
1.0
102
RTVSPost2010PropOp56
 70
     0
102
RTVSPost2010Prop57
140
1.0
102
RTVSPost2010PropOp57
 70
     0
102
RTVSPropertyOp0
 70
     0
102
RTVSPropertyOp1
 70
     0
102
RTVSPropertyOp2
 70
     0
102
RTVSPropertyOp3
 70
     0
102
RTVSPropertyOp4
 70
     0
102
RTVSPropertyOp5
 70
     0
102
RTVSPropertyOp6
 70
     0
102
RTVSPropertyOp7
 70
     0
102
RTVSPropertyOp8
 70
     0
102
RTVSPropertyOp9
 70
     0
102
RTVSPropertyOp10
 70
     0
102
RTVSPropertyOp11
 70
     0
102
RTVSPropertyOp12
 70
     0
102
RTVSPropertyOp13
 70
     0
102
RTVSPropertyOp14
 70
     2
102
RTVSPropertyOp15
 70
     0
102
RTVSPropertyOp16
 70
     0
102
RTVSPropertyOp17
 70
     0
102
RTVSPropertyOp18
 70
     0
102
RTVSPropertyOp19
 70
     0
102
RTVSPropertyOp20
 70
     0
102
RTVSPropertyOp21
 70
     0
102
RTVSPropertyOp22
 70
     0
102
RTVSPropertyOp23
 70
     0
102
RTVSPropertyOp24
 70
     0
102
RTVSPropertyOp25
 70
     0
102
RTVSPropertyOp26
 70
     0
102
RTVSPropertyOp27
 70
     0
102
RTVSPropertyOp28
 70
     1
102
RTVSPropertyOp29
 70
     1
102
RTVSPropertyOp30
 70
     1
102
RTVSPropertyOp31
 70
     1
102
RTVSPropertyOp32
 70
     1
102
RTVSPropertyOp33
 70
     1
102
RTVSPropertyOp34
 70
     1
102
RTVSPropertyOp35
 70
     1
102
RTVSPropertyOp36
 70
     1
102
RTVSPropertyOp37
 70
     0
102
RTVSPropertyOp38
 70
     0
102
RTVSPropertyOp39
 70
     0
102
RTVSPropertyOp40
 70
     0
102
RTVSPropertyOp41
 70
     0
102
RTVSPropertyOp42
 70
     0
102
RTVSPropertyOp43
 70
     0
102
RTVSPropertyOp44
 70
     0
102
RTVSPropertyOp45
 70
     1
102
RTVSPropertyOp46
 70
     0
102
RTVSPropertyOp47
 70
     0
102
RTVSPropertyOp48
 70
     0
102
RTVSPropertyOp49
 70
     1
102
RTVSPropertyOp50
 70
     0
102
RTVSPropertyOp51
 70
     0
102
RTVSPropertyOp52
 70
     0
102
RTVSPropertyOp53
 70
     0
102
RTVSPropertyOp54
 70
     0
102
RTVSPropertyOp55
 70
     1
102
RTVSPropertyOp56
 70
     0
102
RTVSPropertyOp57
 70
     0
102
RTVSPropertyOp58
 70
     0
102
RTVSPropertyOp59
 70
     0
102
RTVSPropertyOp60
 70
     0
102
RTVSPropertyOp61
 70
     0
102
RTVSPropertyOp62
 70
     0
  0
XRECORD
  5
436
102
{ACAD_REACTORS
330
435
102
}
330
435
100
AcDbXrecord
280
     1
102
RTVSPost2010Prop28
280
     0
102
RTVSPost2010PropOp28
 70
     1
102
RTVSPost2010Prop29
280
     1
102
RTVSPost2010PropOp29
 70
     1
102
RTVSPost2010Prop30
280
     1
102
RTVSPost2010PropOp30
 70
     1
102
RTVSPost2010Prop31
280
     0
102
RTVSPost2010PropOp31
 70
     1
102
RTVSPost2010Prop32
280
     0
102
RTVSPost2010PropOp32
 70
     1
102
RTVSPost2010Prop33
280
     0
102
RTVSPost2010PropOp33
 70
     1
102
RTVSPost2010Prop34
280
     0
102
RTVSPost2010PropOp34
 70
     1
102
RTVSPost2010Prop35
280
     0
102
RTVSPost2010PropOp35
 70
     1
102
RTVSPost2010Prop36
280
     0
102
RTVSPost2010PropOp36
 70
     1
102
RTVSPost2010Prop37
 90
       50
102
RTVSPost2010PropOp37
 70
     1
102
RTVSPost2010Prop38
140
0.0
102
RTVSPost2010PropOp38
 70
     1
102
RTVSPost2010Prop39
140
1.0
102
RTVSPost2010PropOp39
 70
     1
102
RTVSPost2010Prop40
 90
        0
102
RTVSPost2010PropOp40
 70
     1
102
RTVSPost2010Prop41ColorIndex
 90
       18
102
RTVSPost2010Prop41ColorRGB
 90
        0
102
RTVSPost2010PropOp41
 70
     1
102
RTVSPost2010Prop42
 90
       50
102
RTVSPost2010PropOp42
 70
     1
102
RTVSPost2010Prop43
 90
        3
102
RTVSPost2010PropOp43
 70
     1
102
RTVSPost2010Prop44ColorIndex
 90
        5
102
RTVSPost2010Prop44ColorRGB
 90
      255
102
RTVSPost2010PropOp44
 70
     1
102
RTVSPost2010Prop45
280
     0
102
RTVSPost2010PropOp45
 70
     1
102
RTVSPost2010Prop46
 90
       50
102
RTVSPost2010PropOp46
 70
     1
102
RTVSPost2010Prop47
 90
       50
102
RTVSPost2010PropOp47
 70
     1
102
RTVSPost2010Prop48
 90
       50
102
RTVSPost2010PropOp48
 70
     1
102
RTVSPost2010Prop49
280
     0
102
RTVSPost2010PropOp49
 70
     1
102
RTVSPost2010Prop50
 90
       50
102
RTVSPost2010PropOp50
 70
     1
102
RTVSPost2010Prop51ColorIndex
 90
      256
102
RTVSPost2010Prop51ColorRGB
 90
-16777216
102
RTVSPost2010PropOp51
 70
     0
102
RTVSPost2010Prop52
140
1.0
102
RTVSPost2010PropOp52
 70
     0
102
RTVSPost2010Prop53
 90
        2
102
RTVSPost2010PropOp53
 70
     1
102
RTVSPost2010Prop54
  1
strokes_ogs.tif
102
RTVSPost2010PropOp54
 70
     1
102
RTVSPost2010Prop55
280
     0
102
RTVSPost2010PropOp55
 70
     1
102
RTVSPost2010Prop56
140
1.0
102
RTVSPost2010PropOp56
 70
     1
102
RTVSPost2010Prop57
140
1.0
102
RTVSPost2010PropOp57
 70
     1
102
RTVSPropertyOp0
 70
     1
102
RTVSPropertyOp1
 70
     1
102
RTVSPropertyOp2
 70
     1
102
RTVSPropertyOp3
 70
     1
102
RTVSPropertyOp4
 70
     1
102
RTVSPropertyOp5
 70
     1
102
RTVSPropertyOp6
 70
     1
102
RTVSPropertyOp7
 70
     1
102
RTVSPropertyOp8
 70
     1
102
RTVSPropertyOp9
 70
     1
102
RTVSPropertyOp10
 70
     1
102
RTVSPropertyOp11
 70
     1
102
RTVSPropertyOp12
 70
     1
102
RTVSPropertyOp13
 70
     1
102
RTVSPropertyOp14
 70
     1
102
RTVSPropertyOp15
 70
     1
102
RTVSPropertyOp16
 70
     1
102
RTVSPropertyOp17
 70
     1
102
RTVSPropertyOp18
 70
     1
102
RTVSPropertyOp19
 70
     1
102
RTVSPropertyOp20
 70
     1
102
RTVSPropertyOp21
 70
     1
102
RTVSPropertyOp22
 70
     1
102
RTVSPropertyOp23
 70
     1
102
RTVSPropertyOp24
 70
     1
102
RTVSPropertyOp25
 70
     1
102
RTVSPropertyOp26
 70
     1
102
RTVSPropertyOp27
 70
     1
102
RTVSPropertyOp28
 70
     1
102
RTVSPropertyOp29
 70
     1
102
RTVSPropertyOp30
 70
     1
102
RTVSPropertyOp31
 70
     1
102
RTVSPropertyOp32
 70
     1
102
RTVSPropertyOp33
 70
     1
102
RTVSPropertyOp34
 70
     1
102
RTVSPropertyOp35
 70
     1
102
RTVSPropertyOp36
 70
     1
102
RTVSPropertyOp37
 70
     1
102
RTVSPropertyOp38
 70
     1
102
RTVSPropertyOp39
 70
     1
102
RTVSPropertyOp40
 70
     1
102
RTVSPropertyOp41
 70
     1
102
RTVSPropertyOp42
 70
     1
102
RTVSPropertyOp43
 70
     1
102
RTVSPropertyOp44
 70
     1
102
RTVSPropertyOp45
 70
     1
102
RTVSPropertyOp46
 70
     1
102
RTVSPropertyOp47
 70
     1
102
RTVSPropertyOp48
 70
     1
102
RTVSPropertyOp49
 70
     1
102
RTVSPropertyOp50
 70
     1
102
RTVSPropertyOp51
 70
     0
102
RTVSPropertyOp52
 70
     0
102
RTVSPropertyOp53
 70
     1
102
RTVSPropertyOp54
 70
     1
102
RTVSPropertyOp55
 70
     1
102
RTVSPropertyOp56
 70
     1
102
RTVSPropertyOp57
 70
     1
102
RTVSPropertyOp58
 70
     1
102
RTVSPropertyOp59
 70
     1
102
RTVSPropertyOp60
 70
     1
102
RTVSPropertyOp61
 70
     1
102
RTVSPropertyOp62
 70
     1
  0
XRECORD
  5
41A
102
{ACAD_REACTORS
330
419
102
}
330
419
100
AcDbXrecord
280
     1
102
RTVSPost2010Prop28
280
     0
102
RTVSPost2010PropOp28
 70
     1
102
RTVSPost2010Prop29
280
     1
102
RTVSPost2010PropOp29
 70
     1
102
RTVSPost2010Prop30
280
     1
102
RTVSPost2010PropOp30
 70
     1
102
RTVSPost2010Prop31
280
     0
102
RTVSPost2010PropOp31
 70
     1
102
RTVSPost2010Prop32
280
     0
102
RTVSPost2010PropOp32
 70
     1
102
RTVSPost2010Prop33
280
     0
102
RTVSPost2010PropOp33
 70
     1
102
RTVSPost2010Prop34
280
     0
102
RTVSPost2010PropOp34
 70
     1
102
RTVSPost2010Prop35
280
     0
102
RTVSPost2010PropOp35
 70
     1
102
RTVSPost2010Prop36
280
     0
102
RTVSPost2010PropOp36
 70
     1
102
RTVSPost2010Prop37
 90
       50
102
RTVSPost2010PropOp37
 70
     1
102
RTVSPost2010Prop38
140
0.0
102
RTVSPost2010PropOp38
 70
     1
102
RTVSPost2010Prop39
140
1.0
102
RTVSPost2010PropOp39
 70
     1
102
RTVSPost2010Prop40
 90
        0
102
RTVSPost2010PropOp40
 70
     1
102
RTVSPost2010Prop41ColorIndex
 90
       18
102
RTVSPost2010Prop41ColorRGB
 90
        0
102
RTVSPost2010PropOp41
 70
     1
102
RTVSPost2010Prop42
 90
       50
102
RTVSPost2010PropOp42
 70
     1
102
RTVSPost2010Prop43
 90
        3
102
RTVSPost2010PropOp43
 70
     1
102
RTVSPost2010Prop44ColorIndex
 90
        5
102
RTVSPost2010Prop44ColorRGB
 90
      255
102
RTVSPost2010PropOp44
 70
     1
102
RTVSPost2010Prop45
280
     0
102
RTVSPost2010PropOp45
 70
     1
102
RTVSPost2010Prop46
 90
       50
102
RTVSPost2010PropOp46
 70
     1
102
RTVSPost2010Prop47
 90
       50
102
RTVSPost2010PropOp47
 70
     1
102
RTVSPost2010Prop48
 90
       50
102
RTVSPost2010PropOp48
 70
     1
102
RTVSPost2010Prop49
280
     0
102
RTVSPost2010PropOp49
 70
     1
102
RTVSPost2010Prop50
 90
       50
102
RTVSPost2010PropOp50
 70
     1
102
RTVSPost2010Prop51ColorIndex
 90
      256
102
RTVSPost2010Prop51ColorRGB
 90
-16777216
102
RTVSPost2010PropOp51
 70
     0
102
RTVSPost2010Prop52
140
1.0
102
RTVSPost2010PropOp52
 70
     0
102
RTVSPost2010Prop53
 90
        2
102
RTVSPost2010PropOp53
 70
     1
102
RTVSPost2010Prop54
  1
strokes_ogs.tif
102
RTVSPost2010PropOp54
 70
     1
102
RTVSPost2010Prop55
280
     0
102
RTVSPost2010PropOp55
 70
     1
102
RTVSPost2010Prop56
140
1.0
102
RTVSPost2010PropOp56
 70
     1
102
RTVSPost2010Prop57
140
1.0
102
RTVSPost2010PropOp57
 70
     1
102
RTVSPropertyOp0
 70
     1
102
RTVSPropertyOp1
 70
     1
102
RTVSPropertyOp2
 70
     1
102
RTVSPropertyOp3
 70
     1
102
RTVSPropertyOp4
 70
     1
102
RTVSPropertyOp5
 70
     1
102
RTVSPropertyOp6
 70
     1
102
RTVSPropertyOp7
 70
     1
102
RTVSPropertyOp8
 70
     1
102
RTVSPropertyOp9
 70
     1
102
RTVSPropertyOp10
 70
     1
102
RTVSPropertyOp11
 70
     1
102
RTVSPropertyOp12
 70
     1
102
RTVSPropertyOp13
 70
     1
102
RTVSPropertyOp14
 70
     1
102
RTVSPropertyOp15
 70
     1
102
RTVSPropertyOp16
 70
     1
102
RTVSPropertyOp17
 70
     1
102
RTVSPropertyOp18
 70
     1
102
RTVSPropertyOp19
 70
     1
102
RTVSPropertyOp20
 70
     1
102
RTVSPropertyOp21
 70
     1
102
RTVSPropertyOp22
 70
     1
102
RTVSPropertyOp23
 70
     1
102
RTVSPropertyOp24
 70
     1
102
RTVSPropertyOp25
 70
     1
102
RTVSPropertyOp26
 70
     1
102
RTVSPropertyOp27
 70
     1
102
RTVSPropertyOp28
 70
     1
102
RTVSPropertyOp29
 70
     1
102
RTVSPropertyOp30
 70
     1
102
RTVSPropertyOp31
 70
     1
102
RTVSPropertyOp32
 70
     1
102
RTVSPropertyOp33
 70
     1
102
RTVSPropertyOp34
 70
     1
102
RTVSPropertyOp35
 70
     1
102
RTVSPropertyOp36
 70
     1
102
RTVSPropertyOp37
 70
     1
102
RTVSPropertyOp38
 70
     1
102
RTVSPropertyOp39
 70
     1
102
RTVSPropertyOp40
 70
     1
102
RTVSPropertyOp41
 70
     1
102
RTVSPropertyOp42
 70
     1
102
RTVSPropertyOp43
 70
     1
102
RTVSPropertyOp44
 70
     1
102
RTVSPropertyOp45
 70
     1
102
RTVSPropertyOp46
 70
     1
102
RTVSPropertyOp47
 70
     1
102
RTVSPropertyOp48
 70
     1
102
RTVSPropertyOp49
 70
     1
102
RTVSPropertyOp50
 70
     1
102
RTVSPropertyOp51
 70
     0
102
RTVSPropertyOp52
 70
     0
102
RTVSPropertyOp53
 70
     1
102
RTVSPropertyOp54
 70
     1
102
RTVSPropertyOp55
 70
     1
102
RTVSPropertyOp56
 70
     1
102
RTVSPropertyOp57
 70
     1
102
RTVSPropertyOp58
 70
     1
102
RTVSPropertyOp59
 70
     1
102
RTVSPropertyOp60
 70
     1
102
RTVSPropertyOp61
 70
     1
102
RTVSPropertyOp62
 70
     1
  0
XRECORD
  5
41C
102
{ACAD_REACTORS
330
41B
102
}
330
41B
100
AcDbXrecord
280
     1
102
RTVSPost2010Prop28
280
     0
102
RTVSPost2010PropOp28
 70
     1
102
RTVSPost2010Prop29
280
     1
102
RTVSPost2010PropOp29
 70
     1
102
RTVSPost2010Prop30
280
     1
102
RTVSPost2010PropOp30
 70
     1
102
RTVSPost2010Prop31
280
     0
102
RTVSPost2010PropOp31
 70
     1
102
RTVSPost2010Prop32
280
     0
102
RTVSPost2010PropOp32
 70
     1
102
RTVSPost2010Prop33
280
     0
102
RTVSPost2010PropOp33
 70
     1
102
RTVSPost2010Prop34
280
     0
102
RTVSPost2010PropOp34
 70
     1
102
RTVSPost2010Prop35
280
     0
102
RTVSPost2010PropOp35
 70
     1
102
RTVSPost2010Prop36
280
     0
102
RTVSPost2010PropOp36
 70
     1
102
RTVSPost2010Prop37
 90
       50
102
RTVSPost2010PropOp37
 70
     1
102
RTVSPost2010Prop38
140
0.0
102
RTVSPost2010PropOp38
 70
     1
102
RTVSPost2010Prop39
140
1.0
102
RTVSPost2010PropOp39
 70
     1
102
RTVSPost2010Prop40
 90
        0
102
RTVSPost2010PropOp40
 70
     1
102
RTVSPost2010Prop41ColorIndex
 90
       18
102
RTVSPost2010Prop41ColorRGB
 90
        0
102
RTVSPost2010PropOp41
 70
     1
102
RTVSPost2010Prop42
 90
       50
102
RTVSPost2010PropOp42
 70
     1
102
RTVSPost2010Prop43
 90
        3
102
RTVSPost2010PropOp43
 70
     1
102
RTVSPost2010Prop44ColorIndex
 90
        5
102
RTVSPost2010Prop44ColorRGB
 90
      255
102
RTVSPost2010PropOp44
 70
     1
102
RTVSPost2010Prop45
280
     0
102
RTVSPost2010PropOp45
 70
     1
102
RTVSPost2010Prop46
 90
       50
102
RTVSPost2010PropOp46
 70
     1
102
RTVSPost2010Prop47
 90
       50
102
RTVSPost2010PropOp47
 70
     1
102
RTVSPost2010Prop48
 90
       50
102
RTVSPost2010PropOp48
 70
     1
102
RTVSPost2010Prop49
280
     0
102
RTVSPost2010PropOp49
 70
     1
102
RTVSPost2010Prop50
 90
       50
102
RTVSPost2010PropOp50
 70
     1
102
RTVSPost2010Prop51ColorIndex
 90
      256
102
RTVSPost2010Prop51ColorRGB
 90
-16777216
102
RTVSPost2010PropOp51
 70
     0
102
RTVSPost2010Prop52
140
1.0
102
RTVSPost2010PropOp52
 70
     0
102
RTVSPost2010Prop53
 90
        2
102
RTVSPost2010PropOp53
 70
     1
102
RTVSPost2010Prop54
  1
strokes_ogs.tif
102
RTVSPost2010PropOp54
 70
     1
102
RTVSPost2010Prop55
280
     0
102
RTVSPost2010PropOp55
 70
     1
102
RTVSPost2010Prop56
140
1.0
102
RTVSPost2010PropOp56
 70
     1
102
RTVSPost2010Prop57
140
1.0
102
RTVSPost2010PropOp57
 70
     1
102
RTVSPropertyOp0
 70
     1
102
RTVSPropertyOp1
 70
     1
102
RTVSPropertyOp2
 70
     1
102
RTVSPropertyOp3
 70
     1
102
RTVSPropertyOp4
 70
     1
102
RTVSPropertyOp5
 70
     1
102
RTVSPropertyOp6
 70
     1
102
RTVSPropertyOp7
 70
     1
102
RTVSPropertyOp8
 70
     1
102
RTVSPropertyOp9
 70
     1
102
RTVSPropertyOp10
 70
     1
102
RTVSPropertyOp11
 70
     1
102
RTVSPropertyOp12
 70
     1
102
RTVSPropertyOp13
 70
     1
102
RTVSPropertyOp14
 70
     1
102
RTVSPropertyOp15
 70
     1
102
RTVSPropertyOp16
 70
     1
102
RTVSPropertyOp17
 70
     1
102
RTVSPropertyOp18
 70
     1
102
RTVSPropertyOp19
 70
     1
102
RTVSPropertyOp20
 70
     1
102
RTVSPropertyOp21
 70
     1
102
RTVSPropertyOp22
 70
     1
102
RTVSPropertyOp23
 70
     1
102
RTVSPropertyOp24
 70
     1
102
RTVSPropertyOp25
 70
     1
102
RTVSPropertyOp26
 70
     1
102
RTVSPropertyOp27
 70
     1
102
RTVSPropertyOp28
 70
     1
102
RTVSPropertyOp29
 70
     1
102
RTVSPropertyOp30
 70
     1
102
RTVSPropertyOp31
 70
     1
102
RTVSPropertyOp32
 70
     1
102
RTVSPropertyOp33
 70
     1
102
RTVSPropertyOp34
 70
     1
102
RTVSPropertyOp35
 70
     1
102
RTVSPropertyOp36
 70
     1
102
RTVSPropertyOp37
 70
     1
102
RTVSPropertyOp38
 70
     1
102
RTVSPropertyOp39
 70
     1
102
RTVSPropertyOp40
 70
     1
102
RTVSPropertyOp41
 70
     1
102
RTVSPropertyOp42
 70
     1
102
RTVSPropertyOp43
 70
     1
102
RTVSPropertyOp44
 70
     1
102
RTVSPropertyOp45
 70
     1
102
RTVSPropertyOp46
 70
     1
102
RTVSPropertyOp47
 70
     1
102
RTVSPropertyOp48
 70
     1
102
RTVSPropertyOp49
 70
     1
102
RTVSPropertyOp50
 70
     1
102
RTVSPropertyOp51
 70
     0
102
RTVSPropertyOp52
 70
     0
102
RTVSPropertyOp53
 70
     1
102
RTVSPropertyOp54
 70
     1
102
RTVSPropertyOp55
 70
     1
102
RTVSPropertyOp56
 70
     1
102
RTVSPropertyOp57
 70
     1
102
RTVSPropertyOp58
 70
     1
102
RTVSPropertyOp59
 70
     1
102
RTVSPropertyOp60
 70
     1
102
RTVSPropertyOp61
 70
     1
102
RTVSPropertyOp62
 70
     1
  0
XRECORD
  5
41E
102
{ACAD_REACTORS
330
41D
102
}
330
41D
100
AcDbXrecord
280
     1
102
RTVSPost2010Prop28
280
     0
102
RTVSPost2010PropOp28
 70
     1
102
RTVSPost2010Prop29
280
     1
102
RTVSPost2010PropOp29
 70
     1
102
RTVSPost2010Prop30
280
     1
102
RTVSPost2010PropOp30
 70
     1
102
RTVSPost2010Prop31
280
     0
102
RTVSPost2010PropOp31
 70
     1
102
RTVSPost2010Prop32
280
     0
102
RTVSPost2010PropOp32
 70
     1
102
RTVSPost2010Prop33
280
     0
102
RTVSPost2010PropOp33
 70
     1
102
RTVSPost2010Prop34
280
     0
102
RTVSPost2010PropOp34
 70
     1
102
RTVSPost2010Prop35
280
     0
102
RTVSPost2010PropOp35
 70
     1
102
RTVSPost2010Prop36
280
     0
102
RTVSPost2010PropOp36
 70
     1
102
RTVSPost2010Prop37
 90
       50
102
RTVSPost2010PropOp37
 70
     1
102
RTVSPost2010Prop38
140
0.0
102
RTVSPost2010PropOp38
 70
     1
102
RTVSPost2010Prop39
140
1.0
102
RTVSPost2010PropOp39
 70
     1
102
RTVSPost2010Prop40
 90
        0
102
RTVSPost2010PropOp40
 70
     1
102
RTVSPost2010Prop41ColorIndex
 90
       18
102
RTVSPost2010Prop41ColorRGB
 90
        0
102
RTVSPost2010PropOp41
 70
     1
102
RTVSPost2010Prop42
 90
       50
102
RTVSPost2010PropOp42
 70
     1
102
RTVSPost2010Prop43
 90
        3
102
RTVSPost2010PropOp43
 70
     1
102
RTVSPost2010Prop44ColorIndex
 90
        5
102
RTVSPost2010Prop44ColorRGB
 90
      255
102
RTVSPost2010PropOp44
 70
     1
102
RTVSPost2010Prop45
280
     0
102
RTVSPost2010PropOp45
 70
     1
102
RTVSPost2010Prop46
 90
       50
102
RTVSPost2010PropOp46
 70
     1
102
RTVSPost2010Prop47
 90
       50
102
RTVSPost2010PropOp47
 70
     1
102
RTVSPost2010Prop48
 90
       50
102
RTVSPost2010PropOp48
 70
     1
102
RTVSPost2010Prop49
280
     0
102
RTVSPost2010PropOp49
 70
     1
102
RTVSPost2010Prop50
 90
       50
102
RTVSPost2010PropOp50
 70
     1
102
RTVSPost2010Prop51ColorIndex
 90
      256
102
RTVSPost2010Prop51ColorRGB
 90
-16777216
102
RTVSPost2010PropOp51
 70
     0
102
RTVSPost2010Prop52
140
1.0
102
RTVSPost2010PropOp52
 70
     0
102
RTVSPost2010Prop53
 90
        2
102
RTVSPost2010PropOp53
 70
     1
102
RTVSPost2010Prop54
  1
strokes_ogs.tif
102
RTVSPost2010PropOp54
 70
     1
102
RTVSPost2010Prop55
280
     0
102
RTVSPost2010PropOp55
 70
     1
102
RTVSPost2010Prop56
140
1.0
102
RTVSPost2010PropOp56
 70
     1
102
RTVSPost2010Prop57
140
1.0
102
RTVSPost2010PropOp57
 70
     1
102
RTVSPropertyOp0
 70
     1
102
RTVSPropertyOp1
 70
     1
102
RTVSPropertyOp2
 70
     1
102
RTVSPropertyOp3
 70
     1
102
RTVSPropertyOp4
 70
     1
102
RTVSPropertyOp5
 70
     1
102
RTVSPropertyOp6
 70
     1
102
RTVSPropertyOp7
 70
     1
102
RTVSPropertyOp8
 70
     1
102
RTVSPropertyOp9
 70
     1
102
RTVSPropertyOp10
 70
     1
102
RTVSPropertyOp11
 70
     1
102
RTVSPropertyOp12
 70
     1
102
RTVSPropertyOp13
 70
     1
102
RTVSPropertyOp14
 70
     1
102
RTVSPropertyOp15
 70
     1
102
RTVSPropertyOp16
 70
     1
102
RTVSPropertyOp17
 70
     1
102
RTVSPropertyOp18
 70
     1
102
RTVSPropertyOp19
 70
     1
102
RTVSPropertyOp20
 70
     1
102
RTVSPropertyOp21
 70
     1
102
RTVSPropertyOp22
 70
     1
102
RTVSPropertyOp23
 70
     1
102
RTVSPropertyOp24
 70
     1
102
RTVSPropertyOp25
 70
     1
102
RTVSPropertyOp26
 70
     1
102
RTVSPropertyOp27
 70
     1
102
RTVSPropertyOp28
 70
     1
102
RTVSPropertyOp29
 70
     1
102
RTVSPropertyOp30
 70
     1
102
RTVSPropertyOp31
 70
     1
102
RTVSPropertyOp32
 70
     1
102
RTVSPropertyOp33
 70
     1
102
RTVSPropertyOp34
 70
     1
102
RTVSPropertyOp35
 70
     1
102
RTVSPropertyOp36
 70
     1
102
RTVSPropertyOp37
 70
     1
102
RTVSPropertyOp38
 70
     1
102
RTVSPropertyOp39
 70
     1
102
RTVSPropertyOp40
 70
     1
102
RTVSPropertyOp41
 70
     1
102
RTVSPropertyOp42
 70
     1
102
RTVSPropertyOp43
 70
     1
102
RTVSPropertyOp44
 70
     1
102
RTVSPropertyOp45
 70
     1
102
RTVSPropertyOp46
 70
     1
102
RTVSPropertyOp47
 70
     1
102
RTVSPropertyOp48
 70
     1
102
RTVSPropertyOp49
 70
     1
102
RTVSPropertyOp50
 70
     1
102
RTVSPropertyOp51
 70
     0
102
RTVSPropertyOp52
 70
     0
102
RTVSPropertyOp53
 70
     1
102
RTVSPropertyOp54
 70
     1
102
RTVSPropertyOp55
 70
     1
102
RTVSPropertyOp56
 70
     1
102
RTVSPropertyOp57
 70
     1
102
RTVSPropertyOp58
 70
     1
102
RTVSPropertyOp59
 70
     1
102
RTVSPropertyOp60
 70
     1
102
RTVSPropertyOp61
 70
     1
102
RTVSPropertyOp62
 70
     1
  0
XRECORD
  5
420
102
{ACAD_REACTORS
330
41F
102
}
330
41F
100
AcDbXrecord
280
     1
102
RTVSPost2010Prop28
280
     0
102
RTVSPost2010PropOp28
 70
     1
102
RTVSPost2010Prop29
280
     1
102
RTVSPost2010PropOp29
 70
     1
102
RTVSPost2010Prop30
280
     1
102
RTVSPost2010PropOp30
 70
     1
102
RTVSPost2010Prop31
280
     0
102
RTVSPost2010PropOp31
 70
     1
102
RTVSPost2010Prop32
280
     0
102
RTVSPost2010PropOp32
 70
     1
102
RTVSPost2010Prop33
280
     0
102
RTVSPost2010PropOp33
 70
     1
102
RTVSPost2010Prop34
280
     0
102
RTVSPost2010PropOp34
 70
     1
102
RTVSPost2010Prop35
280
     0
102
RTVSPost2010PropOp35
 70
     1
102
RTVSPost2010Prop36
280
     0
102
RTVSPost2010PropOp36
 70
     1
102
RTVSPost2010Prop37
 90
       50
102
RTVSPost2010PropOp37
 70
     1
102
RTVSPost2010Prop38
140
0.0
102
RTVSPost2010PropOp38
 70
     1
102
RTVSPost2010Prop39
140
1.0
102
RTVSPost2010PropOp39
 70
     1
102
RTVSPost2010Prop40
 90
        0
102
RTVSPost2010PropOp40
 70
     1
102
RTVSPost2010Prop41ColorIndex
 90
       18
102
RTVSPost2010Prop41ColorRGB
 90
        0
102
RTVSPost2010PropOp41
 70
     1
102
RTVSPost2010Prop42
 90
       50
102
RTVSPost2010PropOp42
 70
     1
102
RTVSPost2010Prop43
 90
        3
102
RTVSPost2010PropOp43
 70
     1
102
RTVSPost2010Prop44ColorIndex
 90
        5
102
RTVSPost2010Prop44ColorRGB
 90
      255
102
RTVSPost2010PropOp44
 70
     1
102
RTVSPost2010Prop45
280
     0
102
RTVSPost2010PropOp45
 70
     1
102
RTVSPost2010Prop46
 90
       50
102
RTVSPost2010PropOp46
 70
     1
102
RTVSPost2010Prop47
 90
       50
102
RTVSPost2010PropOp47
 70
     1
102
RTVSPost2010Prop48
 90
       50
102
RTVSPost2010PropOp48
 70
     1
102
RTVSPost2010Prop49
280
     0
102
RTVSPost2010PropOp49
 70
     1
102
RTVSPost2010Prop50
 90
       50
102
RTVSPost2010PropOp50
 70
     1
102
RTVSPost2010Prop51ColorIndex
 90
      256
102
RTVSPost2010Prop51ColorRGB
 90
-16777216
102
RTVSPost2010PropOp51
 70
     0
102
RTVSPost2010Prop52
140
1.0
102
RTVSPost2010PropOp52
 70
     0
102
RTVSPost2010Prop53
 90
        2
102
RTVSPost2010PropOp53
 70
     1
102
RTVSPost2010Prop54
  1
strokes_ogs.tif
102
RTVSPost2010PropOp54
 70
     1
102
RTVSPost2010Prop55
280
     0
102
RTVSPost2010PropOp55
 70
     1
102
RTVSPost2010Prop56
140
1.0
102
RTVSPost2010PropOp56
 70
     1
102
RTVSPost2010Prop57
140
1.0
102
RTVSPost2010PropOp57
 70
     1
102
RTVSPropertyOp0
 70
     1
102
RTVSPropertyOp1
 70
     1
102
RTVSPropertyOp2
 70
     1
102
RTVSPropertyOp3
 70
     1
102
RTVSPropertyOp4
 70
     1
102
RTVSPropertyOp5
 70
     1
102
RTVSPropertyOp6
 70
     1
102
RTVSPropertyOp7
 70
     1
102
RTVSPropertyOp8
 70
     1
102
RTVSPropertyOp9
 70
     1
102
RTVSPropertyOp10
 70
     1
102
RTVSPropertyOp11
 70
     1
102
RTVSPropertyOp12
 70
     1
102
RTVSPropertyOp13
 70
     1
102
RTVSPropertyOp14
 70
     1
102
RTVSPropertyOp15
 70
     1
102
RTVSPropertyOp16
 70
     1
102
RTVSPropertyOp17
 70
     1
102
RTVSPropertyOp18
 70
     1
102
RTVSPropertyOp19
 70
     1
102
RTVSPropertyOp20
 70
     1
102
RTVSPropertyOp21
 70
     1
102
RTVSPropertyOp22
 70
     1
102
RTVSPropertyOp23
 70
     1
102
RTVSPropertyOp24
 70
     1
102
RTVSPropertyOp25
 70
     1
102
RTVSPropertyOp26
 70
     1
102
RTVSPropertyOp27
 70
     1
102
RTVSPropertyOp28
 70
     1
102
RTVSPropertyOp29
 70
     1
102
RTVSPropertyOp30
 70
     1
102
RTVSPropertyOp31
 70
     1
102
RTVSPropertyOp32
 70
     1
102
RTVSPropertyOp33
 70
     1
102
RTVSPropertyOp34
 70
     1
102
RTVSPropertyOp35
 70
     1
102
RTVSPropertyOp36
 70
     1
102
RTVSPropertyOp37
 70
     1
102
RTVSPropertyOp38
 70
     1
102
RTVSPropertyOp39
 70
     1
102
RTVSPropertyOp40
 70
     1
102
RTVSPropertyOp41
 70
     1
102
RTVSPropertyOp42
 70
     1
102
RTVSPropertyOp43
 70
     1
102
RTVSPropertyOp44
 70
     1
102
RTVSPropertyOp45
 70
     1
102
RTVSPropertyOp46
 70
     1
102
RTVSPropertyOp47
 70
     1
102
RTVSPropertyOp48
 70
     1
102
RTVSPropertyOp49
 70
     1
102
RTVSPropertyOp50
 70
     1
102
RTVSPropertyOp51
 70
     0
102
RTVSPropertyOp52
 70
     0
102
RTVSPropertyOp53
 70
     1
102
RTVSPropertyOp54
 70
     1
102
RTVSPropertyOp55
 70
     1
102
RTVSPropertyOp56
 70
     1
102
RTVSPropertyOp57
 70
     1
102
RTVSPropertyOp58
 70
     1
102
RTVSPropertyOp59
 70
     1
102
RTVSPropertyOp60
 70
     1
102
RTVSPropertyOp61
 70
     1
102
RTVSPropertyOp62
 70
     1
  0
XRECORD
  5
428
102
{ACAD_REACTORS
330
427
102
}
330
427
100
AcDbXrecord
280
     1
102
RTVSPost2010Prop28
280
     0
102
RTVSPost2010PropOp28
 70
     1
102
RTVSPost2010Prop29
280
     1
102
RTVSPost2010PropOp29
 70
     1
102
RTVSPost2010Prop30
280
     1
102
RTVSPost2010PropOp30
 70
     1
102
RTVSPost2010Prop31
280
     0
102
RTVSPost2010PropOp31
 70
     1
102
RTVSPost2010Prop32
280
     0
102
RTVSPost2010PropOp32
 70
     1
102
RTVSPost2010Prop33
280
     0
102
RTVSPost2010PropOp33
 70
     1
102
RTVSPost2010Prop34
280
     0
102
RTVSPost2010PropOp34
 70
     1
102
RTVSPost2010Prop35
280
     0
102
RTVSPost2010PropOp35
 70
     1
102
RTVSPost2010Prop36
280
     0
102
RTVSPost2010PropOp36
 70
     1
102
RTVSPost2010Prop37
 90
       50
102
RTVSPost2010PropOp37
 70
     1
102
RTVSPost2010Prop38
140
0.0
102
RTVSPost2010PropOp38
 70
     1
102
RTVSPost2010Prop39
140
1.0
102
RTVSPost2010PropOp39
 70
     1
102
RTVSPost2010Prop40
 90
        0
102
RTVSPost2010PropOp40
 70
     1
102
RTVSPost2010Prop41ColorIndex
 90
       18
102
RTVSPost2010Prop41ColorRGB
 90
        0
102
RTVSPost2010PropOp41
 70
     1
102
RTVSPost2010Prop42
 90
       50
102
RTVSPost2010PropOp42
 70
     1
102
RTVSPost2010Prop43
 90
        3
102
RTVSPost2010PropOp43
 70
     1
102
RTVSPost2010Prop44ColorIndex
 90
        5
102
RTVSPost2010Prop44ColorRGB
 90
      255
102
RTVSPost2010PropOp44
 70
     1
102
RTVSPost2010Prop45
280
     0
102
RTVSPost2010PropOp45
 70
     1
102
RTVSPost2010Prop46
 90
       50
102
RTVSPost2010PropOp46
 70
     1
102
RTVSPost2010Prop47
 90
       50
102
RTVSPost2010PropOp47
 70
     1
102
RTVSPost2010Prop48
 90
       50
102
RTVSPost2010PropOp48
 70
     1
102
RTVSPost2010Prop49
280
     0
102
RTVSPost2010PropOp49
 70
     1
102
RTVSPost2010Prop50
 90
       50
102
RTVSPost2010PropOp50
 70
     1
102
RTVSPost2010Prop51ColorIndex
 90
      256
102
RTVSPost2010Prop51ColorRGB
 90
-16777216
102
RTVSPost2010PropOp51
 70
     0
102
RTVSPost2010Prop52
140
1.0
102
RTVSPost2010PropOp52
 70
     0
102
RTVSPost2010Prop53
 90
        2
102
RTVSPost2010PropOp53
 70
     1
102
RTVSPost2010Prop54
  1
strokes_ogs.tif
102
RTVSPost2010PropOp54
 70
     1
102
RTVSPost2010Prop55
280
     0
102
RTVSPost2010PropOp55
 70
     1
102
RTVSPost2010Prop56
140
1.0
102
RTVSPost2010PropOp56
 70
     1
102
RTVSPost2010Prop57
140
1.0
102
RTVSPost2010PropOp57
 70
     1
102
RTVSPropertyOp0
 70
     1
102
RTVSPropertyOp1
 70
     1
102
RTVSPropertyOp2
 70
     1
102
RTVSPropertyOp3
 70
     1
102
RTVSPropertyOp4
 70
     1
102
RTVSPropertyOp5
 70
     1
102
RTVSPropertyOp6
 70
     1
102
RTVSPropertyOp7
 70
     1
102
RTVSPropertyOp8
 70
     1
102
RTVSPropertyOp9
 70
     1
102
RTVSPropertyOp10
 70
     1
102
RTVSPropertyOp11
 70
     1
102
RTVSPropertyOp12
 70
     1
102
RTVSPropertyOp13
 70
     1
102
RTVSPropertyOp14
 70
     1
102
RTVSPropertyOp15
 70
     1
102
RTVSPropertyOp16
 70
     1
102
RTVSPropertyOp17
 70
     1
102
RTVSPropertyOp18
 70
     1
102
RTVSPropertyOp19
 70
     1
102
RTVSPropertyOp20
 70
     1
102
RTVSPropertyOp21
 70
     1
102
RTVSPropertyOp22
 70
     1
102
RTVSPropertyOp23
 70
     1
102
RTVSPropertyOp24
 70
     1
102
RTVSPropertyOp25
 70
     1
102
RTVSPropertyOp26
 70
     1
102
RTVSPropertyOp27
 70
     1
102
RTVSPropertyOp28
 70
     1
102
RTVSPropertyOp29
 70
     1
102
RTVSPropertyOp30
 70
     1
102
RTVSPropertyOp31
 70
     1
102
RTVSPropertyOp32
 70
     1
102
RTVSPropertyOp33
 70
     1
102
RTVSPropertyOp34
 70
     1
102
RTVSPropertyOp35
 70
     1
102
RTVSPropertyOp36
 70
     1
102
RTVSPropertyOp37
 70
     1
102
RTVSPropertyOp38
 70
     1
102
RTVSPropertyOp39
 70
     1
102
RTVSPropertyOp40
 70
     1
102
RTVSPropertyOp41
 70
     1
102
RTVSPropertyOp42
 70
     1
102
RTVSPropertyOp43
 70
     1
102
RTVSPropertyOp44
 70
     1
102
RTVSPropertyOp45
 70
     1
102
RTVSPropertyOp46
 70
     1
102
RTVSPropertyOp47
 70
     1
102
RTVSPropertyOp48
 70
     1
102
RTVSPropertyOp49
 70
     1
102
RTVSPropertyOp50
 70
     1
102
RTVSPropertyOp51
 70
     0
102
RTVSPropertyOp52
 70
     0
102
RTVSPropertyOp53
 70
     1
102
RTVSPropertyOp54
 70
     1
102
RTVSPropertyOp55
 70
     1
102
RTVSPropertyOp56
 70
     1
102
RTVSPropertyOp57
 70
     1
102
RTVSPropertyOp58
 70
     1
102
RTVSPropertyOp59
 70
     1
102
RTVSPropertyOp60
 70
     1
102
RTVSPropertyOp61
 70
     1
102
RTVSPropertyOp62
 70
     1
  0
XRECORD
  5
444
102
{ACAD_REACTORS
330
443
102
}
330
443
100
AcDbXrecord
280
     1
102
RTVSPost2010Prop28
280
     0
102
RTVSPost2010PropOp28
 70
     1
102
RTVSPost2010Prop29
280
     1
102
RTVSPost2010PropOp29
 70
     1
102
RTVSPost2010Prop30
280
     1
102
RTVSPost2010PropOp30
 70
     1
102
RTVSPost2010Prop31
280
     0
102
RTVSPost2010PropOp31
 70
     1
102
RTVSPost2010Prop32
280
     0
102
RTVSPost2010PropOp32
 70
     1
102
RTVSPost2010Prop33
280
     0
102
RTVSPost2010PropOp33
 70
     1
102
RTVSPost2010Prop34
280
     0
102
RTVSPost2010PropOp34
 70
     1
102
RTVSPost2010Prop35
280
     0
102
RTVSPost2010PropOp35
 70
     1
102
RTVSPost2010Prop36
280
     0
102
RTVSPost2010PropOp36
 70
     1
102
RTVSPost2010Prop37
 90
       50
102
RTVSPost2010PropOp37
 70
     0
102
RTVSPost2010Prop38
140
0.0
102
RTVSPost2010PropOp38
 70
     0
102
RTVSPost2010Prop39
140
1.0
102
RTVSPost2010PropOp39
 70
     0
102
RTVSPost2010Prop40
 90
        0
102
RTVSPost2010PropOp40
 70
     0
102
RTVSPost2010Prop41ColorIndex
 90
       18
102
RTVSPost2010Prop41ColorRGB
 90
        0
102
RTVSPost2010PropOp41
 70
     0
102
RTVSPost2010Prop42
 90
       50
102
RTVSPost2010PropOp42
 70
     0
102
RTVSPost2010Prop43
 90
        3
102
RTVSPost2010PropOp43
 70
     0
102
RTVSPost2010Prop44ColorIndex
 90
        5
102
RTVSPost2010Prop44ColorRGB
 90
      255
102
RTVSPost2010PropOp44
 70
     0
102
RTVSPost2010Prop45
280
     0
102
RTVSPost2010PropOp45
 70
     1
102
RTVSPost2010Prop46
 90
       50
102
RTVSPost2010PropOp46
 70
     0
102
RTVSPost2010Prop47
 90
       50
102
RTVSPost2010PropOp47
 70
     0
102
RTVSPost2010Prop48
 90
       50
102
RTVSPost2010PropOp48
 70
     0
102
RTVSPost2010Prop49
280
     0
102
RTVSPost2010PropOp49
 70
     1
102
RTVSPost2010Prop50
 90
       50
102
RTVSPost2010PropOp50
 70
     0
102
RTVSPost2010Prop51ColorIndex
 90
      256
102
RTVSPost2010Prop51ColorRGB
 90
-16777216
102
RTVSPost2010PropOp51
 70
     0
102
RTVSPost2010Prop52
140
1.0
102
RTVSPost2010PropOp52
 70
     0
102
RTVSPost2010Prop53
 90
        2
102
RTVSPost2010PropOp53
 70
     0
102
RTVSPost2010Prop54
  1
strokes_ogs.tif
102
RTVSPost2010PropOp54
 70
     0
102
RTVSPost2010Prop55
280
     0
102
RTVSPost2010PropOp55
 70
     1
102
RTVSPost2010Prop56
140
1.0
102
RTVSPost2010PropOp56
 70
     0
102
RTVSPost2010Prop57
140
1.0
102
RTVSPost2010PropOp57
 70
     0
102
RTVSPropertyOp0
 70
     0
102
RTVSPropertyOp1
 70
     0
102
RTVSPropertyOp2
 70
     0
102
RTVSPropertyOp3
 70
     0
102
RTVSPropertyOp4
 70
     0
102
RTVSPropertyOp5
 70
     0
102
RTVSPropertyOp6
 70
     0
102
RTVSPropertyOp7
 70
     0
102
RTVSPropertyOp8
 70
     0
102
RTVSPropertyOp9
 70
     0
102
RTVSPropertyOp10
 70
     0
102
RTVSPropertyOp11
 70
     0
102
RTVSPropertyOp12
 70
     0
102
RTVSPropertyOp13
 70
     0
102
RTVSPropertyOp14
 70
     2
102
RTVSPropertyOp15
 70
     0
102
RTVSPropertyOp16
 70
     0
102
RTVSPropertyOp17
 70
     0
102
RTVSPropertyOp18
 70
     0
102
RTVSPropertyOp19
 70
     0
102
RTVSPropertyOp20
 70
     0
102
RTVSPropertyOp21
 70
     0
102
RTVSPropertyOp22
 70
     0
102
RTVSPropertyOp23
 70
     0
102
RTVSPropertyOp24
 70
     0
102
RTVSPropertyOp25
 70
     0
102
RTVSPropertyOp26
 70
     0
102
RTVSPropertyOp27
 70
     0
102
RTVSPropertyOp28
 70
     1
102
RTVSPropertyOp29
 70
     1
102
RTVSPropertyOp30
 70
     1
102
RTVSPropertyOp31
 70
     1
102
RTVSPropertyOp32
 70
     1
102
RTVSPropertyOp33
 70
     1
102
RTVSPropertyOp34
 70
     1
102
RTVSPropertyOp35
 70
     1
102
RTVSPropertyOp36
 70
     1
102
RTVSPropertyOp37
 70
     0
102
RTVSPropertyOp38
 70
     0
102
RTVSPropertyOp39
 70
     0
102
RTVSPropertyOp40
 70
     0
102
RTVSPropertyOp41
 70
     0
102
RTVSPropertyOp42
 70
     0
102
RTVSPropertyOp43
 70
     0
102
RTVSPropertyOp44
 70
     0
102
RTVSPropertyOp45
 70
     1
102
RTVSPropertyOp46
 70
     0
102
RTVSPropertyOp47
 70
     0
102
RTVSPropertyOp48
 70
     0
102
RTVSPropertyOp49
 70
     1
102
RTVSPropertyOp50
 70
     0
102
RTVSPropertyOp51
 70
     0
102
RTVSPropertyOp52
 70
     0
102
RTVSPropertyOp53
 70
     0
102
RTVSPropertyOp54
 70
     0
102
RTVSPropertyOp55
 70
     1
102
RTVSPropertyOp56
 70
     0
102
RTVSPropertyOp57
 70
     0
102
RTVSPropertyOp58
 70
     0
102
RTVSPropertyOp59
 70
     0
102
RTVSPropertyOp60
 70
     0
102
RTVSPropertyOp61
 70
     0
102
RTVSPropertyOp62
 70
     0
  0
XRECORD
  5
434
102
{ACAD_REACTORS
330
433
102
}
330
433
100
AcDbXrecord
280
     1
102
RTVSPost2010Prop28
280
     0
102
RTVSPost2010PropOp28
 70
     1
102
RTVSPost2010Prop29
280
     1
102
RTVSPost2010PropOp29
 70
     1
102
RTVSPost2010Prop30
280
     1
102
RTVSPost2010PropOp30
 70
     1
102
RTVSPost2010Prop31
280
     0
102
RTVSPost2010PropOp31
 70
     1
102
RTVSPost2010Prop32
280
     0
102
RTVSPost2010PropOp32
 70
     1
102
RTVSPost2010Prop33
280
     0
102
RTVSPost2010PropOp33
 70
     1
102
RTVSPost2010Prop34
280
     0
102
RTVSPost2010PropOp34
 70
     1
102
RTVSPost2010Prop35
280
     0
102
RTVSPost2010PropOp35
 70
     1
102
RTVSPost2010Prop36
280
     0
102
RTVSPost2010PropOp36
 70
     1
102
RTVSPost2010Prop37
 90
       50
102
RTVSPost2010PropOp37
 70
     1
102
RTVSPost2010Prop38
140
0.0
102
RTVSPost2010PropOp38
 70
     1
102
RTVSPost2010Prop39
140
1.0
102
RTVSPost2010PropOp39
 70
     1
102
RTVSPost2010Prop40
 90
        0
102
RTVSPost2010PropOp40
 70
     1
102
RTVSPost2010Prop41ColorIndex
 90
       18
102
RTVSPost2010Prop41ColorRGB
 90
        0
102
RTVSPost2010PropOp41
 70
     1
102
RTVSPost2010Prop42
 90
       50
102
RTVSPost2010PropOp42
 70
     1
102
RTVSPost2010Prop43
 90
        3
102
RTVSPost2010PropOp43
 70
     1
102
RTVSPost2010Prop44ColorIndex
 90
        5
102
RTVSPost2010Prop44ColorRGB
 90
      255
102
RTVSPost2010PropOp44
 70
     1
102
RTVSPost2010Prop45
280
     0
102
RTVSPost2010PropOp45
 70
     1
102
RTVSPost2010Prop46
 90
       50
102
RTVSPost2010PropOp46
 70
     1
102
RTVSPost2010Prop47
 90
       50
102
RTVSPost2010PropOp47
 70
     1
102
RTVSPost2010Prop48
 90
       50
102
RTVSPost2010PropOp48
 70
     1
102
RTVSPost2010Prop49
280
     0
102
RTVSPost2010PropOp49
 70
     1
102
RTVSPost2010Prop50
 90
       50
102
RTVSPost2010PropOp50
 70
     1
102
RTVSPost2010Prop51ColorIndex
 90
      256
102
RTVSPost2010Prop51ColorRGB
 90
-16777216
102
RTVSPost2010PropOp51
 70
     0
102
RTVSPost2010Prop52
140
1.0
102
RTVSPost2010PropOp52
 70
     0
102
RTVSPost2010Prop53
 90
        2
102
RTVSPost2010PropOp53
 70
     1
102
RTVSPost2010Prop54
  1
strokes_ogs.tif
102
RTVSPost2010PropOp54
 70
     1
102
RTVSPost2010Prop55
280
     0
102
RTVSPost2010PropOp55
 70
     1
102
RTVSPost2010Prop56
140
1.0
102
RTVSPost2010PropOp56
 70
     1
102
RTVSPost2010Prop57
140
1.0
102
RTVSPost2010PropOp57
 70
     1
102
RTVSPropertyOp0
 70
     1
102
RTVSPropertyOp1
 70
     1
102
RTVSPropertyOp2
 70
     1
102
RTVSPropertyOp3
 70
     1
102
RTVSPropertyOp4
 70
     1
102
RTVSPropertyOp5
 70
     1
102
RTVSPropertyOp6
 70
     1
102
RTVSPropertyOp7
 70
     1
102
RTVSPropertyOp8
 70
     1
102
RTVSPropertyOp9
 70
     1
102
RTVSPropertyOp10
 70
     1
102
RTVSPropertyOp11
 70
     1
102
RTVSPropertyOp12
 70
     1
102
RTVSPropertyOp13
 70
     1
102
RTVSPropertyOp14
 70
     1
102
RTVSPropertyOp15
 70
     1
102
RTVSPropertyOp16
 70
     1
102
RTVSPropertyOp17
 70
     1
102
RTVSPropertyOp18
 70
     1
102
RTVSPropertyOp19
 70
     1
102
RTVSPropertyOp20
 70
     1
102
RTVSPropertyOp21
 70
     1
102
RTVSPropertyOp22
 70
     1
102
RTVSPropertyOp23
 70
     1
102
RTVSPropertyOp24
 70
     1
102
RTVSPropertyOp25
 70
     1
102
RTVSPropertyOp26
 70
     1
102
RTVSPropertyOp27
 70
     1
102
RTVSPropertyOp28
 70
     1
102
RTVSPropertyOp29
 70
     1
102
RTVSPropertyOp30
 70
     1
102
RTVSPropertyOp31
 70
     1
102
RTVSPropertyOp32
 70
     1
102
RTVSPropertyOp33
 70
     1
102
RTVSPropertyOp34
 70
     1
102
RTVSPropertyOp35
 70
     1
102
RTVSPropertyOp36
 70
     1
102
RTVSPropertyOp37
 70
     1
102
RTVSPropertyOp38
 70
     1
102
RTVSPropertyOp39
 70
     1
102
RTVSPropertyOp40
 70
     1
102
RTVSPropertyOp41
 70
     1
102
RTVSPropertyOp42
 70
     1
102
RTVSPropertyOp43
 70
     1
102
RTVSPropertyOp44
 70
     1
102
RTVSPropertyOp45
 70
     1
102
RTVSPropertyOp46
 70
     1
102
RTVSPropertyOp47
 70
     1
102
RTVSPropertyOp48
 70
     1
102
RTVSPropertyOp49
 70
     1
102
RTVSPropertyOp50
 70
     1
102
RTVSPropertyOp51
 70
     0
102
RTVSPropertyOp52
 70
     0
102
RTVSPropertyOp53
 70
     1
102
RTVSPropertyOp54
 70
     1
102
RTVSPropertyOp55
 70
     1
102
RTVSPropertyOp56
 70
     1
102
RTVSPropertyOp57
 70
     1
102
RTVSPropertyOp58
 70
     1
102
RTVSPropertyOp59
 70
     1
102
RTVSPropertyOp60
 70
     1
102
RTVSPropertyOp61
 70
     1
102
RTVSPropertyOp62
 70
     1
  0
XRECORD
  5
446
102
{ACAD_REACTORS
330
445
102
}
330
445
100
AcDbXrecord
280
     1
102
RTVSPost2010Prop28
280
     0
102
RTVSPost2010PropOp28
 70
     1
102
RTVSPost2010Prop29
280
     1
102
RTVSPost2010PropOp29
 70
     1
102
RTVSPost2010Prop30
280
     1
102
RTVSPost2010PropOp30
 70
     1
102
RTVSPost2010Prop31
280
     0
102
RTVSPost2010PropOp31
 70
     1
102
RTVSPost2010Prop32
280
     0
102
RTVSPost2010PropOp32
 70
     1
102
RTVSPost2010Prop33
280
     0
102
RTVSPost2010PropOp33
 70
     1
102
RTVSPost2010Prop34
280
     0
102
RTVSPost2010PropOp34
 70
     1
102
RTVSPost2010Prop35
280
     0
102
RTVSPost2010PropOp35
 70
     1
102
RTVSPost2010Prop36
280
     0
102
RTVSPost2010PropOp36
 70
     1
102
RTVSPost2010Prop37
 90
       50
102
RTVSPost2010PropOp37
 70
     0
102
RTVSPost2010Prop38
140
0.0
102
RTVSPost2010PropOp38
 70
     0
102
RTVSPost2010Prop39
140
1.0
102
RTVSPost2010PropOp39
 70
     0
102
RTVSPost2010Prop40
 90
        0
102
RTVSPost2010PropOp40
 70
     0
102
RTVSPost2010Prop41ColorIndex
 90
       18
102
RTVSPost2010Prop41ColorRGB
 90
        0
102
RTVSPost2010PropOp41
 70
     0
102
RTVSPost2010Prop42
 90
       50
102
RTVSPost2010PropOp42
 70
     0
102
RTVSPost2010Prop43
 90
        3
102
RTVSPost2010PropOp43
 70
     0
102
RTVSPost2010Prop44ColorIndex
 90
        5
102
RTVSPost2010Prop44ColorRGB
 90
      255
102
RTVSPost2010PropOp44
 70
     0
102
RTVSPost2010Prop45
280
     0
102
RTVSPost2010PropOp45
 70
     1
102
RTVSPost2010Prop46
 90
       50
102
RTVSPost2010PropOp46
 70
     0
102
RTVSPost2010Prop47
 90
       50
102
RTVSPost2010PropOp47
 70
     0
102
RTVSPost2010Prop48
 90
       50
102
RTVSPost2010PropOp48
 70
     0
102
RTVSPost2010Prop49
280
     0
102
RTVSPost2010PropOp49
 70
     1
102
RTVSPost2010Prop50
 90
       50
102
RTVSPost2010PropOp50
 70
     0
102
RTVSPost2010Prop51ColorIndex
 90
      256
102
RTVSPost2010Prop51ColorRGB
 90
-16777216
102
RTVSPost2010PropOp51
 70
     0
102
RTVSPost2010Prop52
140
1.0
102
RTVSPost2010PropOp52
 70
     0
102
RTVSPost2010Prop53
 90
        2
102
RTVSPost2010PropOp53
 70
     0
102
RTVSPost2010Prop54
  1
strokes_ogs.tif
102
RTVSPost2010PropOp54
 70
     0
102
RTVSPost2010Prop55
280
     0
102
RTVSPost2010PropOp55
 70
     1
102
RTVSPost2010Prop56
140
1.0
102
RTVSPost2010PropOp56
 70
     0
102
RTVSPost2010Prop57
140
1.0
102
RTVSPost2010PropOp57
 70
     0
102
RTVSPropertyOp0
 70
     0
102
RTVSPropertyOp1
 70
     0
102
RTVSPropertyOp2
 70
     0
102
RTVSPropertyOp3
 70
     0
102
RTVSPropertyOp4
 70
     0
102
RTVSPropertyOp5
 70
     0
102
RTVSPropertyOp6
 70
     0
102
RTVSPropertyOp7
 70
     0
102
RTVSPropertyOp8
 70
     0
102
RTVSPropertyOp9
 70
     0
102
RTVSPropertyOp10
 70
     0
102
RTVSPropertyOp11
 70
     0
102
RTVSPropertyOp12
 70
     0
102
RTVSPropertyOp13
 70
     0
102
RTVSPropertyOp14
 70
     2
102
RTVSPropertyOp15
 70
     0
102
RTVSPropertyOp16
 70
     0
102
RTVSPropertyOp17
 70
     0
102
RTVSPropertyOp18
 70
     0
102
RTVSPropertyOp19
 70
     0
102
RTVSPropertyOp20
 70
     0
102
RTVSPropertyOp21
 70
     0
102
RTVSPropertyOp22
 70
     0
102
RTVSPropertyOp23
 70
     0
102
RTVSPropertyOp24
 70
     0
102
RTVSPropertyOp25
 70
     0
102
RTVSPropertyOp26
 70
     0
102
RTVSPropertyOp27
 70
     0
102
RTVSPropertyOp28
 70
     1
102
RTVSPropertyOp29
 70
     1
102
RTVSPropertyOp30
 70
     1
102
RTVSPropertyOp31
 70
     1
102
RTVSPropertyOp32
 70
     1
102
RTVSPropertyOp33
 70
     1
102
RTVSPropertyOp34
 70
     1
102
RTVSPropertyOp35
 70
     1
102
RTVSPropertyOp36
 70
     1
102
RTVSPropertyOp37
 70
     0
102
RTVSPropertyOp38
 70
     0
102
RTVSPropertyOp39
 70
     0
102
RTVSPropertyOp40
 70
     0
102
RTVSPropertyOp41
 70
     0
102
RTVSPropertyOp42
 70
     0
102
RTVSPropertyOp43
 70
     0
102
RTVSPropertyOp44
 70
     0
102
RTVSPropertyOp45
 70
     1
102
RTVSPropertyOp46
 70
     0
102
RTVSPropertyOp47
 70
     0
102
RTVSPropertyOp48
 70
     0
102
RTVSPropertyOp49
 70
     1
102
RTVSPropertyOp50
 70
     0
102
RTVSPropertyOp51
 70
     0
102
RTVSPropertyOp52
 70
     0
102
RTVSPropertyOp53
 70
     0
102
RTVSPropertyOp54
 70
     0
102
RTVSPropertyOp55
 70
     1
102
RTVSPropertyOp56
 70
     0
102
RTVSPropertyOp57
 70
     0
102
RTVSPropertyOp58
 70
     0
102
RTVSPropertyOp59
 70
     0
102
RTVSPropertyOp60
 70
     0
102
RTVSPropertyOp61
 70
     0
102
RTVSPropertyOp62
 70
     0
  0
XRECORD
  5
42C
102
{ACAD_REACTORS
330
42B
102
}
330
42B
100
AcDbXrecord
280
     1
102
RTVSPost2010Prop28
280
     0
102
RTVSPost2010PropOp28
 70
     1
102
RTVSPost2010Prop29
280
     1
102
RTVSPost2010PropOp29
 70
     1
102
RTVSPost2010Prop30
280
     1
102
RTVSPost2010PropOp30
 70
     1
102
RTVSPost2010Prop31
280
     0
102
RTVSPost2010PropOp31
 70
     1
102
RTVSPost2010Prop32
280
     0
102
RTVSPost2010PropOp32
 70
     1
102
RTVSPost2010Prop33
280
     0
102
RTVSPost2010PropOp33
 70
     1
102
RTVSPost2010Prop34
280
     0
102
RTVSPost2010PropOp34
 70
     1
102
RTVSPost2010Prop35
280
     0
102
RTVSPost2010PropOp35
 70
     1
102
RTVSPost2010Prop36
280
     0
102
RTVSPost2010PropOp36
 70
     1
102
RTVSPost2010Prop37
 90
       50
102
RTVSPost2010PropOp37
 70
     1
102
RTVSPost2010Prop38
140
0.0
102
RTVSPost2010PropOp38
 70
     1
102
RTVSPost2010Prop39
140
1.0
102
RTVSPost2010PropOp39
 70
     1
102
RTVSPost2010Prop40
 90
        0
102
RTVSPost2010PropOp40
 70
     1
102
RTVSPost2010Prop41ColorIndex
 90
       18
102
RTVSPost2010Prop41ColorRGB
 90
        0
102
RTVSPost2010PropOp41
 70
     1
102
RTVSPost2010Prop42
 90
       50
102
RTVSPost2010PropOp42
 70
     1
102
RTVSPost2010Prop43
 90
        3
102
RTVSPost2010PropOp43
 70
     1
102
RTVSPost2010Prop44ColorIndex
 90
        5
102
RTVSPost2010Prop44ColorRGB
 90
      255
102
RTVSPost2010PropOp44
 70
     1
102
RTVSPost2010Prop45
280
     0
102
RTVSPost2010PropOp45
 70
     1
102
RTVSPost2010Prop46
 90
       50
102
RTVSPost2010PropOp46
 70
     1
102
RTVSPost2010Prop47
 90
       50
102
RTVSPost2010PropOp47
 70
     1
102
RTVSPost2010Prop48
 90
       50
102
RTVSPost2010PropOp48
 70
     1
102
RTVSPost2010Prop49
280
     0
102
RTVSPost2010PropOp49
 70
     1
102
RTVSPost2010Prop50
 90
       50
102
RTVSPost2010PropOp50
 70
     1
102
RTVSPost2010Prop51ColorIndex
 90
      256
102
RTVSPost2010Prop51ColorRGB
 90
-16777216
102
RTVSPost2010PropOp51
 70
     0
102
RTVSPost2010Prop52
140
1.0
102
RTVSPost2010PropOp52
 70
     0
102
RTVSPost2010Prop53
 90
        2
102
RTVSPost2010PropOp53
 70
     1
102
RTVSPost2010Prop54
  1
strokes_ogs.tif
102
RTVSPost2010PropOp54
 70
     1
102
RTVSPost2010Prop55
280
     0
102
RTVSPost2010PropOp55
 70
     1
102
RTVSPost2010Prop56
140
1.0
102
RTVSPost2010PropOp56
 70
     1
102
RTVSPost2010Prop57
140
1.0
102
RTVSPost2010PropOp57
 70
     1
102
RTVSPropertyOp0
 70
     1
102
RTVSPropertyOp1
 70
     1
102
RTVSPropertyOp2
 70
     1
102
RTVSPropertyOp3
 70
     1
102
RTVSPropertyOp4
 70
     1
102
RTVSPropertyOp5
 70
     1
102
RTVSPropertyOp6
 70
     1
102
RTVSPropertyOp7
 70
     1
102
RTVSPropertyOp8
 70
     1
102
RTVSPropertyOp9
 70
     1
102
RTVSPropertyOp10
 70
     1
102
RTVSPropertyOp11
 70
     1
102
RTVSPropertyOp12
 70
     1
102
RTVSPropertyOp13
 70
     1
102
RTVSPropertyOp14
 70
     1
102
RTVSPropertyOp15
 70
     1
102
RTVSPropertyOp16
 70
     1
102
RTVSPropertyOp17
 70
     1
102
RTVSPropertyOp18
 70
     1
102
RTVSPropertyOp19
 70
     1
102
RTVSPropertyOp20
 70
     1
102
RTVSPropertyOp21
 70
     1
102
RTVSPropertyOp22
 70
     1
102
RTVSPropertyOp23
 70
     1
102
RTVSPropertyOp24
 70
     1
102
RTVSPropertyOp25
 70
     1
102
RTVSPropertyOp26
 70
     1
102
RTVSPropertyOp27
 70
     1
102
RTVSPropertyOp28
 70
     1
102
RTVSPropertyOp29
 70
     1
102
RTVSPropertyOp30
 70
     1
102
RTVSPropertyOp31
 70
     1
102
RTVSPropertyOp32
 70
     1
102
RTVSPropertyOp33
 70
     1
102
RTVSPropertyOp34
 70
     1
102
RTVSPropertyOp35
 70
     1
102
RTVSPropertyOp36
 70
     1
102
RTVSPropertyOp37
 70
     1
102
RTVSPropertyOp38
 70
     1
102
RTVSPropertyOp39
 70
     1
102
RTVSPropertyOp40
 70
     1
102
RTVSPropertyOp41
 70
     1
102
RTVSPropertyOp42
 70
     1
102
RTVSPropertyOp43
 70
     1
102
RTVSPropertyOp44
 70
     1
102
RTVSPropertyOp45
 70
     1
102
RTVSPropertyOp46
 70
     1
102
RTVSPropertyOp47
 70
     1
102
RTVSPropertyOp48
 70
     1
102
RTVSPropertyOp49
 70
     1
102
RTVSPropertyOp50
 70
     1
102
RTVSPropertyOp51
 70
     0
102
RTVSPropertyOp52
 70
     0
102
RTVSPropertyOp53
 70
     1
102
RTVSPropertyOp54
 70
     1
102
RTVSPropertyOp55
 70
     1
102
RTVSPropertyOp56
 70
     1
102
RTVSPropertyOp57
 70
     1
102
RTVSPropertyOp58
 70
     1
102
RTVSPropertyOp59
 70
     1
102
RTVSPropertyOp60
 70
     1
102
RTVSPropertyOp61
 70
     1
102
RTVSPropertyOp62
 70
     1
  0
XRECORD
  5
442
102
{ACAD_REACTORS
330
441
102
}
330
441
100
AcDbXrecord
280
     1
102
RTVSPost2010Prop28
280
     0
102
RTVSPost2010PropOp28
 70
     1
102
RTVSPost2010Prop29
280
     1
102
RTVSPost2010PropOp29
 70
     1
102
RTVSPost2010Prop30
280
     1
102
RTVSPost2010PropOp30
 70
     1
102
RTVSPost2010Prop31
280
     0
102
RTVSPost2010PropOp31
 70
     1
102
RTVSPost2010Prop32
280
     0
102
RTVSPost2010PropOp32
 70
     1
102
RTVSPost2010Prop33
280
     0
102
RTVSPost2010PropOp33
 70
     1
102
RTVSPost2010Prop34
280
     0
102
RTVSPost2010PropOp34
 70
     1
102
RTVSPost2010Prop35
280
     0
102
RTVSPost2010PropOp35
 70
     1
102
RTVSPost2010Prop36
280
     0
102
RTVSPost2010PropOp36
 70
     1
102
RTVSPost2010Prop37
 90
       50
102
RTVSPost2010PropOp37
 70
     1
102
RTVSPost2010Prop38
140
0.0
102
RTVSPost2010PropOp38
 70
     1
102
RTVSPost2010Prop39
140
1.0
102
RTVSPost2010PropOp39
 70
     1
102
RTVSPost2010Prop40
 90
        0
102
RTVSPost2010PropOp40
 70
     1
102
RTVSPost2010Prop41ColorIndex
 90
       18
102
RTVSPost2010Prop41ColorRGB
 90
        0
102
RTVSPost2010PropOp41
 70
     1
102
RTVSPost2010Prop42
 90
       50
102
RTVSPost2010PropOp42
 70
     1
102
RTVSPost2010Prop43
 90
        3
102
RTVSPost2010PropOp43
 70
     1
102
RTVSPost2010Prop44ColorIndex
 90
        5
102
RTVSPost2010Prop44ColorRGB
 90
      255
102
RTVSPost2010PropOp44
 70
     1
102
RTVSPost2010Prop45
280
     0
102
RTVSPost2010PropOp45
 70
     1
102
RTVSPost2010Prop46
 90
       50
102
RTVSPost2010PropOp46
 70
     1
102
RTVSPost2010Prop47
 90
       50
102
RTVSPost2010PropOp47
 70
     1
102
RTVSPost2010Prop48
 90
       50
102
RTVSPost2010PropOp48
 70
     1
102
RTVSPost2010Prop49
280
     0
102
RTVSPost2010PropOp49
 70
     1
102
RTVSPost2010Prop50
 90
       50
102
RTVSPost2010PropOp50
 70
     1
102
RTVSPost2010Prop51ColorIndex
 90
      256
102
RTVSPost2010Prop51ColorRGB
 90
-16777216
102
RTVSPost2010PropOp51
 70
     0
102
RTVSPost2010Prop52
140
1.0
102
RTVSPost2010PropOp52
 70
     0
102
RTVSPost2010Prop53
 90
        2
102
RTVSPost2010PropOp53
 70
     1
102
RTVSPost2010Prop54
  1
strokes_ogs.tif
102
RTVSPost2010PropOp54
 70
     1
102
RTVSPost2010Prop55
280
     0
102
RTVSPost2010PropOp55
 70
     1
102
RTVSPost2010Prop56
140
1.0
102
RTVSPost2010PropOp56
 70
     1
102
RTVSPost2010Prop57
140
1.0
102
RTVSPost2010PropOp57
 70
     1
102
RTVSPropertyOp0
 70
     1
102
RTVSPropertyOp1
 70
     1
102
RTVSPropertyOp2
 70
     1
102
RTVSPropertyOp3
 70
     1
102
RTVSPropertyOp4
 70
     1
102
RTVSPropertyOp5
 70
     1
102
RTVSPropertyOp6
 70
     1
102
RTVSPropertyOp7
 70
     1
102
RTVSPropertyOp8
 70
     1
102
RTVSPropertyOp9
 70
     1
102
RTVSPropertyOp10
 70
     1
102
RTVSPropertyOp11
 70
     1
102
RTVSPropertyOp12
 70
     1
102
RTVSPropertyOp13
 70
     1
102
RTVSPropertyOp14
 70
     1
102
RTVSPropertyOp15
 70
     1
102
RTVSPropertyOp16
 70
     1
102
RTVSPropertyOp17
 70
     1
102
RTVSPropertyOp18
 70
     1
102
RTVSPropertyOp19
 70
     1
102
RTVSPropertyOp20
 70
     1
102
RTVSPropertyOp21
 70
     1
102
RTVSPropertyOp22
 70
     1
102
RTVSPropertyOp23
 70
     1
102
RTVSPropertyOp24
 70
     1
102
RTVSPropertyOp25
 70
     1
102
RTVSPropertyOp26
 70
     1
102
RTVSPropertyOp27
 70
     1
102
RTVSPropertyOp28
 70
     1
102
RTVSPropertyOp29
 70
     1
102
RTVSPropertyOp30
 70
     1
102
RTVSPropertyOp31
 70
     1
102
RTVSPropertyOp32
 70
     1
102
RTVSPropertyOp33
 70
     1
102
RTVSPropertyOp34
 70
     1
102
RTVSPropertyOp35
 70
     1
102
RTVSPropertyOp36
 70
     1
102
RTVSPropertyOp37
 70
     1
102
RTVSPropertyOp38
 70
     1
102
RTVSPropertyOp39
 70
     1
102
RTVSPropertyOp40
 70
     1
102
RTVSPropertyOp41
 70
     1
102
RTVSPropertyOp42
 70
     1
102
RTVSPropertyOp43
 70
     1
102
RTVSPropertyOp44
 70
     1
102
RTVSPropertyOp45
 70
     1
102
RTVSPropertyOp46
 70
     1
102
RTVSPropertyOp47
 70
     1
102
RTVSPropertyOp48
 70
     1
102
RTVSPropertyOp49
 70
     1
102
RTVSPropertyOp50
 70
     1
102
RTVSPropertyOp51
 70
     0
102
RTVSPropertyOp52
 70
     0
102
RTVSPropertyOp53
 70
     1
102
RTVSPropertyOp54
 70
     1
102
RTVSPropertyOp55
 70
     1
102
RTVSPropertyOp56
 70
     1
102
RTVSPropertyOp57
 70
     1
102
RTVSPropertyOp58
 70
     1
102
RTVSPropertyOp59
 70
     1
102
RTVSPropertyOp60
 70
     1
102
RTVSPropertyOp61
 70
     1
102
RTVSPropertyOp62
 70
     1
  0
XRECORD
  5
440
102
{ACAD_REACTORS
330
43F
102
}
330
43F
100
AcDbXrecord
280
     1
102
RTVSPost2010Prop28
280
     0
102
RTVSPost2010PropOp28
 70
     1
102
RTVSPost2010Prop29
280
     1
102
RTVSPost2010PropOp29
 70
     1
102
RTVSPost2010Prop30
280
     1
102
RTVSPost2010PropOp30
 70
     1
102
RTVSPost2010Prop31
280
     0
102
RTVSPost2010PropOp31
 70
     1
102
RTVSPost2010Prop32
280
     0
102
RTVSPost2010PropOp32
 70
     1
102
RTVSPost2010Prop33
280
     0
102
RTVSPost2010PropOp33
 70
     1
102
RTVSPost2010Prop34
280
     0
102
RTVSPost2010PropOp34
 70
     1
102
RTVSPost2010Prop35
280
     0
102
RTVSPost2010PropOp35
 70
     1
102
RTVSPost2010Prop36
280
     0
102
RTVSPost2010PropOp36
 70
     1
102
RTVSPost2010Prop37
 90
       50
102
RTVSPost2010PropOp37
 70
     1
102
RTVSPost2010Prop38
140
0.0
102
RTVSPost2010PropOp38
 70
     1
102
RTVSPost2010Prop39
140
1.0
102
RTVSPost2010PropOp39
 70
     1
102
RTVSPost2010Prop40
 90
        0
102
RTVSPost2010PropOp40
 70
     1
102
RTVSPost2010Prop41ColorIndex
 90
       18
102
RTVSPost2010Prop41ColorRGB
 90
        0
102
RTVSPost2010PropOp41
 70
     1
102
RTVSPost2010Prop42
 90
       50
102
RTVSPost2010PropOp42
 70
     1
102
RTVSPost2010Prop43
 90
        3
102
RTVSPost2010PropOp43
 70
     1
102
RTVSPost2010Prop44ColorIndex
 90
        5
102
RTVSPost2010Prop44ColorRGB
 90
      255
102
RTVSPost2010PropOp44
 70
     1
102
RTVSPost2010Prop45
280
     0
102
RTVSPost2010PropOp45
 70
     1
102
RTVSPost2010Prop46
 90
       50
102
RTVSPost2010PropOp46
 70
     1
102
RTVSPost2010Prop47
 90
       50
102
RTVSPost2010PropOp47
 70
     1
102
RTVSPost2010Prop48
 90
       50
102
RTVSPost2010PropOp48
 70
     1
102
RTVSPost2010Prop49
280
     0
102
RTVSPost2010PropOp49
 70
     1
102
RTVSPost2010Prop50
 90
       50
102
RTVSPost2010PropOp50
 70
     1
102
RTVSPost2010Prop51ColorIndex
 90
      256
102
RTVSPost2010Prop51ColorRGB
 90
-16777216
102
RTVSPost2010PropOp51
 70
     0
102
RTVSPost2010Prop52
140
1.0
102
RTVSPost2010PropOp52
 70
     0
102
RTVSPost2010Prop53
 90
        2
102
RTVSPost2010PropOp53
 70
     1
102
RTVSPost2010Prop54
  1
strokes_ogs.tif
102
RTVSPost2010PropOp54
 70
     1
102
RTVSPost2010Prop55
280
     0
102
RTVSPost2010PropOp55
 70
     1
102
RTVSPost2010Prop56
140
1.0
102
RTVSPost2010PropOp56
 70
     1
102
RTVSPost2010Prop57
140
1.0
102
RTVSPost2010PropOp57
 70
     1
102
RTVSPropertyOp0
 70
     1
102
RTVSPropertyOp1
 70
     1
102
RTVSPropertyOp2
 70
     1
102
RTVSPropertyOp3
 70
     1
102
RTVSPropertyOp4
 70
     1
102
RTVSPropertyOp5
 70
     1
102
RTVSPropertyOp6
 70
     1
102
RTVSPropertyOp7
 70
     1
102
RTVSPropertyOp8
 70
     1
102
RTVSPropertyOp9
 70
     1
102
RTVSPropertyOp10
 70
     1
102
RTVSPropertyOp11
 70
     1
102
RTVSPropertyOp12
 70
     1
102
RTVSPropertyOp13
 70
     1
102
RTVSPropertyOp14
 70
     1
102
RTVSPropertyOp15
 70
     1
102
RTVSPropertyOp16
 70
     1
102
RTVSPropertyOp17
 70
     1
102
RTVSPropertyOp18
 70
     1
102
RTVSPropertyOp19
 70
     1
102
RTVSPropertyOp20
 70
     1
102
RTVSPropertyOp21
 70
     1
102
RTVSPropertyOp22
 70
     1
102
RTVSPropertyOp23
 70
     1
102
RTVSPropertyOp24
 70
     1
102
RTVSPropertyOp25
 70
     1
102
RTVSPropertyOp26
 70
     1
102
RTVSPropertyOp27
 70
     1
102
RTVSPropertyOp28
 70
     1
102
RTVSPropertyOp29
 70
     1
102
RTVSPropertyOp30
 70
     1
102
RTVSPropertyOp31
 70
     1
102
RTVSPropertyOp32
 70
     1
102
RTVSPropertyOp33
 70
     1
102
RTVSPropertyOp34
 70
     1
102
RTVSPropertyOp35
 70
     1
102
RTVSPropertyOp36
 70
     1
102
RTVSPropertyOp37
 70
     1
102
RTVSPropertyOp38
 70
     1
102
RTVSPropertyOp39
 70
     1
102
RTVSPropertyOp40
 70
     1
102
RTVSPropertyOp41
 70
     1
102
RTVSPropertyOp42
 70
     1
102
RTVSPropertyOp43
 70
     1
102
RTVSPropertyOp44
 70
     1
102
RTVSPropertyOp45
 70
     1
102
RTVSPropertyOp46
 70
     1
102
RTVSPropertyOp47
 70
     1
102
RTVSPropertyOp48
 70
     1
102
RTVSPropertyOp49
 70
     1
102
RTVSPropertyOp50
 70
     1
102
RTVSPropertyOp51
 70
     0
102
RTVSPropertyOp52
 70
     0
102
RTVSPropertyOp53
 70
     1
102
RTVSPropertyOp54
 70
     1
102
RTVSPropertyOp55
 70
     1
102
RTVSPropertyOp56
 70
     1
102
RTVSPropertyOp57
 70
     1
102
RTVSPropertyOp58
 70
     1
102
RTVSPropertyOp59
 70
     1
102
RTVSPropertyOp60
 70
     1
102
RTVSPropertyOp61
 70
     1
102
RTVSPropertyOp62
 70
     1
  0
XRECORD
  5
43A
102
{ACAD_REACTORS
330
439
102
}
330
439
100
AcDbXrecord
280
     1
102
RTVSPost2010Prop28
280
     0
102
RTVSPost2010PropOp28
 70
     1
102
RTVSPost2010Prop29
280
     1
102
RTVSPost2010PropOp29
 70
     1
102
RTVSPost2010Prop30
280
     1
102
RTVSPost2010PropOp30
 70
     1
102
RTVSPost2010Prop31
280
     0
102
RTVSPost2010PropOp31
 70
     1
102
RTVSPost2010Prop32
280
     0
102
RTVSPost2010PropOp32
 70
     1
102
RTVSPost2010Prop33
280
     0
102
RTVSPost2010PropOp33
 70
     1
102
RTVSPost2010Prop34
280
     0
102
RTVSPost2010PropOp34
 70
     1
102
RTVSPost2010Prop35
280
     0
102
RTVSPost2010PropOp35
 70
     1
102
RTVSPost2010Prop36
280
     0
102
RTVSPost2010PropOp36
 70
     1
102
RTVSPost2010Prop37
 90
       50
102
RTVSPost2010PropOp37
 70
     1
102
RTVSPost2010Prop38
140
0.0
102
RTVSPost2010PropOp38
 70
     1
102
RTVSPost2010Prop39
140
1.0
102
RTVSPost2010PropOp39
 70
     1
102
RTVSPost2010Prop40
 90
        0
102
RTVSPost2010PropOp40
 70
     1
102
RTVSPost2010Prop41ColorIndex
 90
       18
102
RTVSPost2010Prop41ColorRGB
 90
        0
102
RTVSPost2010PropOp41
 70
     1
102
RTVSPost2010Prop42
 90
       50
102
RTVSPost2010PropOp42
 70
     1
102
RTVSPost2010Prop43
 90
        3
102
RTVSPost2010PropOp43
 70
     1
102
RTVSPost2010Prop44ColorIndex
 90
        5
102
RTVSPost2010Prop44ColorRGB
 90
      255
102
RTVSPost2010PropOp44
 70
     1
102
RTVSPost2010Prop45
280
     0
102
RTVSPost2010PropOp45
 70
     1
102
RTVSPost2010Prop46
 90
       50
102
RTVSPost2010PropOp46
 70
     1
102
RTVSPost2010Prop47
 90
       50
102
RTVSPost2010PropOp47
 70
     1
102
RTVSPost2010Prop48
 90
       50
102
RTVSPost2010PropOp48
 70
     1
102
RTVSPost2010Prop49
280
     0
102
RTVSPost2010PropOp49
 70
     1
102
RTVSPost2010Prop50
 90
       50
102
RTVSPost2010PropOp50
 70
     1
102
RTVSPost2010Prop51ColorIndex
 90
      256
102
RTVSPost2010Prop51ColorRGB
 90
-16777216
102
RTVSPost2010PropOp51
 70
     0
102
RTVSPost2010Prop52
140
1.0
102
RTVSPost2010PropOp52
 70
     0
102
RTVSPost2010Prop53
 90
        2
102
RTVSPost2010PropOp53
 70
     1
102
RTVSPost2010Prop54
  1
strokes_ogs.tif
102
RTVSPost2010PropOp54
 70
     1
102
RTVSPost2010Prop55
280
     0
102
RTVSPost2010PropOp55
 70
     1
102
RTVSPost2010Prop56
140
1.0
102
RTVSPost2010PropOp56
 70
     1
102
RTVSPost2010Prop57
140
1.0
102
RTVSPost2010PropOp57
 70
     1
102
RTVSPropertyOp0
 70
     1
102
RTVSPropertyOp1
 70
     1
102
RTVSPropertyOp2
 70
     1
102
RTVSPropertyOp3
 70
     1
102
RTVSPropertyOp4
 70
     1
102
RTVSPropertyOp5
 70
     1
102
RTVSPropertyOp6
 70
     1
102
RTVSPropertyOp7
 70
     1
102
RTVSPropertyOp8
 70
     1
102
RTVSPropertyOp9
 70
     1
102
RTVSPropertyOp10
 70
     1
102
RTVSPropertyOp11
 70
     1
102
RTVSPropertyOp12
 70
     1
102
RTVSPropertyOp13
 70
     1
102
RTVSPropertyOp14
 70
     1
102
RTVSPropertyOp15
 70
     1
102
RTVSPropertyOp16
 70
     1
102
RTVSPropertyOp17
 70
     1
102
RTVSPropertyOp18
 70
     1
102
RTVSPropertyOp19
 70
     1
102
RTVSPropertyOp20
 70
     1
102
RTVSPropertyOp21
 70
     1
102
RTVSPropertyOp22
 70
     1
102
RTVSPropertyOp23
 70
     1
102
RTVSPropertyOp24
 70
     1
102
RTVSPropertyOp25
 70
     1
102
RTVSPropertyOp26
 70
     1
102
RTVSPropertyOp27
 70
     1
102
RTVSPropertyOp28
 70
     1
102
RTVSPropertyOp29
 70
     1
102
RTVSPropertyOp30
 70
     1
102
RTVSPropertyOp31
 70
     1
102
RTVSPropertyOp32
 70
     1
102
RTVSPropertyOp33
 70
     1
102
RTVSPropertyOp34
 70
     1
102
RTVSPropertyOp35
 70
     1
102
RTVSPropertyOp36
 70
     1
102
RTVSPropertyOp37
 70
     1
102
RTVSPropertyOp38
 70
     1
102
RTVSPropertyOp39
 70
     1
102
RTVSPropertyOp40
 70
     1
102
RTVSPropertyOp41
 70
     1
102
RTVSPropertyOp42
 70
     1
102
RTVSPropertyOp43
 70
     1
102
RTVSPropertyOp44
 70
     1
102
RTVSPropertyOp45
 70
     1
102
RTVSPropertyOp46
 70
     1
102
RTVSPropertyOp47
 70
     1
102
RTVSPropertyOp48
 70
     1
102
RTVSPropertyOp49
 70
     1
102
RTVSPropertyOp50
 70
     1
102
RTVSPropertyOp51
 70
     0
102
RTVSPropertyOp52
 70
     0
102
RTVSPropertyOp53
 70
     1
102
RTVSPropertyOp54
 70
     1
102
RTVSPropertyOp55
 70
     1
102
RTVSPropertyOp56
 70
     1
102
RTVSPropertyOp57
 70
     1
102
RTVSPropertyOp58
 70
     1
102
RTVSPropertyOp59
 70
     1
102
RTVSPropertyOp60
 70
     1
102
RTVSPropertyOp61
 70
     1
102
RTVSPropertyOp62
 70
     1
  0
XRECORD
  5
43C
102
{ACAD_REACTORS
330
43B
102
}
330
43B
100
AcDbXrecord
280
     1
102
RTVSPost2010Prop28
280
     0
102
RTVSPost2010PropOp28
 70
     1
102
RTVSPost2010Prop29
280
     1
102
RTVSPost2010PropOp29
 70
     1
102
RTVSPost2010Prop30
280
     1
102
RTVSPost2010PropOp30
 70
     1
102
RTVSPost2010Prop31
280
     0
102
RTVSPost2010PropOp31
 70
     1
102
RTVSPost2010Prop32
280
     0
102
RTVSPost2010PropOp32
 70
     1
102
RTVSPost2010Prop33
280
     0
102
RTVSPost2010PropOp33
 70
     1
102
RTVSPost2010Prop34
280
     0
102
RTVSPost2010PropOp34
 70
     1
102
RTVSPost2010Prop35
280
     0
102
RTVSPost2010PropOp35
 70
     1
102
RTVSPost2010Prop36
280
     0
102
RTVSPost2010PropOp36
 70
     1
102
RTVSPost2010Prop37
 90
       50
102
RTVSPost2010PropOp37
 70
     1
102
RTVSPost2010Prop38
140
0.0
102
RTVSPost2010PropOp38
 70
     1
102
RTVSPost2010Prop39
140
1.0
102
RTVSPost2010PropOp39
 70
     1
102
RTVSPost2010Prop40
 90
        0
102
RTVSPost2010PropOp40
 70
     1
102
RTVSPost2010Prop41ColorIndex
 90
       18
102
RTVSPost2010Prop41ColorRGB
 90
        0
102
RTVSPost2010PropOp41
 70
     1
102
RTVSPost2010Prop42
 90
       50
102
RTVSPost2010PropOp42
 70
     1
102
RTVSPost2010Prop43
 90
        3
102
RTVSPost2010PropOp43
 70
     1
102
RTVSPost2010Prop44ColorIndex
 90
        5
102
RTVSPost2010Prop44ColorRGB
 90
      255
102
RTVSPost2010PropOp44
 70
     1
102
RTVSPost2010Prop45
280
     0
102
RTVSPost2010PropOp45
 70
     1
102
RTVSPost2010Prop46
 90
       50
102
RTVSPost2010PropOp46
 70
     1
102
RTVSPost2010Prop47
 90
       50
102
RTVSPost2010PropOp47
 70
     1
102
RTVSPost2010Prop48
 90
       50
102
RTVSPost2010PropOp48
 70
     1
102
RTVSPost2010Prop49
280
     0
102
RTVSPost2010PropOp49
 70
     1
102
RTVSPost2010Prop50
 90
       50
102
RTVSPost2010PropOp50
 70
     1
102
RTVSPost2010Prop51ColorIndex
 90
      256
102
RTVSPost2010Prop51ColorRGB
 90
-16777216
102
RTVSPost2010PropOp51
 70
     0
102
RTVSPost2010Prop52
140
1.0
102
RTVSPost2010PropOp52
 70
     0
102
RTVSPost2010Prop53
 90
        2
102
RTVSPost2010PropOp53
 70
     1
102
RTVSPost2010Prop54
  1
strokes_ogs.tif
102
RTVSPost2010PropOp54
 70
     1
102
RTVSPost2010Prop55
280
     0
102
RTVSPost2010PropOp55
 70
     1
102
RTVSPost2010Prop56
140
1.0
102
RTVSPost2010PropOp56
 70
     1
102
RTVSPost2010Prop57
140
1.0
102
RTVSPost2010PropOp57
 70
     1
102
RTVSPropertyOp0
 70
     1
102
RTVSPropertyOp1
 70
     1
102
RTVSPropertyOp2
 70
     1
102
RTVSPropertyOp3
 70
     1
102
RTVSPropertyOp4
 70
     1
102
RTVSPropertyOp5
 70
     1
102
RTVSPropertyOp6
 70
     1
102
RTVSPropertyOp7
 70
     1
102
RTVSPropertyOp8
 70
     1
102
RTVSPropertyOp9
 70
     1
102
RTVSPropertyOp10
 70
     1
102
RTVSPropertyOp11
 70
     1
102
RTVSPropertyOp12
 70
     1
102
RTVSPropertyOp13
 70
     1
102
RTVSPropertyOp14
 70
     1
102
RTVSPropertyOp15
 70
     1
102
RTVSPropertyOp16
 70
     1
102
RTVSPropertyOp17
 70
     1
102
RTVSPropertyOp18
 70
     1
102
RTVSPropertyOp19
 70
     1
102
RTVSPropertyOp20
 70
     1
102
RTVSPropertyOp21
 70
     1
102
RTVSPropertyOp22
 70
     1
102
RTVSPropertyOp23
 70
     1
102
RTVSPropertyOp24
 70
     1
102
RTVSPropertyOp25
 70
     1
102
RTVSPropertyOp26
 70
     1
102
RTVSPropertyOp27
 70
     1
102
RTVSPropertyOp28
 70
     1
102
RTVSPropertyOp29
 70
     1
102
RTVSPropertyOp30
 70
     1
102
RTVSPropertyOp31
 70
     1
102
RTVSPropertyOp32
 70
     1
102
RTVSPropertyOp33
 70
     1
102
RTVSPropertyOp34
 70
     1
102
RTVSPropertyOp35
 70
     1
102
RTVSPropertyOp36
 70
     1
102
RTVSPropertyOp37
 70
     1
102
RTVSPropertyOp38
 70
     1
102
RTVSPropertyOp39
 70
     1
102
RTVSPropertyOp40
 70
     1
102
RTVSPropertyOp41
 70
     1
102
RTVSPropertyOp42
 70
     1
102
RTVSPropertyOp43
 70
     1
102
RTVSPropertyOp44
 70
     1
102
RTVSPropertyOp45
 70
     1
102
RTVSPropertyOp46
 70
     1
102
RTVSPropertyOp47
 70
     1
102
RTVSPropertyOp48
 70
     1
102
RTVSPropertyOp49
 70
     1
102
RTVSPropertyOp50
 70
     1
102
RTVSPropertyOp51
 70
     0
102
RTVSPropertyOp52
 70
     0
102
RTVSPropertyOp53
 70
     1
102
RTVSPropertyOp54
 70
     1
102
RTVSPropertyOp55
 70
     1
102
RTVSPropertyOp56
 70
     1
102
RTVSPropertyOp57
 70
     1
102
RTVSPropertyOp58
 70
     1
102
RTVSPropertyOp59
 70
     1
102
RTVSPropertyOp60
 70
     1
102
RTVSPropertyOp61
 70
     1
102
RTVSPropertyOp62
 70
     1
  0
XRECORD
  5
432
102
{ACAD_REACTORS
330
431
102
}
330
431
100
AcDbXrecord
280
     1
102
RTVSPost2010Prop28
280
     0
102
RTVSPost2010PropOp28
 70
     1
102
RTVSPost2010Prop29
280
     1
102
RTVSPost2010PropOp29
 70
     1
102
RTVSPost2010Prop30
280
     1
102
RTVSPost2010PropOp30
 70
     1
102
RTVSPost2010Prop31
280
     0
102
RTVSPost2010PropOp31
 70
     1
102
RTVSPost2010Prop32
280
     0
102
RTVSPost2010PropOp32
 70
     1
102
RTVSPost2010Prop33
280
     0
102
RTVSPost2010PropOp33
 70
     1
102
RTVSPost2010Prop34
280
     0
102
RTVSPost2010PropOp34
 70
     1
102
RTVSPost2010Prop35
280
     0
102
RTVSPost2010PropOp35
 70
     1
102
RTVSPost2010Prop36
280
     0
102
RTVSPost2010PropOp36
 70
     1
102
RTVSPost2010Prop37
 90
       50
102
RTVSPost2010PropOp37
 70
     1
102
RTVSPost2010Prop38
140
0.0
102
RTVSPost2010PropOp38
 70
     1
102
RTVSPost2010Prop39
140
1.0
102
RTVSPost2010PropOp39
 70
     1
102
RTVSPost2010Prop40
 90
        0
102
RTVSPost2010PropOp40
 70
     1
102
RTVSPost2010Prop41ColorIndex
 90
       18
102
RTVSPost2010Prop41ColorRGB
 90
        0
102
RTVSPost2010PropOp41
 70
     1
102
RTVSPost2010Prop42
 90
       50
102
RTVSPost2010PropOp42
 70
     1
102
RTVSPost2010Prop43
 90
        3
102
RTVSPost2010PropOp43
 70
     1
102
RTVSPost2010Prop44ColorIndex
 90
        5
102
RTVSPost2010Prop44ColorRGB
 90
      255
102
RTVSPost2010PropOp44
 70
     1
102
RTVSPost2010Prop45
280
     0
102
RTVSPost2010PropOp45
 70
     1
102
RTVSPost2010Prop46
 90
       50
102
RTVSPost2010PropOp46
 70
     1
102
RTVSPost2010Prop47
 90
       50
102
RTVSPost2010PropOp47
 70
     1
102
RTVSPost2010Prop48
 90
       50
102
RTVSPost2010PropOp48
 70
     1
102
RTVSPost2010Prop49
280
     0
102
RTVSPost2010PropOp49
 70
     1
102
RTVSPost2010Prop50
 90
       50
102
RTVSPost2010PropOp50
 70
     1
102
RTVSPost2010Prop51ColorIndex
 90
      256
102
RTVSPost2010Prop51ColorRGB
 90
-16777216
102
RTVSPost2010PropOp51
 70
     0
102
RTVSPost2010Prop52
140
1.0
102
RTVSPost2010PropOp52
 70
     0
102
RTVSPost2010Prop53
 90
        2
102
RTVSPost2010PropOp53
 70
     1
102
RTVSPost2010Prop54
  1
strokes_ogs.tif
102
RTVSPost2010PropOp54
 70
     1
102
RTVSPost2010Prop55
280
     0
102
RTVSPost2010PropOp55
 70
     1
102
RTVSPost2010Prop56
140
1.0
102
RTVSPost2010PropOp56
 70
     1
102
RTVSPost2010Prop57
140
1.0
102
RTVSPost2010PropOp57
 70
     1
102
RTVSPropertyOp0
 70
     1
102
RTVSPropertyOp1
 70
     1
102
RTVSPropertyOp2
 70
     1
102
RTVSPropertyOp3
 70
     1
102
RTVSPropertyOp4
 70
     1
102
RTVSPropertyOp5
 70
     1
102
RTVSPropertyOp6
 70
     1
102
RTVSPropertyOp7
 70
     1
102
RTVSPropertyOp8
 70
     1
102
RTVSPropertyOp9
 70
     1
102
RTVSPropertyOp10
 70
     1
102
RTVSPropertyOp11
 70
     1
102
RTVSPropertyOp12
 70
     1
102
RTVSPropertyOp13
 70
     1
102
RTVSPropertyOp14
 70
     1
102
RTVSPropertyOp15
 70
     1
102
RTVSPropertyOp16
 70
     1
102
RTVSPropertyOp17
 70
     1
102
RTVSPropertyOp18
 70
     1
102
RTVSPropertyOp19
 70
     1
102
RTVSPropertyOp20
 70
     1
102
RTVSPropertyOp21
 70
     1
102
RTVSPropertyOp22
 70
     1
102
RTVSPropertyOp23
 70
     1
102
RTVSPropertyOp24
 70
     1
102
RTVSPropertyOp25
 70
     1
102
RTVSPropertyOp26
 70
     1
102
RTVSPropertyOp27
 70
     1
102
RTVSPropertyOp28
 70
     1
102
RTVSPropertyOp29
 70
     1
102
RTVSPropertyOp30
 70
     1
102
RTVSPropertyOp31
 70
     1
102
RTVSPropertyOp32
 70
     1
102
RTVSPropertyOp33
 70
     1
102
RTVSPropertyOp34
 70
     1
102
RTVSPropertyOp35
 70
     1
102
RTVSPropertyOp36
 70
     1
102
RTVSPropertyOp37
 70
     1
102
RTVSPropertyOp38
 70
     1
102
RTVSPropertyOp39
 70
     1
102
RTVSPropertyOp40
 70
     1
102
RTVSPropertyOp41
 70
     1
102
RTVSPropertyOp42
 70
     1
102
RTVSPropertyOp43
 70
     1
102
RTVSPropertyOp44
 70
     1
102
RTVSPropertyOp45
 70
     1
102
RTVSPropertyOp46
 70
     1
102
RTVSPropertyOp47
 70
     1
102
RTVSPropertyOp48
 70
     1
102
RTVSPropertyOp49
 70
     1
102
RTVSPropertyOp50
 70
     1
102
RTVSPropertyOp51
 70
     0
102
RTVSPropertyOp52
 70
     0
102
RTVSPropertyOp53
 70
     1
102
RTVSPropertyOp54
 70
     1
102
RTVSPropertyOp55
 70
     1
102
RTVSPropertyOp56
 70
     1
102
RTVSPropertyOp57
 70
     1
102
RTVSPropertyOp58
 70
     1
102
RTVSPropertyOp59
 70
     1
102
RTVSPropertyOp60
 70
     1
102
RTVSPropertyOp61
 70
     1
102
RTVSPropertyOp62
 70
     1
  0
XRECORD
  5
426
102
{ACAD_REACTORS
330
425
102
}
330
425
100
AcDbXrecord
280
     1
102
RTVSPost2010Prop28
280
     0
102
RTVSPost2010PropOp28
 70
     1
102
RTVSPost2010Prop29
280
     1
102
RTVSPost2010PropOp29
 70
     1
102
RTVSPost2010Prop30
280
     1
102
RTVSPost2010PropOp30
 70
     1
102
RTVSPost2010Prop31
280
     0
102
RTVSPost2010PropOp31
 70
     1
102
RTVSPost2010Prop32
280
     0
102
RTVSPost2010PropOp32
 70
     1
102
RTVSPost2010Prop33
280
     0
102
RTVSPost2010PropOp33
 70
     1
102
RTVSPost2010Prop34
280
     0
102
RTVSPost2010PropOp34
 70
     1
102
RTVSPost2010Prop35
280
     0
102
RTVSPost2010PropOp35
 70
     1
102
RTVSPost2010Prop36
280
     0
102
RTVSPost2010PropOp36
 70
     1
102
RTVSPost2010Prop37
 90
       50
102
RTVSPost2010PropOp37
 70
     1
102
RTVSPost2010Prop38
140
0.0
102
RTVSPost2010PropOp38
 70
     1
102
RTVSPost2010Prop39
140
1.0
102
RTVSPost2010PropOp39
 70
     1
102
RTVSPost2010Prop40
 90
        0
102
RTVSPost2010PropOp40
 70
     1
102
RTVSPost2010Prop41ColorIndex
 90
       18
102
RTVSPost2010Prop41ColorRGB
 90
        0
102
RTVSPost2010PropOp41
 70
     1
102
RTVSPost2010Prop42
 90
       50
102
RTVSPost2010PropOp42
 70
     1
102
RTVSPost2010Prop43
 90
        3
102
RTVSPost2010PropOp43
 70
     1
102
RTVSPost2010Prop44ColorIndex
 90
        5
102
RTVSPost2010Prop44ColorRGB
 90
      255
102
RTVSPost2010PropOp44
 70
     1
102
RTVSPost2010Prop45
280
     0
102
RTVSPost2010PropOp45
 70
     1
102
RTVSPost2010Prop46
 90
       50
102
RTVSPost2010PropOp46
 70
     1
102
RTVSPost2010Prop47
 90
       50
102
RTVSPost2010PropOp47
 70
     1
102
RTVSPost2010Prop48
 90
       50
102
RTVSPost2010PropOp48
 70
     1
102
RTVSPost2010Prop49
280
     0
102
RTVSPost2010PropOp49
 70
     1
102
RTVSPost2010Prop50
 90
       50
102
RTVSPost2010PropOp50
 70
     1
102
RTVSPost2010Prop51ColorIndex
 90
      256
102
RTVSPost2010Prop51ColorRGB
 90
-16777216
102
RTVSPost2010PropOp51
 70
     0
102
RTVSPost2010Prop52
140
1.0
102
RTVSPost2010PropOp52
 70
     0
102
RTVSPost2010Prop53
 90
        2
102
RTVSPost2010PropOp53
 70
     1
102
RTVSPost2010Prop54
  1
strokes_ogs.tif
102
RTVSPost2010PropOp54
 70
     1
102
RTVSPost2010Prop55
280
     0
102
RTVSPost2010PropOp55
 70
     1
102
RTVSPost2010Prop56
140
1.0
102
RTVSPost2010PropOp56
 70
     1
102
RTVSPost2010Prop57
140
1.0
102
RTVSPost2010PropOp57
 70
     1
102
RTVSPropertyOp0
 70
     1
102
RTVSPropertyOp1
 70
     1
102
RTVSPropertyOp2
 70
     1
102
RTVSPropertyOp3
 70
     1
102
RTVSPropertyOp4
 70
     1
102
RTVSPropertyOp5
 70
     1
102
RTVSPropertyOp6
 70
     1
102
RTVSPropertyOp7
 70
     1
102
RTVSPropertyOp8
 70
     1
102
RTVSPropertyOp9
 70
     1
102
RTVSPropertyOp10
 70
     1
102
RTVSPropertyOp11
 70
     1
102
RTVSPropertyOp12
 70
     1
102
RTVSPropertyOp13
 70
     1
102
RTVSPropertyOp14
 70
     1
102
RTVSPropertyOp15
 70
     1
102
RTVSPropertyOp16
 70
     1
102
RTVSPropertyOp17
 70
     1
102
RTVSPropertyOp18
 70
     1
102
RTVSPropertyOp19
 70
     1
102
RTVSPropertyOp20
 70
     1
102
RTVSPropertyOp21
 70
     1
102
RTVSPropertyOp22
 70
     1
102
RTVSPropertyOp23
 70
     1
102
RTVSPropertyOp24
 70
     1
102
RTVSPropertyOp25
 70
     1
102
RTVSPropertyOp26
 70
     1
102
RTVSPropertyOp27
 70
     1
102
RTVSPropertyOp28
 70
     1
102
RTVSPropertyOp29
 70
     1
102
RTVSPropertyOp30
 70
     1
102
RTVSPropertyOp31
 70
     1
102
RTVSPropertyOp32
 70
     1
102
RTVSPropertyOp33
 70
     1
102
RTVSPropertyOp34
 70
     1
102
RTVSPropertyOp35
 70
     1
102
RTVSPropertyOp36
 70
     1
102
RTVSPropertyOp37
 70
     1
102
RTVSPropertyOp38
 70
     1
102
RTVSPropertyOp39
 70
     1
102
RTVSPropertyOp40
 70
     1
102
RTVSPropertyOp41
 70
     1
102
RTVSPropertyOp42
 70
     1
102
RTVSPropertyOp43
 70
     1
102
RTVSPropertyOp44
 70
     1
102
RTVSPropertyOp45
 70
     1
102
RTVSPropertyOp46
 70
     1
102
RTVSPropertyOp47
 70
     1
102
RTVSPropertyOp48
 70
     1
102
RTVSPropertyOp49
 70
     1
102
RTVSPropertyOp50
 70
     1
102
RTVSPropertyOp51
 70
     0
102
RTVSPropertyOp52
 70
     0
102
RTVSPropertyOp53
 70
     1
102
RTVSPropertyOp54
 70
     1
102
RTVSPropertyOp55
 70
     1
102
RTVSPropertyOp56
 70
     1
102
RTVSPropertyOp57
 70
     1
102
RTVSPropertyOp58
 70
     1
102
RTVSPropertyOp59
 70
     1
102
RTVSPropertyOp60
 70
     1
102
RTVSPropertyOp61
 70
     1
102
RTVSPropertyOp62
 70
     1
  0
XRECORD
  5
43E
102
{ACAD_REACTORS
330
43D
102
}
330
43D
100
AcDbXrecord
280
     1
102
RTVSPost2010Prop28
280
     0
102
RTVSPost2010PropOp28
 70
     1
102
RTVSPost2010Prop29
280
     1
102
RTVSPost2010PropOp29
 70
     1
102
RTVSPost2010Prop30
280
     1
102
RTVSPost2010PropOp30
 70
     1
102
RTVSPost2010Prop31
280
     0
102
RTVSPost2010PropOp31
 70
     1
102
RTVSPost2010Prop32
280
     0
102
RTVSPost2010PropOp32
 70
     1
102
RTVSPost2010Prop33
280
     0
102
RTVSPost2010PropOp33
 70
     1
102
RTVSPost2010Prop34
280
     0
102
RTVSPost2010PropOp34
 70
     1
102
RTVSPost2010Prop35
280
     0
102
RTVSPost2010PropOp35
 70
     1
102
RTVSPost2010Prop36
280
     0
102
RTVSPost2010PropOp36
 70
     1
102
RTVSPost2010Prop37
 90
       50
102
RTVSPost2010PropOp37
 70
     1
102
RTVSPost2010Prop38
140
0.0
102
RTVSPost2010PropOp38
 70
     1
102
RTVSPost2010Prop39
140
1.0
102
RTVSPost2010PropOp39
 70
     1
102
RTVSPost2010Prop40
 90
        0
102
RTVSPost2010PropOp40
 70
     1
102
RTVSPost2010Prop41ColorIndex
 90
       18
102
RTVSPost2010Prop41ColorRGB
 90
        0
102
RTVSPost2010PropOp41
 70
     1
102
RTVSPost2010Prop42
 90
       50
102
RTVSPost2010PropOp42
 70
     1
102
RTVSPost2010Prop43
 90
        3
102
RTVSPost2010PropOp43
 70
     1
102
RTVSPost2010Prop44ColorIndex
 90
        5
102
RTVSPost2010Prop44ColorRGB
 90
      255
102
RTVSPost2010PropOp44
 70
     1
102
RTVSPost2010Prop45
280
     0
102
RTVSPost2010PropOp45
 70
     1
102
RTVSPost2010Prop46
 90
       50
102
RTVSPost2010PropOp46
 70
     1
102
RTVSPost2010Prop47
 90
       50
102
RTVSPost2010PropOp47
 70
     1
102
RTVSPost2010Prop48
 90
       50
102
RTVSPost2010PropOp48
 70
     1
102
RTVSPost2010Prop49
280
     0
102
RTVSPost2010PropOp49
 70
     1
102
RTVSPost2010Prop50
 90
       50
102
RTVSPost2010PropOp50
 70
     1
102
RTVSPost2010Prop51ColorIndex
 90
      256
102
RTVSPost2010Prop51ColorRGB
 90
-16777216
102
RTVSPost2010PropOp51
 70
     0
102
RTVSPost2010Prop52
140
1.0
102
RTVSPost2010PropOp52
 70
     0
102
RTVSPost2010Prop53
 90
        2
102
RTVSPost2010PropOp53
 70
     1
102
RTVSPost2010Prop54
  1
strokes_ogs.tif
102
RTVSPost2010PropOp54
 70
     1
102
RTVSPost2010Prop55
280
     0
102
RTVSPost2010PropOp55
 70
     1
102
RTVSPost2010Prop56
140
1.0
102
RTVSPost2010PropOp56
 70
     1
102
RTVSPost2010Prop57
140
1.0
102
RTVSPost2010PropOp57
 70
     1
102
RTVSPropertyOp0
 70
     1
102
RTVSPropertyOp1
 70
     1
102
RTVSPropertyOp2
 70
     1
102
RTVSPropertyOp3
 70
     1
102
RTVSPropertyOp4
 70
     1
102
RTVSPropertyOp5
 70
     1
102
RTVSPropertyOp6
 70
     1
102
RTVSPropertyOp7
 70
     1
102
RTVSPropertyOp8
 70
     1
102
RTVSPropertyOp9
 70
     1
102
RTVSPropertyOp10
 70
     1
102
RTVSPropertyOp11
 70
     1
102
RTVSPropertyOp12
 70
     1
102
RTVSPropertyOp13
 70
     1
102
RTVSPropertyOp14
 70
     1
102
RTVSPropertyOp15
 70
     1
102
RTVSPropertyOp16
 70
     1
102
RTVSPropertyOp17
 70
     1
102
RTVSPropertyOp18
 70
     1
102
RTVSPropertyOp19
 70
     1
102
RTVSPropertyOp20
 70
     1
102
RTVSPropertyOp21
 70
     1
102
RTVSPropertyOp22
 70
     1
102
RTVSPropertyOp23
 70
     1
102
RTVSPropertyOp24
 70
     1
102
RTVSPropertyOp25
 70
     1
102
RTVSPropertyOp26
 70
     1
102
RTVSPropertyOp27
 70
     1
102
RTVSPropertyOp28
 70
     1
102
RTVSPropertyOp29
 70
     1
102
RTVSPropertyOp30
 70
     1
102
RTVSPropertyOp31
 70
     1
102
RTVSPropertyOp32
 70
     1
102
RTVSPropertyOp33
 70
     1
102
RTVSPropertyOp34
 70
     1
102
RTVSPropertyOp35
 70
     1
102
RTVSPropertyOp36
 70
     1
102
RTVSPropertyOp37
 70
     1
102
RTVSPropertyOp38
 70
     1
102
RTVSPropertyOp39
 70
     1
102
RTVSPropertyOp40
 70
     1
102
RTVSPropertyOp41
 70
     1
102
RTVSPropertyOp42
 70
     1
102
RTVSPropertyOp43
 70
     1
102
RTVSPropertyOp44
 70
     1
102
RTVSPropertyOp45
 70
     1
102
RTVSPropertyOp46
 70
     1
102
RTVSPropertyOp47
 70
     1
102
RTVSPropertyOp48
 70
     1
102
RTVSPropertyOp49
 70
     1
102
RTVSPropertyOp50
 70
     1
102
RTVSPropertyOp51
 70
     0
102
RTVSPropertyOp52
 70
     0
102
RTVSPropertyOp53
 70
     1
102
RTVSPropertyOp54
 70
     1
102
RTVSPropertyOp55
 70
     1
102
RTVSPropertyOp56
 70
     1
102
RTVSPropertyOp57
 70
     1
102
RTVSPropertyOp58
 70
     1
102
RTVSPropertyOp59
 70
     1
102
RTVSPropertyOp60
 70
     1
102
RTVSPropertyOp61
 70
     1
102
RTVSPropertyOp62
 70
     1
  0
ENDSEC
  0
EOF
