  0
SECTION
  2
HEADER
  9
$ACADVER
  1
AC1015
  9
$ACADMAINTVER
 70
               6
  9
$DWGCODEPAGE
  3
ANSI_932
  9
$INSBASE
 10
0.0
 20
0.0
 30
0.0
  9
$EXTMIN
 10
14738.918617005351
 20
-560.4406022811977
 30
-29.701066666666666
  9
$EXTMAX
 10
18338.918617005351
 20
4789.2033083051047
 30
29.701066666666666
  9
$LIMMIN
 10
0.0
 20
0.0
  9
$LIMMAX
 10
0.0
 20
0.0
  9
$ORTHOMODE
 70
               0
  9
$REGENMODE
 70
               1
  9
$FILLMODE
 70
               1
  9
$QTEXTMODE
 70
               0
  9
$MIRRTEXT
 70
               1
  9
$LTSCALE
 40
101.59999999999999
  9
$ATTMODE
 70
               1
  9
$TEXTSIZE
 40
0.2
  9
$TRACEWID
 40
1.0
  9
$TEXTSTYLE
  7
Standard
  9
$CLAYER
  8
0
  9
$CELTYPE
  6
Continuous
  9
$CECOLOR
 62
             256
  9
$CELTSCALE
 40
1.0
  9
$DISPSILH
 70
               0
  9
$DIMSCALE
 40
1.0
  9
$DIMASZ
 40
50.012451171875
  9
$DIMEXO
 40
39.999999999999993
  9
$DIMDLI
 40
4.9999999999999991
  9
$DIMRND
 40
0.0
  9
$DIMDLE
 40
0.0
  9
$DIMEXE
 40
39.999999999999993
  9
$DIMTP
 40
0.0
  9
$DIMTM
 40
0.0
  9
$DIMTXT
 40
78.184375000000401
  9
$DIMCEN
 40
0.0
  9
$DIMTSZ
 40
0.0
  9
$DIMTOL
 70
               0
  9
$DIMLIM
 70
               0
  9
$DIMTIH
 70
               0
  9
$DIMTOH
 70
               0
  9
$DIMSE1
 70
               0
  9
$DIMSE2
 70
               0
  9
$DIMTAD
 70
               1
  9
$DIMZIN
 70
              11
  9
$DIMBLK
  1
VW_EMPTYARROW
  9
$DIMASO
 70
               1
  9
$DIMSHO
 70
               1
  9
$DIMPOST
  1
<>
  9
$DIMAPOST
  1
[]
  9
$DIMALT
 70
               0
  9
$DIMALTD
 70
               2
  9
$DIMALTF
 40
1.0
  9
$DIMLFAC
 40
1.0
  9
$DIMTOFL
 70
               1
  9
$DIMTVP
 40
0.0
  9
$DIMTIX
 70
               1
  9
$DIMSOXD
 70
               0
  9
$DIMSAH
 70
               0
  9
$DIMBLK1
  1

  9
$DIMBLK2
  1

  9
$DIMSTYLE
  2
HIBINO
  9
$DIMCLRD
 70
               0
  9
$DIMCLRE
 70
               0
  9
$DIMCLRT
 70
               0
  9
$DIMTFAC
 40
1.0
  9
$DIMGAP
 40
0.4999999999999999
  9
$DIMJUST
 70
               0
  9
$DIMSD1
 70
               0
  9
$DIMSD2
 70
               0
  9
$DIMTOLJ
 70
               1
  9
$DIMTZIN
 70
              11
  9
$DIMALTZ
 70
              11
  9
$DIMALTTZ
 70
              11
  9
$DIMUPT
 70
               0
  9
$DIMDEC
 70
               2
  9
$DIMTDEC
 70
               2
  9
$DIMALTU
 70
               2
  9
$DIMALTTD
 70
               2
  9
$DIMTXSTY
  7
ＭＳ ゴシック
  9
$DIMAUNIT
 70
               0
  9
$DIMADEC
 70
               0
  9
$DIMALTRND
 40
0.0
  9
$DIMAZIN
 70
               0
  9
$DIMDSEP
 70
              46
  9
$DIMATFIT
 70
               0
  9
$DIMFRAC
 70
               2
  9
$DIMLDRBLK
  1

  9
$DIMLUNIT
 70
               2
  9
$DIMLWD
 70
              -2
  9
$DIMLWE
 70
              -2
  9
$DIMTMOVE
 70
               0
  9
$LUNITS
 70
               2
  9
$LUPREC
 70
               4
  9
$SKETCHINC
 40
0.1
  9
$FILLETRAD
 40
0.0
  9
$AUNITS
 70
               0
  9
$AUPREC
 70
               0
  9
$MENU
  1
acad
  9
$ELEVATION
 40
0.0
  9
$PELEVATION
 40
0.0
  9
$THICKNESS
 40
0.0
  9
$LIMCHECK
 70
               0
  9
$CHAMFERA
 40
0.0
  9
$CHAMFERB
 40
0.0
  9
$CHAMFERC
 40
0.0
  9
$CHAMFERD
 40
0.0
  9
$SKPOLY
 70
               0
  9
$TDCREATE
 40
2458495.781967592
  9
$TDUCREATE
 40
0.000000000
  9
$TDUPDATE
 40
2458495.781967592
  9
$TDUUPDATE
 40
0.000000000
  9
$TDINDWG
 40
0.0000000000
  9
$TDUSRTIMER
 40
0.0000000000
  9
$USRTIMER
 70
               1
  9
$ANGBASE
 50
0.0
  9
$ANGDIR
 70
               0
  9
$PDMODE
 70
               1
  9
$PDSIZE
 40
-2.0
  9
$PLINEWID
 40
0.0
  9
$SPLFRAME
 70
               0
  9
$SPLINETYPE
 70
               6
  9
$SPLINESEGS
 70
               8
  9
$HANDSEED
  5
49C
  9
$SURFTAB1
 70
               6
  9
$SURFTAB2
 70
               6
  9
$SURFTYPE
 70
               6
  9
$SURFU
 70
               6
  9
$SURFV
 70
               6
  9
$UCSBASE
  2

  9
$UCSNAME
  2

  9
$UCSORG
 10
0.0
 20
0.0
 30
0.0
  9
$UCSXDIR
 10
1.0
 20
0.0
 30
0.0
  9
$UCSYDIR
 10
0.0
 20
1.0
 30
0.0
  9
$UCSORTHOREF
  2

  9
$UCSORTHOVIEW
 70
               0
  9
$UCSORGTOP
 10
0.0
 20
0.0
 30
0.0
  9
$UCSORGBOTTOM
 10
0.0
 20
0.0
 30
0.0
  9
$UCSORGLEFT
 10
0.0
 20
0.0
 30
0.0
  9
$UCSORGRIGHT
 10
0.0
 20
0.0
 30
0.0
  9
$UCSORGFRONT
 10
0.0
 20
0.0
 30
0.0
  9
$UCSORGBACK
 10
0.0
 20
0.0
 30
0.0
  9
$PUCSBASE
  2

  9
$PUCSNAME
  2

  9
$PUCSORG
 10
0.0
 20
0.0
 30
0.0
  9
$PUCSXDIR
 10
1.0
 20
0.0
 30
0.0
  9
$PUCSYDIR
 10
0.0
 20
1.0
 30
0.0
  9
$PUCSORTHOREF
  2

  9
$PUCSORTHOVIEW
 70
               0
  9
$PUCSORGTOP
 10
0.0
 20
0.0
 30
0.0
  9
$PUCSORGBOTTOM
 10
0.0
 20
0.0
 30
0.0
  9
$PUCSORGLEFT
 10
0.0
 20
0.0
 30
0.0
  9
$PUCSORGRIGHT
 10
0.0
 20
0.0
 30
0.0
  9
$PUCSORGFRONT
 10
0.0
 20
0.0
 30
0.0
  9
$PUCSORGBACK
 10
0.0
 20
0.0
 30
0.0
  9
$USERI1
 70
               0
  9
$USERI2
 70
               0
  9
$USERI3
 70
               0
  9
$USERI4
 70
               0
  9
$USERI5
 70
               0
  9
$USERR1
 40
0.0
  9
$USERR2
 40
0.0
  9
$USERR3
 40
0.0
  9
$USERR4
 40
0.0
  9
$USERR5
 40
0.0
  9
$WORLDVIEW
 70
               1
  9
$SHADEDGE
 70
               3
  9
$SHADEDIF
 70
              70
  9
$TILEMODE
 70
               1
  9
$MAXACTVP
 70
              64
  9
$PINSBASE
 10
0.0
 20
0.0
 30
0.0
  9
$PLIMCHECK
 70
               0
  9
$PEXTMIN
 10
1.0000000000000000E+20
 20
1.0000000000000000E+20
 30
1.0000000000000000E+20
  9
$PEXTMAX
 10
-1.0000000000000000E+20
 20
-1.0000000000000000E+20
 30
-1.0000000000000000E+20
  9
$PLIMMIN
 10
0.0
 20
0.0
  9
$PLIMMAX
 10
12.0
 20
9.0
  9
$UNITMODE
 70
               0
  9
$VISRETAIN
 70
               0
  9
$PLINEGEN
 70
               1
  9
$PSLTSCALE
 70
               0
  9
$TREEDEPTH
 70
            3020
  9
$CMLSTYLE
  2
Standard
  9
$CMLJUST
 70
               0
  9
$CMLSCALE
 40
1.0
  9
$PROXYGRAPHICS
 70
               0
  9
$MEASUREMENT
 70
               1
  9
$CELWEIGHT
370
               0
  9
$ENDCAPS
280
               0
  9
$JOINSTYLE
280
               0
  9
$LWDISPLAY
290
               0
  9
$INSUNITS
 70
               4
  9
$HYPERLINKBASE
  1

  9
$STYLESHEET
  1

  9
$XEDIT
290
               1
  9
$CEPSNTYPE
380
               0
  9
$PSTYLEMODE
290
               1
  9
$FINGERPRINTGUID
  2

  9
$VERSIONGUID
  2

  9
$EXTNAMES
290
               1
  9
$PSVPSCALE
 40
0.0
  0
ENDSEC
  0
SECTION
  2
CLASSES
  0
CLASS
  1
LWPOLYLINE
  2
AcDbPolyline
  3
AutoCAD 2000
 90
        0
280
               0
281
               1
  0
CLASS
  1
IMAGE
  2
AcDbRasterImage
  3
ISM
 90
      127
280
               0
281
               1
  0
CLASS
  1
OLE2FRAME
  2
AcDbOle2Frame
  3
AutoCAD 2000
 90
        0
280
               0
281
               1
  0
CLASS
  1
HATCH
  2
AcDbHatch
  3
AutoCAD 2000
 90
        0
280
               0
281
               1
  0
CLASS
  1
DICTIONARYVAR
  2
AcDbDictionaryVar
  3
AutoCAD 2000
 90
        0
280
               0
281
               0
  0
CLASS
  1
RASTERVARIABLES
  2
AcDbRasterVariables
  3
ISM
 90
        0
280
               0
281
               0
  0
CLASS
  1
IMAGEDEF
  2
AcDbRasterImageDef
  3
ISM
 90
        0
280
               0
281
               0
  0
CLASS
  1
IMAGEDEF_REACTOR
  2
AcDbRasterImageDefReactor
  3
ISM
 90
        1
280
               0
281
               0
  0
CLASS
  1
IDBUFFER
  2
AcDbIdBuffer
  3
AutoCAD 2000
 90
        0
280
               0
281
               0
  0
CLASS
  1
SPATIAL_FILTER
  2
AcDbSpatialFilter
  3
AutoCAD 2000
 90
        0
280
               0
281
               0
  0
CLASS
  1
XRECORD
  2
AcDbXrecord
  3
AutoCAD 2000
 90
        0
280
               0
281
               0
  0
CLASS
  1
SORTENTSTABLE
  2
AcDbSortentsTable
  3
AutoCAD 2000
 90
        0
280
               0
281
               0
  0
CLASS
  1
LAYER_INDEX
  2
AcDbLayerIndex
  3
AutoCAD 2000
 90
        0
280
               0
281
               0
  0
CLASS
  1
SPATIAL_INDEX
  2
AcDbSpatialIndex
  3
AutoCAD 2000
 90
        0
280
               0
281
               0
  0
CLASS
  1
OBJECT_PTR
  2
CAseDLPNTableRecord
  3
"ASE-LPNTableRecord"
 90
        1
280
               0
281
               0
  0
CLASS
  1
LAYOUT
  2
AcDbLayout
  3
AutoCAD 2000
 90
        0
280
               0
281
               0
  0
CLASS
  1
PLOTSETTINGS
  2
AcDbPlotSettings
  3
AutoCAD 2000
 90
        0
280
               0
281
               0
  0
CLASS
  1
ACDBDICTIONARYWDFLT
  2
AcDbDictionaryWithDefault
  3
AutoCAD 2000
 90
        0
280
               0
281
               0
  0
CLASS
  1
ACDBPLACEHOLDER
  2
AcDbPlaceHolder
  3
AutoCAD 2000
 90
        0
280
               0
281
               0
  0
CLASS
  1
VBA_PROJECT
  2
AcDbVbaProject
  3
acadvba
 90
        0
280
               0
281
               0
  0
CLASS
  1
WIPEOUT
  2
AcDbWipeout
  3
WipeOut|AutoCAD Express Tool|expresstools@autodesk.com
 90
      127
280
               0
281
               1
  0
CLASS
  1
WIPEOUTVARIABLES
  2
AcDbWipeoutVariables
  3
WipeOut|AutoCAD Express Tool|expresstools@autodesk.com
 90
        0
280
               0
281
               0
  0
CLASS
  1
RTEXT
  2
RText
  3
RText|AutoCAD Express Tool|expresstools@autodesk.com
 90
        0
280
               0
281
               1
  0
CLASS
  1
ARCALIGNEDTEXT
  2
AcDbArcAlignedText
  3
ATEXT|AutoCAD Express Tool|expresstools@autodesk.com
 90
        0
280
               0
281
               1
  0
ENDSEC
  0
SECTION
  2
TABLES
  0
TABLE
  2
VPORT
  5
7
100
AcDbSymbolTable
 70
               1
  0
VPORT
  5
15
100
AcDbSymbolTableRecord
100
AcDbViewportTableRecord
  2
*ACTIVE
 70
               0
 10
0.0
 20
0.0
 11
1.0
 21
1.0
 12
16538.918617005351
 22
2114.3813530119537
 13
0.0
 23
0.0
 14
1.0
 24
1.0
 15
0.0
 25
0.0
 16
0.0
 26
0.0
 36
1.0
 17
0.0
 27
0.0
 37
0.0
 40
5349.6439105863028
 41
0.688564
 42
50.0
 43
0.0
 44
0.0
 50
0.0
 51
0.0
 71
               0
 72
            2000
 73
               1
 74
               1
 75
               0
 76
               0
 77
               0
 78
               0
281
               0
 65
               0
110
0.0
120
0.0
130
0.0
111
1.0
121
0.0
131
0.0
112
0.0
122
1.0
132
0.0
345
0
346
0
 79
               0
146
0.0
  0
ENDTAB
  0
TABLE
  2
LTYPE
  5
4
100
AcDbSymbolTable
 70
              13
  0
LTYPE
  5
11
100
AcDbSymbolTableRecord
100
AcDbLinetypeTableRecord
  2
ByBlock
 70
              64
  3

 72
              65
 73
               0
 40
0.0
  0
LTYPE
  5
12
100
AcDbSymbolTableRecord
100
AcDbLinetypeTableRecord
  2
ByLayer
 70
              64
  3

 72
              65
 73
               0
 40
0.0
  0
LTYPE
  5
13
100
AcDbSymbolTableRecord
100
AcDbLinetypeTableRecord
  2
Continuous
 70
              64
  3
Solid line
 72
              65
 73
               0
 40
0.0
  0
LTYPE
  5
2D
100
AcDbSymbolTableRecord
100
AcDbLinetypeTableRecord
  2
STYLE_01
 70
               0
  3

 72
              65
 73
               4
 40
0.2
 49
0.125
 74
               0
 49
-0.025
 74
               0
 49
0.025
 74
               0
 49
-0.025
 74
               0
  0
LTYPE
  5
2E
100
AcDbSymbolTableRecord
100
AcDbLinetypeTableRecord
  2
STYLE_02
 70
               0
  3

 72
              65
 73
               2
 40
0.694427490234375
 49
0.4860687255859375
 74
               0
 49
-0.2083587646484375
 74
               0
  0
LTYPE
  5
2F
100
AcDbSymbolTableRecord
100
AcDbLinetypeTableRecord
  2
STYLE_03
 70
               0
  3

 72
              65
 73
               2
 40
1.25
 49
1.0416412353515625
 74
               0
 49
-0.2083587646484375
 74
               0
  0
LTYPE
  5
30
100
AcDbSymbolTableRecord
100
AcDbLinetypeTableRecord
  2
STYLE_04
 70
               0
  3

 72
              65
 73
               2
 40
1.5277099609375
 49
1.319427490234375
 74
               0
 49
-0.208282470703125
 74
               0
  0
LTYPE
  5
31
100
AcDbSymbolTableRecord
100
AcDbLinetypeTableRecord
  2
STYLE_05
 70
               0
  3

 72
              65
 73
               2
 40
0.208282470703125
 49
0.069427490234375
 74
               0
 49
-0.13885498046875
 74
               0
  0
LTYPE
  5
32
100
AcDbSymbolTableRecord
100
AcDbLinetypeTableRecord
  2
STYLE_06
 70
               0
  3

 72
              65
 73
               4
 40
1.0416412353515625
 49
0.625
 74
               0
 49
-0.208282470703125
 74
               0
 49
0.069427490234375
 74
               0
 49
-0.1389312744140625
 74
               0
  0
LTYPE
  5
33
100
AcDbSymbolTableRecord
100
AcDbLinetypeTableRecord
  2
STYLE_07
 70
               0
  3

 72
              65
 73
               6
 40
1.875
 49
0.625
 74
               0
 49
-0.208282470703125
 74
               0
 49
0.625
 74
               0
 49
-0.2083587646484375
 74
               0
 49
0.069427490234375
 74
               0
 49
-0.1389312744140625
 74
               0
  0
LTYPE
  5
34
100
AcDbSymbolTableRecord
100
AcDbLinetypeTableRecord
  2
STYLE_08
 70
               0
  3

 72
              65
 73
               6
 40
1.25
 49
0.625
 74
               0
 49
-0.208282470703125
 74
               0
 49
0.069427490234375
 74
               0
 49
-0.1389312744140625
 74
               0
 49
0.069427490234375
 74
               0
 49
-0.1389312744140625
 74
               0
  0
LTYPE
  5
35
100
AcDbSymbolTableRecord
100
AcDbLinetypeTableRecord
  2
STYLE_09
 70
               0
  3

 72
              65
 73
               4
 40
5.0
 49
3.75
 74
               0
 49
-0.2777862548828125
 74
               0
 49
0.694427490234375
 74
               0
 49
-0.2777862548828125
 74
               0
  0
LTYPE
  5
36
100
AcDbSymbolTableRecord
100
AcDbLinetypeTableRecord
  2
STYLE_10
 70
               0
  3

 72
              65
 73
               6
 40
5.9375
 49
3.75
 74
               0
 49
-0.2777862548828125
 74
               0
 49
0.694427490234375
 74
               0
 49
-0.2777862548828125
 74
               0
 49
0.625
 74
               0
 49
-0.3125
 74
               0
  0
ENDTAB
  0
TABLE
  2
LAYER
  5
2
100
AcDbSymbolTable
 70
              15
  0
LAYER
  5
14
100
AcDbSymbolTableRecord
100
AcDbLayerTableRecord
  2
0
 70
               0
 62
               7
  6
Continuous
290
               1
370
               0
390
1D
  0
LAYER
  5
37
100
AcDbSymbolTableRecord
100
AcDbLayerTableRecord
  2
DATA
 70
               0
 62
               7
  6
Continuous
290
               1
370
               0
390
1D
  0
LAYER
  5
38
100
AcDbSymbolTableRecord
100
AcDbLayerTableRecord
  2
一般
 70
               0
 62
               7
  6
Continuous
290
               1
370
               0
390
1D
  0
LAYER
  5
39
100
AcDbSymbolTableRecord
100
AcDbLayerTableRecord
  2
寸法
 70
               0
 62
               7
  6
Continuous
290
               1
370
               0
390
1D
  0
LAYER
  5
3A
100
AcDbSymbolTableRecord
100
AcDbLayerTableRecord
  2
HIBINO-BASE
 70
               0
 62
               7
  6
Continuous
290
               1
370
               0
390
1D
  0
LAYER
  5
3B
100
AcDbSymbolTableRecord
100
AcDbLayerTableRecord
  2
SPEC
 70
               0
 62
               7
  6
Continuous
290
               1
370
               0
390
1D
  0
LAYER
  5
3C
100
AcDbSymbolTableRecord
100
AcDbLayerTableRecord
  2
DIMNSIONS
 70
               0
 62
               7
  6
Continuous
290
               1
370
               0
390
1D
  0
LAYER
  5
3D
100
AcDbSymbolTableRecord
100
AcDbLayerTableRecord
  2
Layer1
 70
               0
 62
               3
  6
Continuous
290
               1
370
               0
390
1D
  0
LAYER
  5
3E
100
AcDbSymbolTableRecord
100
AcDbLayerTableRecord
  2
2D
 70
               0
 62
              82
  6
Continuous
290
               1
370
               0
390
1D
  0
LAYER
  5
3F
100
AcDbSymbolTableRecord
100
AcDbLayerTableRecord
  2
FORMAT
 70
               0
 62
               7
  6
Continuous
290
               1
370
               0
390
1D
  0
LAYER
  5
40
100
AcDbSymbolTableRecord
100
AcDbLayerTableRecord
  2
Defpoints
 70
               0
 62
               7
  6
Continuous
290
               0
370
               0
390
1D
  0
LAYER
  5
41
100
AcDbSymbolTableRecord
100
AcDbLayerTableRecord
  2
5in
 70
               0
 62
               7
  6
Continuous
290
               1
370
               0
390
1D
  0
LAYER
  5
42
100
AcDbSymbolTableRecord
100
AcDbLayerTableRecord
  2
AM_0
 70
               0
 62
               7
  6
Continuous
290
               1
370
               0
390
1D
  0
LAYER
  5
43
100
AcDbSymbolTableRecord
100
AcDbLayerTableRecord
  2
MD_Visible
 70
               0
 62
               7
  6
Continuous
290
               1
370
               0
390
1D
  0
LAYER
  5
44
100
AcDbSymbolTableRecord
100
AcDbLayerTableRecord
  2
MD_Visible Narrow
 70
               0
 62
               7
  6
Continuous
290
               1
370
               0
390
1D
  0
ENDTAB
  0
TABLE
  2
STYLE
  5
3
100
AcDbSymbolTable
 70
               2
  0
STYLE
  5
17
100
AcDbSymbolTableRecord
100
AcDbTextStyleTableRecord
  2
Standard
 70
               0
 40
0.0
 41
1.0
 50
0.0
 71
               0
 42
0.0
  3
txt
  4
BIGFONT.SHX
  0
STYLE
  5
2C
100
AcDbSymbolTableRecord
100
AcDbTextStyleTableRecord
  2
ＭＳ ゴシック
 70
               0
 40
0.0
 41
1.0
 50
0.0
 71
               0
 42
0.0
  3

  4
ＭＳ ゴシック
1001
ACAD
1000
ＭＳ ゴシック
1071
        0
  0
ENDTAB
  0
TABLE
  2
VIEW
  5
5
100
AcDbSymbolTable
 70
               0
  0
ENDTAB
  0
TABLE
  2
UCS
  5
6
100
AcDbSymbolTable
 70
               0
  0
ENDTAB
  0
TABLE
  2
APPID
  5
8
100
AcDbSymbolTable
 70
               1
  0
APPID
  5
16
100
AcDbSymbolTableRecord
100
AcDbRegAppTableRecord
  2
ACAD
 70
               0
  0
ENDTAB
  0
TABLE
  2
DIMSTYLE
  5
9
100
AcDbSymbolTable
 70
               2
100
AcDbDimStyleTable
 71
               0
  0
DIMSTYLE
105
18
100
AcDbSymbolTableRecord
100
AcDbDimStyleTableRecord
  2
Standard
 70
               0
  3

  4

 40
1.0
 41
0.18
 42
0.0625
 43
0.38
 44
0.18
 45
0.0
 46
0.0
 47
0.0
 48
0.0
 71
               0
 72
               0
 73
               1
 74
               1
 75
               0
 76
               0
 77
               0
 78
               0
 79
               0
140
0.18
141
0.09
142
0.0
143
25.399999999999999
144
1.0
145
0.0
146
1.0
147
0.09
148
0.0
170
               0
171
               2
172
               0
173
               0
174
               0
175
               0
176
               0
177
               0
178
               0
179
               0
271
               4
272
               4
273
               2
274
               2
275
               0
276
               0
277
               2
278
              46
279
               0
280
               0
281
               0
282
               0
283
               1
284
               0
285
               0
286
               0
288
               0
289
               3
340
17
341
0
342
0
343
0
344
0
371
              -2
372
              -2
  0
DIMSTYLE
105
4E
100
AcDbSymbolTableRecord
100
AcDbDimStyleTableRecord
  2
HIBINO
 70
               0
  3
<>
  4
[]
 40
1.0
 41
50.012451171875
 42
39.999999999999993
 43
4.9999999999999991
 44
39.999999999999993
 45
0.0
 46
0.0
 47
0.0
 48
0.0
 71
               0
 72
               0
 73
               0
 74
               0
 75
               0
 76
               0
 77
               1
 78
              11
 79
               0
140
78.184375000000401
141
0.0
142
0.0
143
1.0
144
1.0
145
0.0
146
1.0
147
0.4999999999999999
148
0.0
170
               0
171
               2
172
               1
173
               0
174
               1
175
               0
176
               0
177
               0
178
               0
179
               0
271
               2
272
               2
273
               2
274
               2
275
               0
276
               2
277
               2
278
              46
279
               0
280
               0
281
               0
282
               0
283
               1
284
              11
285
              11
286
              11
288
               0
289
               0
340
2C
341
45
342
45
343
0
344
0
371
              -2
372
              -2
  0
ENDTAB
  0
TABLE
  2
BLOCK_RECORD
  5
1
100
AcDbSymbolTable
 70
               9
  0
BLOCK_RECORD
  5
A
100
AcDbSymbolTableRecord
100
AcDbBlockTableRecord
  2
*MODEL_SPACE
340
20
  0
BLOCK_RECORD
  5
B
100
AcDbSymbolTableRecord
100
AcDbBlockTableRecord
  2
*PAPER_SPACE
340
21
  0
BLOCK_RECORD
  5
45
100
AcDbSymbolTableRecord
100
AcDbBlockTableRecord
  2
VW_EMPTYARROW
340
0
  0
BLOCK_RECORD
  5
24
100
AcDbSymbolTableRecord
100
AcDbBlockTableRecord
  2
グループ
340
0
102
{BLKREFS
331
494
102
}
  0
BLOCK_RECORD
  5
25
100
AcDbSymbolTableRecord
100
AcDbBlockTableRecord
  2
グループ-1
340
0
102
{BLKREFS
331
495
102
}
  0
BLOCK_RECORD
  5
26
100
AcDbSymbolTableRecord
100
AcDbBlockTableRecord
  2
グループ-2
340
0
102
{BLKREFS
331
496
102
}
  0
BLOCK_RECORD
  5
27
100
AcDbSymbolTableRecord
100
AcDbBlockTableRecord
  2
グループ-3
340
0
102
{BLKREFS
331
497
102
}
  0
BLOCK_RECORD
  5
28
100
AcDbSymbolTableRecord
100
AcDbBlockTableRecord
  2
グループ-4
340
0
102
{BLKREFS
331
498
102
}
  0
BLOCK_RECORD
  5
29
100
AcDbSymbolTableRecord
100
AcDbBlockTableRecord
  2
*D6
340
0
  0
BLOCK_RECORD
  5
2A
100
AcDbSymbolTableRecord
100
AcDbBlockTableRecord
  2
*D7
340
0
  0
BLOCK_RECORD
  5
2B
100
AcDbSymbolTableRecord
100
AcDbBlockTableRecord
  2
*D8
340
0
  0
ENDTAB
  0
ENDSEC
  0
SECTION
  2
BLOCKS
  0
BLOCK
  5
D
100
AcDbEntity
  8
0
390
0
100
AcDbBlockBegin
  2
*MODEL_SPACE
 70
               0
 10
0.0
 20
0.0
 30
0.0
  3
*MODEL_SPACE
  1

  0
ENDBLK
  5
E
100
AcDbEntity
  8
0
390
0
100
AcDbBlockEnd
  0
BLOCK
  5
F
100
AcDbEntity
 67
               1
  8
0
390
0
100
AcDbBlockBegin
  2
*PAPER_SPACE
 70
               0
 10
0.0
 20
0.0
 30
0.0
  3
*PAPER_SPACE
  1

  0
ENDBLK
  5
10
100
AcDbEntity
 67
               1
  8
0
390
0
100
AcDbBlockEnd
  0
BLOCK
  5
46
100
AcDbEntity
  8
0
370
              -2
390
0
  6
ByBlock
 62
               0
100
AcDbBlockBegin
  2
VW_EMPTYARROW
 70
               0
 10
0.0
 20
0.0
 30
0.0
  3
VW_EMPTYARROW
  1

  0
LINE
  5
47
100
AcDbEntity
  8
0
370
              -2
390
0
  6
ByBlock
 62
               0
100
AcDbLine
 10
0.0
 20
0.0
 30
0.0
 11
-1.0
 21
0.0
 31
0.0
  0
POLYLINE
  5
48
100
AcDbEntity
  8
0
370
              -2
390
0
  6
Continuous
 62
               0
100
AcDb2dPolyline
 66
               1
 10
0.0
 20
0.0
 30
0.0
 75
               5
  0
VERTEX
  5
49
100
AcDbEntity
  8
0
370
              -2
390
0
  6
Continuous
 62
               0
100
AcDbVertex
100
AcDb2dVertex
 10
-0.9921875
 20
0.2658558393652546
 30
0.0
  0
VERTEX
  5
4A
100
AcDbEntity
  8
0
370
              -2
390
0
  6
Continuous
 62
               0
100
AcDbVertex
100
AcDb2dVertex
 10
0.0
 20
0.0
 30
0.0
  0
VERTEX
  5
4B
100
AcDbEntity
  8
0
370
              -2
390
0
  6
Continuous
 62
               0
100
AcDbVertex
100
AcDb2dVertex
 10
-0.9921874999999999
 20
-0.2658558393652548
 30
0.0
  0
SEQEND
  5
4C
100
AcDbEntity
  8
0
370
              -2
390
0
  6
Continuous
 62
               0
  0
ENDBLK
  5
4D
100
AcDbEntity
  8
0
390
0
100
AcDbBlockEnd
  0
BLOCK
  5
4F
100
AcDbEntity
  8
0
390
0
100
AcDbBlockBegin
  2
グループ
 70
               0
 10
0.0
 20
0.0
 30
0.0
  3
グループ
  1

  0
POLYLINE
  5
50
100
AcDbEntity
  8
0
370
               0
390
0
 62
               1
100
AcDb3dPolyline
 66
               1
 10
0.0
 20
0.0
 30
0.0
 70
               8
  0
VERTEX
  5
51
100
AcDbEntity
  8
0
370
               0
390
0
 62
               1
100
AcDbVertex
100
AcDb3dPolylineVertex
 10
-87.449813347237068
 20
744.37390075371161
 30
0.0000000000002274
 70
              32
  0
VERTEX
  5
52
100
AcDbEntity
  8
0
370
               0
390
0
 62
               1
100
AcDbVertex
100
AcDb3dPolylineVertex
 10
-96.449813347237068
 20
744.37390075371161
 30
0.0000000000002274
 70
              32
  0
SEQEND
  5
53
100
AcDbEntity
  8
0
370
               0
390
0
 62
               1
  0
POLYLINE
  5
54
100
AcDbEntity
  8
0
370
               0
390
0
 62
               1
100
AcDb3dPolyline
 66
               1
 10
0.0
 20
0.0
 30
0.0
 70
               8
  0
VERTEX
  5
55
100
AcDbEntity
  8
0
370
               0
390
0
 62
               1
100
AcDbVertex
100
AcDb3dPolylineVertex
 10
-96.449813347237068
 20
740.37390075371161
 30
0.0
 70
              32
  0
VERTEX
  5
56
100
AcDbEntity
  8
0
370
               0
390
0
 62
               1
100
AcDbVertex
100
AcDb3dPolylineVertex
 10
-97.449813347237068
 20
740.37390075371161
 30
0.0
 70
              32
  0
SEQEND
  5
57
100
AcDbEntity
  8
0
370
               0
390
0
 62
               1
  0
POLYLINE
  5
58
100
AcDbEntity
  8
0
370
               0
390
0
 62
               1
100
AcDb3dPolyline
 66
               1
 10
0.0
 20
0.0
 30
0.0
 70
               8
  0
VERTEX
  5
59
100
AcDbEntity
  8
0
370
               0
390
0
 62
               1
100
AcDbVertex
100
AcDb3dPolylineVertex
 10
-87.449813347237068
 20
712.7309780896195
 30
0.0
 70
              32
  0
VERTEX
  5
5A
100
AcDbEntity
  8
0
370
               0
390
0
 62
               1
100
AcDbVertex
100
AcDb3dPolylineVertex
 10
-87.449813347237068
 20
394.37390075366159
 30
0.0
 70
              32
  0
SEQEND
  5
5B
100
AcDbEntity
  8
0
370
               0
390
0
 62
               1
  0
POLYLINE
  5
5C
100
AcDbEntity
  8
0
370
               0
390
0
 62
               1
100
AcDb3dPolyline
 66
               1
 10
0.0
 20
0.0
 30
0.0
 70
               8
  0
VERTEX
  5
5D
100
AcDbEntity
  8
0
370
               0
390
0
 62
               1
100
AcDbVertex
100
AcDb3dPolylineVertex
 10
-87.449813347237068
 20
394.37390075366159
 30
0.0
 70
              32
  0
VERTEX
  5
5E
100
AcDbEntity
  8
0
370
               0
390
0
 62
               1
100
AcDbVertex
100
AcDb3dPolylineVertex
 10
-99.449813347237068
 20
394.37390075366159
 30
0.0
 70
              32
  0
SEQEND
  5
5F
100
AcDbEntity
  8
0
370
               0
390
0
 62
               1
  0
POLYLINE
  5
60
100
AcDbEntity
  8
0
370
               0
390
0
 62
               1
100
AcDb3dPolyline
 66
               1
 10
0.0
 20
0.0
 30
0.0
 70
               8
  0
VERTEX
  5
61
100
AcDbEntity
  8
0
370
               0
390
0
 62
               1
100
AcDbVertex
100
AcDb3dPolylineVertex
 10
-96.449813347237068
 20
685.87390075366159
 30
0.0
 70
              32
  0
VERTEX
  5
62
100
AcDbEntity
  8
0
370
               0
390
0
 62
               1
100
AcDbVertex
100
AcDb3dPolylineVertex
 10
-96.449813347237068
 20
712.7309780896195
 30
0.0
 70
              32
  0
SEQEND
  5
63
100
AcDbEntity
  8
0
370
               0
390
0
 62
               1
  0
POLYLINE
  5
64
100
AcDbEntity
  8
0
370
               0
390
0
 62
               1
100
AcDb3dPolyline
 66
               1
 10
0.0
 20
0.0
 30
0.0
 70
               8
  0
VERTEX
  5
65
100
AcDbEntity
  8
0
370
               0
390
0
 62
               1
100
AcDbVertex
100
AcDb3dPolylineVertex
 10
-99.449813347237068
 20
685.87390075366159
 30
0.0
 70
              32
  0
VERTEX
  5
66
100
AcDbEntity
  8
0
370
               0
390
0
 62
               1
100
AcDbVertex
100
AcDb3dPolylineVertex
 10
-96.449813347237068
 20
685.87390075366159
 30
0.0
 70
              32
  0
SEQEND
  5
67
100
AcDbEntity
  8
0
370
               0
390
0
 62
               1
  0
POLYLINE
  5
68
100
AcDbEntity
  8
0
370
               0
390
0
 62
               1
100
AcDb3dPolyline
 66
               1
 10
0.0
 20
0.0
 30
0.0
 70
               8
  0
VERTEX
  5
69
100
AcDbEntity
  8
0
370
               0
390
0
 62
               1
100
AcDbVertex
100
AcDb3dPolylineVertex
 10
-99.449813347237068
 20
686.87390075365704
 30
0.0000000000002274
 70
              32
  0
VERTEX
  5
6A
100
AcDbEntity
  8
0
370
               0
390
0
 62
               1
100
AcDbVertex
100
AcDb3dPolylineVertex
 10
-99.449813347237068
 20
685.87390075366341
 30
0.0
 70
              32
  0
SEQEND
  5
6B
100
AcDbEntity
  8
0
370
               0
390
0
 62
               1
  0
POLYLINE
  5
6C
100
AcDbEntity
  8
0
370
               0
390
0
 62
               1
100
AcDb3dPolyline
 66
               1
 10
0.0
 20
0.0
 30
0.0
 70
               8
  0
VERTEX
  5
6D
100
AcDbEntity
  8
0
370
               0
390
0
 62
               1
100
AcDbVertex
100
AcDb3dPolylineVertex
 10
-99.449813347237068
 20
394.37390075366159
 30
0.0
 70
              32
  0
VERTEX
  5
6E
100
AcDbEntity
  8
0
370
               0
390
0
 62
               1
100
AcDbVertex
100
AcDb3dPolylineVertex
 10
-99.449813347237068
 20
685.87390075366159
 30
0.0
 70
              32
  0
SEQEND
  5
6F
100
AcDbEntity
  8
0
370
               0
390
0
 62
               1
  0
POLYLINE
  5
70
100
AcDbEntity
  8
0
370
               0
390
0
 62
               1
100
AcDb3dPolyline
 66
               1
 10
0.0
 20
0.0
 30
0.0
 70
               8
  0
VERTEX
  5
71
100
AcDbEntity
  8
0
370
               0
390
0
 62
               1
100
AcDbVertex
100
AcDb3dPolylineVertex
 10
-162.94981334723707
 20
743.37390075370706
 30
0.0
 70
              32
  0
VERTEX
  5
72
100
AcDbEntity
  8
0
370
               0
390
0
 62
               1
100
AcDbVertex
100
AcDb3dPolylineVertex
 10
-657.44981334723707
 20
743.37390075370706
 30
0.0
 70
              32
  0
SEQEND
  5
73
100
AcDbEntity
  8
0
370
               0
390
0
 62
               1
  0
POLYLINE
  5
74
100
AcDbEntity
  8
0
370
               0
390
0
 62
               1
100
AcDb3dPolyline
 66
               1
 10
0.0
 20
0.0
 30
0.0
 70
               8
  0
VERTEX
  5
75
100
AcDbEntity
  8
0
370
               0
390
0
 62
               1
100
AcDbVertex
100
AcDb3dPolylineVertex
 10
-97.449813347237068
 20
743.37390075370706
 30
0.0
 70
              32
  0
VERTEX
  5
76
100
AcDbEntity
  8
0
370
               0
390
0
 62
               1
100
AcDbVertex
100
AcDb3dPolylineVertex
 10
-121.94981334723707
 20
743.37390075370706
 30
0.0
 70
              32
  0
SEQEND
  5
77
100
AcDbEntity
  8
0
370
               0
390
0
 62
               1
  0
POLYLINE
  5
78
100
AcDbEntity
  8
0
370
               0
390
0
 62
               1
100
AcDb3dPolyline
 66
               1
 10
0.0
 20
0.0
 30
0.0
 70
               8
  0
VERTEX
  5
79
100
AcDbEntity
  8
0
370
               0
390
0
 62
               1
100
AcDbVertex
100
AcDb3dPolylineVertex
 10
-97.449813347237068
 20
686.87390075365613
 30
0.0000000000002274
 70
              32
  0
VERTEX
  5
7A
100
AcDbEntity
  8
0
370
               0
390
0
 62
               1
100
AcDbVertex
100
AcDb3dPolylineVertex
 10
-97.449813347237068
 20
712.73097808961495
 30
0.0
 70
              32
  0
SEQEND
  5
7B
100
AcDbEntity
  8
0
370
               0
390
0
 62
               1
  0
POLYLINE
  5
7C
100
AcDbEntity
  8
0
370
               0
390
0
 62
               1
100
AcDb3dPolyline
 66
               1
 10
0.0
 20
0.0
 30
0.0
 70
               8
  0
VERTEX
  5
7D
100
AcDbEntity
  8
0
370
               0
390
0
 62
               1
100
AcDbVertex
100
AcDb3dPolylineVertex
 10
-97.449813347237068
 20
686.87390075365613
 30
0.0000000000002274
 70
              32
  0
VERTEX
  5
7E
100
AcDbEntity
  8
0
370
               0
390
0
 62
               1
100
AcDbVertex
100
AcDb3dPolylineVertex
 10
-657.44981334723707
 20
686.87390075365613
 30
0.0000000000002274
 70
              32
  0
SEQEND
  5
7F
100
AcDbEntity
  8
0
370
               0
390
0
 62
               1
  0
POLYLINE
  5
80
100
AcDbEntity
  8
0
370
               0
390
0
 62
               1
100
AcDb3dPolyline
 66
               1
 10
0.0
 20
0.0
 30
0.0
 70
               8
  0
VERTEX
  5
81
100
AcDbEntity
  8
0
370
               0
390
0
 62
               1
100
AcDbVertex
100
AcDb3dPolylineVertex
 10
-657.44981334723707
 20
686.87390075365613
 30
0.0000000000002274
 70
              32
  0
VERTEX
  5
82
100
AcDbEntity
  8
0
370
               0
390
0
 62
               1
100
AcDbVertex
100
AcDb3dPolylineVertex
 10
-657.44981334723707
 20
712.73097808961495
 30
0.0
 70
              32
  0
SEQEND
  5
83
100
AcDbEntity
  8
0
370
               0
390
0
 62
               1
  0
POLYLINE
  5
84
100
AcDbEntity
  8
0
370
               0
390
0
 62
               1
100
AcDb3dPolyline
 66
               1
 10
0.0
 20
0.0
 30
0.0
 70
               8
  0
VERTEX
  5
85
100
AcDbEntity
  8
0
370
               0
390
0
 62
               1
100
AcDbVertex
100
AcDb3dPolylineVertex
 10
-121.94981334723707
 20
743.16375459811582
 30
0.0
 70
              32
  0
VERTEX
  5
86
100
AcDbEntity
  8
0
370
               0
390
0
 62
               1
100
AcDbVertex
100
AcDb3dPolylineVertex
 10
-162.94981334723707
 20
743.16375459811582
 30
0.0
 70
              32
  0
SEQEND
  5
87
100
AcDbEntity
  8
0
370
               0
390
0
 62
               1
  0
ARC
  5
88
100
AcDbEntity
  8
0
370
               0
390
0
 62
               1
100
AcDbCircle
 10
-127.44981334723707
 20
697.87390075365613
 30
0.0
 40
3.0
100
AcDbArc
 50
270.0
 51
90.0
  0
ARC
  5
89
100
AcDbEntity
  8
0
370
               0
390
0
 62
               1
100
AcDbCircle
 10
-627.44981334723707
 20
697.87390075365613
 30
0.0
 40
3.0
100
AcDbArc
 50
270.0
 51
90.0
  0
ARC
  5
8A
100
AcDbEntity
  8
0
370
               0
390
0
 62
               1
100
AcDbCircle
 10
-377.44981334723707
 20
697.87390075365613
 30
0.0
 40
3.0
100
AcDbArc
 50
270.0
 51
90.0
  0
POLYLINE
  5
8B
100
AcDbEntity
  8
0
370
               0
390
0
 62
               1
100
AcDb3dPolyline
 66
               1
 10
0.0
 20
0.0
 30
0.0
 70
               8
  0
VERTEX
  5
8C
100
AcDbEntity
  8
0
370
               0
390
0
 62
               1
100
AcDbVertex
100
AcDb3dPolylineVertex
 10
-99.449813347237068
 20
685.87390075366159
 30
0.0
 70
              32
  0
VERTEX
  5
8D
100
AcDbEntity
  8
0
370
               0
390
0
 62
               1
100
AcDbVertex
100
AcDb3dPolylineVertex
 10
-99.449813347237068
 20
394.37390075366159
 30
0.0
 70
              32
  0
SEQEND
  5
8E
100
AcDbEntity
  8
0
370
               0
390
0
 62
               1
  0
POLYLINE
  5
8F
100
AcDbEntity
  8
0
370
               0
390
0
 62
               1
100
AcDb3dPolyline
 66
               1
 10
0.0
 20
0.0
 30
0.0
 70
               8
  0
VERTEX
  5
90
100
AcDbEntity
  8
0
370
               0
390
0
 62
               1
100
AcDbVertex
100
AcDb3dPolylineVertex
 10
-99.449813347237068
 20
394.37390075366159
 30
0.0
 70
              32
  0
VERTEX
  5
91
100
AcDbEntity
  8
0
370
               0
390
0
 62
               1
100
AcDbVertex
100
AcDb3dPolylineVertex
 10
-655.44981334723707
 20
394.37390075366159
 30
0.0
 70
              32
  0
SEQEND
  5
92
100
AcDbEntity
  8
0
370
               0
390
0
 62
               1
  0
ARC
  5
93
100
AcDbEntity
  8
0
370
               0
390
0
 62
               1
100
AcDbCircle
 10
-127.44981334723707
 20
697.87390075365613
 30
0.0
 40
3.0
100
AcDbArc
 50
90.0
 51
270.0
  0
ARC
  5
94
100
AcDbEntity
  8
0
370
               0
390
0
 62
               1
100
AcDbCircle
 10
-627.44981334723707
 20
697.87390075365613
 30
0.0
 40
3.0
100
AcDbArc
 50
90.0
 51
270.0
  0
ARC
  5
95
100
AcDbEntity
  8
0
370
               0
390
0
 62
               1
100
AcDbCircle
 10
-377.44981334723707
 20
697.87390075365613
 30
0.0
 40
3.0
100
AcDbArc
 50
90.0
 51
270.0
  0
POLYLINE
  5
96
100
AcDbEntity
  8
0
370
               0
390
0
 62
               1
100
AcDb3dPolyline
 66
               1
 10
0.0
 20
0.0
 30
0.0
 70
               8
  0
VERTEX
  5
97
100
AcDbEntity
  8
0
370
               0
390
0
 62
               1
100
AcDbVertex
100
AcDb3dPolylineVertex
 10
-655.44981334723707
 20
685.87390075366159
 30
0.0
 70
              32
  0
VERTEX
  5
98
100
AcDbEntity
  8
0
370
               0
390
0
 62
               1
100
AcDbVertex
100
AcDb3dPolylineVertex
 10
-655.44981334723707
 20
394.37390075366159
 30
0.0
 70
              32
  0
SEQEND
  5
99
100
AcDbEntity
  8
0
370
               0
390
0
 62
               1
  0
POLYLINE
  5
9A
100
AcDbEntity
  8
0
370
               0
390
0
 62
               1
100
AcDb3dPolyline
 66
               1
 10
0.0
 20
0.0
 30
0.0
 70
               8
  0
VERTEX
  5
9B
100
AcDbEntity
  8
0
370
               0
390
0
 62
               1
100
AcDbVertex
100
AcDb3dPolylineVertex
 10
-99.449813347237068
 20
685.87390075366159
 30
0.0
 70
              32
  0
VERTEX
  5
9C
100
AcDbEntity
  8
0
370
               0
390
0
 62
               1
100
AcDbVertex
100
AcDb3dPolylineVertex
 10
-655.44981334723707
 20
685.87390075366159
 30
0.0
 70
              32
  0
SEQEND
  5
9D
100
AcDbEntity
  8
0
370
               0
390
0
 62
               1
  0
POLYLINE
  5
9E
100
AcDbEntity
  8
0
370
               0
390
0
 62
               1
100
AcDb3dPolyline
 66
               1
 10
0.0
 20
0.0
 30
0.0
 70
               8
  0
VERTEX
  5
9F
100
AcDbEntity
  8
0
370
               0
390
0
 62
               1
100
AcDbVertex
100
AcDb3dPolylineVertex
 10
-99.449813347237068
 20
686.87390075365704
 30
0.0000000000002274
 70
              32
  0
VERTEX
  5
A0
100
AcDbEntity
  8
0
370
               0
390
0
 62
               1
100
AcDbVertex
100
AcDb3dPolylineVertex
 10
-99.449813347237068
 20
685.87390075366341
 30
0.0
 70
              32
  0
SEQEND
  5
A1
100
AcDbEntity
  8
0
370
               0
390
0
 62
               1
  0
POLYLINE
  5
A2
100
AcDbEntity
  8
0
370
               0
390
0
 62
               1
100
AcDb3dPolyline
 66
               1
 10
0.0
 20
0.0
 30
0.0
 70
               8
  0
VERTEX
  5
A3
100
AcDbEntity
  8
0
370
               0
390
0
 62
               1
100
AcDbVertex
100
AcDb3dPolylineVertex
 10
-655.44981334723707
 20
685.87390075366341
 30
0.0
 70
              32
  0
VERTEX
  5
A4
100
AcDbEntity
  8
0
370
               0
390
0
 62
               1
100
AcDbVertex
100
AcDb3dPolylineVertex
 10
-655.44981334723707
 20
686.87390075365704
 30
0.0000000000002274
 70
              32
  0
SEQEND
  5
A5
100
AcDbEntity
  8
0
370
               0
390
0
 62
               1
  0
POLYLINE
  5
A6
100
AcDbEntity
  8
0
370
               0
390
0
 62
               1
100
AcDb3dPolyline
 66
               1
 10
0.0
 20
0.0
 30
0.0
 70
               8
  0
VERTEX
  5
A7
100
AcDbEntity
  8
0
370
               0
390
0
 62
               1
100
AcDbVertex
100
AcDb3dPolylineVertex
 10
-658.44981334723707
 20
744.37390075371161
 30
0.0000000000002274
 70
              32
  0
VERTEX
  5
A8
100
AcDbEntity
  8
0
370
               0
390
0
 62
               1
100
AcDbVertex
100
AcDb3dPolylineVertex
 10
-667.44981334723707
 20
744.37390075371161
 30
0.0000000000002274
 70
              32
  0
SEQEND
  5
A9
100
AcDbEntity
  8
0
370
               0
390
0
 62
               1
  0
POLYLINE
  5
AA
100
AcDbEntity
  8
0
370
               0
390
0
 62
               1
100
AcDb3dPolyline
 66
               1
 10
0.0
 20
0.0
 30
0.0
 70
               8
  0
VERTEX
  5
AB
100
AcDbEntity
  8
0
370
               0
390
0
 62
               1
100
AcDbVertex
100
AcDb3dPolylineVertex
 10
-657.44981334723707
 20
740.37390075371161
 30
0.0
 70
              32
  0
VERTEX
  5
AC
100
AcDbEntity
  8
0
370
               0
390
0
 62
               1
100
AcDbVertex
100
AcDb3dPolylineVertex
 10
-658.44981334723707
 20
740.37390075371161
 30
0.0
 70
              32
  0
SEQEND
  5
AD
100
AcDbEntity
  8
0
370
               0
390
0
 62
               1
  0
POLYLINE
  5
AE
100
AcDbEntity
  8
0
370
               0
390
0
 62
               1
100
AcDb3dPolyline
 66
               1
 10
0.0
 20
0.0
 30
0.0
 70
               8
  0
VERTEX
  5
AF
100
AcDbEntity
  8
0
370
               0
390
0
 62
               1
100
AcDbVertex
100
AcDb3dPolylineVertex
 10
-667.44981334723707
 20
394.37390075366159
 30
0.0
 70
              32
  0
VERTEX
  5
B0
100
AcDbEntity
  8
0
370
               0
390
0
 62
               1
100
AcDbVertex
100
AcDb3dPolylineVertex
 10
-655.44981334723707
 20
394.37390075366159
 30
0.0
 70
              32
  0
SEQEND
  5
B1
100
AcDbEntity
  8
0
370
               0
390
0
 62
               1
  0
POLYLINE
  5
B2
100
AcDbEntity
  8
0
370
               0
390
0
 62
               1
100
AcDb3dPolyline
 66
               1
 10
0.0
 20
0.0
 30
0.0
 70
               8
  0
VERTEX
  5
B3
100
AcDbEntity
  8
0
370
               0
390
0
 62
               1
100
AcDbVertex
100
AcDb3dPolylineVertex
 10
-655.44981334723707
 20
394.37390075366159
 30
0.0
 70
              32
  0
VERTEX
  5
B4
100
AcDbEntity
  8
0
370
               0
390
0
 62
               1
100
AcDbVertex
100
AcDb3dPolylineVertex
 10
-655.44981334723707
 20
685.87390075366159
 30
0.0
 70
              32
  0
SEQEND
  5
B5
100
AcDbEntity
  8
0
370
               0
390
0
 62
               1
  0
POLYLINE
  5
B6
100
AcDbEntity
  8
0
370
               0
390
0
 62
               1
100
AcDb3dPolyline
 66
               1
 10
0.0
 20
0.0
 30
0.0
 70
               8
  0
VERTEX
  5
B7
100
AcDbEntity
  8
0
370
               0
390
0
 62
               1
100
AcDbVertex
100
AcDb3dPolylineVertex
 10
-667.44981334723707
 20
712.73097808962041
 30
0.0
 70
              32
  0
VERTEX
  5
B8
100
AcDbEntity
  8
0
370
               0
390
0
 62
               1
100
AcDbVertex
100
AcDb3dPolylineVertex
 10
-667.44981334723707
 20
394.37390075366159
 30
0.0
 70
              32
  0
SEQEND
  5
B9
100
AcDbEntity
  8
0
370
               0
390
0
 62
               1
  0
POLYLINE
  5
BA
100
AcDbEntity
  8
0
370
               0
390
0
 62
               1
100
AcDb3dPolyline
 66
               1
 10
0.0
 20
0.0
 30
0.0
 70
               8
  0
VERTEX
  5
BB
100
AcDbEntity
  8
0
370
               0
390
0
 62
               1
100
AcDbVertex
100
AcDb3dPolylineVertex
 10
-655.44981334723707
 20
685.87390075366341
 30
0.0
 70
              32
  0
VERTEX
  5
BC
100
AcDbEntity
  8
0
370
               0
390
0
 62
               1
100
AcDbVertex
100
AcDb3dPolylineVertex
 10
-655.44981334723707
 20
686.87390075365795
 30
0.0000000000002274
 70
              32
  0
SEQEND
  5
BD
100
AcDbEntity
  8
0
370
               0
390
0
 62
               1
  0
POLYLINE
  5
BE
100
AcDbEntity
  8
0
370
               0
390
0
 62
               1
100
AcDb3dPolyline
 66
               1
 10
0.0
 20
0.0
 30
0.0
 70
               8
  0
VERTEX
  5
BF
100
AcDbEntity
  8
0
370
               0
390
0
 62
               1
100
AcDbVertex
100
AcDb3dPolylineVertex
 10
-658.44981334723707
 20
685.87390075366159
 30
0.0
 70
              32
  0
VERTEX
  5
C0
100
AcDbEntity
  8
0
370
               0
390
0
 62
               1
100
AcDbVertex
100
AcDb3dPolylineVertex
 10
-655.44981334723707
 20
685.87390075366159
 30
0.0
 70
              32
  0
SEQEND
  5
C1
100
AcDbEntity
  8
0
370
               0
390
0
 62
               1
  0
POLYLINE
  5
C2
100
AcDbEntity
  8
0
370
               0
390
0
 62
               1
100
AcDb3dPolyline
 66
               1
 10
0.0
 20
0.0
 30
0.0
 70
               8
  0
VERTEX
  5
C3
100
AcDbEntity
  8
0
370
               0
390
0
 62
               1
100
AcDbVertex
100
AcDb3dPolylineVertex
 10
-658.44981334723707
 20
712.73097808962041
 30
0.0
 70
              32
  0
VERTEX
  5
C4
100
AcDbEntity
  8
0
370
               0
390
0
 62
               1
100
AcDbVertex
100
AcDb3dPolylineVertex
 10
-658.44981334723707
 20
685.87390075366159
 30
0.0
 70
              32
  0
SEQEND
  5
C5
100
AcDbEntity
  8
0
370
               0
390
0
 62
               1
  0
POLYLINE
  5
C6
100
AcDbEntity
  8
0
370
               0
390
0
 62
               1
100
AcDb3dPolyline
 66
               1
 10
0.0
 20
0.0
 30
0.0
 70
               8
  0
VERTEX
  5
C7
100
AcDbEntity
  8
0
370
               0
390
0
 62
               1
100
AcDbVertex
100
AcDb3dPolylineVertex
 10
-87.449813347237068
 20
732.49457356853338
 30
0.0
 70
              32
  0
VERTEX
  5
C8
100
AcDbEntity
  8
0
370
               0
390
0
 62
               1
100
AcDbVertex
100
AcDb3dPolylineVertex
 10
-87.449813347237068
 20
744.37390075371161
 30
0.0000000000002274
 70
              32
  0
SEQEND
  5
C9
100
AcDbEntity
  8
0
370
               0
390
0
 62
               1
  0
POLYLINE
  5
CA
100
AcDbEntity
  8
0
370
               0
390
0
 62
               1
100
AcDb3dPolyline
 66
               1
 10
0.0
 20
0.0
 30
0.0
 70
               8
  0
VERTEX
  5
CB
100
AcDbEntity
  8
0
370
               0
390
0
 62
               1
100
AcDbVertex
100
AcDb3dPolylineVertex
 10
-87.449813347237068
 20
732.49457356852884
 30
0.0
 70
              32
  0
VERTEX
  5
CC
100
AcDbEntity
  8
0
370
               0
390
0
 62
               1
100
AcDbVertex
100
AcDb3dPolylineVertex
 10
-87.449813347237068
 20
712.73097808962041
 30
0.0
 70
              32
  0
SEQEND
  5
CD
100
AcDbEntity
  8
0
370
               0
390
0
 62
               1
  0
POLYLINE
  5
CE
100
AcDbEntity
  8
0
370
               0
390
0
 62
               1
100
AcDb3dPolyline
 66
               1
 10
0.0
 20
0.0
 30
0.0
 70
               8
  0
VERTEX
  5
CF
100
AcDbEntity
  8
0
370
               0
390
0
 62
               1
100
AcDbVertex
100
AcDb3dPolylineVertex
 10
-96.449813347237068
 20
744.37390075371252
 30
0.0000000000002274
 70
              32
  0
VERTEX
  5
D0
100
AcDbEntity
  8
0
370
               0
390
0
 62
               1
100
AcDbVertex
100
AcDb3dPolylineVertex
 10
-96.449813347237068
 20
732.49457356853338
 30
0.0
 70
              32
  0
SEQEND
  5
D1
100
AcDbEntity
  8
0
370
               0
390
0
 62
               1
  0
POLYLINE
  5
D2
100
AcDbEntity
  8
0
370
               0
390
0
 62
               1
100
AcDb3dPolyline
 66
               1
 10
0.0
 20
0.0
 30
0.0
 70
               8
  0
VERTEX
  5
D3
100
AcDbEntity
  8
0
370
               0
390
0
 62
               1
100
AcDbVertex
100
AcDb3dPolylineVertex
 10
-96.449813347237068
 20
732.49457356852884
 30
0.0
 70
              32
  0
VERTEX
  5
D4
100
AcDbEntity
  8
0
370
               0
390
0
 62
               1
100
AcDbVertex
100
AcDb3dPolylineVertex
 10
-96.449813347237068
 20
712.73097808962041
 30
0.0
 70
              32
  0
SEQEND
  5
D5
100
AcDbEntity
  8
0
370
               0
390
0
 62
               1
  0
POLYLINE
  5
D6
100
AcDbEntity
  8
0
370
               0
390
0
 62
               1
100
AcDb3dPolyline
 66
               1
 10
0.0
 20
0.0
 30
0.0
 70
               8
  0
VERTEX
  5
D7
100
AcDbEntity
  8
0
370
               0
390
0
 62
               1
100
AcDbVertex
100
AcDb3dPolylineVertex
 10
-657.44981334723707
 20
731.50639379457709
 30
0.0000000000002274
 70
              32
  0
VERTEX
  5
D8
100
AcDbEntity
  8
0
370
               0
390
0
 62
               1
100
AcDbVertex
100
AcDb3dPolylineVertex
 10
-657.44981334723707
 20
712.73097808961495
 30
0.0
 70
              32
  0
SEQEND
  5
D9
100
AcDbEntity
  8
0
370
               0
390
0
 62
               1
  0
POLYLINE
  5
DA
100
AcDbEntity
  8
0
370
               0
390
0
 62
               1
100
AcDb3dPolyline
 66
               1
 10
0.0
 20
0.0
 30
0.0
 70
               8
  0
VERTEX
  5
DB
100
AcDbEntity
  8
0
370
               0
390
0
 62
               1
100
AcDbVertex
100
AcDb3dPolylineVertex
 10
-97.449813347237068
 20
731.50639379457709
 30
0.0000000000002274
 70
              32
  0
VERTEX
  5
DC
100
AcDbEntity
  8
0
370
               0
390
0
 62
               1
100
AcDbVertex
100
AcDb3dPolylineVertex
 10
-97.449813347237068
 20
712.73097808961495
 30
0.0
 70
              32
  0
SEQEND
  5
DD
100
AcDbEntity
  8
0
370
               0
390
0
 62
               1
  0
POLYLINE
  5
DE
100
AcDbEntity
  8
0
370
               0
390
0
 62
               1
100
AcDb3dPolyline
 66
               1
 10
0.0
 20
0.0
 30
0.0
 70
               8
  0
VERTEX
  5
DF
100
AcDbEntity
  8
0
370
               0
390
0
 62
               1
100
AcDbVertex
100
AcDb3dPolylineVertex
 10
-121.94981334723707
 20
743.16375459811582
 30
0.0
 70
              32
  0
VERTEX
  5
E0
100
AcDbEntity
  8
0
370
               0
390
0
 62
               1
100
AcDbVertex
100
AcDb3dPolylineVertex
 10
-121.94981334723707
 20
743.37390075370706
 30
0.0
 70
              32
  0
SEQEND
  5
E1
100
AcDbEntity
  8
0
370
               0
390
0
 62
               1
  0
POLYLINE
  5
E2
100
AcDbEntity
  8
0
370
               0
390
0
 62
               1
100
AcDb3dPolyline
 66
               1
 10
0.0
 20
0.0
 30
0.0
 70
               8
  0
VERTEX
  5
E3
100
AcDbEntity
  8
0
370
               0
390
0
 62
               1
100
AcDbVertex
100
AcDb3dPolylineVertex
 10
-162.94981334723707
 20
743.37390075370797
 30
0.0
 70
              32
  0
VERTEX
  5
E4
100
AcDbEntity
  8
0
370
               0
390
0
 62
               1
100
AcDbVertex
100
AcDb3dPolylineVertex
 10
-162.94981334723707
 20
743.16375459811672
 30
0.0
 70
              32
  0
SEQEND
  5
E5
100
AcDbEntity
  8
0
370
               0
390
0
 62
               1
  0
POLYLINE
  5
E6
100
AcDbEntity
  8
0
370
               0
390
0
 62
               1
100
AcDb3dPolyline
 66
               1
 10
0.0
 20
0.0
 30
0.0
 70
               8
  0
VERTEX
  5
E7
100
AcDbEntity
  8
0
370
               0
390
0
 62
               1
100
AcDbVertex
100
AcDb3dPolylineVertex
 10
-97.449813347237068
 20
743.37390075370797
 30
0.0
 70
              32
  0
VERTEX
  5
E8
100
AcDbEntity
  8
0
370
               0
390
0
 62
               1
100
AcDbVertex
100
AcDb3dPolylineVertex
 10
-97.449813347237068
 20
731.50639379458437
 30
0.0000000000002274
 70
              32
  0
SEQEND
  5
E9
100
AcDbEntity
  8
0
370
               0
390
0
 62
               1
  0
POLYLINE
  5
EA
100
AcDbEntity
  8
0
370
               0
390
0
 62
               1
100
AcDb3dPolyline
 66
               1
 10
0.0
 20
0.0
 30
0.0
 70
               8
  0
VERTEX
  5
EB
100
AcDbEntity
  8
0
370
               0
390
0
 62
               1
100
AcDbVertex
100
AcDb3dPolylineVertex
 10
-657.44981334723707
 20
743.37390075370797
 30
0.0
 70
              32
  0
VERTEX
  5
EC
100
AcDbEntity
  8
0
370
               0
390
0
 62
               1
100
AcDbVertex
100
AcDb3dPolylineVertex
 10
-657.44981334723707
 20
731.50639379458437
 30
0.0000000000002274
 70
              32
  0
SEQEND
  5
ED
100
AcDbEntity
  8
0
370
               0
390
0
 62
               1
  0
POLYLINE
  5
EE
100
AcDbEntity
  8
0
370
               0
390
0
 62
               1
100
AcDb3dPolyline
 66
               1
 10
0.0
 20
0.0
 30
0.0
 70
               8
  0
VERTEX
  5
EF
100
AcDbEntity
  8
0
370
               0
390
0
 62
               1
100
AcDbVertex
100
AcDb3dPolylineVertex
 10
-667.44981334723707
 20
732.49457356852884
 30
0.0
 70
              32
  0
VERTEX
  5
F0
100
AcDbEntity
  8
0
370
               0
390
0
 62
               1
100
AcDbVertex
100
AcDb3dPolylineVertex
 10
-667.44981334723707
 20
712.73097808962041
 30
0.0
 70
              32
  0
SEQEND
  5
F1
100
AcDbEntity
  8
0
370
               0
390
0
 62
               1
  0
POLYLINE
  5
F2
100
AcDbEntity
  8
0
370
               0
390
0
 62
               1
100
AcDb3dPolyline
 66
               1
 10
0.0
 20
0.0
 30
0.0
 70
               8
  0
VERTEX
  5
F3
100
AcDbEntity
  8
0
370
               0
390
0
 62
               1
100
AcDbVertex
100
AcDb3dPolylineVertex
 10
-667.44981334723707
 20
732.49457356853429
 30
0.0
 70
              32
  0
VERTEX
  5
F4
100
AcDbEntity
  8
0
370
               0
390
0
 62
               1
100
AcDbVertex
100
AcDb3dPolylineVertex
 10
-667.44981334723707
 20
744.37390075371252
 30
0.0000000000002274
 70
              32
  0
SEQEND
  5
F5
100
AcDbEntity
  8
0
370
               0
390
0
 62
               1
  0
POLYLINE
  5
F6
100
AcDbEntity
  8
0
370
               0
390
0
 62
               1
100
AcDb3dPolyline
 66
               1
 10
0.0
 20
0.0
 30
0.0
 70
               8
  0
VERTEX
  5
F7
100
AcDbEntity
  8
0
370
               0
390
0
 62
               1
100
AcDbVertex
100
AcDb3dPolylineVertex
 10
-658.44981334723707
 20
712.73097808962041
 30
0.0
 70
              32
  0
VERTEX
  5
F8
100
AcDbEntity
  8
0
370
               0
390
0
 62
               1
100
AcDbVertex
100
AcDb3dPolylineVertex
 10
-658.44981334723707
 20
732.49457356852884
 30
0.0
 70
              32
  0
SEQEND
  5
F9
100
AcDbEntity
  8
0
370
               0
390
0
 62
               1
  0
POLYLINE
  5
FA
100
AcDbEntity
  8
0
370
               0
390
0
 62
               1
100
AcDb3dPolyline
 66
               1
 10
0.0
 20
0.0
 30
0.0
 70
               8
  0
VERTEX
  5
FB
100
AcDbEntity
  8
0
370
               0
390
0
 62
               1
100
AcDbVertex
100
AcDb3dPolylineVertex
 10
-658.44981334723707
 20
732.49457356853429
 30
0.0
 70
              32
  0
VERTEX
  5
FC
100
AcDbEntity
  8
0
370
               0
390
0
 62
               1
100
AcDbVertex
100
AcDb3dPolylineVertex
 10
-658.44981334723707
 20
744.37390075371252
 30
0.0000000000002274
 70
              32
  0
SEQEND
  5
FD
100
AcDbEntity
  8
0
370
               0
390
0
 62
               1
  0
ENDBLK
  5
FE
100
AcDbEntity
  8
0
390
0
100
AcDbBlockEnd
  0
BLOCK
  5
FF
100
AcDbEntity
  8
0
390
0
100
AcDbBlockBegin
  2
グループ-1
 70
               0
 10
0.0
 20
0.0
 30
0.0
  3
グループ-1
  1

  0
POLYLINE
  5
100
100
AcDbEntity
  8
0
370
               0
390
0
 62
               1
100
AcDb3dPolyline
 66
               1
 10
0.0
 20
0.0
 30
0.0
 70
               8
  0
VERTEX
  5
101
100
AcDbEntity
  8
0
370
               0
390
0
 62
               1
100
AcDbVertex
100
AcDb3dPolylineVertex
 10
616.91790383126136
 20
-239.39885188669166
 30
0.0000000000027285
 70
              32
  0
VERTEX
  5
102
100
AcDbEntity
  8
0
370
               0
390
0
 62
               1
100
AcDbVertex
100
AcDb3dPolylineVertex
 10
298.56082649530072
 20
-239.39885188669166
 30
0.0000000000027285
 70
              32
  0
SEQEND
  5
103
100
AcDbEntity
  8
0
370
               0
390
0
 62
               1
  0
ARC
  5
104
100
AcDbEntity
  8
0
370
               0
390
0
 62
               1
100
AcDbCircle
 10
616.91790383126136
 20
-219.39885188669166
 30
0.0
 40
20.0
100
AcDbArc
 50
270.0
 51
351.18181431235013
  0
POLYLINE
  5
105
100
AcDbEntity
  8
0
370
               0
390
0
 62
               1
100
AcDb3dPolyline
 66
               1
 10
0.0
 20
0.0
 30
0.0
 70
               8
  0
VERTEX
  5
106
100
AcDbEntity
  8
0
370
               0
390
0
 62
               1
100
AcDbVertex
100
AcDb3dPolylineVertex
 10
636.68149931017979
 20
-222.46484173429724
 30
0.0000000000031315
 70
              32
  0
VERTEX
  5
107
100
AcDbEntity
  8
0
370
               0
390
0
 62
               1
100
AcDbVertex
100
AcDb3dPolylineVertex
 10
638.1175146865171
 20
-212.904886273226
 30
0.0000000000031321
 70
              32
  0
VERTEX
  5
108
100
AcDbEntity
  8
0
370
               0
390
0
 62
               1
100
AcDbVertex
100
AcDb3dPolylineVertex
 10
639.46150641543863
 20
-203.33156005861622
 30
0.0000000000031326
 70
              32
  0
VERTEX
  5
109
100
AcDbEntity
  8
0
370
               0
390
0
 62
               1
100
AcDbVertex
100
AcDb3dPolylineVertex
 10
640.71335014101714
 20
-193.7457488845165
 30
0.0000000000031331
 70
              32
  0
VERTEX
  5
10A
100
AcDbEntity
  8
0
370
               0
390
0
 62
               1
100
AcDbVertex
100
AcDb3dPolylineVertex
 10
641.87293003352897
 20
-184.1483397001781
 30
0.0000000000031336
 70
              32
  0
VERTEX
  5
10B
100
AcDbEntity
  8
0
370
               0
390
0
 62
               1
100
AcDbVertex
100
AcDb3dPolylineVertex
 10
642.94013880017155
 20
-174.54022052798143
 30
0.000000000003134
 70
              32
  0
VERTEX
  5
10C
100
AcDbEntity
  8
0
370
               0
390
0
 62
               1
100
AcDbVertex
100
AcDb3dPolylineVertex
 10
643.91487769500236
 20
-164.9222803812728
 30
0.0000000000031344
 70
              32
  0
VERTEX
  5
10D
100
AcDbEntity
  8
0
370
               0
390
0
 62
               1
100
AcDbVertex
100
AcDb3dPolylineVertex
 10
644.79705652805569
 20
-155.29540918211103
 30
0.0000000000031348
 70
              32
  0
VERTEX
  5
10E
100
AcDbEntity
  8
0
370
               0
390
0
 62
               1
100
AcDbVertex
100
AcDb3dPolylineVertex
 10
645.58659367371001
 20
-145.6604976789173
 30
0.0000000000031351
 70
              32
  0
VERTEX
  5
10F
100
AcDbEntity
  8
0
370
               0
390
0
 62
               1
100
AcDbVertex
100
AcDb3dPolylineVertex
 10
646.28341607821858
 20
-136.0184373640617
 30
0.0000000000031354
 70
              32
  0
VERTEX
  5
110
100
AcDbEntity
  8
0
370
               0
390
0
 62
               1
100
AcDbVertex
100
AcDb3dPolylineVertex
 10
646.88745926648335
 20
-126.37012039137414
 30
0.0000000000031356
 70
              32
  0
VERTEX
  5
111
100
AcDbEntity
  8
0
370
               0
390
0
 62
               1
100
AcDbVertex
100
AcDb3dPolylineVertex
 10
647.39866734802126
 20
-116.71643949359566
 30
0.0000000000031358
 70
              32
  0
VERTEX
  5
112
100
AcDbEntity
  8
0
370
               0
390
0
 62
               1
100
AcDbVertex
100
AcDb3dPolylineVertex
 10
647.81699302212655
 20
-107.05828789977966
 30
0.000000000003136
 70
              32
  0
VERTEX
  5
113
100
AcDbEntity
  8
0
370
               0
390
0
 62
               1
100
AcDbVertex
100
AcDb3dPolylineVertex
 10
648.14239758225085
 20
-97.396559252638212
 30
0.0000000000031361
 70
              32
  0
VERTEX
  5
114
100
AcDbEntity
  8
0
370
               0
390
0
 62
               1
100
AcDbVertex
100
AcDb3dPolylineVertex
 10
648.37485091958661
 20
-87.732147525858522
 30
0.0000000000031362
 70
              32
  0
VERTEX
  5
115
100
AcDbEntity
  8
0
370
               0
390
0
 62
               1
100
AcDbVertex
100
AcDb3dPolylineVertex
 10
648.51433152586105
 20
-78.065946941388461
 30
0.0000000000031363
 70
              32
  0
VERTEX
  5
116
100
AcDbEntity
  8
0
370
               0
390
0
 62
               1
100
AcDbVertex
100
AcDb3dPolylineVertex
 10
648.56082649530072
 20
-68.39885188669075
 30
0.0000000000031363
 70
              32
  0
VERTEX
  5
117
100
AcDbEntity
  8
0
370
               0
390
0
 62
               1
100
AcDbVertex
100
AcDb3dPolylineVertex
 10
648.51433152586105
 20
-58.731756831992129
 30
0.0000000000031363
 70
              32
  0
VERTEX
  5
118
100
AcDbEntity
  8
0
370
               0
390
0
 62
               1
100
AcDbVertex
100
AcDb3dPolylineVertex
 10
648.37485091958661
 20
-49.065556247522068
 30
0.0000000000031362
 70
              32
  0
VERTEX
  5
119
100
AcDbEntity
  8
0
370
               0
390
0
 62
               1
100
AcDbVertex
100
AcDb3dPolylineVertex
 10
648.14239758225085
 20
-39.401144520743287
 30
0.0000000000031361
 70
              32
  0
VERTEX
  5
11A
100
AcDbEntity
  8
0
370
               0
390
0
 62
               1
100
AcDbVertex
100
AcDb3dPolylineVertex
 10
647.81699302212655
 20
-29.739415873600933
 30
0.000000000003136
 70
              32
  0
VERTEX
  5
11B
100
AcDbEntity
  8
0
370
               0
390
0
 62
               1
100
AcDbVertex
100
AcDb3dPolylineVertex
 10
647.39866734802126
 20
-20.081264279784932
 30
0.0000000000031358
 70
              32
  0
VERTEX
  5
11C
100
AcDbEntity
  8
0
370
               0
390
0
 62
               1
100
AcDbVertex
100
AcDb3dPolylineVertex
 10
646.88745926648335
 20
-10.427583382007356
 30
0.0000000000031356
 70
              32
  0
VERTEX
  5
11D
100
AcDbEntity
  8
0
370
               0
390
0
 62
               1
100
AcDbVertex
100
AcDb3dPolylineVertex
 10
646.28341607821858
 20
-0.7792664093188932
 30
0.0000000000031354
 70
              32
  0
VERTEX
  5
11E
100
AcDbEntity
  8
0
370
               0
390
0
 62
               1
100
AcDbVertex
100
AcDb3dPolylineVertex
 10
645.58659367371001
 20
8.8627939055369325
 30
0.0000000000031351
 70
              32
  0
VERTEX
  5
11F
100
AcDbEntity
  8
0
370
               0
390
0
 62
               1
100
AcDbVertex
100
AcDb3dPolylineVertex
 10
644.79705652805569
 20
18.49770540873044
 30
0.0000000000031348
 70
              32
  0
VERTEX
  5
120
100
AcDbEntity
  8
0
370
               0
390
0
 62
               1
100
AcDbVertex
100
AcDb3dPolylineVertex
 10
643.91487769500236
 20
28.124576607893346
 30
0.0000000000031344
 70
              32
  0
VERTEX
  5
121
100
AcDbEntity
  8
0
370
               0
390
0
 62
               1
100
AcDbVertex
100
AcDb3dPolylineVertex
 10
642.94013880017155
 20
37.742516754600842
 30
0.000000000003134
 70
              32
  0
VERTEX
  5
122
100
AcDbEntity
  8
0
370
               0
390
0
 62
               1
100
AcDbVertex
100
AcDb3dPolylineVertex
 10
641.87293003352897
 20
47.350635926797736
 30
0.0000000000031336
 70
              32
  0
VERTEX
  5
123
100
AcDbEntity
  8
0
370
               0
390
0
 62
               1
100
AcDbVertex
100
AcDb3dPolylineVertex
 10
640.71335014101714
 20
56.948045111137276
 30
0.0000000000031331
 70
              32
  0
VERTEX
  5
124
100
AcDbEntity
  8
0
370
               0
390
0
 62
               1
100
AcDbVertex
100
AcDb3dPolylineVertex
 10
639.46150641543863
 20
66.533856285235856
 30
0.0000000000031326
 70
              32
  0
VERTEX
  5
125
100
AcDbEntity
  8
0
370
               0
390
0
 62
               1
100
AcDbVertex
100
AcDb3dPolylineVertex
 10
638.1175146865171
 20
76.107182499845408
 30
0.0000000000031321
 70
              32
  0
VERTEX
  5
126
100
AcDbEntity
  8
0
370
               0
390
0
 62
               1
100
AcDbVertex
100
AcDb3dPolylineVertex
 10
636.68149931017979
 20
85.667137960917557
 30
0.0000000000031315
 70
              32
  0
SEQEND
  5
127
100
AcDbEntity
  8
0
370
               0
390
0
 62
               1
  0
ARC
  5
128
100
AcDbEntity
  8
0
370
               0
390
0
 62
               1
100
AcDbCircle
 10
616.91790383126136
 20
82.601148113313343
 30
0.0
 40
20.000000000000782
100
AcDbArc
 50
8.8181856876492457
 51
90.000000000000014
  0
POLYLINE
  5
129
100
AcDbEntity
  8
0
370
               0
390
0
 62
               1
100
AcDb3dPolyline
 66
               1
 10
0.0
 20
0.0
 30
0.0
 70
               8
  0
VERTEX
  5
12A
100
AcDbEntity
  8
0
370
               0
390
0
 62
               1
100
AcDbVertex
100
AcDb3dPolylineVertex
 10
298.56082649530072
 20
-239.39885188669166
 30
0.0000000000027285
 70
              32
  0
VERTEX
  5
12B
100
AcDbEntity
  8
0
370
               0
390
0
 62
               1
100
AcDbVertex
100
AcDb3dPolylineVertex
 10
298.56082649530072
 20
102.60114811331425
 30
0.0000000000027285
 70
              32
  0
SEQEND
  5
12C
100
AcDbEntity
  8
0
370
               0
390
0
 62
               1
  0
POLYLINE
  5
12D
100
AcDbEntity
  8
0
370
               0
390
0
 62
               1
100
AcDb3dPolyline
 66
               1
 10
0.0
 20
0.0
 30
0.0
 70
               8
  0
VERTEX
  5
12E
100
AcDbEntity
  8
0
370
               0
390
0
 62
               1
100
AcDbVertex
100
AcDb3dPolylineVertex
 10
298.56082649530072
 20
102.6011481133138
 30
0.0000000000027285
 70
              32
  0
VERTEX
  5
12F
100
AcDbEntity
  8
0
370
               0
390
0
 62
               1
100
AcDbVertex
100
AcDb3dPolylineVertex
 10
616.91790383126136
 20
102.6011481133138
 30
0.0000000000027285
 70
              32
  0
SEQEND
  5
130
100
AcDbEntity
  8
0
370
               0
390
0
 62
               1
  0
ENDBLK
  5
131
100
AcDbEntity
  8
0
390
0
100
AcDbBlockEnd
  0
BLOCK
  5
132
100
AcDbEntity
  8
0
390
0
100
AcDbBlockBegin
  2
グループ-2
 70
               0
 10
0.0
 20
0.0
 30
0.0
  3
グループ-2
  1

  0
POLYLINE
  5
133
100
AcDbEntity
  8
0
370
               0
390
0
 62
               1
100
AcDb3dPolyline
 66
               1
 10
0.0
 20
0.0
 30
0.0
 70
               8
  0
VERTEX
  5
134
100
AcDbEntity
  8
0
370
               0
390
0
 62
               1
100
AcDbVertex
100
AcDb3dPolylineVertex
 10
1488.266629728405
 20
90.601148113311979
 30
-0.0000000038880899
 70
              32
  0
VERTEX
  5
135
100
AcDbEntity
  8
0
370
               0
390
0
 62
               1
100
AcDbVertex
100
AcDb3dPolylineVertex
 10
1044.266629728405
 20
90.601148113312433
 30
-0.0000000036252459
 70
              32
  0
SEQEND
  5
136
100
AcDbEntity
  8
0
370
               0
390
0
 62
               1
  0
POLYLINE
  5
137
100
AcDbEntity
  8
0
370
               0
390
0
 62
               1
100
AcDb3dPolyline
 66
               1
 10
0.0
 20
0.0
 30
0.0
 70
               8
  0
VERTEX
  5
138
100
AcDbEntity
  8
0
370
               0
390
0
 62
               1
100
AcDbVertex
100
AcDb3dPolylineVertex
 10
1488.266629728405
 20
-227.39885188668984
 30
-0.0000000038880899
 70
              32
  0
VERTEX
  5
139
100
AcDbEntity
  8
0
370
               0
390
0
 62
               1
100
AcDbVertex
100
AcDb3dPolylineVertex
 10
1488.266629728405
 20
90.601148113311979
 30
-0.0000000038880899
 70
              32
  0
SEQEND
  5
13A
100
AcDbEntity
  8
0
370
               0
390
0
 62
               1
  0
POLYLINE
  5
13B
100
AcDbEntity
  8
0
370
               0
390
0
 62
               1
100
AcDb3dPolyline
 66
               1
 10
0.0
 20
0.0
 30
0.0
 70
               8
  0
VERTEX
  5
13C
100
AcDbEntity
  8
0
370
               0
390
0
 62
               1
100
AcDbVertex
100
AcDb3dPolylineVertex
 10
1488.266629728405
 20
-227.39885188668984
 30
-0.0000000038880899
 70
              32
  0
VERTEX
  5
13D
100
AcDbEntity
  8
0
370
               0
390
0
 62
               1
100
AcDbVertex
100
AcDb3dPolylineVertex
 10
932.26662972840495
 20
-227.39885188668939
 30
-0.0000000035588528
 70
              32
  0
SEQEND
  5
13E
100
AcDbEntity
  8
0
370
               0
390
0
 62
               1
  0
POLYLINE
  5
13F
100
AcDbEntity
  8
0
370
               0
390
0
 62
               1
100
AcDb3dPolyline
 66
               1
 10
0.0
 20
0.0
 30
0.0
 70
               8
  0
VERTEX
  5
140
100
AcDbEntity
  8
0
370
               0
390
0
 62
               1
100
AcDbVertex
100
AcDb3dPolylineVertex
 10
932.26662972840495
 20
-1.3988518866875665
 30
-0.0000000035588528
 70
              32
  0
VERTEX
  5
141
100
AcDbEntity
  8
0
370
               0
390
0
 62
               1
100
AcDbVertex
100
AcDb3dPolylineVertex
 10
932.26662972840495
 20
-227.39885188668939
 30
-0.0000000035588528
 70
              32
  0
SEQEND
  5
142
100
AcDbEntity
  8
0
370
               0
390
0
 62
               1
  0
POLYLINE
  5
143
100
AcDbEntity
  8
0
370
               0
390
0
 62
               1
100
AcDb3dPolyline
 66
               1
 10
0.0
 20
0.0
 30
0.0
 70
               8
  0
VERTEX
  5
144
100
AcDbEntity
  8
0
370
               0
390
0
 62
               1
100
AcDbVertex
100
AcDb3dPolylineVertex
 10
1044.2666297284013
 20
-1.3988518866875665
 30
-0.0000000036252459
 70
              32
  0
VERTEX
  5
145
100
AcDbEntity
  8
0
370
               0
390
0
 62
               1
100
AcDbVertex
100
AcDb3dPolylineVertex
 10
1044.266629728405
 20
90.601148113312433
 30
-0.0000000036252459
 70
              32
  0
SEQEND
  5
146
100
AcDbEntity
  8
0
370
               0
390
0
 62
               1
  0
POLYLINE
  5
147
100
AcDbEntity
  8
0
370
               0
390
0
 62
               1
100
AcDb3dPolyline
 66
               1
 10
0.0
 20
0.0
 30
0.0
 70
               8
  0
VERTEX
  5
148
100
AcDbEntity
  8
0
370
               0
390
0
 62
               1
100
AcDbVertex
100
AcDb3dPolylineVertex
 10
1032.2666297284122
 20
90.601148113311979
 30
-0.0000000036179699
 70
              32
  0
VERTEX
  5
149
100
AcDbEntity
  8
0
370
               0
390
0
 62
               1
100
AcDbVertex
100
AcDb3dPolylineVertex
 10
1032.2666297284122
 20
10.601148113312433
 30
-0.0000000036179699
 70
              32
  0
SEQEND
  5
14A
100
AcDbEntity
  8
0
370
               0
390
0
 62
               1
  0
POLYLINE
  5
14B
100
AcDbEntity
  8
0
370
               0
390
0
 62
               1
100
AcDb3dPolyline
 66
               1
 10
0.0
 20
0.0
 30
0.0
 70
               8
  0
VERTEX
  5
14C
100
AcDbEntity
  8
0
370
               0
390
0
 62
               1
100
AcDbVertex
100
AcDb3dPolylineVertex
 10
1032.2666297284122
 20
10.601148113312433
 30
-0.0000000036179699
 70
              32
  0
VERTEX
  5
14D
100
AcDbEntity
  8
0
370
               0
390
0
 62
               1
100
AcDbVertex
100
AcDb3dPolylineVertex
 10
1044.2666297284013
 20
-1.3988518866875665
 30
-0.0000000036252459
 70
              32
  0
SEQEND
  5
14E
100
AcDbEntity
  8
0
370
               0
390
0
 62
               1
  0
POLYLINE
  5
14F
100
AcDbEntity
  8
0
370
               0
390
0
 62
               1
100
AcDb3dPolyline
 66
               1
 10
0.0
 20
0.0
 30
0.0
 70
               8
  0
VERTEX
  5
150
100
AcDbEntity
  8
0
370
               0
390
0
 62
               1
100
AcDbVertex
100
AcDb3dPolylineVertex
 10
932.26662972840495
 20
-1.3988518866875665
 30
-0.0000000035588528
 70
              32
  0
VERTEX
  5
151
100
AcDbEntity
  8
0
370
               0
390
0
 62
               1
100
AcDbVertex
100
AcDb3dPolylineVertex
 10
1044.2666297284013
 20
-1.3988518866875665
 30
-0.0000000036252459
 70
              32
  0
SEQEND
  5
152
100
AcDbEntity
  8
0
370
               0
390
0
 62
               1
  0
POLYLINE
  5
153
100
AcDbEntity
  8
0
370
               0
390
0
 62
               1
100
AcDb3dPolyline
 66
               1
 10
0.0
 20
0.0
 30
0.0
 70
               8
  0
VERTEX
  5
154
100
AcDbEntity
  8
0
370
               0
390
0
 62
               1
100
AcDbVertex
100
AcDb3dPolylineVertex
 10
1032.2666297284122
 20
10.601148113312433
 30
-0.0000000036179699
 70
              32
  0
VERTEX
  5
155
100
AcDbEntity
  8
0
370
               0
390
0
 62
               1
100
AcDbVertex
100
AcDb3dPolylineVertex
 10
932.26662972841223
 20
10.601148113312433
 30
-0.0000000035588528
 70
              32
  0
SEQEND
  5
156
100
AcDbEntity
  8
0
370
               0
390
0
 62
               1
  0
POLYLINE
  5
157
100
AcDbEntity
  8
0
370
               0
390
0
 62
               1
100
AcDb3dPolyline
 66
               1
 10
0.0
 20
0.0
 30
0.0
 70
               8
  0
VERTEX
  5
158
100
AcDbEntity
  8
0
370
               0
390
0
 62
               1
100
AcDbVertex
100
AcDb3dPolylineVertex
 10
920.26662972840495
 20
102.60114811331243
 30
-0.0000000035515768
 70
              32
  0
VERTEX
  5
159
100
AcDbEntity
  8
0
370
               0
390
0
 62
               1
100
AcDbVertex
100
AcDb3dPolylineVertex
 10
932.26662972840495
 20
102.60114811331243
 30
-0.0000000035588528
 70
              32
  0
SEQEND
  5
15A
100
AcDbEntity
  8
0
370
               0
390
0
 62
               1
  0
POLYLINE
  5
15B
100
AcDbEntity
  8
0
370
               0
390
0
 62
               1
100
AcDb3dPolyline
 66
               1
 10
0.0
 20
0.0
 30
0.0
 70
               8
  0
VERTEX
  5
15C
100
AcDbEntity
  8
0
370
               0
390
0
 62
               1
100
AcDbVertex
100
AcDb3dPolylineVertex
 10
920.26662972840495
 20
-239.39885188669348
 30
-0.0000000035515768
 70
              32
  0
VERTEX
  5
15D
100
AcDbEntity
  8
0
370
               0
390
0
 62
               1
100
AcDbVertex
100
AcDb3dPolylineVertex
 10
920.26662972840495
 20
102.60114811331243
 30
-0.0000000035515768
 70
              32
  0
SEQEND
  5
15E
100
AcDbEntity
  8
0
370
               0
390
0
 62
               1
  0
POLYLINE
  5
15F
100
AcDbEntity
  8
0
370
               0
390
0
 62
               1
100
AcDb3dPolyline
 66
               1
 10
0.0
 20
0.0
 30
0.0
 70
               8
  0
VERTEX
  5
160
100
AcDbEntity
  8
0
370
               0
390
0
 62
               1
100
AcDbVertex
100
AcDb3dPolylineVertex
 10
920.26662972840495
 20
-239.39885188669348
 30
-0.0000000035515768
 70
              32
  0
VERTEX
  5
161
100
AcDbEntity
  8
0
370
               0
390
0
 62
               1
100
AcDbVertex
100
AcDb3dPolylineVertex
 10
932.26662972840495
 20
-239.39885188669348
 30
-0.0000000035588528
 70
              32
  0
SEQEND
  5
162
100
AcDbEntity
  8
0
370
               0
390
0
 62
               1
  0
POLYLINE
  5
163
100
AcDbEntity
  8
0
370
               0
390
0
 62
               1
100
AcDb3dPolyline
 66
               1
 10
0.0
 20
0.0
 30
0.0
 70
               8
  0
VERTEX
  5
164
100
AcDbEntity
  8
0
370
               0
390
0
 62
               1
100
AcDbVertex
100
AcDb3dPolylineVertex
 10
932.26662972840495
 20
102.60114811331243
 30
-0.0000000035588528
 70
              32
  0
VERTEX
  5
165
100
AcDbEntity
  8
0
370
               0
390
0
 62
               1
100
AcDbVertex
100
AcDb3dPolylineVertex
 10
932.26662972840495
 20
-239.39885188669348
 30
-0.0000000035588528
 70
              32
  0
SEQEND
  5
166
100
AcDbEntity
  8
0
370
               0
390
0
 62
               1
  0
POLYLINE
  5
167
100
AcDbEntity
  8
0
370
               0
390
0
 62
               1
100
AcDb3dPolyline
 66
               1
 10
0.0
 20
0.0
 30
0.0
 70
               8
  0
VERTEX
  5
168
100
AcDbEntity
  8
0
370
               0
390
0
 62
               1
100
AcDbVertex
100
AcDb3dPolylineVertex
 10
932.26662972840495
 20
90.601148113313343
 30
-0.0000000035588528
 70
              32
  0
VERTEX
  5
169
100
AcDbEntity
  8
0
370
               0
390
0
 62
               1
100
AcDbVertex
100
AcDb3dPolylineVertex
 10
1488.266629728405
 20
90.601148113313343
 30
-0.0000000038880899
 70
              32
  0
SEQEND
  5
16A
100
AcDbEntity
  8
0
370
               0
390
0
 62
               1
  0
POLYLINE
  5
16B
100
AcDbEntity
  8
0
370
               0
390
0
 62
               1
100
AcDb3dPolyline
 66
               1
 10
0.0
 20
0.0
 30
0.0
 70
               8
  0
VERTEX
  5
16C
100
AcDbEntity
  8
0
370
               0
390
0
 62
               1
100
AcDbVertex
100
AcDb3dPolylineVertex
 10
932.26662972840495
 20
102.60114811331334
 30
-0.0000000035588528
 70
              32
  0
VERTEX
  5
16D
100
AcDbEntity
  8
0
370
               0
390
0
 62
               1
100
AcDbVertex
100
AcDb3dPolylineVertex
 10
1488.266629728405
 20
102.60114811331334
 30
-0.0000000038880899
 70
              32
  0
SEQEND
  5
16E
100
AcDbEntity
  8
0
370
               0
390
0
 62
               1
  0
POLYLINE
  5
16F
100
AcDbEntity
  8
0
370
               0
390
0
 62
               1
100
AcDb3dPolyline
 66
               1
 10
0.0
 20
0.0
 30
0.0
 70
               8
  0
VERTEX
  5
170
100
AcDbEntity
  8
0
370
               0
390
0
 62
               1
100
AcDbVertex
100
AcDb3dPolylineVertex
 10
1488.266629728405
 20
102.60114811331334
 30
-0.0000000038880899
 70
              32
  0
VERTEX
  5
171
100
AcDbEntity
  8
0
370
               0
390
0
 62
               1
100
AcDbVertex
100
AcDb3dPolylineVertex
 10
1488.266629728405
 20
90.601148113313343
 30
-0.0000000038880899
 70
              32
  0
SEQEND
  5
172
100
AcDbEntity
  8
0
370
               0
390
0
 62
               1
  0
POLYLINE
  5
173
100
AcDbEntity
  8
0
370
               0
390
0
 62
               1
100
AcDb3dPolyline
 66
               1
 10
0.0
 20
0.0
 30
0.0
 70
               8
  0
VERTEX
  5
174
100
AcDbEntity
  8
0
370
               0
390
0
 62
               1
100
AcDbVertex
100
AcDb3dPolylineVertex
 10
932.26662972840495
 20
102.60114811331334
 30
-0.0000000035588528
 70
              32
  0
VERTEX
  5
175
100
AcDbEntity
  8
0
370
               0
390
0
 62
               1
100
AcDbVertex
100
AcDb3dPolylineVertex
 10
932.26662972840495
 20
90.601148113313343
 30
-0.0000000035588528
 70
              32
  0
SEQEND
  5
176
100
AcDbEntity
  8
0
370
               0
390
0
 62
               1
  0
POLYLINE
  5
177
100
AcDbEntity
  8
0
370
               0
390
0
 62
               1
100
AcDb3dPolyline
 66
               1
 10
0.0
 20
0.0
 30
0.0
 70
               8
  0
VERTEX
  5
178
100
AcDbEntity
  8
0
370
               0
390
0
 62
               1
100
AcDbVertex
100
AcDb3dPolylineVertex
 10
932.26662972840495
 20
-239.39885188669439
 30
-0.0000000035588528
 70
              32
  0
VERTEX
  5
179
100
AcDbEntity
  8
0
370
               0
390
0
 62
               1
100
AcDbVertex
100
AcDb3dPolylineVertex
 10
932.26662972840495
 20
-227.39885188669439
 30
-0.0000000035588528
 70
              32
  0
SEQEND
  5
17A
100
AcDbEntity
  8
0
370
               0
390
0
 62
               1
  0
POLYLINE
  5
17B
100
AcDbEntity
  8
0
370
               0
390
0
 62
               1
100
AcDb3dPolyline
 66
               1
 10
0.0
 20
0.0
 30
0.0
 70
               8
  0
VERTEX
  5
17C
100
AcDbEntity
  8
0
370
               0
390
0
 62
               1
100
AcDbVertex
100
AcDb3dPolylineVertex
 10
1488.266629728405
 20
-239.39885188669393
 30
-0.0000000038880899
 70
              32
  0
VERTEX
  5
17D
100
AcDbEntity
  8
0
370
               0
390
0
 62
               1
100
AcDbVertex
100
AcDb3dPolylineVertex
 10
1488.266629728405
 20
-227.39885188669393
 30
-0.0000000038880899
 70
              32
  0
SEQEND
  5
17E
100
AcDbEntity
  8
0
370
               0
390
0
 62
               1
  0
POLYLINE
  5
17F
100
AcDbEntity
  8
0
370
               0
390
0
 62
               1
100
AcDb3dPolyline
 66
               1
 10
0.0
 20
0.0
 30
0.0
 70
               8
  0
VERTEX
  5
180
100
AcDbEntity
  8
0
370
               0
390
0
 62
               1
100
AcDbVertex
100
AcDb3dPolylineVertex
 10
932.26662972840495
 20
-239.39885188669439
 30
-0.0000000035588528
 70
              32
  0
VERTEX
  5
181
100
AcDbEntity
  8
0
370
               0
390
0
 62
               1
100
AcDbVertex
100
AcDb3dPolylineVertex
 10
1488.266629728405
 20
-239.39885188669393
 30
-0.0000000038880899
 70
              32
  0
SEQEND
  5
182
100
AcDbEntity
  8
0
370
               0
390
0
 62
               1
  0
POLYLINE
  5
183
100
AcDbEntity
  8
0
370
               0
390
0
 62
               1
100
AcDb3dPolyline
 66
               1
 10
0.0
 20
0.0
 30
0.0
 70
               8
  0
VERTEX
  5
184
100
AcDbEntity
  8
0
370
               0
390
0
 62
               1
100
AcDbVertex
100
AcDb3dPolylineVertex
 10
932.26662972840495
 20
-227.39885188669439
 30
-0.0000000035588528
 70
              32
  0
VERTEX
  5
185
100
AcDbEntity
  8
0
370
               0
390
0
 62
               1
100
AcDbVertex
100
AcDb3dPolylineVertex
 10
1488.266629728405
 20
-227.39885188669393
 30
-0.0000000038880899
 70
              32
  0
SEQEND
  5
186
100
AcDbEntity
  8
0
370
               0
390
0
 62
               1
  0
POLYLINE
  5
187
100
AcDbEntity
  8
0
370
               0
390
0
 62
               1
100
AcDb3dPolyline
 66
               1
 10
0.0
 20
0.0
 30
0.0
 70
               8
  0
VERTEX
  5
188
100
AcDbEntity
  8
0
370
               0
390
0
 62
               1
100
AcDbVertex
100
AcDb3dPolylineVertex
 10
1500.266629728405
 20
-239.39885188669166
 30
-0.0000000038953658
 70
              32
  0
VERTEX
  5
189
100
AcDbEntity
  8
0
370
               0
390
0
 62
               1
100
AcDbVertex
100
AcDb3dPolylineVertex
 10
1488.266629728405
 20
-239.39885188669166
 30
-0.0000000038880899
 70
              32
  0
SEQEND
  5
18A
100
AcDbEntity
  8
0
370
               0
390
0
 62
               1
  0
POLYLINE
  5
18B
100
AcDbEntity
  8
0
370
               0
390
0
 62
               1
100
AcDb3dPolyline
 66
               1
 10
0.0
 20
0.0
 30
0.0
 70
               8
  0
VERTEX
  5
18C
100
AcDbEntity
  8
0
370
               0
390
0
 62
               1
100
AcDbVertex
100
AcDb3dPolylineVertex
 10
1488.266629728405
 20
102.6011481133138
 30
-0.0000000038880899
 70
              32
  0
VERTEX
  5
18D
100
AcDbEntity
  8
0
370
               0
390
0
 62
               1
100
AcDbVertex
100
AcDb3dPolylineVertex
 10
1488.266629728405
 20
-239.39885188669189
 30
-0.0000000038880899
 70
              32
  0
SEQEND
  5
18E
100
AcDbEntity
  8
0
370
               0
390
0
 62
               1
  0
POLYLINE
  5
18F
100
AcDbEntity
  8
0
370
               0
390
0
 62
               1
100
AcDb3dPolyline
 66
               1
 10
0.0
 20
0.0
 30
0.0
 70
               8
  0
VERTEX
  5
190
100
AcDbEntity
  8
0
370
               0
390
0
 62
               1
100
AcDbVertex
100
AcDb3dPolylineVertex
 10
1500.266629728405
 20
-239.39885188669166
 30
-0.0000000038953658
 70
              32
  0
VERTEX
  5
191
100
AcDbEntity
  8
0
370
               0
390
0
 62
               1
100
AcDbVertex
100
AcDb3dPolylineVertex
 10
1500.266629728405
 20
102.60114811331425
 30
-0.0000000038953658
 70
              32
  0
SEQEND
  5
192
100
AcDbEntity
  8
0
370
               0
390
0
 62
               1
  0
POLYLINE
  5
193
100
AcDbEntity
  8
0
370
               0
390
0
 62
               1
100
AcDb3dPolyline
 66
               1
 10
0.0
 20
0.0
 30
0.0
 70
               8
  0
VERTEX
  5
194
100
AcDbEntity
  8
0
370
               0
390
0
 62
               1
100
AcDbVertex
100
AcDb3dPolylineVertex
 10
1500.266629728405
 20
102.6011481133138
 30
-0.0000000038953658
 70
              32
  0
VERTEX
  5
195
100
AcDbEntity
  8
0
370
               0
390
0
 62
               1
100
AcDbVertex
100
AcDb3dPolylineVertex
 10
1488.266629728405
 20
102.6011481133138
 30
-0.0000000038880899
 70
              32
  0
SEQEND
  5
196
100
AcDbEntity
  8
0
370
               0
390
0
 62
               1
  0
POLYLINE
  5
197
100
AcDbEntity
  8
0
370
               0
390
0
 62
               1
100
AcDb3dPolyline
 66
               1
 10
0.0
 20
0.0
 30
0.0
 70
               8
  0
VERTEX
  5
198
100
AcDbEntity
  8
0
370
               0
390
0
 62
               1
100
AcDbVertex
100
AcDb3dPolylineVertex
 10
970.51002885847265
 20
30.09394676953309
 30
-0.0000000035815901
 70
              32
  0
VERTEX
  5
199
100
AcDbEntity
  8
0
370
               0
390
0
 62
               1
100
AcDbVertex
100
AcDb3dPolylineVertex
 10
970.51002885847265
 20
28.679733207160666
 30
-0.0000000035815901
 70
              32
  0
SEQEND
  5
19A
100
AcDbEntity
  8
0
370
               0
390
0
 62
               1
  0
POLYLINE
  5
19B
100
AcDbEntity
  8
0
370
               0
390
0
 62
               1
100
AcDb3dPolyline
 66
               1
 10
0.0
 20
0.0
 30
0.0
 70
               8
  0
VERTEX
  5
19C
100
AcDbEntity
  8
0
370
               0
390
0
 62
               1
100
AcDbVertex
100
AcDb3dPolylineVertex
 10
994.01002885847629
 20
30.093946769532181
 30
-0.0000000035952326
 70
              32
  0
VERTEX
  5
19D
100
AcDbEntity
  8
0
370
               0
390
0
 62
               1
100
AcDbVertex
100
AcDb3dPolylineVertex
 10
994.01002885847629
 20
28.679733207159757
 30
-0.0000000035952326
 70
              32
  0
SEQEND
  5
19E
100
AcDbEntity
  8
0
370
               0
390
0
 62
               1
  0
POLYLINE
  5
19F
100
AcDbEntity
  8
0
370
               0
390
0
 62
               1
100
AcDb3dPolyline
 66
               1
 10
0.0
 20
0.0
 30
0.0
 70
               8
  0
VERTEX
  5
1A0
100
AcDbEntity
  8
0
370
               0
390
0
 62
               1
100
AcDbVertex
100
AcDb3dPolylineVertex
 10
976.26002885847629
 20
30.09394676953309
 30
-0.0000000035843186
 70
              32
  0
VERTEX
  5
1A1
100
AcDbEntity
  8
0
370
               0
390
0
 62
               1
100
AcDbVertex
100
AcDb3dPolylineVertex
 10
976.26002885847629
 20
25.350530279280179
 30
-0.0000000035843186
 70
              32
  0
SEQEND
  5
1A2
100
AcDbEntity
  8
0
370
               0
390
0
 62
               1
  0
POLYLINE
  5
1A3
100
AcDbEntity
  8
0
370
               0
390
0
 62
               1
100
AcDb3dPolyline
 66
               1
 10
0.0
 20
0.0
 30
0.0
 70
               8
  0
VERTEX
  5
1A4
100
AcDbEntity
  8
0
370
               0
390
0
 62
               1
100
AcDbVertex
100
AcDb3dPolylineVertex
 10
988.26002885847629
 20
30.093946769532636
 30
-0.0000000035915946
 70
              32
  0
VERTEX
  5
1A5
100
AcDbEntity
  8
0
370
               0
390
0
 62
               1
100
AcDbVertex
100
AcDb3dPolylineVertex
 10
988.26002885847629
 20
25.350530279279724
 30
-0.0000000035915946
 70
              32
  0
SEQEND
  5
1A6
100
AcDbEntity
  8
0
370
               0
390
0
 62
               1
  0
POLYLINE
  5
1A7
100
AcDbEntity
  8
0
370
               0
390
0
 62
               1
100
AcDb3dPolyline
 66
               1
 10
0.0
 20
0.0
 30
0.0
 70
               8
  0
VERTEX
  5
1A8
100
AcDbEntity
  8
0
370
               0
390
0
 62
               1
100
AcDbVertex
100
AcDb3dPolylineVertex
 10
972.26002885847265
 20
29.03328659775309
 30
-0.0000000035824996
 70
              32
  0
VERTEX
  5
1A9
100
AcDbEntity
  8
0
370
               0
390
0
 62
               1
100
AcDbVertex
100
AcDb3dPolylineVertex
 10
972.26002885847629
 20
31.154606941314
 30
-0.0000000035824996
 70
              32
  0
SEQEND
  5
1AA
100
AcDbEntity
  8
0
370
               0
390
0
 62
               1
  0
POLYLINE
  5
1AB
100
AcDbEntity
  8
0
370
               0
390
0
 62
               1
100
AcDb3dPolyline
 66
               1
 10
0.0
 20
0.0
 30
0.0
 70
               8
  0
VERTEX
  5
1AC
100
AcDbEntity
  8
0
370
               0
390
0
 62
               1
100
AcDbVertex
100
AcDb3dPolylineVertex
 10
973.38590918382397
 20
29.03328659775309
 30
-0.0000000035834091
 70
              32
  0
VERTEX
  5
1AD
100
AcDbEntity
  8
0
370
               0
390
0
 62
               1
100
AcDbVertex
100
AcDb3dPolylineVertex
 10
972.26002885847265
 20
29.03328659775309
 30
-0.0000000035824996
 70
              32
  0
SEQEND
  5
1AE
100
AcDbEntity
  8
0
370
               0
390
0
 62
               1
  0
POLYLINE
  5
1AF
100
AcDbEntity
  8
0
370
               0
390
0
 62
               1
100
AcDb3dPolyline
 66
               1
 10
0.0
 20
0.0
 30
0.0
 70
               8
  0
VERTEX
  5
1B0
100
AcDbEntity
  8
0
370
               0
390
0
 62
               1
100
AcDbVertex
100
AcDb3dPolylineVertex
 10
972.26002885847629
 20
31.154606941314
 30
-0.0000000035824996
 70
              32
  0
VERTEX
  5
1B1
100
AcDbEntity
  8
0
370
               0
390
0
 62
               1
100
AcDbVertex
100
AcDb3dPolylineVertex
 10
973.38590918382397
 20
31.154606941314
 30
-0.0000000035834091
 70
              32
  0
SEQEND
  5
1B2
100
AcDbEntity
  8
0
370
               0
390
0
 62
               1
  0
POLYLINE
  5
1B3
100
AcDbEntity
  8
0
370
               0
390
0
 62
               1
100
AcDb3dPolyline
 66
               1
 10
0.0
 20
0.0
 30
0.0
 70
               8
  0
VERTEX
  5
1B4
100
AcDbEntity
  8
0
370
               0
390
0
 62
               1
100
AcDbVertex
100
AcDb3dPolylineVertex
 10
973.38590918382397
 20
31.154606941314
 30
-0.0000000035834091
 70
              32
  0
VERTEX
  5
1B5
100
AcDbEntity
  8
0
370
               0
390
0
 62
               1
100
AcDbVertex
100
AcDb3dPolylineVertex
 10
973.38590918382761
 20
29.03328659775309
 30
-0.0000000035834091
 70
              32
  0
SEQEND
  5
1B6
100
AcDbEntity
  8
0
370
               0
390
0
 62
               1
  0
POLYLINE
  5
1B7
100
AcDbEntity
  8
0
370
               0
390
0
 62
               1
100
AcDb3dPolyline
 66
               1
 10
0.0
 20
0.0
 30
0.0
 70
               8
  0
VERTEX
  5
1B8
100
AcDbEntity
  8
0
370
               0
390
0
 62
               1
100
AcDbVertex
100
AcDb3dPolylineVertex
 10
992.26002885847629
 20
31.861713722499303
 30
-0.0000000035943231
 70
              32
  0
VERTEX
  5
1B9
100
AcDbEntity
  8
0
370
               0
390
0
 62
               1
100
AcDbVertex
100
AcDb3dPolylineVertex
 10
992.26002885847265
 20
28.326179816566423
 30
-0.0000000035943231
 70
              32
  0
SEQEND
  5
1BA
100
AcDbEntity
  8
0
370
               0
390
0
 62
               1
  0
POLYLINE
  5
1BB
100
AcDbEntity
  8
0
370
               0
390
0
 62
               1
100
AcDb3dPolyline
 66
               1
 10
0.0
 20
0.0
 30
0.0
 70
               8
  0
VERTEX
  5
1BC
100
AcDbEntity
  8
0
370
               0
390
0
 62
               1
100
AcDbVertex
100
AcDb3dPolylineVertex
 10
990.9058370913699
 20
31.861713722499303
 30
-0.0000000035934136
 70
              32
  0
VERTEX
  5
1BD
100
AcDbEntity
  8
0
370
               0
390
0
 62
               1
100
AcDbVertex
100
AcDb3dPolylineVertex
 10
992.26002885847629
 20
31.861713722499303
 30
-0.0000000035943231
 70
              32
  0
SEQEND
  5
1BE
100
AcDbEntity
  8
0
370
               0
390
0
 62
               1
  0
POLYLINE
  5
1BF
100
AcDbEntity
  8
0
370
               0
390
0
 62
               1
100
AcDb3dPolyline
 66
               1
 10
0.0
 20
0.0
 30
0.0
 70
               8
  0
VERTEX
  5
1C0
100
AcDbEntity
  8
0
370
               0
390
0
 62
               1
100
AcDbVertex
100
AcDb3dPolylineVertex
 10
990.90583709137354
 20
28.326179816566423
 30
-0.0000000035934136
 70
              32
  0
VERTEX
  5
1C1
100
AcDbEntity
  8
0
370
               0
390
0
 62
               1
100
AcDbVertex
100
AcDb3dPolylineVertex
 10
990.9058370913699
 20
31.861713722499303
 30
-0.0000000035934136
 70
              32
  0
SEQEND
  5
1C2
100
AcDbEntity
  8
0
370
               0
390
0
 62
               1
  0
POLYLINE
  5
1C3
100
AcDbEntity
  8
0
370
               0
390
0
 62
               1
100
AcDb3dPolyline
 66
               1
 10
0.0
 20
0.0
 30
0.0
 70
               8
  0
VERTEX
  5
1C4
100
AcDbEntity
  8
0
370
               0
390
0
 62
               1
100
AcDbVertex
100
AcDb3dPolylineVertex
 10
992.26002885847265
 20
28.326179816566423
 30
-0.0000000035943231
 70
              32
  0
VERTEX
  5
1C5
100
AcDbEntity
  8
0
370
               0
390
0
 62
               1
100
AcDbVertex
100
AcDb3dPolylineVertex
 10
990.90583709136627
 20
28.326179816566423
 30
-0.0000000035934136
 70
              32
  0
SEQEND
  5
1C6
100
AcDbEntity
  8
0
370
               0
390
0
 62
               1
  0
POLYLINE
  5
1C7
100
AcDbEntity
  8
0
370
               0
390
0
 62
               1
100
AcDb3dPolyline
 66
               1
 10
0.0
 20
0.0
 30
0.0
 70
               8
  0
VERTEX
  5
1C8
100
AcDbEntity
  8
0
370
               0
390
0
 62
               1
100
AcDbVertex
100
AcDb3dPolylineVertex
 10
1032.2666297284122
 20
10.601148113312433
 30
-0.0000000036179699
 70
              32
  0
VERTEX
  5
1C9
100
AcDbEntity
  8
0
370
               0
390
0
 62
               1
100
AcDbVertex
100
AcDb3dPolylineVertex
 10
932.26662972841223
 20
10.601148113312433
 30
-0.0000000035588528
 70
              32
  0
SEQEND
  5
1CA
100
AcDbEntity
  8
0
370
               0
390
0
 62
               1
  0
POLYLINE
  5
1CB
100
AcDbEntity
  8
0
370
               0
390
0
 62
               1
100
AcDb3dPolyline
 66
               1
 10
0.0
 20
0.0
 30
0.0
 70
               8
  0
VERTEX
  5
1CC
100
AcDbEntity
  8
0
370
               0
390
0
 62
               1
100
AcDbVertex
100
AcDb3dPolylineVertex
 10
996.2666297283904
 20
13.83159549159484
 30
-0.0000000035961421
 70
              32
  0
VERTEX
  5
1CD
100
AcDbEntity
  8
0
370
               0
390
0
 62
               1
100
AcDbVertex
100
AcDb3dPolylineVertex
 10
968.26662972841223
 20
13.83159549159484
 30
-0.0000000035797711
 70
              32
  0
SEQEND
  5
1CE
100
AcDbEntity
  8
0
370
               0
390
0
 62
               1
  0
POLYLINE
  5
1CF
100
AcDbEntity
  8
0
370
               0
390
0
 62
               1
100
AcDb3dPolyline
 66
               1
 10
0.0
 20
0.0
 30
0.0
 70
               8
  0
VERTEX
  5
1D0
100
AcDbEntity
  8
0
370
               0
390
0
 62
               1
100
AcDbVertex
100
AcDb3dPolylineVertex
 10
948.26662972842314
 20
27.97373111532545
 30
-0.0000000035679477
 70
              32
  0
VERTEX
  5
1D1
100
AcDbEntity
  8
0
370
               0
390
0
 62
               1
100
AcDbVertex
100
AcDb3dPolylineVertex
 10
948.26662972844497
 20
66.157497299433658
 30
-0.0000000035679477
 70
              32
  0
SEQEND
  5
1D2
100
AcDbEntity
  8
0
370
               0
390
0
 62
               1
  0
POLYLINE
  5
1D3
100
AcDbEntity
  8
0
370
               0
390
0
 62
               1
100
AcDb3dPolyline
 66
               1
 10
0.0
 20
0.0
 30
0.0
 70
               8
  0
VERTEX
  5
1D4
100
AcDbEntity
  8
0
370
               0
390
0
 62
               1
100
AcDbVertex
100
AcDb3dPolylineVertex
 10
968.26662972845224
 20
80.299632923165177
 30
-0.0000000035797711
 70
              32
  0
VERTEX
  5
1D5
100
AcDbEntity
  8
0
370
               0
390
0
 62
               1
100
AcDbVertex
100
AcDb3dPolylineVertex
 10
996.26662972842678
 20
80.299632923165177
 30
-0.0000000035961421
 70
              32
  0
SEQEND
  5
1D6
100
AcDbEntity
  8
0
370
               0
390
0
 62
               1
  0
POLYLINE
  5
1D7
100
AcDbEntity
  8
0
370
               0
390
0
 62
               1
100
AcDb3dPolyline
 66
               1
 10
0.0
 20
0.0
 30
0.0
 70
               8
  0
VERTEX
  5
1D8
100
AcDbEntity
  8
0
370
               0
390
0
 62
               1
100
AcDbVertex
100
AcDb3dPolylineVertex
 10
1016.2666297284195
 20
66.157497299433658
 30
-0.000000003608875
 70
              32
  0
VERTEX
  5
1D9
100
AcDbEntity
  8
0
370
               0
390
0
 62
               1
100
AcDbVertex
100
AcDb3dPolylineVertex
 10
1016.2666297283977
 20
27.97373111532545
 30
-0.000000003608875
 70
              32
  0
SEQEND
  5
1DA
100
AcDbEntity
  8
0
370
               0
390
0
 62
               1
  0
POLYLINE
  5
1DB
100
AcDbEntity
  8
0
370
               0
390
0
 62
               1
100
AcDb3dPolyline
 66
               1
 10
0.0
 20
0.0
 30
0.0
 70
               8
  0
VERTEX
  5
1DC
100
AcDbEntity
  8
0
370
               0
390
0
 62
               1
100
AcDbVertex
100
AcDb3dPolylineVertex
 10
996.26662972843405
 20
71.814351548926084
 30
-0.0000000035961421
 70
              32
  0
VERTEX
  5
1DD
100
AcDbEntity
  8
0
370
               0
390
0
 62
               1
100
AcDbVertex
100
AcDb3dPolylineVertex
 10
968.26662972845952
 20
71.814351548926084
 30
-0.0000000035797711
 70
              32
  0
SEQEND
  5
1DE
100
AcDbEntity
  8
0
370
               0
390
0
 62
               1
  0
POLYLINE
  5
1DF
100
AcDbEntity
  8
0
370
               0
390
0
 62
               1
100
AcDb3dPolyline
 66
               1
 10
0.0
 20
0.0
 30
0.0
 70
               8
  0
VERTEX
  5
1E0
100
AcDbEntity
  8
0
370
               0
390
0
 62
               1
100
AcDbVertex
100
AcDb3dPolylineVertex
 10
1032.2666297283831
 20
10.601148113312433
 30
-0.0000000036179699
 70
              32
  0
VERTEX
  5
1E1
100
AcDbEntity
  8
0
370
               0
390
0
 62
               1
100
AcDbVertex
100
AcDb3dPolylineVertex
 10
1032.2666297283831
 20
90.601148113312888
 30
-0.0000000036179699
 70
              32
  0
SEQEND
  5
1E2
100
AcDbEntity
  8
0
370
               0
390
0
 62
               1
  0
SPLINE
  5
1E3
100
AcDbEntity
  8
0
370
               0
390
0
  6
Continuous
 62
               1
100
AcDbSpline
210
0.0
220
0.0
230
1.0
 70
               4
 71
               2
 72
               8
 73
               5
 74
               0
 42
0.000001
 43
0.000001
 40
0.0
 40
0.0
 40
0.0
 40
0.5
 40
0.5
 40
1.0
 40
1.0
 40
1.0
 10
973.38590918382033
 20
31.154606941301722
 30
-0.0000000035826948
 41
1.0
 10
974.58204000553815
 20
36.158381166540607
 30
-0.000000003583404
 41
0.7818516210826458
 10
981.74716286367402
 20
36.447566543779089
 30
-0.0000000035876525
 41
1.0
 10
988.91228572180989
 20
36.736751921018026
 30
-0.000000003591901
 41
0.7818516210826458
 10
990.90583709136627
 20
31.861713722504305
 30
-0.000000003593083
 41
1.0
  0
SPLINE
  5
1E4
100
AcDbEntity
  8
0
370
               0
390
0
  6
Continuous
 62
               1
100
AcDbSpline
210
0.0
220
0.0
230
1.0
 70
               4
 71
               2
 72
               8
 73
               5
 74
               0
 42
0.000001
 43
0.000001
 40
0.0
 40
0.0
 40
0.0
 40
0.5
 40
0.5
 40
1.0
 40
1.0
 40
1.0
 10
990.90583709137354
 20
28.326179816580066
 30
-0.000000003593083
 41
1.0
 10
988.91228572183888
 20
23.451141618066799
 30
-0.000000003591901
 41
0.7818516210829312
 10
981.7471628637104
 20
23.740326995285272
 30
-0.0000000035876525
 41
1.0
 10
974.58204000557805
 20
24.0295123725042
 30
-0.000000003583404
 41
0.7818516210829312
 10
973.38590918382761
 20
29.033286597734445
 30
-0.0000000035826948
 41
1.0
  0
SPLINE
  5
1E5
100
AcDbEntity
  8
0
370
               0
390
0
  6
Continuous
 62
               1
100
AcDbSpline
210
0.0
220
0.0
230
1.0
 70
               4
 71
               2
 72
               6
 73
               3
 74
               0
 42
0.000001
 43
0.000001
 40
0.0
 40
0.0
 40
0.0
 40
1.0
 40
1.0
 40
1.0
 10
970.52001689683675
 20
28.337228360028462
 30
-0.0000000035809955
 41
1.0
 10
970.51002885846174
 20
28.508407966637265
 30
-0.0000000035809896
 41
0.9997874659596909
 10
970.51002885847265
 20
28.679733207483991
 30
-0.0000000035809896
 41
1.0
  0
SPLINE
  5
1E6
100
AcDbEntity
  8
0
370
               0
390
0
  6
Continuous
 62
               1
100
AcDbSpline
210
0.0
220
0.0
230
1.0
 70
              12
 71
               2
 72
               6
 73
               3
 74
               0
 42
0.000001
 43
0.000001
 40
0.0
 40
0.0
 40
0.0
 40
1.0
 40
1.0
 40
1.0
 10
994.01002885847629
 20
28.679733207497179
 30
-0.0000000035949236
 41
1.0
 10
994.0100288584872
 20
28.508407966654545
 30
-0.0000000035949236
 41
0.9997874659596853
 10
994.00004082011219
 20
28.337228360038466
 30
-0.0000000035949177
 41
1.0
  0
SPLINE
  5
1E7
100
AcDbEntity
  8
0
370
               0
390
0
  6
Continuous
 62
               1
100
AcDbSpline
210
0.0
220
0.0
230
1.0
 70
               4
 71
               2
 72
               8
 73
               5
 74
               0
 42
0.000001
 43
0.000001
 40
0.0
 40
0.0
 40
0.0
 40
0.5
 40
0.5
 40
1.0
 40
1.0
 40
1.0
 10
969.01605116902283
 20
22.554890494408596
 30
-0.0000000035808525
 41
1.0
 10
969.46155083688438
 20
23.022427277005249
 30
-0.0000000035811167
 41
0.8830175565572043
 10
970.25882797364829
 20
23.022878617756419
 30
-0.0000000035815894
 41
1.0
 10
971.05610511041596
 20
23.023329958507588
 30
-0.0000000035820622
 41
0.8830175565572043
 10
971.50266290188301
 20
22.556298172060565
 30
-0.0000000035823269
 41
1.0
  0
SPLINE
  5
1E8
100
AcDbEntity
  8
0
370
               0
390
0
  6
Continuous
 62
               1
100
AcDbSpline
210
0.0
220
0.0
230
1.0
 70
               4
 71
               2
 72
               8
 73
               5
 74
               0
 42
0.000001
 43
0.000001
 40
0.0
 40
0.0
 40
0.0
 40
0.5
 40
0.5
 40
1.0
 40
1.0
 40
1.0
 10
993.01613244035616
 20
35.990004619529486
 30
-0.000000003594495
 41
1.0
 10
993.46165443967038
 20
36.457467026100062
 30
-0.0000000035947592
 41
0.8830357926348597
 10
994.25885683993693
 20
36.457907476445712
 30
-0.0000000035952319
 41
1.0
 10
995.05605924020358
 20
36.458347926791362
 30
-0.0000000035957046
 41
0.8830357926348597
 10
995.50261377748393
 20
35.991378388053477
 30
-0.0000000035959693
 41
1.0
  0
SPLINE
  5
1E9
100
AcDbEntity
  8
0
370
               0
390
0
  6
Continuous
 62
               1
100
AcDbSpline
210
0.0
220
0.0
230
1.0
 70
              12
 71
               2
 72
               6
 73
               3
 74
               0
 42
0.000001
 43
0.000001
 40
0.0
 40
0.0
 40
0.0
 40
1.0
 40
1.0
 40
1.0
 10
1016.2666297283977
 20
27.973731115326359
 30
-0.0000000036080008
 41
1.0
 10
1016.2666297283977
 20
13.831595491618486
 30
-0.0000000036080008
 41
0.7071067811871263
 10
996.26662972843042
 20
13.831595491595294
 30
-0.0000000035961421
 41
1.0
  0
SPLINE
  5
1EA
100
AcDbEntity
  8
0
370
               0
390
0
  6
Continuous
 62
               1
100
AcDbSpline
210
0.0
220
0.0
230
1.0
 70
               4
 71
               2
 72
               8
 73
               5
 74
               0
 42
0.000001
 43
0.000001
 40
0.0
 40
0.0
 40
0.0
 40
0.5
 40
0.5
 40
1.0
 40
1.0
 40
1.0
 10
968.26662972845224
 20
13.831595491595749
 30
-0.0000000035797711
 41
1.0
 10
959.98235848097829
 20
13.831595491585745
 30
-0.0000000035748591
 41
0.9238795325111301
 10
954.12449410470072
 20
17.973731115318174
 30
-0.0000000035713858
 41
1.0
 10
948.26662972841575
 20
22.115866739051057
 30
-0.0000000035679124
 41
0.9238795325111301
 10
948.2666297284195
 20
27.973731115326359
 30
-0.0000000035679124
 41
1.0
  0
SPLINE
  5
1EB
100
AcDbEntity
  8
0
370
               0
390
0
  6
Continuous
 62
               1
100
AcDbSpline
210
0.0
220
0.0
230
1.0
 70
               5
 71
               2
 72
              12
 73
               9
 74
               0
 42
0.000001
 43
0.000001
 40
0.0
 40
0.0
 40
0.0
 40
0.25
 40
0.25
 40
0.5
 40
0.5
 40
0.75
 40
0.75
 40
1.0
 40
1.0
 40
1.0
 10
992.55796318037392
 20
36.811076391193296
 30
-0.0000000035942243
 41
1.0
 10
992.55796318037392
 20
38.013513884853296
 30
-0.0000000035942243
 41
0.7071067811865476
 10
994.25846659181479
 20
38.013513884853296
 30
-0.0000000035952326
 41
1.0
 10
995.95897000325567
 20
38.013513884853296
 30
-0.0000000035962408
 41
0.7071067811865476
 10
995.95897000325567
 20
36.811076391193296
 30
-0.0000000035962408
 41
1.0
 10
995.95897000325567
 20
35.608638897533297
 30
-0.0000000035962408
 41
0.7071067811865476
 10
994.25846659181479
 20
35.608638897533297
 30
-0.0000000035952326
 41
1.0
 10
992.55796318037392
 20
35.608638897533297
 30
-0.0000000035942243
 41
0.7071067811865476
 10
992.55796318037392
 20
36.811076391193296
 30
-0.0000000035942243
 41
1.0
  0
SPLINE
  5
1EC
100
AcDbEntity
  8
0
370
               0
390
0
  6
Continuous
 62
               1
100
AcDbSpline
210
0.0
220
0.0
230
1.0
 70
               4
 71
               2
 72
               6
 73
               3
 74
               0
 42
0.000001
 43
0.000001
 40
0.0
 40
0.0
 40
0.0
 40
1.0
 40
1.0
 40
1.0
 10
948.26662972844497
 20
66.157497299434567
 30
-0.0000000035679124
 41
1.0
 10
948.26662972844485
 20
80.29963292314244
 30
-0.0000000035679124
 41
0.7071067811871263
 10
968.26662972841223
 20
80.299632923165632
 30
-0.0000000035797711
 41
1.0
  0
SPLINE
  5
1ED
100
AcDbEntity
  8
0
370
               0
390
0
  6
Continuous
 62
               1
100
AcDbSpline
210
0.0
220
0.0
230
1.0
 70
               4
 71
               2
 72
               8
 73
               5
 74
               0
 42
0.000001
 43
0.000001
 40
0.0
 40
0.0
 40
0.0
 40
0.5
 40
0.5
 40
1.0
 40
1.0
 40
1.0
 10
996.26662972838676
 20
80.299632923164722
 30
-0.0000000035961421
 41
1.0
 10
1004.5509009758534
 20
80.299632923174272
 30
-0.0000000036010541
 41
0.9238795325111301
 10
1010.4087653521383
 20
76.157497299442298
 30
-0.0000000036045274
 41
1.0
 10
1016.2666297284195
 20
72.015361675709414
 30
-0.0000000036080008
 41
0.9238795325111301
 10
1016.2666297284195
 20
66.157497299434567
 30
-0.0000000036080008
 41
1.0
  0
SPLINE
  5
1EE
100
AcDbEntity
  8
0
370
               0
390
0
  6
Continuous
 62
               1
100
AcDbSpline
210
0.0
220
0.0
230
1.0
 70
               4
 71
               2
 72
               8
 73
               5
 74
               0
 42
0.000001
 43
0.000001
 40
0.0
 40
0.0
 40
0.0
 40
0.5
 40
0.5
 40
1.0
 40
1.0
 40
1.0
 10
1016.2666297284268
 20
57.672215925195474
 30
-0.0000000036080008
 41
1.0
 10
1016.2666297284268
 20
63.530080301470321
 30
-0.0000000036080008
 41
0.9238795325111301
 10
1010.4087653521456
 20
67.672215925203204
 30
-0.0000000036045274
 41
1.0
 10
1004.5509009758644
 20
71.814351548935178
 30
-0.0000000036010541
 41
0.9238795325111301
 10
996.26662972839404
 20
71.814351548926084
 30
-0.0000000035961421
 41
1.0
  0
SPLINE
  5
1EF
100
AcDbEntity
  8
0
370
               0
390
0
  6
Continuous
 62
               1
100
AcDbSpline
210
0.0
220
0.0
230
1.0
 70
               4
 71
               2
 72
               8
 73
               5
 74
               0
 42
0.000001
 43
0.000001
 40
0.0
 40
0.0
 40
0.0
 40
0.5
 40
0.5
 40
1.0
 40
1.0
 40
1.0
 10
968.26662972841586
 20
71.814351548927448
 30
-0.0000000035797711
 41
1.0
 10
959.98235774028944
 20
71.814351548917841
 30
-0.0000000035748591
 41
0.9238795204147674
 10
954.12449321063468
 20
67.672215292985243
 30
-0.0000000035713858
 41
1.0
 10
948.26662868097992
 20
63.530079037054406
 30
-0.0000000035679124
 41
0.9238795204147674
 10
948.26662972844861
 20
57.67221413705704
 30
-0.0000000035679124
 41
1.0
  0
SPLINE
  5
1F0
100
AcDbEntity
  8
0
370
               0
390
0
  6
Continuous
 62
               1
100
AcDbSpline
210
0.0
220
0.0
230
1.0
 70
              12
 71
               2
 72
               6
 73
               3
 74
               0
 42
0.000001
 43
0.000001
 40
0.0
 40
0.0
 40
0.0
 40
1.0
 40
1.0
 40
1.0
 10
994.00004082010855
 20
30.436451616680301
 30
-0.0000000035949177
 41
1.0
 10
994.15565317998335
 20
29.916478991464032
 30
-0.0000000035950099
 41
0.9980440927071335
 10
994.21828960157291
 20
29.386839988375527
 30
-0.0000000035950471
 41
1.0
  0
SPLINE
  5
1F1
100
AcDbEntity
  8
0
370
               0
390
0
  6
Continuous
 62
               1
100
AcDbSpline
210
0.0
220
0.0
230
1.0
 70
              12
 71
               2
 72
               6
 73
               3
 74
               0
 42
0.000001
 43
0.000001
 40
0.0
 40
0.0
 40
0.0
 40
1.0
 40
1.0
 40
1.0
 10
970.3017681153724
 20
29.386839988343695
 30
-0.0000000035808661
 41
1.0
 10
970.36440453695832
 20
29.916478991435383
 30
-0.0000000035809033
 41
0.9980440927071107
 10
970.52001689683311
 20
30.436451616654836
 30
-0.0000000035809955
 41
1.0
  0
SPLINE
  5
1F2
100
AcDbEntity
  8
0
370
               0
390
0
  6
Continuous
 62
               1
100
AcDbSpline
210
0.0
220
0.0
230
1.0
 70
               4
 71
               2
 72
               8
 73
               5
 74
               0
 42
0.000001
 43
0.000001
 40
0.0
 40
0.0
 40
0.0
 40
0.5
 40
0.5
 40
1.0
 40
1.0
 40
1.0
 10
971.63382340944008
 20
22.668823008251934
 30
-0.0000000035824057
 41
1.0
 10
971.1245127540933
 20
23.164153720723903
 30
-0.0000000035821037
 41
0.8910839340026487
 10
970.25842824719439
 20
23.164153720721629
 30
-0.0000000035815901
 41
1.0
 10
969.39234374029911
 20
23.164153720719355
 30
-0.0000000035810766
 41
0.8910839340026487
 10
968.88303308495597
 20
22.668823008245113
 30
-0.0000000035807746
 41
1.0
  0
SPLINE
  5
1F3
100
AcDbEntity
  8
0
370
               0
390
0
  6
Continuous
 62
               1
100
AcDbSpline
210
0.0
220
0.0
230
1.0
 70
               4
 71
               2
 72
               8
 73
               5
 74
               0
 42
0.000001
 43
0.000001
 40
0.0
 40
0.0
 40
0.0
 40
0.5
 40
0.5
 40
1.0
 40
1.0
 40
1.0
 10
995.63386175405685
 20
36.103969610010722
 30
-0.0000000035960481
 41
1.0
 10
995.12455109871007
 20
36.599300322482691
 30
-0.0000000035957461
 41
0.8910839340026053
 10
994.25846659181116
 20
36.599300322480417
 30
-0.0000000035952326
 41
1.0
 10
993.39238208491588
 20
36.599300322478143
 30
-0.000000003594719
 41
0.8910839340026053
 10
992.88307142957274
 20
36.103969610003446
 30
-0.000000003594417
 41
1.0
  0
SPLINE
  5
1F4
100
AcDbEntity
  8
0
370
               0
390
0
  6
Continuous
 62
               1
100
AcDbSpline
210
0.0
220
0.0
230
1.0
 70
               5
 71
               2
 72
              12
 73
               9
 74
               0
 42
0.000001
 43
0.000001
 40
0.0
 40
0.0
 40
0.0
 40
0.25
 40
0.25
 40
0.5
 40
0.5
 40
0.75
 40
0.75
 40
1.0
 40
1.0
 40
1.0
 10
968.55792483576079
 20
23.375929789434508
 30
-0.0000000035805818
 41
1.0
 10
968.55792483576079
 20
24.578367283094508
 30
-0.0000000035805818
 41
0.7071067811865476
 10
970.25842824720166
 20
24.578367283094508
 30
-0.0000000035815901
 41
1.0
 10
971.95893165864254
 20
24.578367283094508
 30
-0.0000000035825984
 41
0.7071067811865476
 10
971.95893165864254
 20
23.375929789434508
 30
-0.0000000035825984
 41
1.0
 10
971.95893165864254
 20
22.173492295774508
 30
-0.0000000035825984
 41
0.7071067811865476
 10
970.25842824720166
 20
22.173492295774508
 30
-0.0000000035815901
 41
1.0
 10
968.55792483576079
 20
22.173492295774508
 30
-0.0000000035805818
 41
0.7071067811865476
 10
968.55792483576079
 20
23.375929789434508
 30
-0.0000000035805818
 41
1.0
  0
SPLINE
  5
1F5
100
AcDbEntity
  8
0
370
               0
390
0
  6
Continuous
 62
               1
100
AcDbSpline
210
0.0
220
0.0
230
1.0
 70
              13
 71
               2
 72
              12
 73
               9
 74
               0
 42
0.000001
 43
0.000001
 40
0.0
 40
0.0
 40
0.0
 40
0.25
 40
0.25
 40
0.5
 40
0.5
 40
0.75
 40
0.75
 40
1.0
 40
1.0
 40
1.0
 10
994.26002885847629
 20
30.093946769531271
 30
-0.0000000035950718
 41
1.0
 10
994.26002885847618
 20
38.57922814376991
 30
-0.0000000035950718
 41
0.7071067811865476
 10
982.26002885847629
 20
38.57922814376991
 30
-0.0000000035879566
 41
1.0
 10
970.26002885847629
 20
38.57922814376991
 30
-0.0000000035808414
 41
0.7071067811865476
 10
970.26002885847629
 20
30.093946769531271
 30
-0.0000000035808414
 41
1.0
 10
970.26002885847629
 20
21.608665395292633
 30
-0.0000000035808414
 41
0.7071067811865476
 10
982.26002885847629
 20
21.608665395292633
 30
-0.0000000035879566
 41
1.0
 10
994.26002885847618
 20
21.608665395292633
 30
-0.0000000035950718
 41
0.7071067811865476
 10
994.26002885847629
 20
30.093946769531271
 30
-0.0000000035950718
 41
1.0
  0
SPLINE
  5
1F6
100
AcDbEntity
  8
0
370
               0
390
0
  6
Continuous
 62
               1
100
AcDbSpline
210
0.0
220
0.0
230
1.0
 70
               5
 71
               2
 72
              12
 73
               9
 74
               0
 42
0.000001
 43
0.000001
 40
0.0
 40
0.0
 40
0.0
 40
0.25
 40
0.25
 40
0.5
 40
0.5
 40
0.75
 40
0.75
 40
1.0
 40
1.0
 40
1.0
 10
970.51002885847629
 20
30.093946555093339
 30
-0.0000000035809896
 41
1.0
 10
970.51002855521438
 20
38.402451234035311
 30
-0.0000000035809896
 41
0.7071067811865474
 10
982.26002855521438
 20
38.402451448474153
 30
-0.0000000035879566
 41
1.0
 10
994.01002855521449
 20
38.40245166291345
 30
-0.0000000035949236
 41
0.7071067811865474
 10
994.01002885847629
 20
30.093946983971023
 30
-0.0000000035949236
 41
1.0
 10
994.0100291617382
 20
21.785442305028596
 30
-0.0000000035949236
 41
0.7071067811865474
 10
982.2600291617382
 20
21.785442090589754
 30
-0.0000000035879566
 41
1.0
 10
970.5100291617382
 20
21.785441876150912
 30
-0.0000000035809896
 41
0.7071067811865474
 10
970.51002885847629
 20
30.093946555093339
 30
-0.0000000035809896
 41
1.0
  0
SPLINE
  5
1F7
100
AcDbEntity
  8
0
370
               0
390
0
  6
Continuous
 62
               1
100
AcDbSpline
210
0.0
220
0.0
230
1.0
 70
               5
 71
               2
 72
              12
 73
               9
 74
               0
 42
0.000001
 43
0.000001
 40
0.0
 40
0.0
 40
0.0
 40
0.25
 40
0.25
 40
0.5
 40
0.5
 40
0.75
 40
0.75
 40
1.0
 40
1.0
 40
1.0
 10
979.51002885847629
 20
30.093946704739778
 30
-0.000000003586326
 41
1.0
 10
979.51002876684652
 20
32.038490353002658
 30
-0.000000003586326
 41
0.7071067811865476
 10
982.26002876684652
 20
32.03849041779506
 30
-0.0000000035879566
 41
1.0
 10
985.0100287668464
 20
32.038490482587463
 30
-0.0000000035895872
 41
0.7071067811865476
 10
985.01002885847629
 20
30.093946834324584
 30
-0.0000000035895872
 41
1.0
 10
985.01002895010606
 20
28.149403186061249
 30
-0.0000000035895872
 41
0.7071067811865476
 10
982.26002895010606
 20
28.149403121268847
 30
-0.0000000035879566
 41
1.0
 10
979.51002895010606
 20
28.149403056476896
 30
-0.000000003586326
 41
0.7071067811865476
 10
979.51002885847629
 20
30.093946704739778
 30
-0.000000003586326
 41
1.0
  0
SPLINE
  5
1F8
100
AcDbEntity
  8
0
370
               0
390
0
  6
Continuous
 62
               1
100
AcDbSpline
210
0.0
220
0.0
230
1.0
 70
               5
 71
               2
 72
              12
 73
               9
 74
               0
 42
0.000001
 43
0.000001
 40
0.0
 40
0.0
 40
0.0
 40
0.25
 40
0.25
 40
0.5
 40
0.5
 40
0.75
 40
0.75
 40
1.0
 40
1.0
 40
1.0
 10
976.26002885847629
 20
30.093946590718247
 30
-0.000000003584399
 41
1.0
 10
976.26002860559674
 20
34.336587277837793
 30
-0.000000003584399
 41
0.7071067811865476
 10
982.26002860559674
 20
34.336587456651728
 30
-0.0000000035879566
 41
1.0
 10
988.26002860559663
 20
34.336587635465207
 30
-0.0000000035915142
 41
0.7071067811865476
 10
988.26002885847629
 20
30.093946948346115
 30
-0.0000000035915142
 41
1.0
 10
988.26002911135583
 20
25.851306261226568
 30
-0.0000000035915142
 41
0.7071067811865476
 10
982.26002911135583
 20
25.851306082413089
 30
-0.0000000035879566
 41
1.0
 10
976.26002911135583
 20
25.851305903599158
 30
-0.000000003584399
 41
0.7071067811865476
 10
976.26002885847629
 20
30.093946590718247
 30
-0.000000003584399
 41
1.0
  0
ENDBLK
  5
1F9
100
AcDbEntity
  8
0
390
0
100
AcDbBlockEnd
  0
BLOCK
  5
1FA
100
AcDbEntity
  8
0
390
0
100
AcDbBlockBegin
  2
グループ-3
 70
               0
 10
0.0
 20
0.0
 30
0.0
  3
グループ-3
  1

  0
POLYLINE
  5
1FB
100
AcDbEntity
  8
0
370
               0
390
0
 62
               1
100
AcDb3dPolyline
 66
               1
 10
0.0
 20
0.0
 30
0.0
 70
               8
  0
VERTEX
  5
1FC
100
AcDbEntity
  8
0
370
               0
390
0
 62
               1
100
AcDbVertex
100
AcDb3dPolylineVertex
 10
-1042.8611967917786
 20
102.60114811331243
 30
0.0
 70
              32
  0
VERTEX
  5
1FD
100
AcDbEntity
  8
0
370
               0
390
0
 62
               1
100
AcDbVertex
100
AcDb3dPolylineVertex
 10
-1361.2182741277375
 20
102.60114811331243
 30
0.0
 70
              32
  0
SEQEND
  5
1FE
100
AcDbEntity
  8
0
370
               0
390
0
 62
               1
  0
POLYLINE
  5
1FF
100
AcDbEntity
  8
0
370
               0
390
0
 62
               1
100
AcDb3dPolyline
 66
               1
 10
0.0
 20
0.0
 30
0.0
 70
               8
  0
VERTEX
  5
200
100
AcDbEntity
  8
0
370
               0
390
0
 62
               1
100
AcDbVertex
100
AcDb3dPolylineVertex
 10
-1361.2182741277375
 20
102.60114811331243
 30
0.0
 70
              32
  0
VERTEX
  5
201
100
AcDbEntity
  8
0
370
               0
390
0
 62
               1
100
AcDbVertex
100
AcDb3dPolylineVertex
 10
-1362.1035410172917
 20
102.58154607066683
 30
0.0000000000000002
 70
              32
  0
VERTEX
  5
202
100
AcDbEntity
  8
0
370
               0
390
0
 62
               1
100
AcDbVertex
100
AcDb3dPolylineVertex
 10
-1362.987072602913
 20
102.52277836673841
 30
0.0000000000000003
 70
              32
  0
VERTEX
  5
203
100
AcDbEntity
  8
0
370
               0
390
0
 62
               1
100
AcDbVertex
100
AcDb3dPolylineVertex
 10
-1363.8671369822205
 20
102.42496019823068
 30
0.0000000000000005
 70
              32
  0
VERTEX
  5
204
100
AcDbEntity
  8
0
370
               0
390
0
 62
               1
100
AcDbVertex
100
AcDb3dPolylineVertex
 10
-1364.7420090492633
 20
102.28828330873432
 30
0.0000000000000006
 70
              32
  0
VERTEX
  5
205
100
AcDbEntity
  8
0
370
               0
390
0
 62
               1
100
AcDbVertex
100
AcDb3dPolylineVertex
 10
-1365.6099738760859
 20
102.11301561287166
 30
0.0000000000000008
 70
              32
  0
VERTEX
  5
206
100
AcDbEntity
  8
0
370
               0
390
0
 62
               1
100
AcDbVertex
100
AcDb3dPolylineVertex
 10
-1366.4693300743347
 20
101.8995006711267
 30
0.000000000000001
 70
              32
  0
VERTEX
  5
207
100
AcDbEntity
  8
0
370
               0
390
0
 62
               1
100
AcDbVertex
100
AcDb3dPolylineVertex
 10
-1367.3183931303229
 20
101.64815701639975
 30
0.0000000000000011
 70
              32
  0
VERTEX
  5
208
100
AcDbEntity
  8
0
370
               0
390
0
 62
               1
100
AcDbVertex
100
AcDb3dPolylineVertex
 10
-1368.1554987070285
 20
101.35947733359455
 30
0.0000000000000013
 70
              32
  0
VERTEX
  5
209
100
AcDbEntity
  8
0
370
               0
390
0
 62
               1
100
AcDbVertex
100
AcDb3dPolylineVertex
 10
-1368.979005906529
 20
101.03402749385543
 30
0.0000000000000014
 70
              32
  0
VERTEX
  5
20A
100
AcDbEntity
  8
0
370
               0
390
0
 62
               1
100
AcDbVertex
100
AcDb3dPolylineVertex
 10
-1369.7873004865014
 20
100.67244544534753
 30
0.0000000000000016
 70
              32
  0
VERTEX
  5
20B
100
AcDbEntity
  8
0
370
               0
390
0
 62
               1
100
AcDbVertex
100
AcDb3dPolylineVertex
 10
-1370.5787980244622
 20
100.27543996274301
 30
0.0000000000000017
 70
              32
  0
VERTEX
  5
20C
100
AcDbEntity
  8
0
370
               0
390
0
 62
               1
100
AcDbVertex
100
AcDb3dPolylineVertex
 10
-1371.3519470235624
 20
99.843789257882804
 30
0.0000000000000019
 70
              32
  0
VERTEX
  5
20D
100
AcDbEntity
  8
0
370
               0
390
0
 62
               1
100
AcDbVertex
100
AcDb3dPolylineVertex
 10
-1372.1052319538358
 20
99.378339454318962
 30
0.000000000000002
 70
              32
  0
VERTEX
  5
20E
100
AcDbEntity
  8
0
370
               0
390
0
 62
               1
100
AcDbVertex
100
AcDb3dPolylineVertex
 10
-1372.8371762229526
 20
98.880002928741874
 30
0.0000000000000021
 70
              32
  0
VERTEX
  5
20F
100
AcDbEntity
  8
0
370
               0
390
0
 62
               1
100
AcDbVertex
100
AcDb3dPolylineVertex
 10
-1373.5463450706302
 20
98.349756522533539
 30
0.0000000000000023
 70
              32
  0
VERTEX
  5
210
100
AcDbEntity
  8
0
370
               0
390
0
 62
               1
100
AcDbVertex
100
AcDb3dPolylineVertex
 10
-1374.231348381074
 20
97.788639626960617
 30
0.0000000000000024
 70
              32
  0
VERTEX
  5
211
100
AcDbEntity
  8
0
370
               0
390
0
 62
               1
100
AcDbVertex
100
AcDb3dPolylineVertex
 10
-1374.8908434078712
 20
97.197752145755317
 30
0.0000000000000025
 70
              32
  0
VERTEX
  5
212
100
AcDbEntity
  8
0
370
               0
390
0
 62
               1
100
AcDbVertex
100
AcDb3dPolylineVertex
 10
-1375.5235374060594
 20
96.578252339077721
 30
0.0000000000000026
 70
              32
  0
VERTEX
  5
213
100
AcDbEntity
  8
0
370
               0
390
0
 62
               1
100
AcDbVertex
100
AcDb3dPolylineVertex
 10
-1376.1281901661623
 20
95.931354553090955
 30
0.0000000000000027
 70
              32
  0
VERTEX
  5
214
100
AcDbEntity
  8
0
370
               0
390
0
 62
               1
100
AcDbVertex
100
AcDb3dPolylineVertex
 10
-1376.7036164452638
 20
95.258326839593451
 30
0.0000000000000028
 70
              32
  0
VERTEX
  5
215
100
AcDbEntity
  8
0
370
               0
390
0
 62
               1
100
AcDbVertex
100
AcDb3dPolylineVertex
 10
-1377.2486882903158
 20
94.560488470379937
 30
0.0000000000000029
 70
              32
  0
VERTEX
  5
216
100
AcDbEntity
  8
0
370
               0
390
0
 62
               1
100
AcDbVertex
100
AcDb3dPolylineVertex
 10
-1377.7623372491653
 20
93.839207351197388
 30
0.000000000000003
 70
              32
  0
VERTEX
  5
217
100
AcDbEntity
  8
0
370
               0
390
0
 62
               1
100
AcDbVertex
100
AcDb3dPolylineVertex
 10
-1378.2435564649313
 20
93.09589734037138
 30
0.0000000000000031
 70
              32
  0
VERTEX
  5
218
100
AcDbEntity
  8
0
370
               0
390
0
 62
               1
100
AcDbVertex
100
AcDb3dPolylineVertex
 10
-1378.6914026496543
 20
92.33201547735564
 30
0.0000000000000032
 70
              32
  0
VERTEX
  5
219
100
AcDbEntity
  8
0
370
               0
390
0
 62
               1
100
AcDbVertex
100
AcDb3dPolylineVertex
 10
-1379.1049979333329
 20
91.549059126634916
 30
0.0000000000000033
 70
              32
  0
VERTEX
  5
21A
100
AcDbEntity
  8
0
370
               0
390
0
 62
               1
100
AcDbVertex
100
AcDb3dPolylineVertex
 10
-1379.4835315847304
 20
90.748563042587307
 30
0.0000000000000034
 70
              32
  0
VERTEX
  5
21B
100
AcDbEntity
  8
0
370
               0
390
0
 62
               1
100
AcDbVertex
100
AcDb3dPolylineVertex
 10
-1379.8262616005668
 20
89.932096361050412
 30
0.0000000000000034
 70
              32
  0
VERTEX
  5
21C
100
AcDbEntity
  8
0
370
               0
390
0
 62
               1
100
AcDbVertex
100
AcDb3dPolylineVertex
 10
-1380.1325161600053
 20
89.101259523494832
 30
0.0000000000000035
 70
              32
  0
VERTEX
  5
21D
100
AcDbEntity
  8
0
370
               0
390
0
 62
               1
100
AcDbVertex
100
AcDb3dPolylineVertex
 10
-1380.4016949415509
 20
88.257681139833153
 30
0.0000000000000035
 70
              32
  0
VERTEX
  5
21E
100
AcDbEntity
  8
0
370
               0
390
0
 62
               1
100
AcDbVertex
100
AcDb3dPolylineVertex
 10
-1380.6332702998097
 20
87.40301479601078
 30
0.0000000000000036
 70
              32
  0
VERTEX
  5
21F
100
AcDbEntity
  8
0
370
               0
390
0
 62
               1
100
AcDbVertex
100
AcDb3dPolylineVertex
 10
-1380.8267882997752
 20
86.53893581263867
 30
0.0000000000000036
 70
              32
  0
VERTEX
  5
220
100
AcDbEntity
  8
0
370
               0
390
0
 62
               1
100
AcDbVertex
100
AcDb3dPolylineVertex
 10
-1380.9818696066413
 20
85.667137961025787
 30
0.0000000000000036
 70
              32
  0
SEQEND
  5
221
100
AcDbEntity
  8
0
370
               0
390
0
 62
               1
  0
ARC
  5
222
100
AcDbEntity
  8
0
370
               0
390
0
 62
               1
100
AcDbCircle
 10
-387.861196791775
 20
-68.398851886692569
 30
0.0
 40
1005.0000000000024
100
AcDbArc
 50
171.18181431234979
 51
188.81818568765019
  0
POLYLINE
  5
223
100
AcDbEntity
  8
0
370
               0
390
0
 62
               1
100
AcDb3dPolyline
 66
               1
 10
0.0
 20
0.0
 30
0.0
 70
               8
  0
VERTEX
  5
224
100
AcDbEntity
  8
0
370
               0
390
0
 62
               1
100
AcDbVertex
100
AcDb3dPolylineVertex
 10
-1042.8611967917786
 20
-239.39885188669348
 30
0.0
 70
              32
  0
VERTEX
  5
225
100
AcDbEntity
  8
0
370
               0
390
0
 62
               1
100
AcDbVertex
100
AcDb3dPolylineVertex
 10
-1042.8611967917786
 20
102.60114811331243
 30
0.0
 70
              32
  0
SEQEND
  5
226
100
AcDbEntity
  8
0
370
               0
390
0
 62
               1
  0
POLYLINE
  5
227
100
AcDbEntity
  8
0
370
               0
390
0
 62
               1
100
AcDb3dPolyline
 66
               1
 10
0.0
 20
0.0
 30
0.0
 70
               8
  0
VERTEX
  5
228
100
AcDbEntity
  8
0
370
               0
390
0
 62
               1
100
AcDbVertex
100
AcDb3dPolylineVertex
 10
-1361.2182741277375
 20
-239.39885188669348
 30
0.0
 70
              32
  0
VERTEX
  5
229
100
AcDbEntity
  8
0
370
               0
390
0
 62
               1
100
AcDbVertex
100
AcDb3dPolylineVertex
 10
-1042.8611967917786
 20
-239.39885188669348
 30
0.0
 70
              32
  0
SEQEND
  5
22A
100
AcDbEntity
  8
0
370
               0
390
0
 62
               1
  0
POLYLINE
  5
22B
100
AcDbEntity
  8
0
370
               0
390
0
 62
               1
100
AcDb3dPolyline
 66
               1
 10
0.0
 20
0.0
 30
0.0
 70
               8
  0
VERTEX
  5
22C
100
AcDbEntity
  8
0
370
               0
390
0
 62
               1
100
AcDbVertex
100
AcDb3dPolylineVertex
 10
-1380.9818696066395
 20
-222.46484173440706
 30
0.0000000000000036
 70
              32
  0
VERTEX
  5
22D
100
AcDbEntity
  8
0
370
               0
390
0
 62
               1
100
AcDbVertex
100
AcDb3dPolylineVertex
 10
-1380.8267882997752
 20
-223.33663958601994
 30
0.0000000000000036
 70
              32
  0
VERTEX
  5
22E
100
AcDbEntity
  8
0
370
               0
390
0
 62
               1
100
AcDbVertex
100
AcDb3dPolylineVertex
 10
-1380.6332702998097
 20
-224.20071856939182
 30
0.0000000000000036
 70
              32
  0
VERTEX
  5
22F
100
AcDbEntity
  8
0
370
               0
390
0
 62
               1
100
AcDbVertex
100
AcDb3dPolylineVertex
 10
-1380.4016949415509
 20
-225.05538491321443
 30
0.0000000000000035
 70
              32
  0
VERTEX
  5
230
100
AcDbEntity
  8
0
370
               0
390
0
 62
               1
100
AcDbVertex
100
AcDb3dPolylineVertex
 10
-1380.1325161600053
 20
-225.89896329687588
 30
0.0000000000000035
 70
              32
  0
VERTEX
  5
231
100
AcDbEntity
  8
0
370
               0
390
0
 62
               1
100
AcDbVertex
100
AcDb3dPolylineVertex
 10
-1379.8262616005668
 20
-226.72980013443123
 30
0.0000000000000034
 70
              32
  0
VERTEX
  5
232
100
AcDbEntity
  8
0
370
               0
390
0
 62
               1
100
AcDbVertex
100
AcDb3dPolylineVertex
 10
-1379.4835315847304
 20
-227.54626681596812
 30
0.0000000000000034
 70
              32
  0
VERTEX
  5
233
100
AcDbEntity
  8
0
370
               0
390
0
 62
               1
100
AcDbVertex
100
AcDb3dPolylineVertex
 10
-1379.1049979333329
 20
-228.34676290001596
 30
0.0000000000000033
 70
              32
  0
VERTEX
  5
234
100
AcDbEntity
  8
0
370
               0
390
0
 62
               1
100
AcDbVertex
100
AcDb3dPolylineVertex
 10
-1378.6914026496543
 20
-229.12971925073646
 30
0.0000000000000032
 70
              32
  0
VERTEX
  5
235
100
AcDbEntity
  8
0
370
               0
390
0
 62
               1
100
AcDbVertex
100
AcDb3dPolylineVertex
 10
-1378.2435564649313
 20
-229.89360111375242
 30
0.0000000000000031
 70
              32
  0
VERTEX
  5
236
100
AcDbEntity
  8
0
370
               0
390
0
 62
               1
100
AcDbVertex
100
AcDb3dPolylineVertex
 10
-1377.7623372491653
 20
-230.63691112457821
 30
0.000000000000003
 70
              32
  0
VERTEX
  5
237
100
AcDbEntity
  8
0
370
               0
390
0
 62
               1
100
AcDbVertex
100
AcDb3dPolylineVertex
 10
-1377.2486882903158
 20
-231.35819224376098
 30
0.0000000000000029
 70
              32
  0
VERTEX
  5
238
100
AcDbEntity
  8
0
370
               0
390
0
 62
               1
100
AcDbVertex
100
AcDb3dPolylineVertex
 10
-1376.7036164452638
 20
-232.0560306129745
 30
0.0000000000000028
 70
              32
  0
VERTEX
  5
239
100
AcDbEntity
  8
0
370
               0
390
0
 62
               1
100
AcDbVertex
100
AcDb3dPolylineVertex
 10
-1376.1281901661623
 20
-232.72905832647177
 30
0.0000000000000027
 70
              32
  0
VERTEX
  5
23A
100
AcDbEntity
  8
0
370
               0
390
0
 62
               1
100
AcDbVertex
100
AcDb3dPolylineVertex
 10
-1375.5235374060594
 20
-233.37595611245854
 30
0.0000000000000026
 70
              32
  0
VERTEX
  5
23B
100
AcDbEntity
  8
0
370
               0
390
0
 62
               1
100
AcDbVertex
100
AcDb3dPolylineVertex
 10
-1374.8908434078712
 20
-233.99545591913613
 30
0.0000000000000025
 70
              32
  0
VERTEX
  5
23C
100
AcDbEntity
  8
0
370
               0
390
0
 62
               1
100
AcDbVertex
100
AcDb3dPolylineVertex
 10
-1374.231348381074
 20
-234.58634340034166
 30
0.0000000000000024
 70
              32
  0
VERTEX
  5
23D
100
AcDbEntity
  8
0
370
               0
390
0
 62
               1
100
AcDbVertex
100
AcDb3dPolylineVertex
 10
-1373.5463450706302
 20
-235.14746029591436
 30
0.0000000000000023
 70
              32
  0
VERTEX
  5
23E
100
AcDbEntity
  8
0
370
               0
390
0
 62
               1
100
AcDbVertex
100
AcDb3dPolylineVertex
 10
-1372.8371762229508
 20
-235.67770670212269
 30
0.0000000000000021
 70
              32
  0
VERTEX
  5
23F
100
AcDbEntity
  8
0
370
               0
390
0
 62
               1
100
AcDbVertex
100
AcDb3dPolylineVertex
 10
-1372.1052319538358
 20
-236.17604322770001
 30
0.000000000000002
 70
              32
  0
VERTEX
  5
240
100
AcDbEntity
  8
0
370
               0
390
0
 62
               1
100
AcDbVertex
100
AcDb3dPolylineVertex
 10
-1371.3519470235624
 20
-236.64149303126385
 30
0.0000000000000019
 70
              32
  0
VERTEX
  5
241
100
AcDbEntity
  8
0
370
               0
390
0
 62
               1
100
AcDbVertex
100
AcDb3dPolylineVertex
 10
-1370.5787980244622
 20
-237.07314373612405
 30
0.0000000000000017
 70
              32
  0
VERTEX
  5
242
100
AcDbEntity
  8
0
370
               0
390
0
 62
               1
100
AcDbVertex
100
AcDb3dPolylineVertex
 10
-1369.7873004865014
 20
-237.47014921872812
 30
0.0000000000000016
 70
              32
  0
VERTEX
  5
243
100
AcDbEntity
  8
0
370
               0
390
0
 62
               1
100
AcDbVertex
100
AcDb3dPolylineVertex
 10
-1368.979005906529
 20
-237.83173126723648
 30
0.0000000000000014
 70
              32
  0
VERTEX
  5
244
100
AcDbEntity
  8
0
370
               0
390
0
 62
               1
100
AcDbVertex
100
AcDb3dPolylineVertex
 10
-1368.1554987070285
 20
-238.15718110697514
 30
0.0000000000000013
 70
              32
  0
VERTEX
  5
245
100
AcDbEntity
  8
0
370
               0
390
0
 62
               1
100
AcDbVertex
100
AcDb3dPolylineVertex
 10
-1367.3183931303229
 20
-238.4458607897808
 30
0.0000000000000011
 70
              32
  0
VERTEX
  5
246
100
AcDbEntity
  8
0
370
               0
390
0
 62
               1
100
AcDbVertex
100
AcDb3dPolylineVertex
 10
-1366.4693300743347
 20
-238.69720444450775
 30
0.000000000000001
 70
              32
  0
VERTEX
  5
247
100
AcDbEntity
  8
0
370
               0
390
0
 62
               1
100
AcDbVertex
100
AcDb3dPolylineVertex
 10
-1365.6099738760859
 20
-238.91071938625248
 30
0.0000000000000008
 70
              32
  0
VERTEX
  5
248
100
AcDbEntity
  8
0
370
               0
390
0
 62
               1
100
AcDbVertex
100
AcDb3dPolylineVertex
 10
-1364.7420090492633
 20
-239.08598708211514
 30
0.0000000000000006
 70
              32
  0
VERTEX
  5
249
100
AcDbEntity
  8
0
370
               0
390
0
 62
               1
100
AcDbVertex
100
AcDb3dPolylineVertex
 10
-1363.8671369822205
 20
-239.2226639716115
 30
0.0000000000000005
 70
              32
  0
VERTEX
  5
24A
100
AcDbEntity
  8
0
370
               0
390
0
 62
               1
100
AcDbVertex
100
AcDb3dPolylineVertex
 10
-1362.987072602913
 20
-239.32048214011945
 30
0.0000000000000003
 70
              32
  0
VERTEX
  5
24B
100
AcDbEntity
  8
0
370
               0
390
0
 62
               1
100
AcDbVertex
100
AcDb3dPolylineVertex
 10
-1362.1035410172917
 20
-239.37924984404788
 30
0.0000000000000002
 70
              32
  0
VERTEX
  5
24C
100
AcDbEntity
  8
0
370
               0
390
0
 62
               1
100
AcDbVertex
100
AcDb3dPolylineVertex
 10
-1361.2182741277375
 20
-239.39885188669325
 30
0.0
 70
              32
  0
SEQEND
  5
24D
100
AcDbEntity
  8
0
370
               0
390
0
 62
               1
  0
ENDBLK
  5
24E
100
AcDbEntity
  8
0
390
0
100
AcDbBlockEnd
  0
BLOCK
  5
24F
100
AcDbEntity
  8
0
390
0
100
AcDbBlockBegin
  2
グループ-4
 70
               0
 10
0.0
 20
0.0
 30
0.0
  3
グループ-4
  1

  0
LINE
  5
250
100
AcDbEntity
  8
0
370
               0
390
0
 62
               1
100
AcDbLine
 10
-87.449813347235249
 20
-882.83136926591749
 30
0.0
 11
-96.44981334723343
 21
-882.83136926591749
 31
0.0
  0
LINE
  5
251
100
AcDbEntity
  8
0
370
               0
390
0
 62
               1
100
AcDbLine
 10
-96.44981334723343
 20
-878.83136926591749
 30
0.0
 11
-97.449813347237068
 21
-878.83136926591749
 31
0.0
  0
LINE
  5
252
100
AcDbEntity
  8
0
370
               0
390
0
 62
               1
100
AcDbLine
 10
-87.449813347237068
 20
-532.83136926591749
 30
0.0
 11
-99.449813347237068
 21
-532.83136926591749
 31
0.0
  0
LINE
  5
253
100
AcDbEntity
  8
0
370
               0
390
0
 62
               1
100
AcDbLine
 10
-87.449813347237068
 20
-532.83136926591749
 30
0.0
 11
-87.449813347237068
 21
-851.18844660187631
 31
0.0
  0
LINE
  5
254
100
AcDbEntity
  8
0
370
               0
390
0
 62
               1
100
AcDbLine
 10
-96.44981334723343
 20
-851.18844660187631
 30
0.0
 11
-96.44981334723343
 21
-824.33136926591749
 31
0.0
  0
LINE
  5
255
100
AcDbEntity
  8
0
370
               0
390
0
 62
               1
100
AcDbLine
 10
-96.44981334723343
 20
-824.33136926591749
 30
0.0
 11
-99.449813347237068
 21
-824.33136926591749
 31
0.0
  0
LINE
  5
256
100
AcDbEntity
  8
0
370
               0
390
0
 62
               1
100
AcDbLine
 10
-99.449813347237068
 20
-824.33136926591749
 30
0.0
 11
-99.449813347237068
 21
-532.83136926591749
 31
0.0
  0
LINE
  5
257
100
AcDbEntity
  8
0
370
               0
390
0
 62
               1
100
AcDbLine
 10
-99.449813347237068
 20
-824.33136926591749
 30
0.0
 11
-99.449813347237068
 21
-825.33136926591021
 31
0.0
  0
LINE
  5
258
100
AcDbEntity
  8
0
370
               0
390
0
 62
               1
100
AcDbLine
 10
-162.94981334723707
 20
-881.83136926591203
 30
0.0
 11
-657.44981334723707
 21
-881.83136926591203
 31
0.0
  0
LINE
  5
259
100
AcDbEntity
  8
0
370
               0
390
0
 62
               1
100
AcDbLine
 10
-97.449813347237068
 20
-881.83136926591203
 30
0.0
 11
-121.94981334723707
 21
-881.83136926591203
 31
0.0
  0
LINE
  5
25A
100
AcDbEntity
  8
0
370
               0
390
0
 62
               1
100
AcDbLine
 10
-657.44981334723707
 20
-851.18844660187085
 30
0.0
 11
-657.44981334723707
 21
-825.33136926591203
 31
0.0
  0
LINE
  5
25B
100
AcDbEntity
  8
0
370
               0
390
0
 62
               1
100
AcDbLine
 10
-97.449813347237068
 20
-825.33136926591203
 30
0.0
 11
-657.44981334723707
 21
-825.33136926591203
 31
0.0
  0
LINE
  5
25C
100
AcDbEntity
  8
0
370
               0
390
0
 62
               1
100
AcDbLine
 10
-97.449813347237068
 20
-851.18844660187085
 30
0.0
 11
-97.449813347237068
 21
-825.33136926591203
 31
0.0
  0
LINE
  5
25D
100
AcDbEntity
  8
0
370
               0
390
0
 62
               1
100
AcDbLine
 10
-162.94981334723707
 20
-881.62122311032715
 30
0.0
 11
-121.94981334723707
 21
-881.62122311032715
 31
0.0
  0
POLYLINE
  5
25E
100
AcDbEntity
  8
0
370
               0
390
0
 62
               1
100
AcDb3dPolyline
 66
               1
 10
0.0
 20
0.0
 30
0.0
 70
               8
  0
VERTEX
  5
25F
100
AcDbEntity
  8
0
370
               0
390
0
 62
               1
100
AcDbVertex
100
AcDb3dPolylineVertex
 10
-127.44981334723707
 20
-839.33136926591749
 30
0.0
 70
              32
  0
VERTEX
  5
260
100
AcDbEntity
  8
0
370
               0
390
0
 62
               1
100
AcDbVertex
100
AcDb3dPolylineVertex
 10
-127.15576192624758
 20
-839.31692344593409
 30
0.0
 70
              32
  0
VERTEX
  5
261
100
AcDbEntity
  8
0
370
               0
390
0
 62
               1
100
AcDbVertex
100
AcDb3dPolylineVertex
 10
-126.86454238118858
 20
-839.27372510712723
 30
0.0
 70
              32
  0
VERTEX
  5
262
100
AcDbEntity
  8
0
370
               0
390
0
 62
               1
100
AcDbVertex
100
AcDb3dPolylineVertex
 10
-126.57895931547318
 20
-839.2021902731143
 30
0.0
 70
              32
  0
VERTEX
  5
263
100
AcDbEntity
  8
0
370
               0
390
0
 62
               1
100
AcDbVertex
100
AcDb3dPolylineVertex
 10
-126.30176305014174
 20
-839.10300786345135
 30
0.0
 70
              32
  0
VERTEX
  5
264
100
AcDbEntity
  8
0
370
               0
390
0
 62
               1
100
AcDbVertex
100
AcDb3dPolylineVertex
 10
-126.03562313675866
 20
-838.97713305896275
 30
0.0
 70
              32
  0
VERTEX
  5
265
100
AcDbEntity
  8
0
370
               0
390
0
 62
               1
100
AcDbVertex
100
AcDb3dPolylineVertex
 10
-125.7831026481781
 20
-838.82577810282521
 30
0.0
 70
              32
  0
VERTEX
  5
266
100
AcDbEntity
  8
0
370
               0
390
0
 62
               1
100
AcDbVertex
100
AcDb3dPolylineVertex
 10
-125.54663349474686
 20
-838.65040062600576
 30
0.0
 70
              32
  0
VERTEX
  5
267
100
AcDbEntity
  8
0
370
               0
390
0
 62
               1
100
AcDbVertex
100
AcDb3dPolylineVertex
 10
-125.32849300367707
 20
-838.45268960947726
 30
0.0
 70
              32
  0
VERTEX
  5
268
100
AcDbEntity
  8
0
370
               0
390
0
 62
               1
100
AcDbVertex
100
AcDb3dPolylineVertex
 10
-125.13078198714902
 20
-838.23454911840861
 30
0.0
 70
              32
  0
VERTEX
  5
269
100
AcDbEntity
  8
0
370
               0
390
0
 62
               1
100
AcDbVertex
100
AcDb3dPolylineVertex
 10
-124.95540451032866
 20
-837.99807996497645
 30
0.0
 70
              32
  0
VERTEX
  5
26A
100
AcDbEntity
  8
0
370
               0
390
0
 62
               1
100
AcDbVertex
100
AcDb3dPolylineVertex
 10
-124.80404955419181
 20
-837.74555947639544
 30
0.0
 70
              32
  0
VERTEX
  5
26B
100
AcDbEntity
  8
0
370
               0
390
0
 62
               1
100
AcDbVertex
100
AcDb3dPolylineVertex
 10
-124.67817474970252
 20
-837.47941956301281
 30
0.0
 70
              32
  0
VERTEX
  5
26C
100
AcDbEntity
  8
0
370
               0
390
0
 62
               1
100
AcDbVertex
100
AcDb3dPolylineVertex
 10
-124.57899234004071
 20
-837.20222329768092
 30
0.0
 70
              32
  0
VERTEX
  5
26D
100
AcDbEntity
  8
0
370
               0
390
0
 62
               1
100
AcDbVertex
100
AcDb3dPolylineVertex
 10
-124.507457506028
 20
-836.91664023196597
 30
0.0
 70
              32
  0
VERTEX
  5
26E
100
AcDbEntity
  8
0
370
               0
390
0
 62
               1
100
AcDbVertex
100
AcDb3dPolylineVertex
 10
-124.46425916722001
 20
-836.62542068690607
 30
0.0
 70
              32
  0
VERTEX
  5
26F
100
AcDbEntity
  8
0
370
               0
390
0
 62
               1
100
AcDbVertex
100
AcDb3dPolylineVertex
 10
-124.44981334723707
 20
-836.33136926591749
 30
0.0
 70
              32
  0
VERTEX
  5
270
100
AcDbEntity
  8
0
370
               0
390
0
 62
               1
100
AcDbVertex
100
AcDb3dPolylineVertex
 10
-124.46425916722001
 20
-836.03731784492891
 30
0.0
 70
              32
  0
VERTEX
  5
271
100
AcDbEntity
  8
0
370
               0
390
0
 62
               1
100
AcDbVertex
100
AcDb3dPolylineVertex
 10
-124.507457506028
 20
-835.746098299869
 30
0.0
 70
              32
  0
VERTEX
  5
272
100
AcDbEntity
  8
0
370
               0
390
0
 62
               1
100
AcDbVertex
100
AcDb3dPolylineVertex
 10
-124.57899234004071
 20
-835.46051523415406
 30
0.0
 70
              32
  0
VERTEX
  5
273
100
AcDbEntity
  8
0
370
               0
390
0
 62
               1
100
AcDbVertex
100
AcDb3dPolylineVertex
 10
-124.67817474970252
 20
-835.18331896882216
 30
0.0
 70
              32
  0
VERTEX
  5
274
100
AcDbEntity
  8
0
370
               0
390
0
 62
               1
100
AcDbVertex
100
AcDb3dPolylineVertex
 10
-124.80404955419181
 20
-834.91717905543953
 30
0.0
 70
              32
  0
VERTEX
  5
275
100
AcDbEntity
  8
0
370
               0
390
0
 62
               1
100
AcDbVertex
100
AcDb3dPolylineVertex
 10
-124.95540451032866
 20
-834.66465856685852
 30
0.0
 70
              32
  0
VERTEX
  5
276
100
AcDbEntity
  8
0
370
               0
390
0
 62
               1
100
AcDbVertex
100
AcDb3dPolylineVertex
 10
-125.13078198714902
 20
-834.42818941342637
 30
0.0
 70
              32
  0
VERTEX
  5
277
100
AcDbEntity
  8
0
370
               0
390
0
 62
               1
100
AcDbVertex
100
AcDb3dPolylineVertex
 10
-125.32849300367707
 20
-834.21004892235771
 30
0.0
 70
              32
  0
VERTEX
  5
278
100
AcDbEntity
  8
0
370
               0
390
0
 62
               1
100
AcDbVertex
100
AcDb3dPolylineVertex
 10
-125.54663349474686
 20
-834.01233790582921
 30
0.0
 70
              32
  0
VERTEX
  5
279
100
AcDbEntity
  8
0
370
               0
390
0
 62
               1
100
AcDbVertex
100
AcDb3dPolylineVertex
 10
-125.7831026481781
 20
-833.83696042900976
 30
0.0
 70
              32
  0
VERTEX
  5
27A
100
AcDbEntity
  8
0
370
               0
390
0
 62
               1
100
AcDbVertex
100
AcDb3dPolylineVertex
 10
-126.03562313675866
 20
-833.68560547287223
 30
0.0
 70
              32
  0
VERTEX
  5
27B
100
AcDbEntity
  8
0
370
               0
390
0
 62
               1
100
AcDbVertex
100
AcDb3dPolylineVertex
 10
-126.30176305014174
 20
-833.55973066838362
 30
0.0
 70
              32
  0
VERTEX
  5
27C
100
AcDbEntity
  8
0
370
               0
390
0
 62
               1
100
AcDbVertex
100
AcDb3dPolylineVertex
 10
-126.57895931547318
 20
-833.46054825872068
 30
0.0
 70
              32
  0
VERTEX
  5
27D
100
AcDbEntity
  8
0
370
               0
390
0
 62
               1
100
AcDbVertex
100
AcDb3dPolylineVertex
 10
-126.86454238118858
 20
-833.38901342470774
 30
0.0
 70
              32
  0
VERTEX
  5
27E
100
AcDbEntity
  8
0
370
               0
390
0
 62
               1
100
AcDbVertex
100
AcDb3dPolylineVertex
 10
-127.15576192624758
 20
-833.34581508590088
 30
0.0
 70
              32
  0
VERTEX
  5
27F
100
AcDbEntity
  8
0
370
               0
390
0
 62
               1
100
AcDbVertex
100
AcDb3dPolylineVertex
 10
-127.44981334723707
 20
-833.33136926591749
 30
0.0
 70
              32
  0
SEQEND
  5
280
100
AcDbEntity
  8
0
370
               0
390
0
 62
               1
  0
POLYLINE
  5
281
100
AcDbEntity
  8
0
370
               0
390
0
 62
               1
100
AcDb3dPolyline
 66
               1
 10
0.0
 20
0.0
 30
0.0
 70
               8
  0
VERTEX
  5
282
100
AcDbEntity
  8
0
370
               0
390
0
 62
               1
100
AcDbVertex
100
AcDb3dPolylineVertex
 10
-627.44981334723707
 20
-839.33136926591749
 30
0.0
 70
              32
  0
VERTEX
  5
283
100
AcDbEntity
  8
0
370
               0
390
0
 62
               1
100
AcDbVertex
100
AcDb3dPolylineVertex
 10
-627.15576192624758
 20
-839.31692344593409
 30
0.0
 70
              32
  0
VERTEX
  5
284
100
AcDbEntity
  8
0
370
               0
390
0
 62
               1
100
AcDbVertex
100
AcDb3dPolylineVertex
 10
-626.86454238118858
 20
-839.27372510712723
 30
0.0
 70
              32
  0
VERTEX
  5
285
100
AcDbEntity
  8
0
370
               0
390
0
 62
               1
100
AcDbVertex
100
AcDb3dPolylineVertex
 10
-626.57895931547318
 20
-839.2021902731143
 30
0.0
 70
              32
  0
VERTEX
  5
286
100
AcDbEntity
  8
0
370
               0
390
0
 62
               1
100
AcDbVertex
100
AcDb3dPolylineVertex
 10
-626.30176305014174
 20
-839.10300786345135
 30
0.0
 70
              32
  0
VERTEX
  5
287
100
AcDbEntity
  8
0
370
               0
390
0
 62
               1
100
AcDbVertex
100
AcDb3dPolylineVertex
 10
-626.03562313675866
 20
-838.97713305896275
 30
0.0
 70
              32
  0
VERTEX
  5
288
100
AcDbEntity
  8
0
370
               0
390
0
 62
               1
100
AcDbVertex
100
AcDb3dPolylineVertex
 10
-625.7831026481781
 20
-838.82577810282521
 30
0.0
 70
              32
  0
VERTEX
  5
289
100
AcDbEntity
  8
0
370
               0
390
0
 62
               1
100
AcDbVertex
100
AcDb3dPolylineVertex
 10
-625.54663349474686
 20
-838.65040062600576
 30
0.0
 70
              32
  0
VERTEX
  5
28A
100
AcDbEntity
  8
0
370
               0
390
0
 62
               1
100
AcDbVertex
100
AcDb3dPolylineVertex
 10
-625.32849300367707
 20
-838.45268960947726
 30
0.0
 70
              32
  0
VERTEX
  5
28B
100
AcDbEntity
  8
0
370
               0
390
0
 62
               1
100
AcDbVertex
100
AcDb3dPolylineVertex
 10
-625.13078198714902
 20
-838.23454911840861
 30
0.0
 70
              32
  0
VERTEX
  5
28C
100
AcDbEntity
  8
0
370
               0
390
0
 62
               1
100
AcDbVertex
100
AcDb3dPolylineVertex
 10
-624.95540451032866
 20
-837.99807996497645
 30
0.0
 70
              32
  0
VERTEX
  5
28D
100
AcDbEntity
  8
0
370
               0
390
0
 62
               1
100
AcDbVertex
100
AcDb3dPolylineVertex
 10
-624.80404955419181
 20
-837.74555947639544
 30
0.0
 70
              32
  0
VERTEX
  5
28E
100
AcDbEntity
  8
0
370
               0
390
0
 62
               1
100
AcDbVertex
100
AcDb3dPolylineVertex
 10
-624.67817474970252
 20
-837.47941956301281
 30
0.0
 70
              32
  0
VERTEX
  5
28F
100
AcDbEntity
  8
0
370
               0
390
0
 62
               1
100
AcDbVertex
100
AcDb3dPolylineVertex
 10
-624.57899234004071
 20
-837.20222329768092
 30
0.0
 70
              32
  0
VERTEX
  5
290
100
AcDbEntity
  8
0
370
               0
390
0
 62
               1
100
AcDbVertex
100
AcDb3dPolylineVertex
 10
-624.507457506028
 20
-836.91664023196597
 30
0.0
 70
              32
  0
VERTEX
  5
291
100
AcDbEntity
  8
0
370
               0
390
0
 62
               1
100
AcDbVertex
100
AcDb3dPolylineVertex
 10
-624.46425916722001
 20
-836.62542068690607
 30
0.0
 70
              32
  0
VERTEX
  5
292
100
AcDbEntity
  8
0
370
               0
390
0
 62
               1
100
AcDbVertex
100
AcDb3dPolylineVertex
 10
-624.44981334723707
 20
-836.33136926591749
 30
0.0
 70
              32
  0
VERTEX
  5
293
100
AcDbEntity
  8
0
370
               0
390
0
 62
               1
100
AcDbVertex
100
AcDb3dPolylineVertex
 10
-624.46425916722001
 20
-836.03731784492891
 30
0.0
 70
              32
  0
VERTEX
  5
294
100
AcDbEntity
  8
0
370
               0
390
0
 62
               1
100
AcDbVertex
100
AcDb3dPolylineVertex
 10
-624.507457506028
 20
-835.746098299869
 30
0.0
 70
              32
  0
VERTEX
  5
295
100
AcDbEntity
  8
0
370
               0
390
0
 62
               1
100
AcDbVertex
100
AcDb3dPolylineVertex
 10
-624.57899234004071
 20
-835.46051523415406
 30
0.0
 70
              32
  0
VERTEX
  5
296
100
AcDbEntity
  8
0
370
               0
390
0
 62
               1
100
AcDbVertex
100
AcDb3dPolylineVertex
 10
-624.67817474970252
 20
-835.18331896882216
 30
0.0
 70
              32
  0
VERTEX
  5
297
100
AcDbEntity
  8
0
370
               0
390
0
 62
               1
100
AcDbVertex
100
AcDb3dPolylineVertex
 10
-624.80404955419181
 20
-834.91717905543953
 30
0.0
 70
              32
  0
VERTEX
  5
298
100
AcDbEntity
  8
0
370
               0
390
0
 62
               1
100
AcDbVertex
100
AcDb3dPolylineVertex
 10
-624.95540451032866
 20
-834.66465856685852
 30
0.0
 70
              32
  0
VERTEX
  5
299
100
AcDbEntity
  8
0
370
               0
390
0
 62
               1
100
AcDbVertex
100
AcDb3dPolylineVertex
 10
-625.13078198714902
 20
-834.42818941342637
 30
0.0
 70
              32
  0
VERTEX
  5
29A
100
AcDbEntity
  8
0
370
               0
390
0
 62
               1
100
AcDbVertex
100
AcDb3dPolylineVertex
 10
-625.32849300367707
 20
-834.21004892235771
 30
0.0
 70
              32
  0
VERTEX
  5
29B
100
AcDbEntity
  8
0
370
               0
390
0
 62
               1
100
AcDbVertex
100
AcDb3dPolylineVertex
 10
-625.54663349474686
 20
-834.01233790582921
 30
0.0
 70
              32
  0
VERTEX
  5
29C
100
AcDbEntity
  8
0
370
               0
390
0
 62
               1
100
AcDbVertex
100
AcDb3dPolylineVertex
 10
-625.7831026481781
 20
-833.83696042900976
 30
0.0
 70
              32
  0
VERTEX
  5
29D
100
AcDbEntity
  8
0
370
               0
390
0
 62
               1
100
AcDbVertex
100
AcDb3dPolylineVertex
 10
-626.03562313675866
 20
-833.68560547287223
 30
0.0
 70
              32
  0
VERTEX
  5
29E
100
AcDbEntity
  8
0
370
               0
390
0
 62
               1
100
AcDbVertex
100
AcDb3dPolylineVertex
 10
-626.30176305014174
 20
-833.55973066838362
 30
0.0
 70
              32
  0
VERTEX
  5
29F
100
AcDbEntity
  8
0
370
               0
390
0
 62
               1
100
AcDbVertex
100
AcDb3dPolylineVertex
 10
-626.57895931547318
 20
-833.46054825872068
 30
0.0
 70
              32
  0
VERTEX
  5
2A0
100
AcDbEntity
  8
0
370
               0
390
0
 62
               1
100
AcDbVertex
100
AcDb3dPolylineVertex
 10
-626.86454238118858
 20
-833.38901342470774
 30
0.0
 70
              32
  0
VERTEX
  5
2A1
100
AcDbEntity
  8
0
370
               0
390
0
 62
               1
100
AcDbVertex
100
AcDb3dPolylineVertex
 10
-627.15576192624758
 20
-833.34581508590088
 30
0.0
 70
              32
  0
VERTEX
  5
2A2
100
AcDbEntity
  8
0
370
               0
390
0
 62
               1
100
AcDbVertex
100
AcDb3dPolylineVertex
 10
-627.44981334723707
 20
-833.33136926591749
 30
0.0
 70
              32
  0
SEQEND
  5
2A3
100
AcDbEntity
  8
0
370
               0
390
0
 62
               1
  0
POLYLINE
  5
2A4
100
AcDbEntity
  8
0
370
               0
390
0
 62
               1
100
AcDb3dPolyline
 66
               1
 10
0.0
 20
0.0
 30
0.0
 70
               8
  0
VERTEX
  5
2A5
100
AcDbEntity
  8
0
370
               0
390
0
 62
               1
100
AcDbVertex
100
AcDb3dPolylineVertex
 10
-377.44981334723707
 20
-839.33136926591749
 30
0.0
 70
              32
  0
VERTEX
  5
2A6
100
AcDbEntity
  8
0
370
               0
390
0
 62
               1
100
AcDbVertex
100
AcDb3dPolylineVertex
 10
-377.15576192624758
 20
-839.31692344593409
 30
0.0
 70
              32
  0
VERTEX
  5
2A7
100
AcDbEntity
  8
0
370
               0
390
0
 62
               1
100
AcDbVertex
100
AcDb3dPolylineVertex
 10
-376.86454238118858
 20
-839.27372510712723
 30
0.0
 70
              32
  0
VERTEX
  5
2A8
100
AcDbEntity
  8
0
370
               0
390
0
 62
               1
100
AcDbVertex
100
AcDb3dPolylineVertex
 10
-376.57895931547318
 20
-839.2021902731143
 30
0.0
 70
              32
  0
VERTEX
  5
2A9
100
AcDbEntity
  8
0
370
               0
390
0
 62
               1
100
AcDbVertex
100
AcDb3dPolylineVertex
 10
-376.30176305014174
 20
-839.10300786345135
 30
0.0
 70
              32
  0
VERTEX
  5
2AA
100
AcDbEntity
  8
0
370
               0
390
0
 62
               1
100
AcDbVertex
100
AcDb3dPolylineVertex
 10
-376.03562313675866
 20
-838.97713305896275
 30
0.0
 70
              32
  0
VERTEX
  5
2AB
100
AcDbEntity
  8
0
370
               0
390
0
 62
               1
100
AcDbVertex
100
AcDb3dPolylineVertex
 10
-375.7831026481781
 20
-838.82577810282521
 30
0.0
 70
              32
  0
VERTEX
  5
2AC
100
AcDbEntity
  8
0
370
               0
390
0
 62
               1
100
AcDbVertex
100
AcDb3dPolylineVertex
 10
-375.54663349474686
 20
-838.65040062600576
 30
0.0
 70
              32
  0
VERTEX
  5
2AD
100
AcDbEntity
  8
0
370
               0
390
0
 62
               1
100
AcDbVertex
100
AcDb3dPolylineVertex
 10
-375.32849300367707
 20
-838.45268960947726
 30
0.0
 70
              32
  0
VERTEX
  5
2AE
100
AcDbEntity
  8
0
370
               0
390
0
 62
               1
100
AcDbVertex
100
AcDb3dPolylineVertex
 10
-375.13078198714902
 20
-838.23454911840861
 30
0.0
 70
              32
  0
VERTEX
  5
2AF
100
AcDbEntity
  8
0
370
               0
390
0
 62
               1
100
AcDbVertex
100
AcDb3dPolylineVertex
 10
-374.95540451032866
 20
-837.99807996497645
 30
0.0
 70
              32
  0
VERTEX
  5
2B0
100
AcDbEntity
  8
0
370
               0
390
0
 62
               1
100
AcDbVertex
100
AcDb3dPolylineVertex
 10
-374.80404955419181
 20
-837.74555947639544
 30
0.0
 70
              32
  0
VERTEX
  5
2B1
100
AcDbEntity
  8
0
370
               0
390
0
 62
               1
100
AcDbVertex
100
AcDb3dPolylineVertex
 10
-374.67817474970252
 20
-837.47941956301281
 30
0.0
 70
              32
  0
VERTEX
  5
2B2
100
AcDbEntity
  8
0
370
               0
390
0
 62
               1
100
AcDbVertex
100
AcDb3dPolylineVertex
 10
-374.57899234004071
 20
-837.20222329768092
 30
0.0
 70
              32
  0
VERTEX
  5
2B3
100
AcDbEntity
  8
0
370
               0
390
0
 62
               1
100
AcDbVertex
100
AcDb3dPolylineVertex
 10
-374.507457506028
 20
-836.91664023196597
 30
0.0
 70
              32
  0
VERTEX
  5
2B4
100
AcDbEntity
  8
0
370
               0
390
0
 62
               1
100
AcDbVertex
100
AcDb3dPolylineVertex
 10
-374.46425916722001
 20
-836.62542068690607
 30
0.0
 70
              32
  0
VERTEX
  5
2B5
100
AcDbEntity
  8
0
370
               0
390
0
 62
               1
100
AcDbVertex
100
AcDb3dPolylineVertex
 10
-374.44981334723707
 20
-836.33136926591749
 30
0.0
 70
              32
  0
VERTEX
  5
2B6
100
AcDbEntity
  8
0
370
               0
390
0
 62
               1
100
AcDbVertex
100
AcDb3dPolylineVertex
 10
-374.46425916722001
 20
-836.03731784492891
 30
0.0
 70
              32
  0
VERTEX
  5
2B7
100
AcDbEntity
  8
0
370
               0
390
0
 62
               1
100
AcDbVertex
100
AcDb3dPolylineVertex
 10
-374.507457506028
 20
-835.746098299869
 30
0.0
 70
              32
  0
VERTEX
  5
2B8
100
AcDbEntity
  8
0
370
               0
390
0
 62
               1
100
AcDbVertex
100
AcDb3dPolylineVertex
 10
-374.57899234004071
 20
-835.46051523415406
 30
0.0
 70
              32
  0
VERTEX
  5
2B9
100
AcDbEntity
  8
0
370
               0
390
0
 62
               1
100
AcDbVertex
100
AcDb3dPolylineVertex
 10
-374.67817474970252
 20
-835.18331896882216
 30
0.0
 70
              32
  0
VERTEX
  5
2BA
100
AcDbEntity
  8
0
370
               0
390
0
 62
               1
100
AcDbVertex
100
AcDb3dPolylineVertex
 10
-374.80404955419181
 20
-834.91717905543953
 30
0.0
 70
              32
  0
VERTEX
  5
2BB
100
AcDbEntity
  8
0
370
               0
390
0
 62
               1
100
AcDbVertex
100
AcDb3dPolylineVertex
 10
-374.95540451032866
 20
-834.66465856685852
 30
0.0
 70
              32
  0
VERTEX
  5
2BC
100
AcDbEntity
  8
0
370
               0
390
0
 62
               1
100
AcDbVertex
100
AcDb3dPolylineVertex
 10
-375.13078198714902
 20
-834.42818941342637
 30
0.0
 70
              32
  0
VERTEX
  5
2BD
100
AcDbEntity
  8
0
370
               0
390
0
 62
               1
100
AcDbVertex
100
AcDb3dPolylineVertex
 10
-375.32849300367707
 20
-834.21004892235771
 30
0.0
 70
              32
  0
VERTEX
  5
2BE
100
AcDbEntity
  8
0
370
               0
390
0
 62
               1
100
AcDbVertex
100
AcDb3dPolylineVertex
 10
-375.54663349474686
 20
-834.01233790582921
 30
0.0
 70
              32
  0
VERTEX
  5
2BF
100
AcDbEntity
  8
0
370
               0
390
0
 62
               1
100
AcDbVertex
100
AcDb3dPolylineVertex
 10
-375.7831026481781
 20
-833.83696042900976
 30
0.0
 70
              32
  0
VERTEX
  5
2C0
100
AcDbEntity
  8
0
370
               0
390
0
 62
               1
100
AcDbVertex
100
AcDb3dPolylineVertex
 10
-376.03562313675866
 20
-833.68560547287223
 30
0.0
 70
              32
  0
VERTEX
  5
2C1
100
AcDbEntity
  8
0
370
               0
390
0
 62
               1
100
AcDbVertex
100
AcDb3dPolylineVertex
 10
-376.30176305014174
 20
-833.55973066838362
 30
0.0
 70
              32
  0
VERTEX
  5
2C2
100
AcDbEntity
  8
0
370
               0
390
0
 62
               1
100
AcDbVertex
100
AcDb3dPolylineVertex
 10
-376.57895931547318
 20
-833.46054825872068
 30
0.0
 70
              32
  0
VERTEX
  5
2C3
100
AcDbEntity
  8
0
370
               0
390
0
 62
               1
100
AcDbVertex
100
AcDb3dPolylineVertex
 10
-376.86454238118858
 20
-833.38901342470774
 30
0.0
 70
              32
  0
VERTEX
  5
2C4
100
AcDbEntity
  8
0
370
               0
390
0
 62
               1
100
AcDbVertex
100
AcDb3dPolylineVertex
 10
-377.15576192624758
 20
-833.34581508590088
 30
0.0
 70
              32
  0
VERTEX
  5
2C5
100
AcDbEntity
  8
0
370
               0
390
0
 62
               1
100
AcDbVertex
100
AcDb3dPolylineVertex
 10
-377.44981334723707
 20
-833.33136926591749
 30
0.0
 70
              32
  0
SEQEND
  5
2C6
100
AcDbEntity
  8
0
370
               0
390
0
 62
               1
  0
LINE
  5
2C7
100
AcDbEntity
  8
0
370
               0
390
0
 62
               1
100
AcDbLine
 10
-99.44981334723343
 20
-824.33136926591749
 30
0.0
 11
-655.44981334723343
 21
-824.33136926591749
 31
0.0
  0
LINE
  5
2C8
100
AcDbEntity
  8
0
370
               0
390
0
 62
               1
100
AcDbLine
 10
-99.44981334723343
 20
-532.83136926591749
 30
0.0
 11
-655.44981334723343
 21
-532.83136926591749
 31
0.0
  0
LINE
  5
2C9
100
AcDbEntity
  8
0
370
               0
390
0
 62
               1
100
AcDbLine
 10
-655.44981334723343
 20
-824.33136926591749
 30
0.0
 11
-655.44981334723343
 21
-532.83136926591749
 31
0.0
  0
POLYLINE
  5
2CA
100
AcDbEntity
  8
0
370
               0
390
0
 62
               1
100
AcDb3dPolyline
 66
               1
 10
0.0
 20
0.0
 30
0.0
 70
               8
  0
VERTEX
  5
2CB
100
AcDbEntity
  8
0
370
               0
390
0
 62
               1
100
AcDbVertex
100
AcDb3dPolylineVertex
 10
-127.44981334723707
 20
-833.33136926591749
 30
0.0
 70
              32
  0
VERTEX
  5
2CC
100
AcDbEntity
  8
0
370
               0
390
0
 62
               1
100
AcDbVertex
100
AcDb3dPolylineVertex
 10
-127.74386476822656
 20
-833.34581508590088
 30
0.0
 70
              32
  0
VERTEX
  5
2CD
100
AcDbEntity
  8
0
370
               0
390
0
 62
               1
100
AcDbVertex
100
AcDb3dPolylineVertex
 10
-128.03508431328555
 20
-833.38901342470774
 30
0.0
 70
              32
  0
VERTEX
  5
2CE
100
AcDbEntity
  8
0
370
               0
390
0
 62
               1
100
AcDbVertex
100
AcDb3dPolylineVertex
 10
-128.32066737900095
 20
-833.46054825872068
 30
0.0
 70
              32
  0
VERTEX
  5
2CF
100
AcDbEntity
  8
0
370
               0
390
0
 62
               1
100
AcDbVertex
100
AcDb3dPolylineVertex
 10
-128.59786364433239
 20
-833.55973066838362
 30
0.0
 70
              32
  0
VERTEX
  5
2D0
100
AcDbEntity
  8
0
370
               0
390
0
 62
               1
100
AcDbVertex
100
AcDb3dPolylineVertex
 10
-128.86400355771548
 20
-833.68560547287223
 30
0.0
 70
              32
  0
VERTEX
  5
2D1
100
AcDbEntity
  8
0
370
               0
390
0
 62
               1
100
AcDbVertex
100
AcDb3dPolylineVertex
 10
-129.11652404629604
 20
-833.83696042900976
 30
0.0
 70
              32
  0
VERTEX
  5
2D2
100
AcDbEntity
  8
0
370
               0
390
0
 62
               1
100
AcDbVertex
100
AcDb3dPolylineVertex
 10
-129.35299319972728
 20
-834.01233790582921
 30
0.0
 70
              32
  0
VERTEX
  5
2D3
100
AcDbEntity
  8
0
370
               0
390
0
 62
               1
100
AcDbVertex
100
AcDb3dPolylineVertex
 10
-129.57113369079707
 20
-834.21004892235771
 30
0.0
 70
              32
  0
VERTEX
  5
2D4
100
AcDbEntity
  8
0
370
               0
390
0
 62
               1
100
AcDbVertex
100
AcDb3dPolylineVertex
 10
-129.76884470732512
 20
-834.42818941342637
 30
0.0
 70
              32
  0
VERTEX
  5
2D5
100
AcDbEntity
  8
0
370
               0
390
0
 62
               1
100
AcDbVertex
100
AcDb3dPolylineVertex
 10
-129.94422218414547
 20
-834.66465856685852
 30
0.0
 70
              32
  0
VERTEX
  5
2D6
100
AcDbEntity
  8
0
370
               0
390
0
 62
               1
100
AcDbVertex
100
AcDb3dPolylineVertex
 10
-130.09557714028233
 20
-834.91717905543953
 30
0.0
 70
              32
  0
VERTEX
  5
2D7
100
AcDbEntity
  8
0
370
               0
390
0
 62
               1
100
AcDbVertex
100
AcDb3dPolylineVertex
 10
-130.22145194477162
 20
-835.18331896882216
 30
0.0
 70
              32
  0
VERTEX
  5
2D8
100
AcDbEntity
  8
0
370
               0
390
0
 62
               1
100
AcDbVertex
100
AcDb3dPolylineVertex
 10
-130.32063435443342
 20
-835.46051523415406
 30
0.0
 70
              32
  0
VERTEX
  5
2D9
100
AcDbEntity
  8
0
370
               0
390
0
 62
               1
100
AcDbVertex
100
AcDb3dPolylineVertex
 10
-130.39216918844613
 20
-835.746098299869
 30
0.0
 70
              32
  0
VERTEX
  5
2DA
100
AcDbEntity
  8
0
370
               0
390
0
 62
               1
100
AcDbVertex
100
AcDb3dPolylineVertex
 10
-130.43536752725413
 20
-836.03731784492891
 30
0.0
 70
              32
  0
VERTEX
  5
2DB
100
AcDbEntity
  8
0
370
               0
390
0
 62
               1
100
AcDbVertex
100
AcDb3dPolylineVertex
 10
-130.44981334723707
 20
-836.33136926591749
 30
0.0
 70
              32
  0
VERTEX
  5
2DC
100
AcDbEntity
  8
0
370
               0
390
0
 62
               1
100
AcDbVertex
100
AcDb3dPolylineVertex
 10
-130.43536752725413
 20
-836.62542068690607
 30
0.0
 70
              32
  0
VERTEX
  5
2DD
100
AcDbEntity
  8
0
370
               0
390
0
 62
               1
100
AcDbVertex
100
AcDb3dPolylineVertex
 10
-130.39216918844613
 20
-836.91664023196597
 30
0.0
 70
              32
  0
VERTEX
  5
2DE
100
AcDbEntity
  8
0
370
               0
390
0
 62
               1
100
AcDbVertex
100
AcDb3dPolylineVertex
 10
-130.32063435443342
 20
-837.20222329768092
 30
0.0
 70
              32
  0
VERTEX
  5
2DF
100
AcDbEntity
  8
0
370
               0
390
0
 62
               1
100
AcDbVertex
100
AcDb3dPolylineVertex
 10
-130.22145194477162
 20
-837.47941956301281
 30
0.0
 70
              32
  0
VERTEX
  5
2E0
100
AcDbEntity
  8
0
370
               0
390
0
 62
               1
100
AcDbVertex
100
AcDb3dPolylineVertex
 10
-130.09557714028233
 20
-837.74555947639544
 30
0.0
 70
              32
  0
VERTEX
  5
2E1
100
AcDbEntity
  8
0
370
               0
390
0
 62
               1
100
AcDbVertex
100
AcDb3dPolylineVertex
 10
-129.94422218414547
 20
-837.99807996497645
 30
0.0
 70
              32
  0
VERTEX
  5
2E2
100
AcDbEntity
  8
0
370
               0
390
0
 62
               1
100
AcDbVertex
100
AcDb3dPolylineVertex
 10
-129.76884470732512
 20
-838.23454911840861
 30
0.0
 70
              32
  0
VERTEX
  5
2E3
100
AcDbEntity
  8
0
370
               0
390
0
 62
               1
100
AcDbVertex
100
AcDb3dPolylineVertex
 10
-129.57113369079707
 20
-838.45268960947726
 30
0.0
 70
              32
  0
VERTEX
  5
2E4
100
AcDbEntity
  8
0
370
               0
390
0
 62
               1
100
AcDbVertex
100
AcDb3dPolylineVertex
 10
-129.35299319972728
 20
-838.65040062600576
 30
0.0
 70
              32
  0
VERTEX
  5
2E5
100
AcDbEntity
  8
0
370
               0
390
0
 62
               1
100
AcDbVertex
100
AcDb3dPolylineVertex
 10
-129.11652404629604
 20
-838.82577810282521
 30
0.0
 70
              32
  0
VERTEX
  5
2E6
100
AcDbEntity
  8
0
370
               0
390
0
 62
               1
100
AcDbVertex
100
AcDb3dPolylineVertex
 10
-128.86400355771548
 20
-838.97713305896275
 30
0.0
 70
              32
  0
VERTEX
  5
2E7
100
AcDbEntity
  8
0
370
               0
390
0
 62
               1
100
AcDbVertex
100
AcDb3dPolylineVertex
 10
-128.59786364433239
 20
-839.10300786345135
 30
0.0
 70
              32
  0
VERTEX
  5
2E8
100
AcDbEntity
  8
0
370
               0
390
0
 62
               1
100
AcDbVertex
100
AcDb3dPolylineVertex
 10
-128.32066737900095
 20
-839.2021902731143
 30
0.0
 70
              32
  0
VERTEX
  5
2E9
100
AcDbEntity
  8
0
370
               0
390
0
 62
               1
100
AcDbVertex
100
AcDb3dPolylineVertex
 10
-128.03508431328555
 20
-839.27372510712723
 30
0.0
 70
              32
  0
VERTEX
  5
2EA
100
AcDbEntity
  8
0
370
               0
390
0
 62
               1
100
AcDbVertex
100
AcDb3dPolylineVertex
 10
-127.74386476822656
 20
-839.31692344593409
 30
0.0
 70
              32
  0
VERTEX
  5
2EB
100
AcDbEntity
  8
0
370
               0
390
0
 62
               1
100
AcDbVertex
100
AcDb3dPolylineVertex
 10
-127.44981334723707
 20
-839.33136926591749
 30
0.0
 70
              32
  0
SEQEND
  5
2EC
100
AcDbEntity
  8
0
370
               0
390
0
 62
               1
  0
POLYLINE
  5
2ED
100
AcDbEntity
  8
0
370
               0
390
0
 62
               1
100
AcDb3dPolyline
 66
               1
 10
0.0
 20
0.0
 30
0.0
 70
               8
  0
VERTEX
  5
2EE
100
AcDbEntity
  8
0
370
               0
390
0
 62
               1
100
AcDbVertex
100
AcDb3dPolylineVertex
 10
-627.44981334723707
 20
-833.33136926591749
 30
0.0
 70
              32
  0
VERTEX
  5
2EF
100
AcDbEntity
  8
0
370
               0
390
0
 62
               1
100
AcDbVertex
100
AcDb3dPolylineVertex
 10
-627.74386476822656
 20
-833.34581508590088
 30
0.0
 70
              32
  0
VERTEX
  5
2F0
100
AcDbEntity
  8
0
370
               0
390
0
 62
               1
100
AcDbVertex
100
AcDb3dPolylineVertex
 10
-628.03508431328555
 20
-833.38901342470774
 30
0.0
 70
              32
  0
VERTEX
  5
2F1
100
AcDbEntity
  8
0
370
               0
390
0
 62
               1
100
AcDbVertex
100
AcDb3dPolylineVertex
 10
-628.32066737900095
 20
-833.46054825872068
 30
0.0
 70
              32
  0
VERTEX
  5
2F2
100
AcDbEntity
  8
0
370
               0
390
0
 62
               1
100
AcDbVertex
100
AcDb3dPolylineVertex
 10
-628.59786364433239
 20
-833.55973066838362
 30
0.0
 70
              32
  0
VERTEX
  5
2F3
100
AcDbEntity
  8
0
370
               0
390
0
 62
               1
100
AcDbVertex
100
AcDb3dPolylineVertex
 10
-628.86400355771548
 20
-833.68560547287223
 30
0.0
 70
              32
  0
VERTEX
  5
2F4
100
AcDbEntity
  8
0
370
               0
390
0
 62
               1
100
AcDbVertex
100
AcDb3dPolylineVertex
 10
-629.11652404629604
 20
-833.83696042900976
 30
0.0
 70
              32
  0
VERTEX
  5
2F5
100
AcDbEntity
  8
0
370
               0
390
0
 62
               1
100
AcDbVertex
100
AcDb3dPolylineVertex
 10
-629.35299319972728
 20
-834.01233790582921
 30
0.0
 70
              32
  0
VERTEX
  5
2F6
100
AcDbEntity
  8
0
370
               0
390
0
 62
               1
100
AcDbVertex
100
AcDb3dPolylineVertex
 10
-629.57113369079707
 20
-834.21004892235771
 30
0.0
 70
              32
  0
VERTEX
  5
2F7
100
AcDbEntity
  8
0
370
               0
390
0
 62
               1
100
AcDbVertex
100
AcDb3dPolylineVertex
 10
-629.76884470732512
 20
-834.42818941342637
 30
0.0
 70
              32
  0
VERTEX
  5
2F8
100
AcDbEntity
  8
0
370
               0
390
0
 62
               1
100
AcDbVertex
100
AcDb3dPolylineVertex
 10
-629.94422218414547
 20
-834.66465856685852
 30
0.0
 70
              32
  0
VERTEX
  5
2F9
100
AcDbEntity
  8
0
370
               0
390
0
 62
               1
100
AcDbVertex
100
AcDb3dPolylineVertex
 10
-630.09557714028233
 20
-834.91717905543953
 30
0.0
 70
              32
  0
VERTEX
  5
2FA
100
AcDbEntity
  8
0
370
               0
390
0
 62
               1
100
AcDbVertex
100
AcDb3dPolylineVertex
 10
-630.22145194477162
 20
-835.18331896882216
 30
0.0
 70
              32
  0
VERTEX
  5
2FB
100
AcDbEntity
  8
0
370
               0
390
0
 62
               1
100
AcDbVertex
100
AcDb3dPolylineVertex
 10
-630.32063435443342
 20
-835.46051523415406
 30
0.0
 70
              32
  0
VERTEX
  5
2FC
100
AcDbEntity
  8
0
370
               0
390
0
 62
               1
100
AcDbVertex
100
AcDb3dPolylineVertex
 10
-630.39216918844613
 20
-835.746098299869
 30
0.0
 70
              32
  0
VERTEX
  5
2FD
100
AcDbEntity
  8
0
370
               0
390
0
 62
               1
100
AcDbVertex
100
AcDb3dPolylineVertex
 10
-630.43536752725413
 20
-836.03731784492891
 30
0.0
 70
              32
  0
VERTEX
  5
2FE
100
AcDbEntity
  8
0
370
               0
390
0
 62
               1
100
AcDbVertex
100
AcDb3dPolylineVertex
 10
-630.44981334723707
 20
-836.33136926591749
 30
0.0
 70
              32
  0
VERTEX
  5
2FF
100
AcDbEntity
  8
0
370
               0
390
0
 62
               1
100
AcDbVertex
100
AcDb3dPolylineVertex
 10
-630.43536752725413
 20
-836.62542068690607
 30
0.0
 70
              32
  0
VERTEX
  5
300
100
AcDbEntity
  8
0
370
               0
390
0
 62
               1
100
AcDbVertex
100
AcDb3dPolylineVertex
 10
-630.39216918844613
 20
-836.91664023196597
 30
0.0
 70
              32
  0
VERTEX
  5
301
100
AcDbEntity
  8
0
370
               0
390
0
 62
               1
100
AcDbVertex
100
AcDb3dPolylineVertex
 10
-630.32063435443342
 20
-837.20222329768092
 30
0.0
 70
              32
  0
VERTEX
  5
302
100
AcDbEntity
  8
0
370
               0
390
0
 62
               1
100
AcDbVertex
100
AcDb3dPolylineVertex
 10
-630.22145194477162
 20
-837.47941956301281
 30
0.0
 70
              32
  0
VERTEX
  5
303
100
AcDbEntity
  8
0
370
               0
390
0
 62
               1
100
AcDbVertex
100
AcDb3dPolylineVertex
 10
-630.09557714028233
 20
-837.74555947639544
 30
0.0
 70
              32
  0
VERTEX
  5
304
100
AcDbEntity
  8
0
370
               0
390
0
 62
               1
100
AcDbVertex
100
AcDb3dPolylineVertex
 10
-629.94422218414547
 20
-837.99807996497645
 30
0.0
 70
              32
  0
VERTEX
  5
305
100
AcDbEntity
  8
0
370
               0
390
0
 62
               1
100
AcDbVertex
100
AcDb3dPolylineVertex
 10
-629.76884470732512
 20
-838.23454911840861
 30
0.0
 70
              32
  0
VERTEX
  5
306
100
AcDbEntity
  8
0
370
               0
390
0
 62
               1
100
AcDbVertex
100
AcDb3dPolylineVertex
 10
-629.57113369079707
 20
-838.45268960947726
 30
0.0
 70
              32
  0
VERTEX
  5
307
100
AcDbEntity
  8
0
370
               0
390
0
 62
               1
100
AcDbVertex
100
AcDb3dPolylineVertex
 10
-629.35299319972728
 20
-838.65040062600576
 30
0.0
 70
              32
  0
VERTEX
  5
308
100
AcDbEntity
  8
0
370
               0
390
0
 62
               1
100
AcDbVertex
100
AcDb3dPolylineVertex
 10
-629.11652404629604
 20
-838.82577810282521
 30
0.0
 70
              32
  0
VERTEX
  5
309
100
AcDbEntity
  8
0
370
               0
390
0
 62
               1
100
AcDbVertex
100
AcDb3dPolylineVertex
 10
-628.86400355771548
 20
-838.97713305896275
 30
0.0
 70
              32
  0
VERTEX
  5
30A
100
AcDbEntity
  8
0
370
               0
390
0
 62
               1
100
AcDbVertex
100
AcDb3dPolylineVertex
 10
-628.59786364433239
 20
-839.10300786345135
 30
0.0
 70
              32
  0
VERTEX
  5
30B
100
AcDbEntity
  8
0
370
               0
390
0
 62
               1
100
AcDbVertex
100
AcDb3dPolylineVertex
 10
-628.32066737900095
 20
-839.2021902731143
 30
0.0
 70
              32
  0
VERTEX
  5
30C
100
AcDbEntity
  8
0
370
               0
390
0
 62
               1
100
AcDbVertex
100
AcDb3dPolylineVertex
 10
-628.03508431328555
 20
-839.27372510712723
 30
0.0
 70
              32
  0
VERTEX
  5
30D
100
AcDbEntity
  8
0
370
               0
390
0
 62
               1
100
AcDbVertex
100
AcDb3dPolylineVertex
 10
-627.74386476822656
 20
-839.31692344593409
 30
0.0
 70
              32
  0
VERTEX
  5
30E
100
AcDbEntity
  8
0
370
               0
390
0
 62
               1
100
AcDbVertex
100
AcDb3dPolylineVertex
 10
-627.44981334723707
 20
-839.33136926591749
 30
0.0
 70
              32
  0
SEQEND
  5
30F
100
AcDbEntity
  8
0
370
               0
390
0
 62
               1
  0
POLYLINE
  5
310
100
AcDbEntity
  8
0
370
               0
390
0
 62
               1
100
AcDb3dPolyline
 66
               1
 10
0.0
 20
0.0
 30
0.0
 70
               8
  0
VERTEX
  5
311
100
AcDbEntity
  8
0
370
               0
390
0
 62
               1
100
AcDbVertex
100
AcDb3dPolylineVertex
 10
-377.44981334723707
 20
-833.33136926591749
 30
0.0
 70
              32
  0
VERTEX
  5
312
100
AcDbEntity
  8
0
370
               0
390
0
 62
               1
100
AcDbVertex
100
AcDb3dPolylineVertex
 10
-377.74386476822656
 20
-833.34581508590088
 30
0.0
 70
              32
  0
VERTEX
  5
313
100
AcDbEntity
  8
0
370
               0
390
0
 62
               1
100
AcDbVertex
100
AcDb3dPolylineVertex
 10
-378.03508431328555
 20
-833.38901342470774
 30
0.0
 70
              32
  0
VERTEX
  5
314
100
AcDbEntity
  8
0
370
               0
390
0
 62
               1
100
AcDbVertex
100
AcDb3dPolylineVertex
 10
-378.32066737900095
 20
-833.46054825872068
 30
0.0
 70
              32
  0
VERTEX
  5
315
100
AcDbEntity
  8
0
370
               0
390
0
 62
               1
100
AcDbVertex
100
AcDb3dPolylineVertex
 10
-378.59786364433239
 20
-833.55973066838362
 30
0.0
 70
              32
  0
VERTEX
  5
316
100
AcDbEntity
  8
0
370
               0
390
0
 62
               1
100
AcDbVertex
100
AcDb3dPolylineVertex
 10
-378.86400355771548
 20
-833.68560547287223
 30
0.0
 70
              32
  0
VERTEX
  5
317
100
AcDbEntity
  8
0
370
               0
390
0
 62
               1
100
AcDbVertex
100
AcDb3dPolylineVertex
 10
-379.11652404629604
 20
-833.83696042900976
 30
0.0
 70
              32
  0
VERTEX
  5
318
100
AcDbEntity
  8
0
370
               0
390
0
 62
               1
100
AcDbVertex
100
AcDb3dPolylineVertex
 10
-379.35299319972728
 20
-834.01233790582921
 30
0.0
 70
              32
  0
VERTEX
  5
319
100
AcDbEntity
  8
0
370
               0
390
0
 62
               1
100
AcDbVertex
100
AcDb3dPolylineVertex
 10
-379.57113369079707
 20
-834.21004892235771
 30
0.0
 70
              32
  0
VERTEX
  5
31A
100
AcDbEntity
  8
0
370
               0
390
0
 62
               1
100
AcDbVertex
100
AcDb3dPolylineVertex
 10
-379.76884470732512
 20
-834.42818941342637
 30
0.0
 70
              32
  0
VERTEX
  5
31B
100
AcDbEntity
  8
0
370
               0
390
0
 62
               1
100
AcDbVertex
100
AcDb3dPolylineVertex
 10
-379.94422218414547
 20
-834.66465856685852
 30
0.0
 70
              32
  0
VERTEX
  5
31C
100
AcDbEntity
  8
0
370
               0
390
0
 62
               1
100
AcDbVertex
100
AcDb3dPolylineVertex
 10
-380.09557714028233
 20
-834.91717905543953
 30
0.0
 70
              32
  0
VERTEX
  5
31D
100
AcDbEntity
  8
0
370
               0
390
0
 62
               1
100
AcDbVertex
100
AcDb3dPolylineVertex
 10
-380.22145194477162
 20
-835.18331896882216
 30
0.0
 70
              32
  0
VERTEX
  5
31E
100
AcDbEntity
  8
0
370
               0
390
0
 62
               1
100
AcDbVertex
100
AcDb3dPolylineVertex
 10
-380.32063435443342
 20
-835.46051523415406
 30
0.0
 70
              32
  0
VERTEX
  5
31F
100
AcDbEntity
  8
0
370
               0
390
0
 62
               1
100
AcDbVertex
100
AcDb3dPolylineVertex
 10
-380.39216918844613
 20
-835.746098299869
 30
0.0
 70
              32
  0
VERTEX
  5
320
100
AcDbEntity
  8
0
370
               0
390
0
 62
               1
100
AcDbVertex
100
AcDb3dPolylineVertex
 10
-380.43536752725413
 20
-836.03731784492891
 30
0.0
 70
              32
  0
VERTEX
  5
321
100
AcDbEntity
  8
0
370
               0
390
0
 62
               1
100
AcDbVertex
100
AcDb3dPolylineVertex
 10
-380.44981334723707
 20
-836.33136926591749
 30
0.0
 70
              32
  0
VERTEX
  5
322
100
AcDbEntity
  8
0
370
               0
390
0
 62
               1
100
AcDbVertex
100
AcDb3dPolylineVertex
 10
-380.43536752725413
 20
-836.62542068690607
 30
0.0
 70
              32
  0
VERTEX
  5
323
100
AcDbEntity
  8
0
370
               0
390
0
 62
               1
100
AcDbVertex
100
AcDb3dPolylineVertex
 10
-380.39216918844613
 20
-836.91664023196597
 30
0.0
 70
              32
  0
VERTEX
  5
324
100
AcDbEntity
  8
0
370
               0
390
0
 62
               1
100
AcDbVertex
100
AcDb3dPolylineVertex
 10
-380.32063435443342
 20
-837.20222329768092
 30
0.0
 70
              32
  0
VERTEX
  5
325
100
AcDbEntity
  8
0
370
               0
390
0
 62
               1
100
AcDbVertex
100
AcDb3dPolylineVertex
 10
-380.22145194477162
 20
-837.47941956301281
 30
0.0
 70
              32
  0
VERTEX
  5
326
100
AcDbEntity
  8
0
370
               0
390
0
 62
               1
100
AcDbVertex
100
AcDb3dPolylineVertex
 10
-380.09557714028233
 20
-837.74555947639544
 30
0.0
 70
              32
  0
VERTEX
  5
327
100
AcDbEntity
  8
0
370
               0
390
0
 62
               1
100
AcDbVertex
100
AcDb3dPolylineVertex
 10
-379.94422218414547
 20
-837.99807996497645
 30
0.0
 70
              32
  0
VERTEX
  5
328
100
AcDbEntity
  8
0
370
               0
390
0
 62
               1
100
AcDbVertex
100
AcDb3dPolylineVertex
 10
-379.76884470732512
 20
-838.23454911840861
 30
0.0
 70
              32
  0
VERTEX
  5
329
100
AcDbEntity
  8
0
370
               0
390
0
 62
               1
100
AcDbVertex
100
AcDb3dPolylineVertex
 10
-379.57113369079707
 20
-838.45268960947726
 30
0.0
 70
              32
  0
VERTEX
  5
32A
100
AcDbEntity
  8
0
370
               0
390
0
 62
               1
100
AcDbVertex
100
AcDb3dPolylineVertex
 10
-379.35299319972728
 20
-838.65040062600576
 30
0.0
 70
              32
  0
VERTEX
  5
32B
100
AcDbEntity
  8
0
370
               0
390
0
 62
               1
100
AcDbVertex
100
AcDb3dPolylineVertex
 10
-379.11652404629604
 20
-838.82577810282521
 30
0.0
 70
              32
  0
VERTEX
  5
32C
100
AcDbEntity
  8
0
370
               0
390
0
 62
               1
100
AcDbVertex
100
AcDb3dPolylineVertex
 10
-378.86400355771548
 20
-838.97713305896275
 30
0.0
 70
              32
  0
VERTEX
  5
32D
100
AcDbEntity
  8
0
370
               0
390
0
 62
               1
100
AcDbVertex
100
AcDb3dPolylineVertex
 10
-378.59786364433239
 20
-839.10300786345135
 30
0.0
 70
              32
  0
VERTEX
  5
32E
100
AcDbEntity
  8
0
370
               0
390
0
 62
               1
100
AcDbVertex
100
AcDb3dPolylineVertex
 10
-378.32066737900095
 20
-839.2021902731143
 30
0.0
 70
              32
  0
VERTEX
  5
32F
100
AcDbEntity
  8
0
370
               0
390
0
 62
               1
100
AcDbVertex
100
AcDb3dPolylineVertex
 10
-378.03508431328555
 20
-839.27372510712723
 30
0.0
 70
              32
  0
VERTEX
  5
330
100
AcDbEntity
  8
0
370
               0
390
0
 62
               1
100
AcDbVertex
100
AcDb3dPolylineVertex
 10
-377.74386476822656
 20
-839.31692344593409
 30
0.0
 70
              32
  0
VERTEX
  5
331
100
AcDbEntity
  8
0
370
               0
390
0
 62
               1
100
AcDbVertex
100
AcDb3dPolylineVertex
 10
-377.44981334723707
 20
-839.33136926591749
 30
0.0
 70
              32
  0
SEQEND
  5
332
100
AcDbEntity
  8
0
370
               0
390
0
 62
               1
  0
LINE
  5
333
100
AcDbEntity
  8
0
370
               0
390
0
 62
               1
100
AcDbLine
 10
-655.44981334723343
 20
-824.33136926591749
 30
0.0
 11
-655.44981334723343
 21
-825.33136926591021
 31
0.0
  0
LINE
  5
334
100
AcDbEntity
  8
0
370
               0
390
0
 62
               1
100
AcDbLine
 10
-99.44981334723343
 20
-825.33136926591021
 30
0.0
 11
-99.44981334723343
 21
-824.33136926591749
 31
0.0
  0
LINE
  5
335
100
AcDbEntity
  8
0
370
               0
390
0
 62
               1
100
AcDbLine
 10
-99.44981334723343
 20
-824.33136926591749
 30
0.0
 11
-99.44981334723343
 21
-532.83136926591749
 31
0.0
  0
LINE
  5
336
100
AcDbEntity
  8
0
370
               0
390
0
 62
               1
100
AcDbLine
 10
-658.44981334723525
 20
-882.83136926591749
 30
0.0
 11
-667.44981334723707
 21
-882.83136926591749
 31
0.0
  0
LINE
  5
337
100
AcDbEntity
  8
0
370
               0
390
0
 62
               1
100
AcDbLine
 10
-657.44981334723707
 20
-878.83136926591749
 30
0.0
 11
-658.44981334723525
 21
-878.83136926591749
 31
0.0
  0
LINE
  5
338
100
AcDbEntity
  8
0
370
               0
390
0
 62
               1
100
AcDbLine
 10
-667.44981334723707
 20
-532.83136926591749
 30
0.0
 11
-667.44981334723707
 21
-851.18844660187631
 31
0.0
  0
LINE
  5
339
100
AcDbEntity
  8
0
370
               0
390
0
 62
               1
100
AcDbLine
 10
-667.44981334723707
 20
-532.83136926591749
 30
0.0
 11
-655.44981334723707
 21
-532.83136926591749
 31
0.0
  0
LINE
  5
33A
100
AcDbEntity
  8
0
370
               0
390
0
 62
               1
100
AcDbLine
 10
-655.44981334723707
 20
-824.33136926591749
 30
0.0
 11
-655.44981334723707
 21
-532.83136926591749
 31
0.0
  0
LINE
  5
33B
100
AcDbEntity
  8
0
370
               0
390
0
 62
               1
100
AcDbLine
 10
-658.44981334723525
 20
-824.33136926591749
 30
0.0
 11
-658.44981334723525
 21
-851.18844660187631
 31
0.0
  0
LINE
  5
33C
100
AcDbEntity
  8
0
370
               0
390
0
 62
               1
100
AcDbLine
 10
-655.44981334723707
 20
-824.33136926591749
 30
0.0
 11
-658.44981334723525
 21
-824.33136926591749
 31
0.0
  0
LINE
  5
33D
100
AcDbEntity
  8
0
370
               0
390
0
 62
               1
100
AcDbLine
 10
-655.44981334723707
 20
-825.33136926591203
 30
0.0
 11
-655.44981334723707
 21
-824.33136926591749
 31
0.0
  0
LINE
  5
33E
100
AcDbEntity
  8
0
370
               0
390
0
 62
               1
100
AcDbLine
 10
-87.449813347237068
 20
-851.18844660187631
 30
0.0
 11
-87.449813347237068
 21
-870.95204208077837
 31
0.0
  0
LINE
  5
33F
100
AcDbEntity
  8
0
370
               0
390
0
 62
               1
100
AcDbLine
 10
-87.449813347237068
 20
-882.83136926591749
 30
0.0
 11
-87.449813347237068
 21
-870.95204208078383
 31
0.0
  0
LINE
  5
340
100
AcDbEntity
  8
0
370
               0
390
0
 62
               1
100
AcDbLine
 10
-96.44981334723343
 20
-851.18844660187631
 30
0.0
 11
-96.44981334723343
 21
-870.95204208077837
 31
0.0
  0
LINE
  5
341
100
AcDbEntity
  8
0
370
               0
390
0
 62
               1
100
AcDbLine
 10
-96.44981334723343
 20
-870.95204208078383
 30
0.0
 11
-96.44981334723343
 21
-882.83136926591749
 31
0.0
  0
LINE
  5
342
100
AcDbEntity
  8
0
370
               0
390
0
 62
               1
100
AcDbLine
 10
-657.44981334723707
 20
-851.18844660187085
 30
0.0
 11
-657.44981334723707
 21
-869.96386230682936
 31
0.0
  0
LINE
  5
343
100
AcDbEntity
  8
0
370
               0
390
0
 62
               1
100
AcDbLine
 10
-97.449813347237068
 20
-851.18844660187085
 30
0.0
 11
-97.449813347237068
 21
-869.96386230682936
 31
0.0
  0
LINE
  5
344
100
AcDbEntity
  8
0
370
               0
390
0
 62
               1
100
AcDbLine
 10
-121.94981334723707
 20
-881.83136926591203
 30
0.0
 11
-121.94981334723707
 21
-881.62122311032715
 31
0.0
  0
LINE
  5
345
100
AcDbEntity
  8
0
370
               0
390
0
 62
               1
100
AcDbLine
 10
-162.94981334723707
 20
-881.62122311032715
 30
0.0
 11
-162.94981334723707
 21
-881.83136926591203
 31
0.0
  0
LINE
  5
346
100
AcDbEntity
  8
0
370
               0
390
0
 62
               1
100
AcDbLine
 10
-97.449813347237068
 20
-869.96386230683481
 30
0.0
 11
-97.449813347237068
 21
-881.83136926591203
 31
0.0
  0
LINE
  5
347
100
AcDbEntity
  8
0
370
               0
390
0
 62
               1
100
AcDbLine
 10
-657.44981334723707
 20
-869.96386230683481
 30
0.0
 11
-657.44981334723707
 21
-881.83136926591203
 31
0.0
  0
LINE
  5
348
100
AcDbEntity
  8
0
370
               0
390
0
 62
               1
100
AcDbLine
 10
-667.44981334723707
 20
-882.83136926591749
 30
0.0
 11
-667.44981334723707
 21
-870.95204208078383
 31
0.0
  0
LINE
  5
349
100
AcDbEntity
  8
0
370
               0
390
0
 62
               1
100
AcDbLine
 10
-667.44981334723707
 20
-851.18844660187631
 30
0.0
 11
-667.44981334723707
 21
-870.95204208077837
 31
0.0
  0
LINE
  5
34A
100
AcDbEntity
  8
0
370
               0
390
0
 62
               1
100
AcDbLine
 10
-658.44981334723525
 20
-882.83136926591749
 30
0.0
 11
-658.44981334723525
 21
-870.95204208078383
 31
0.0
  0
LINE
  5
34B
100
AcDbEntity
  8
0
370
               0
390
0
 62
               1
100
AcDbLine
 10
-658.44981334723525
 20
-870.95204208077837
 30
0.0
 11
-658.44981334723525
 21
-851.18844660187631
 31
0.0
  0
ENDBLK
  5
34C
100
AcDbEntity
  8
0
390
0
100
AcDbBlockEnd
  0
BLOCK
  5
34D
100
AcDbEntity
  8
寸法
390
0
100
AcDbBlockBegin
  2
*D6
 70
               1
 10
0.0
 20
0.0
 30
0.0
  3
*D6
  1

  0
LINE
  5
34E
100
AcDbEntity
  8
寸法
370
              -2
390
0
  6
Continuous
 62
               0
100
AcDbLine
 10
15871.468803658114
 20
1834.9825011252615
 30
0.0
 11
15871.468803658114
 21
1685.0
 31
0.0
  0
LINE
  5
34F
100
AcDbEntity
  8
寸法
370
              -2
390
0
  6
Continuous
 62
               0
100
AcDbLine
 10
16451.468803658114
 20
1834.9825011252597
 30
0.0
 11
16451.468803658114
 21
1685.0
 31
0.0
  0
LINE
  5
350
100
AcDbEntity
  8
寸法
370
              -2
390
0
  6
Continuous
 62
               0
100
AcDbLine
 10
15871.468803658114
 20
1725.0
 30
0.0
 11
16451.468803658114
 21
1725.0
 31
0.0
  0
POLYLINE
  5
351
100
AcDbEntity
  8
0
370
              -2
390
0
  6
Continuous
 62
               0
100
AcDb2dPolyline
 66
               1
 10
0.0
 20
0.0
 30
0.0
 75
               5
  0
VERTEX
  5
352
100
AcDbEntity
  8
0
370
              -2
390
0
  6
Continuous
 62
               0
100
AcDbVertex
100
AcDb2dVertex
 10
15921.481254829989
 20
1711.5992040969952
 30
0.0
  0
VERTEX
  5
353
100
AcDbEntity
  8
0
370
              -2
390
0
  6
Continuous
 62
               0
100
AcDbVertex
100
AcDb2dVertex
 10
15871.468803658114
 20
1725.0
 30
0.0
  0
VERTEX
  5
354
100
AcDbEntity
  8
0
370
              -2
390
0
  6
Continuous
 62
               0
100
AcDbVertex
100
AcDb2dVertex
 10
15921.481254829989
 20
1738.4007959030048
 30
0.0
  0
SEQEND
  5
355
100
AcDbEntity
  8
0
370
              -2
390
0
  6
Continuous
 62
               0
  0
POLYLINE
  5
356
100
AcDbEntity
  8
0
370
              -2
390
0
  6
Continuous
 62
               0
100
AcDb2dPolyline
 66
               1
 10
0.0
 20
0.0
 30
0.0
 75
               5
  0
VERTEX
  5
357
100
AcDbEntity
  8
0
370
              -2
390
0
  6
Continuous
 62
               0
100
AcDbVertex
100
AcDb2dVertex
 10
16401.456352486239
 20
1738.4007959030048
 30
0.0
  0
VERTEX
  5
358
100
AcDbEntity
  8
0
370
              -2
390
0
  6
Continuous
 62
               0
100
AcDbVertex
100
AcDb2dVertex
 10
16451.468803658114
 20
1725.0
 30
0.0
  0
VERTEX
  5
359
100
AcDbEntity
  8
0
370
              -2
390
0
  6
Continuous
 62
               0
100
AcDbVertex
100
AcDb2dVertex
 10
16401.456352486239
 20
1711.5992040969952
 30
0.0
  0
SEQEND
  5
35A
100
AcDbEntity
  8
0
370
              -2
390
0
  6
Continuous
 62
               0
  0
WIPEOUT
  5
35B
100
AcDbEntity
  8
寸法
370
              -2
390
0
  6
Continuous
 62
               0
 92
        0
100
AcDbWipeout
 90
        0
 10
16085.268809041076
 20
16159.537263993398
 30
0.0
 11
152.3999892340766
 21
0.0
 31
0.0
 12
0.0
 22
152.3999892340766
 32
0.0
 13
1.0
 23
1.0
340
0
 70
               7
280
               1
281
              50
282
              50
283
               0
360
0
 71
               2
 91
        5
 14
-0.5
 24
95.149201331886147
 14
0.4999999999999973
 24
95.149201331886147
 14
0.4999999999999973
 24
94.482534618124447
 14
-0.5
 24
94.482534618124447
 14
-0.5
 24
95.149201331886147
  0
MTEXT
  5
35C
100
AcDbEntity
  8
寸法
390
0
 62
               0
100
AcDbMText
 10
16085.268809041076
 20
1827.4083750000004
 30
0.0
 40
78.184375000000401
 41
0.0
 71
               1
 72
               1
  1
{\fＭＳ ゴシック|b0|i0|c128|p0;\l580}
 73
               1
 44
0.7828267384257842
  0
POINT
  5
35D
100
AcDbEntity
  8
Defpoints
370
               0
390
0
 62
               0
100
AcDbPoint
 10
16451.468803658114
 20
1874.9825011252597
 30
0.0
  0
POINT
  5
35E
100
AcDbEntity
  8
Defpoints
370
               0
390
0
 62
               0
100
AcDbPoint
 10
15871.468803658114
 20
1874.9825011252615
 30
0.0
  0
POINT
  5
35F
100
AcDbEntity
  8
Defpoints
370
               0
390
0
 62
               0
100
AcDbPoint
 10
15871.468803658114
 20
1725.0
 30
0.0
  0
ENDBLK
  5
360
100
AcDbEntity
  8
寸法
390
0
100
AcDbBlockEnd
  0
BLOCK
  5
361
100
AcDbEntity
  8
寸法
390
0
100
AcDbBlockBegin
  2
*D7
 70
               1
 10
0.0
 20
0.0
 30
0.0
  3
*D7
  1

  0
LINE
  5
362
100
AcDbEntity
  8
寸法
370
              -2
390
0
  6
Continuous
 62
               0
100
AcDbLine
 10
15835.968803658114
 20
2216.9825011252665
 30
0.0
 11
15710.0
 21
2216.9825011252665
 31
0.0
  0
LINE
  5
363
100
AcDbEntity
  8
寸法
370
              -2
390
0
  6
Continuous
 62
               0
100
AcDbLine
 10
15831.468803658114
 20
1874.9825011252615
 30
0.0
 11
15710.0
 21
1874.9825011252615
 31
0.0
  0
LINE
  5
364
100
AcDbEntity
  8
寸法
370
              -2
390
0
  6
Continuous
 62
               0
100
AcDbLine
 10
15750.0
 20
2216.9825011252665
 30
0.0
 11
15750.0
 21
1874.9825011252615
 31
0.0
  0
POLYLINE
  5
365
100
AcDbEntity
  8
0
370
              -2
390
0
  6
Continuous
 62
               0
100
AcDb2dPolyline
 66
               1
 10
0.0
 20
0.0
 30
0.0
 75
               5
  0
VERTEX
  5
366
100
AcDbEntity
  8
0
370
              -2
390
0
  6
Continuous
 62
               0
100
AcDbVertex
100
AcDb2dVertex
 10
15736.599204096996
 20
2166.9700499533915
 30
0.0
  0
VERTEX
  5
367
100
AcDbEntity
  8
0
370
              -2
390
0
  6
Continuous
 62
               0
100
AcDbVertex
100
AcDb2dVertex
 10
15750.0
 20
2216.9825011252665
 30
0.0
  0
VERTEX
  5
368
100
AcDbEntity
  8
0
370
              -2
390
0
  6
Continuous
 62
               0
100
AcDbVertex
100
AcDb2dVertex
 10
15763.400795903004
 20
2166.9700499533915
 30
0.0
  0
SEQEND
  5
369
100
AcDbEntity
  8
0
370
              -2
390
0
  6
Continuous
 62
               0
  0
POLYLINE
  5
36A
100
AcDbEntity
  8
0
370
              -2
390
0
  6
Continuous
 62
               0
100
AcDb2dPolyline
 66
               1
 10
0.0
 20
0.0
 30
0.0
 75
               5
  0
VERTEX
  5
36B
100
AcDbEntity
  8
0
370
              -2
390
0
  6
Continuous
 62
               0
100
AcDbVertex
100
AcDb2dVertex
 10
15763.400795903004
 20
1924.9949522971365
 30
0.0
  0
VERTEX
  5
36C
100
AcDbEntity
  8
0
370
              -2
390
0
  6
Continuous
 62
               0
100
AcDbVertex
100
AcDb2dVertex
 10
15750.0
 20
1874.9825011252615
 30
0.0
  0
VERTEX
  5
36D
100
AcDbEntity
  8
0
370
              -2
390
0
  6
Continuous
 62
               0
100
AcDbVertex
100
AcDb2dVertex
 10
15736.599204096996
 20
1924.9949522971365
 30
0.0
  0
SEQEND
  5
36E
100
AcDbEntity
  8
0
370
              -2
390
0
  6
Continuous
 62
               0
  0
WIPEOUT
  5
36F
100
AcDbEntity
  8
寸法
370
              -2
390
0
  6
Continuous
 62
               0
 92
        0
100
AcDbWipeout
 90
        0
 10
15638.4
 20
16394.319770501625
 30
0.0
 11
152.3999892340766
 21
0.0
 31
0.0
 12
0.0
 22
152.3999892340766
 32
0.0
 13
1.0
 23
1.0
340
0
 70
               7
280
               1
281
              50
282
              50
283
               0
360
0
 71
               2
 91
        5
 14
0.1666667137617004
 24
95.149201331886161
 14
0.1666667137617004
 24
94.149201331886161
 14
-0.5
 24
94.149201331886161
 14
-0.5
 24
95.149201331886161
 14
0.1666667137617004
 24
95.149201331886161
  0
MTEXT
  5
370
100
AcDbEntity
  8
寸法
390
0
 62
               0
100
AcDbMText
 10
15647.591624999999
 20
1969.7825065082257
 30
0.0
 40
78.184375000000401
 41
0.0
 71
               1
 72
               1
  1
{\fＭＳ ゴシック|b0|i0|c128|p0;\l342}
 11
0.0
 21
1.0
 31
0.0
 73
               1
 44
0.7828267384257842
  0
POINT
  5
371
100
AcDbEntity
  8
Defpoints
370
               0
390
0
 62
               0
100
AcDbPoint
 10
15871.468803658114
 20
1874.9825011252615
 30
0.0
  0
POINT
  5
372
100
AcDbEntity
  8
Defpoints
370
               0
390
0
 62
               0
100
AcDbPoint
 10
15875.968803658114
 20
2216.9825011252665
 30
0.0
  0
POINT
  5
373
100
AcDbEntity
  8
Defpoints
370
               0
390
0
 62
               0
100
AcDbPoint
 10
15750.0
 20
2216.9825011252665
 30
0.0
  0
ENDBLK
  5
374
100
AcDbEntity
  8
寸法
390
0
100
AcDbBlockEnd
  0
BLOCK
  5
375
100
AcDbEntity
  8
寸法
390
0
100
AcDbBlockBegin
  2
*D8
 70
               1
 10
0.0
 20
0.0
 30
0.0
  3
*D8
  1

  0
LINE
  5
376
100
AcDbEntity
  8
寸法
370
              -2
390
0
  6
Continuous
 62
               0
100
AcDbLine
 10
15496.057420213572
 20
1834.9825011252597
 30
0.0
 11
15496.057420213572
 21
1685.0
 31
0.0
  0
LINE
  5
377
100
AcDbEntity
  8
寸法
370
              -2
390
0
  6
Continuous
 62
               0
100
AcDbLine
 10
15146.065450244265
 20
2010.0
 30
0.0
 11
15146.065450244265
 21
1685.0
 31
0.0
  0
LINE
  5
378
100
AcDbEntity
  8
寸法
370
              -2
390
0
  6
Continuous
 62
               0
100
AcDbLine
 10
15496.057420213572
 20
1725.0
 30
0.0
 11
15146.065450244265
 21
1725.0
 31
0.0
  0
POLYLINE
  5
379
100
AcDbEntity
  8
0
370
              -2
390
0
  6
Continuous
 62
               0
100
AcDb2dPolyline
 66
               1
 10
0.0
 20
0.0
 30
0.0
 75
               5
  0
VERTEX
  5
37A
100
AcDbEntity
  8
0
370
              -2
390
0
  6
Continuous
 62
               0
100
AcDbVertex
100
AcDb2dVertex
 10
15446.044969041697
 20
1738.4007959030048
 30
0.0
  0
VERTEX
  5
37B
100
AcDbEntity
  8
0
370
              -2
390
0
  6
Continuous
 62
               0
100
AcDbVertex
100
AcDb2dVertex
 10
15496.057420213572
 20
1725.0
 30
0.0
  0
VERTEX
  5
37C
100
AcDbEntity
  8
0
370
              -2
390
0
  6
Continuous
 62
               0
100
AcDbVertex
100
AcDb2dVertex
 10
15446.044969041697
 20
1711.5992040969952
 30
0.0
  0
SEQEND
  5
37D
100
AcDbEntity
  8
0
370
              -2
390
0
  6
Continuous
 62
               0
  0
POLYLINE
  5
37E
100
AcDbEntity
  8
0
370
              -2
390
0
  6
Continuous
 62
               0
100
AcDb2dPolyline
 66
               1
 10
0.0
 20
0.0
 30
0.0
 75
               5
  0
VERTEX
  5
37F
100
AcDbEntity
  8
0
370
              -2
390
0
  6
Continuous
 62
               0
100
AcDbVertex
100
AcDb2dVertex
 10
15196.07790141614
 20
1711.5992040969952
 30
0.0
  0
VERTEX
  5
380
100
AcDbEntity
  8
0
370
              -2
390
0
  6
Continuous
 62
               0
100
AcDbVertex
100
AcDb2dVertex
 10
15146.065450244265
 20
1725.0
 30
0.0
  0
VERTEX
  5
381
100
AcDbEntity
  8
0
370
              -2
390
0
  6
Continuous
 62
               0
100
AcDbVertex
100
AcDb2dVertex
 10
15196.07790141614
 20
1738.4007959030048
 30
0.0
  0
SEQEND
  5
382
100
AcDbEntity
  8
0
370
              -2
390
0
  6
Continuous
 62
               0
  0
WIPEOUT
  5
383
100
AcDbEntity
  8
寸法
370
              -2
390
0
  6
Continuous
 62
               0
 92
        0
100
AcDbWipeout
 90
        0
 10
15244.86144061188
 20
16159.537263993398
 30
0.0
 11
152.39998923407666
 21
0.0
 31
0.0
 12
0.0
 22
152.39998923407666
 32
0.0
 13
1.0
 23
1.0
340
0
 70
               7
280
               1
281
              50
282
              50
283
               0
360
0
 71
               2
 91
        5
 14
-0.5
 24
95.149201331886118
 14
0.5000000000000089
 24
95.149201331886118
 14
0.5000000000000089
 24
94.482534618124419
 14
-0.5
 24
94.482534618124419
 14
-0.5
 24
95.149201331886118
  0
MTEXT
  5
384
100
AcDbEntity
  8
寸法
390
0
 62
               0
100
AcDbMText
 10
15244.86144061188
 20
1827.4083750000004
 30
0.0
 40
78.184375000000401
 41
0.0
 71
               1
 72
               1
  1
{\fＭＳ ゴシック|b0|i0|c128|p0;\l350}
 73
               1
 44
0.7828267384257842
  0
POINT
  5
385
100
AcDbEntity
  8
Defpoints
370
               0
390
0
 62
               0
100
AcDbPoint
 10
15146.065450244265
 20
2050.0
 30
0.0
  0
POINT
  5
386
100
AcDbEntity
  8
Defpoints
370
               0
390
0
 62
               0
100
AcDbPoint
 10
15496.057420213572
 20
1874.9825011252597
 30
0.0
  0
POINT
  5
387
100
AcDbEntity
  8
Defpoints
370
               0
390
0
 62
               0
100
AcDbPoint
 10
15496.057420213572
 20
1725.0
 30
0.0
  0
ENDBLK
  5
388
100
AcDbEntity
  8
寸法
390
0
100
AcDbBlockEnd
  0
ENDSEC
  0
SECTION
  2
ENTITIES
  0
LINE
  5
389
100
AcDbEntity
  8
HIBINO-BASE
370
               0
390
0
  6
Continuous
 62
               2
100
AcDbLine
 10
14738.918617005351
 20
4789.2033083051047
 30
0.0
 11
18338.918617005351
 21
4789.2033083051047
 31
0.0
  0
LINE
  5
38A
100
AcDbEntity
  8
HIBINO-BASE
370
               0
390
0
  6
Continuous
 62
               2
100
AcDbLine
 10
18338.918617005351
 20
-410.79669169489443
 30
0.0
 11
14738.918617005351
 21
-410.79669169489443
 31
0.0
  0
LINE
  5
38B
100
AcDbEntity
  8
HIBINO-BASE
370
               0
390
0
  6
Continuous
 62
               2
100
AcDbLine
 10
14738.918617005351
 20
-410.79669169489443
 30
0.0
 11
14738.918617005351
 21
4789.2033083051047
 31
0.0
  0
LINE
  5
38C
100
AcDbEntity
  8
HIBINO-BASE
370
               0
390
0
  6
Continuous
 62
               2
100
AcDbLine
 10
18338.918617005351
 20
4789.2033083051047
 30
0.0
 11
18338.918617005351
 21
-410.79669169489443
 31
0.0
  0
LINE
  5
38D
100
AcDbEntity
  8
HIBINO-BASE
370
               0
390
0
  6
Continuous
 62
               2
100
AcDbLine
 10
16538.918617005351
 20
39.203308305105566
 30
0.0
 11
18338.918617005351
 21
39.203308305105566
 31
0.0
  0
LINE
  5
38E
100
AcDbEntity
  8
HIBINO-BASE
370
               0
390
0
  6
Continuous
 62
               2
100
AcDbLine
 10
16538.918617005351
 20
-410.79669169489443
 30
0.0
 11
16538.918617005351
 21
39.203308305105566
 31
0.0
  0
MTEXT
  5
38F
100
AcDbEntity
  8
HIBINO-BASE
390
0
 62
               2
100
AcDbMText
 10
16556.918617005351
 20
17.776420805105772
 30
0.0
 40
32.576822916666657
 41
0.0
 71
               1
 72
               1
  1
{\fＭＳ ゴシック|b0|i0|c128|p0;\lNOTE}
 73
               1
 44
0.7828267384257843
  0
LINE
  5
390
100
AcDbEntity
  8
HIBINO-BASE
370
               0
390
0
  6
Continuous
 62
               2
100
AcDbLine
 10
17238.918617005351
 20
-410.79669169489443
 30
0.0
 11
17238.918617005351
 21
39.203308305105566
 31
0.0
  0
MTEXT
  5
391
100
AcDbEntity
  8
HIBINO-BASE
390
0
 62
               2
100
AcDbMText
 10
17256.918617005351
 20
17.776420805105772
 30
0.0
 40
32.576822916666657
 41
0.0
 71
               1
 72
               1
  1
{\fＭＳ ゴシック|b0|i0|c128|p0;\lTITLE}
 73
               1
 44
0.7828267384257843
  0
LINE
  5
392
100
AcDbEntity
  8
HIBINO-BASE
370
               0
390
0
  6
Continuous
 62
               2
100
AcDbLine
 10
16538.918617005351
 20
-210.79669169489443
 30
0.0
 11
18338.918617005351
 21
-210.79669169489443
 31
0.0
  0
MTEXT
  5
393
100
AcDbEntity
  8
HIBINO-BASE
390
0
 62
               2
100
AcDbMText
 10
17506.918617005351
 20
-231.09717919489322
 30
0.0
 40
32.576822916666657
 41
0.0
 71
               1
 72
               1
  1
{\fＭＳ ゴシック|b0|i0|c128|p0;\lDRAWN}
 73
               1
 44
0.7828267384257843
  0
MTEXT
  5
394
100
AcDbEntity
  8
HIBINO-BASE
390
0
 62
               2
100
AcDbMText
 10
17006.918617005351
 20
-231.09717919489322
 30
0.0
 40
32.576822916666657
 41
0.0
 71
               1
 72
               1
  1
{\fＭＳ ゴシック|b0|i0|c128|p0;\lDATE}
 73
               1
 44
0.7828267384257843
  0
MTEXT
  5
395
100
AcDbEntity
  8
HIBINO-BASE
390
0
 62
               2
100
AcDbMText
 10
16806.918617005351
 20
-231.09717919489322
 30
0.0
 40
32.576822916666657
 41
0.0
 71
               1
 72
               1
  1
{\fＭＳ ゴシック|b0|i0|c128|p0;\lSCALE}
 73
               1
 44
0.7828267384257843
  0
MTEXT
  5
396
100
AcDbEntity
  8
HIBINO-BASE
390
0
 62
               2
100
AcDbMText
 10
17256.918617005351
 20
-231.09717919489322
 30
0.0
 40
32.576822916666657
 41
0.0
 71
               1
 72
               1
  1
{\fＭＳ ゴシック|b0|i0|c128|p0;\lDESIGN}
 73
               1
 44
0.7828267384257843
  0
MTEXT
  5
397
100
AcDbEntity
  8
HIBINO-BASE
390
0
 62
               2
100
AcDbMText
 10
18006.918617005351
 20
-231.09717919489322
 30
0.0
 40
32.576822916666657
 41
0.0
 71
               1
 72
               1
  1
{\fＭＳ ゴシック|b0|i0|c128|p0;\lDRAWING NO.}
 73
               1
 44
0.7828267384257843
  0
MTEXT
  5
398
100
AcDbEntity
  8
HIBINO-BASE
390
0
 62
               2
100
AcDbMText
 10
17756.918617005351
 20
-231.09717919489322
 30
0.0
 40
32.576822916666657
 41
0.0
 71
               1
 72
               1
  1
{\fＭＳ ゴシック|b0|i0|c128|p0;\lCHECK}
 73
               1
 44
0.7828267384257843
  0
LINE
  5
399
100
AcDbEntity
  8
HIBINO-BASE
370
               0
390
0
  6
Continuous
 62
               2
100
AcDbLine
 10
16826.418617005351
 20
-385.79669169489443
 30
0.0
 11
16901.418617005351
 21
-310.79669169489443
 31
0.0
  0
MTEXT
  5
39A
100
AcDbEntity
  8
HIBINO-BASE
390
0
 62
               2
100
AcDbMText
 10
16833.918617005351
 20
-304.22857919489434
 30
0.0
 40
32.576822916666657
 41
0.0
 71
               1
 72
               1
  1
{\fＭＳ ゴシック|b0|i0|c128|p0;\l1}
 73
               1
 44
0.7828267384257843
  0
LINE
  5
39B
100
AcDbEntity
  8
HIBINO-BASE
370
               0
390
0
  6
Continuous
 62
               2
100
AcDbLine
 10
16788.918617005351
 20
-410.79669169489443
 30
0.0
 11
16788.918617005351
 21
-210.79669169489443
 31
0.0
  0
LINE
  5
39C
100
AcDbEntity
  8
HIBINO-BASE
370
               0
390
0
  6
Continuous
 62
               2
100
AcDbLine
 10
16988.918617005351
 20
-410.79669169489443
 30
0.0
 11
16988.918617005351
 21
-210.79669169489443
 31
0.0
  0
LINE
  5
39D
100
AcDbEntity
  8
HIBINO-BASE
370
               0
390
0
  6
Continuous
 62
               2
100
AcDbLine
 10
17488.918617005351
 20
-210.79669169489443
 30
0.0
 11
17488.918617005351
 21
-410.79669169489443
 31
0.0
  0
LINE
  5
39E
100
AcDbEntity
  8
HIBINO-BASE
370
               0
390
0
  6
Continuous
 62
               2
100
AcDbLine
 10
17988.918617005351
 20
-210.79669169489443
 30
0.0
 11
17988.918617005351
 21
-410.79669169489443
 31
0.0
  0
LINE
  5
39F
100
AcDbEntity
  8
HIBINO-BASE
370
               0
390
0
  6
Continuous
 62
               2
100
AcDbLine
 10
17738.918617005351
 20
-410.79669169489443
 30
0.0
 11
17738.918617005351
 21
-210.79669169489443
 31
0.0
  0
MTEXT
  5
3A0
100
AcDbEntity
  8
HIBINO-BASE
390
0
 62
               2
100
AcDbMText
 10
17026.04941700535
 20
-324.77677919489452
 30
0.0
 40
32.576822916666657
 41
0.0
 71
               1
 72
               1
  1
{\fＭＳ ゴシック|b0|i0|c128|p0;\l2019.1}
 73
               1
 44
0.7828267384257843
  0
MTEXT
  5
3A1
100
AcDbEntity
  8
HIBINO-BASE
390
0
 62
               2
100
AcDbMText
 10
16888.918617005351
 20
-341.72857919489434
 30
0.0
 40
32.576822916666657
 41
0.0
 71
               1
 72
               1
  1
{\fＭＳ ゴシック|b0|i0|c128|p0;\l20}
 73
               1
 44
0.7828267384257843
  0
MTEXT
  5
3A2
100
AcDbEntity
  8
HIBINO-BASE
390
0
 62
               2
100
AcDbMText
 10
16616.585283672019
 20
-313.7827333615619
 30
0.0
 40
65.153645833333329
 41
0.0
 71
               1
 72
               1
  1
{\fＭＳ ゴシック|b0|i0|c128|p0;\lA4}
 73
               1
 44
0.7828267384257843
  0
MTEXT
  5
3A3
100
AcDbEntity
  8
HIBINO-BASE
390
0
 62
               2
100
AcDbMText
 10
16558.085283672019
 20
-234.43881252822757
 30
0.0
 40
32.576822916666657
 41
0.0
 71
               1
 72
               1
  1
{\fＭＳ ゴシック|b0|i0|c128|p0;\lPAPER SIZE}
 73
               1
 44
0.7828267384257843
  0
MTEXT
  5
3A4
100
AcDbEntity
  8
HIBINO-BASE
390
0
 62
               2
100
AcDbMText
 10
14794.111322143155
 20
-477.01637485064202
 30
0.0
 40
70.583116319444443
 41
0.0
 71
               1
 72
               1
  1
{\fＭＳ ゴシック|b0|i0|c128|p0;\lHibino-Intersound Corporation}
 73
               1
 44
0.7828267384257843
  0
MTEXT
  5
3A5
100
AcDbEntity
  8
HIBINO-BASE
390
0
 62
               2
100
AcDbMText
 10
16942.530810609627
 20
-469.99460978485331
 30
0.0
 40
70.583116319444443
 41
0.0
 71
               1
 72
               1
  1
{\fＭＳ ゴシック|b0|i0|c128|p0;\lヒビノインタ ーサウンド株式会社}
 73
               1
 44
0.7828267384257843
  0
LINE
  5
3A6
100
AcDbEntity
  8
SPEC
370
               0
390
0
  6
Continuous
 62
               2
100
AcDbLine
 10
14888.918617005351
 20
4549.2033083051056
 30
0.0
 11
18138.918617005351
 21
4549.2033083051056
 31
0.0
  0
LINE
  5
3A7
100
AcDbEntity
  8
SPEC
370
               0
390
0
  6
Continuous
 62
               2
100
AcDbLine
 10
14888.918617005351
 20
4474.2033083051056
 30
0.0
 11
18138.918617005351
 21
4474.2033083051056
 31
0.0
  0
LINE
  5
3A8
100
AcDbEntity
  8
SPEC
370
               0
390
0
  6
Continuous
 62
               2
100
AcDbLine
 10
14888.918617005351
 20
4324.2033083051056
 30
0.0
 11
18138.918617005351
 21
4324.2033083051056
 31
0.0
  0
LINE
  5
3A9
100
AcDbEntity
  8
SPEC
370
               0
390
0
  6
Continuous
 62
               2
100
AcDbLine
 10
14888.918617005351
 20
4399.2033083051056
 30
0.0
 11
18138.918617005351
 21
4399.2033083051056
 31
0.0
  0
LINE
  5
3AA
100
AcDbEntity
  8
SPEC
370
               0
390
0
  6
Continuous
 62
               2
100
AcDbLine
 10
14888.918617005351
 20
4549.2033083051056
 30
0.0
 11
14888.918617005351
 21
3649.2033083051056
 31
0.0
  0
MTEXT
  5
3AB
100
AcDbEntity
  8
SPEC
390
0
 62
               2
100
AcDbMText
 10
14913.918617005351
 20
4660.1891770551047
 30
0.0
 40
48.865234375000007
 41
0.0
 71
               1
 72
               1
  1
{\fＭＳ ゴシック|b0|i0|c128|p0;\l仕様}
 73
               1
 44
0.7828267384257845
  0
LINE
  5
3AC
100
AcDbEntity
  8
SPEC
370
               0
390
0
  6
Continuous
 62
               2
100
AcDbLine
 10
15538.918617005351
 20
4549.2033083051056
 30
0.0
 11
15538.918617005351
 21
3649.2033083051056
 31
0.0
  0
LINE
  5
3AD
100
AcDbEntity
  8
SPEC
370
               0
390
0
  6
Continuous
 62
               2
100
AcDbLine
 10
18138.918617005351
 20
4549.2033083051056
 30
0.0
 11
18138.918617005351
 21
3649.2033083051056
 31
0.0
  0
LINE
  5
3AE
100
AcDbEntity
  8
SPEC
370
               0
390
0
  6
Continuous
 62
               2
100
AcDbLine
 10
14888.918617005351
 20
4249.2033083051056
 30
0.0
 11
18138.918617005351
 21
4249.2033083051056
 31
0.0
  0
LINE
  5
3AF
100
AcDbEntity
  8
SPEC
370
               0
390
0
  6
Continuous
 62
               2
100
AcDbLine
 10
14888.918617005351
 20
4174.2033083051056
 30
0.0
 11
18138.918617005351
 21
4174.2033083051056
 31
0.0
  0
LINE
  5
3B0
100
AcDbEntity
  8
SPEC
370
               0
390
0
  6
Continuous
 62
               2
100
AcDbLine
 10
14888.918617005351
 20
4099.2033083051056
 30
0.0
 11
18138.918617005351
 21
4099.2033083051056
 31
0.0
  0
LINE
  5
3B1
100
AcDbEntity
  8
SPEC
370
               0
390
0
  6
Continuous
 62
               2
100
AcDbLine
 10
14888.918617005351
 20
4024.2033083051056
 30
0.0
 11
18138.918617005351
 21
4024.2033083051056
 31
0.0
  0
LINE
  5
3B2
100
AcDbEntity
  8
SPEC
370
               0
390
0
  6
Continuous
 62
               2
100
AcDbLine
 10
14888.918617005351
 20
3949.2033083051056
 30
0.0
 11
18138.918617005351
 21
3949.2033083051056
 31
0.0
  0
LINE
  5
3B3
100
AcDbEntity
  8
SPEC
370
               0
390
0
  6
Continuous
 62
               2
100
AcDbLine
 10
14888.918617005351
 20
3874.2033083051056
 30
0.0
 11
18138.918617005351
 21
3874.2033083051056
 31
0.0
  0
LINE
  5
3B4
100
AcDbEntity
  8
SPEC
370
               0
390
0
  6
Continuous
 62
               2
100
AcDbLine
 10
14888.918617005351
 20
3799.2033083051056
 30
0.0
 11
18138.918617005351
 21
3799.2033083051056
 31
0.0
  0
LINE
  5
3B5
100
AcDbEntity
  8
SPEC
370
               0
390
0
  6
Continuous
 62
               2
100
AcDbLine
 10
14888.918617005351
 20
3724.2033083051056
 30
0.0
 11
18138.918617005351
 21
3724.2033083051056
 31
0.0
  0
MTEXT
  5
3B6
100
AcDbEntity
  8
SPEC
390
0
 62
               2
100
AcDbMText
 10
14904.282148131406
 20
3924.1942577075215
 30
0.0
 40
38.006293402777793
 41
0.0
 71
               1
 72
               1
  1
{\fＭＳ ゴシック|b0|i0|c128|p0;\lエンクロージャー}
 73
               1
 44
0.7828267384257843
  0
MTEXT
  5
3B7
100
AcDbEntity
  8
SPEC
390
0
 62
               2
100
AcDbMText
 10
15557.281109072828
 20
3774.5545943717816
 30
0.0
 40
38.006293402777793
 41
0.0
 71
               1
 72
               1
  1
{\fＭＳ ゴシック|b0|i0|c128|p0;\l580(W)×342(H)×350(D)mm}
 73
               1
 44
0.7828267384257843
  0
MTEXT
  5
3B8
100
AcDbEntity
  8
SPEC
390
0
 62
               2
100
AcDbMText
 10
15557.337314787848
 20
3850.7859245663685
 30
0.0
 40
38.006293402777793
 41
0.0
 71
               1
 72
               1
  1
{\fＭＳ ゴシック|b0|i0|c128|p0;\lポリウレア樹脂塗装（防水性）標準：黒}
 73
               1
 44
0.7828267384257843
  0
MTEXT
  5
3B9
100
AcDbEntity
  8
SPEC
390
0
 62
               2
100
AcDbMText
 10
14906.803721896324
 20
3851.7499613592463
 30
0.0
 40
38.006293402777793
 41
0.0
 71
               1
 72
               1
  1
{\fＭＳ ゴシック|b0|i0|c128|p0;\l仕上げ}
 73
               1
 44
0.7828267384257843
  0
MTEXT
  5
3BA
100
AcDbEntity
  8
SPEC
390
0
 62
               2
100
AcDbMText
 10
14906.943718489785
 20
4001.5022375045405
 30
0.0
 40
38.006293402777793
 41
0.0
 71
               1
 72
               1
  1
{\fＭＳ ゴシック|b0|i0|c128|p0;\l入力コネクタ ー}
 73
               1
 44
0.7828267384257843
  0
MTEXT
  5
3BB
100
AcDbEntity
  8
SPEC
390
0
 62
               2
100
AcDbMText
 10
14905.538200015319
 20
4075.0232436569586
 30
0.0
 40
38.006293402777793
 41
0.0
 71
               1
 72
               1
  1
{\fＭＳ ゴシック|b0|i0|c128|p0;\l公称インピーダンス}
 73
               1
 44
0.7828267384257843
  0
MTEXT
  5
3BC
100
AcDbEntity
  8
SPEC
390
0
 62
               2
100
AcDbMText
 10
15557.292908058556
 20
4075.652118621465
 30
0.0
 40
38.006293402777786
 41
0.0
 71
               1
 72
               1
  1
{\fＭＳ ゴシック|b0|i0|c128|p0;\l4Ω（±1）}
 73
               1
 44
0.7828267384257845
  0
MTEXT
  5
3BD
100
AcDbEntity
  8
SPEC
390
0
 62
               2
100
AcDbMText
 10
14905.516160145482
 20
4524.8935158509748
 30
0.0
 40
38.006293402777793
 41
0.0
 71
               1
 72
               1
  1
{\fＭＳ ゴシック|b0|i0|c128|p0;\l形式}
 73
               1
 44
0.7828267384257843
  0
MTEXT
  5
3BE
100
AcDbEntity
  8
SPEC
390
0
 62
               2
100
AcDbMText
 10
14906.650783766834
 20
4450.9353573299368
 30
0.0
 40
38.006293402777793
 41
0.0
 71
               1
 72
               1
  1
{\fＭＳ ゴシック|b0|i0|c128|p0;\l周波数特性}
 73
               1
 44
0.7828267384257843
  0
MTEXT
  5
3BF
100
AcDbEntity
  8
SPEC
390
0
 62
               2
100
AcDbMText
 10
14905.922960672942
 20
4376.4387216925597
 30
0.0
 40
38.006293402777793
 41
0.0
 71
               1
 72
               1
  1
{\fＭＳ ゴシック|b0|i0|c128|p0;\l許容入力(AES/ピーク）}
 73
               1
 44
0.7828267384257843
  0
MTEXT
  5
3C0
100
AcDbEntity
  8
SPEC
390
0
 62
               2
100
AcDbMText
 10
14906.209402337274
 20
4301.0168763542933
 30
0.0
 40
38.006293402777793
 41
0.0
 71
               1
 72
               1
  1
{\fＭＳ ゴシック|b0|i0|c128|p0;\l感度(1W/1m)}
 73
               1
 44
0.7828267384257843
  0
MTEXT
  5
3C1
100
AcDbEntity
  8
SPEC
390
0
 62
               2
100
AcDbMText
 10
14907.421766729021
 20
4225.3946157954479
 30
0.0
 40
38.006293402777793
 41
0.0
 71
               1
 72
               1
  1
{\fＭＳ ゴシック|b0|i0|c128|p0;\l最大音圧レベル}
 73
               1
 44
0.7828267384257843
  0
MTEXT
  5
3C2
100
AcDbEntity
  8
SPEC
390
0
 62
               2
100
AcDbMText
 10
14891.432324779427
 20
4150.9429176469102
 30
0.0
 40
38.006293402777793
 41
0.0
 71
               1
 72
               1
  1
{\fＭＳ ゴシック|b0|i0|c128|p0;\lドライバー構成}
 73
               1
 44
0.7828267384257843
  0
MTEXT
  5
3C3
100
AcDbEntity
  8
SPEC
390
0
 62
               2
100
AcDbMText
 10
14905.300207947073
 20
3777.5478394822435
 30
0.0
 40
38.006293402777793
 41
0.0
 71
               1
 72
               1
  1
{\fＭＳ ゴシック|b0|i0|c128|p0;\l寸法}
 73
               1
 44
0.7828267384257843
  0
MTEXT
  5
3C4
100
AcDbEntity
  8
SPEC
390
0
 62
               2
100
AcDbMText
 10
15556.373227366119
 20
3702.9725479941499
 30
0.0
 40
38.006293402777793
 41
0.0
 71
               1
 72
               1
  1
{\fＭＳ ゴシック|b0|i0|c128|p0;\l約17kg}
 73
               1
 44
0.7828267384257843
  0
MTEXT
  5
3C5
100
AcDbEntity
  8
SPEC
390
0
 62
               2
100
AcDbMText
 10
14905.405535762884
 20
3702.8252148851798
 30
0.0
 40
38.006293402777793
 41
0.0
 71
               1
 72
               1
  1
{\fＭＳ ゴシック|b0|i0|c128|p0;\l重量}
 73
               1
 44
0.7828267384257843
  0
MTEXT
  5
3C6
100
AcDbEntity
  8
SPEC
390
0
 62
               2
100
AcDbMText
 10
15559.31522843518
 20
4448.9194505522555
 30
0.0
 40
38.006293402777793
 41
0.0
 71
               1
 72
               1
  1
{\fＭＳ ゴシック|b0|i0|c128|p0;\l38Hz～150KHz(-6dB)}
 73
               1
 44
0.7828267384257843
  0
MTEXT
  5
3C7
100
AcDbEntity
  8
SPEC
390
0
 62
               2
100
AcDbMText
 10
15554.256067845785
 20
4375.3298363202139
 30
0.0
 40
38.006293402777786
 41
0.0
 71
               1
 72
               1
  1
{\fＭＳ ゴシック|b0|i0|c128|p0;\l800W/3200W}
 73
               1
 44
0.7828267384257845
  0
MTEXT
  5
3C8
100
AcDbEntity
  8
SPEC
390
0
 62
               2
100
AcDbMText
 10
15556.902322057505
 20
4299.7220882942447
 30
0.0
 40
38.006293402777786
 41
0.0
 71
               1
 72
               1
  1
{\fＭＳ ゴシック|b0|i0|c128|p0;\l95dB (ハーフスペース）}
 73
               1
 44
0.7828267384257845
  0
MTEXT
  5
3C9
100
AcDbEntity
  8
SPEC
390
0
 62
               2
100
AcDbMText
 10
15557.292908058556
 20
4152.0389875183946
 30
0.0
 40
38.006293402777786
 41
2581.625708946794
 71
               1
 72
               1
  1
{\fＭＳ ゴシック|b0|i0|c128|p0;\l12インチネオジウム低歪率ウーファーユニット　3インチ（77mm）ボイスコイル　800W（AES）}
 73
               1
 44
0.7828267384257845
  0
MTEXT
  5
3CA
100
AcDbEntity
  8
SPEC
390
0
 62
               2
100
AcDbMText
 10
15556.038367965944
 20
3928.0643207383887
 30
0.0
 40
38.006293402777793
 41
0.0
 71
               1
 72
               1
  1
{\fＭＳ ゴシック|b0|i0|c128|p0;\l合板}
 73
               1
 44
0.7828267384257843
  0
MTEXT
  5
3CB
100
AcDbEntity
  8
SPEC
390
0
 62
               2
100
AcDbMText
 10
15562.663551207648
 20
4525.1176338719497
 30
0.0
 40
38.006293402777786
 41
0.0
 71
               1
 72
               1
  1
{\fＭＳ ゴシック|b0|i0|c128|p0;\l12インチ設備用サブウーファー　スピーカー}
 73
               1
 44
0.7828267384257845
  0
LINE
  5
3CC
100
AcDbEntity
  8
SPEC
370
               0
390
0
  6
Continuous
 62
               2
100
AcDbLine
 10
14888.918617005351
 20
3649.2033083051056
 30
0.0
 11
18138.918617005351
 21
3649.2033083051056
 31
0.0
  0
MTEXT
  5
3CD
100
AcDbEntity
  8
DIMNSIONS
390
0
 62
               2
100
AcDbMText
 10
15316.25
 20
857.7552343750001
 30
0.0
 40
48.865234375000007
 41
0.0
 71
               1
 72
               1
  1
{\fＭＳ ゴシック|b0|i0|c128|p0;\l(単位：mm)}
 73
               1
 44
0.7828267384257845
  0
MTEXT
  5
3CE
100
AcDbEntity
  8
DATA
390
0
 62
               2
100
AcDbMText
 10
14938.918617005351
 20
-297.28971252822703
 30
0.0
 40
32.576822916666657
 41
0.0
 71
               1
 72
               1
  1
{\fＭＳ ゴシック|b0|i0|c128|p0;\l仕様および外観は予告なく変更されることがありますので、ご了承ください。}
 73
               1
 44
0.7828267384257843
  0
MTEXT
  5
3CF
100
AcDbEntity
  8
DATA
390
0
 62
               2
100
AcDbMText
 10
17645.693216429619
 20
-109.02013732364003
 30
0.0
 40
48.865234375000007
 41
0.0
 71
               1
 72
               1
  1
{\fＭＳ ゴシック|b0|i0|c128|p0;\lU12i}
 73
               1
 44
0.7828267384257845
  0
MTEXT
  5
3D0
100
AcDbEntity
  8
DATA
390
0
 62
               2
100
AcDbMText
 10
17567.663761992233
 20
9.2928840901699914
 30
0.0
 40
48.865234375000007
 41
446.254855013118
 71
               1
 72
               1
  1
{\fＭＳ ゴシック|b0|i0|c128|p0;\lCODA AUDIO}
 73
               1
 44
0.7828267384257845
  0
MTEXT
  5
3D1
100
AcDbEntity
  8
HIBINO-BASE
390
0
 62
               2
100
AcDbMText
 10
17513.918617005351
 20
-296.76584544734669
 30
0.0
 40
32.576822916666664
 41
200.0
 71
               1
 72
               1
  1
{\fＭＳ ゴシック|b0|i0|c128|p0;\lKojima\P \fＭＳ ゴシック|b0|i0|c128|p0;\lShohei}
 73
               1
 44
0.7828267384257843
  0
MTEXT
  5
3D2
100
AcDbEntity
  8
SPEC
390
0
 62
               2
100
AcDbMText
 10
15555.759320653126
 20
4229.0442034734479
 30
0.0
 40
38.006293402777786
 41
0.0
 71
               1
 72
               1
  1
{\fＭＳ ゴシック|b0|i0|c128|p0;\l130dB(ピンクノイズ、クレストファクタ ー6dB）}
 73
               1
 44
0.7828267384257845
  0
MTEXT
  5
3D3
100
AcDbEntity
  8
Layer1
390
0
 62
               1
100
AcDbMText
 10
15564.028846091765
 20
3998.9643607945682
 30
0.0
 40
38.006293402777786
 41
0.0
 71
               1
 72
               1
  1
{\fＭＳ ゴシック|b0|i0|c128|p0;\l1×Neutrik NL4MP}
 73
               1
 44
0.7828267384257845
  0
POLYLINE
  5
3D4
100
AcDbEntity
  8
0
370
               0
390
0
 62
               1
100
AcDb3dPolyline
 66
               1
 10
0.0
 20
0.0
 30
0.0
 70
               8
  0
VERTEX
  5
3D5
100
AcDbEntity
  8
0
370
               0
390
0
 62
               1
100
AcDbVertex
100
AcDb3dPolylineVertex
 10
16451.468803658114
 20
2216.9825011252651
 30
-0.0000000000009095
 70
              32
  0
VERTEX
  5
3D6
100
AcDbEntity
  8
0
370
               0
390
0
 62
               1
100
AcDbVertex
100
AcDb3dPolylineVertex
 10
16442.468803658114
 20
2216.9825011252651
 30
-0.0000000000009095
 70
              32
  0
SEQEND
  5
3D7
100
AcDbEntity
  8
0
370
               0
390
0
 62
               1
  0
POLYLINE
  5
3D8
100
AcDbEntity
  8
0
370
               0
390
0
 62
               1
100
AcDb3dPolyline
 66
               1
 10
0.0
 20
0.0
 30
0.0
 70
               8
  0
VERTEX
  5
3D9
100
AcDbEntity
  8
0
370
               0
390
0
 62
               1
100
AcDbVertex
100
AcDb3dPolylineVertex
 10
16442.468803658114
 20
1874.9825011252597
 30
-0.0000000000009095
 70
              32
  0
VERTEX
  5
3DA
100
AcDbEntity
  8
0
370
               0
390
0
 62
               1
100
AcDbVertex
100
AcDb3dPolylineVertex
 10
16451.468803658114
 20
1874.9825011252597
 30
-0.0000000000009095
 70
              32
  0
SEQEND
  5
3DB
100
AcDbEntity
  8
0
370
               0
390
0
 62
               1
  0
POLYLINE
  5
3DC
100
AcDbEntity
  8
0
370
               0
390
0
 62
               1
100
AcDb3dPolyline
 66
               1
 10
0.0
 20
0.0
 30
0.0
 70
               8
  0
VERTEX
  5
3DD
100
AcDbEntity
  8
0
370
               0
390
0
 62
               1
100
AcDbVertex
100
AcDb3dPolylineVertex
 10
16442.468803658114
 20
2216.9825011252651
 30
-0.0000000000009095
 70
              32
  0
VERTEX
  5
3DE
100
AcDbEntity
  8
0
370
               0
390
0
 62
               1
100
AcDbVertex
100
AcDb3dPolylineVertex
 10
16439.468803658114
 20
2216.9825011252651
 30
-0.0000000000009095
 70
              32
  0
SEQEND
  5
3DF
100
AcDbEntity
  8
0
370
               0
390
0
 62
               1
  0
POLYLINE
  5
3E0
100
AcDbEntity
  8
0
370
               0
390
0
 62
               1
100
AcDb3dPolyline
 66
               1
 10
0.0
 20
0.0
 30
0.0
 70
               8
  0
VERTEX
  5
3E1
100
AcDbEntity
  8
0
370
               0
390
0
 62
               1
100
AcDbVertex
100
AcDb3dPolylineVertex
 10
16439.468803658114
 20
1874.9825011252597
 30
-0.0000000000009095
 70
              32
  0
VERTEX
  5
3E2
100
AcDbEntity
  8
0
370
               0
390
0
 62
               1
100
AcDbVertex
100
AcDb3dPolylineVertex
 10
16442.468803658114
 20
1874.9825011252597
 30
-0.0000000000009095
 70
              32
  0
SEQEND
  5
3E3
100
AcDbEntity
  8
0
370
               0
390
0
 62
               1
  0
POLYLINE
  5
3E4
100
AcDbEntity
  8
0
370
               0
390
0
 62
               1
100
AcDb3dPolyline
 66
               1
 10
0.0
 20
0.0
 30
0.0
 70
               8
  0
VERTEX
  5
3E5
100
AcDbEntity
  8
0
370
               0
390
0
 62
               1
100
AcDbVertex
100
AcDb3dPolylineVertex
 10
16442.468803658114
 20
1878.9825011252597
 30
-0.0000000000009095
 70
              32
  0
VERTEX
  5
3E6
100
AcDbEntity
  8
0
370
               0
390
0
 62
               1
100
AcDbVertex
100
AcDb3dPolylineVertex
 10
16441.468803658114
 20
1878.9825011252597
 30
-0.0000000000009095
 70
              32
  0
SEQEND
  5
3E7
100
AcDbEntity
  8
0
370
               0
390
0
 62
               1
  0
POLYLINE
  5
3E8
100
AcDbEntity
  8
0
370
               0
390
0
 62
               1
100
AcDb3dPolyline
 66
               1
 10
0.0
 20
0.0
 30
0.0
 70
               8
  0
VERTEX
  5
3E9
100
AcDbEntity
  8
0
370
               0
390
0
 62
               1
100
AcDbVertex
100
AcDb3dPolylineVertex
 10
16442.468803658114
 20
2212.9825011252642
 30
-0.0000000000009095
 70
              32
  0
VERTEX
  5
3EA
100
AcDbEntity
  8
0
370
               0
390
0
 62
               1
100
AcDbVertex
100
AcDb3dPolylineVertex
 10
16441.468803658114
 20
2212.9825011252642
 30
-0.0000000000009095
 70
              32
  0
SEQEND
  5
3EB
100
AcDbEntity
  8
0
370
               0
390
0
 62
               1
  0
POLYLINE
  5
3EC
100
AcDbEntity
  8
0
370
               0
390
0
 62
               1
100
AcDb3dPolyline
 66
               1
 10
0.0
 20
0.0
 30
0.0
 70
               8
  0
VERTEX
  5
3ED
100
AcDbEntity
  8
0
370
               0
390
0
 62
               1
100
AcDbVertex
100
AcDb3dPolylineVertex
 10
16439.468803658114
 20
2216.9825011252651
 30
-0.0000000000009095
 70
              32
  0
VERTEX
  5
3EE
100
AcDbEntity
  8
0
370
               0
390
0
 62
               1
100
AcDbVertex
100
AcDb3dPolylineVertex
 10
16439.468803658114
 20
2215.9825011252638
 30
-0.0000000000009095
 70
              32
  0
SEQEND
  5
3EF
100
AcDbEntity
  8
0
370
               0
390
0
 62
               1
  0
POLYLINE
  5
3F0
100
AcDbEntity
  8
0
370
               0
390
0
 62
               1
100
AcDb3dPolyline
 66
               1
 10
0.0
 20
0.0
 30
0.0
 70
               8
  0
VERTEX
  5
3F1
100
AcDbEntity
  8
0
370
               0
390
0
 62
               1
100
AcDbVertex
100
AcDb3dPolylineVertex
 10
16439.468803658114
 20
1875.9825011252633
 30
-0.0000000000009095
 70
              32
  0
VERTEX
  5
3F2
100
AcDbEntity
  8
0
370
               0
390
0
 62
               1
100
AcDbVertex
100
AcDb3dPolylineVertex
 10
16439.468803658114
 20
1874.9825011252597
 30
-0.0000000000009095
 70
              32
  0
SEQEND
  5
3F3
100
AcDbEntity
  8
0
370
               0
390
0
 62
               1
  0
POLYLINE
  5
3F4
100
AcDbEntity
  8
0
370
               0
390
0
 62
               1
100
AcDb3dPolyline
 66
               1
 10
0.0
 20
0.0
 30
0.0
 70
               8
  0
VERTEX
  5
3F5
100
AcDbEntity
  8
0
370
               0
390
0
 62
               1
100
AcDbVertex
100
AcDb3dPolylineVertex
 10
16441.468803658114
 20
1875.9825011252633
 30
-0.0000000000009095
 70
              32
  0
VERTEX
  5
3F6
100
AcDbEntity
  8
0
370
               0
390
0
 62
               1
100
AcDbVertex
100
AcDb3dPolylineVertex
 10
15881.468803658114
 20
1875.9825011252633
 30
-0.0000000000009095
 70
              32
  0
SEQEND
  5
3F7
100
AcDbEntity
  8
0
370
               0
390
0
 62
               1
  0
POLYLINE
  5
3F8
100
AcDbEntity
  8
0
370
               0
390
0
 62
               1
100
AcDb3dPolyline
 66
               1
 10
0.0
 20
0.0
 30
0.0
 70
               8
  0
VERTEX
  5
3F9
100
AcDbEntity
  8
0
370
               0
390
0
 62
               1
100
AcDbVertex
100
AcDb3dPolylineVertex
 10
16441.468803658114
 20
2215.9825011252633
 30
-0.0000000000009095
 70
              32
  0
VERTEX
  5
3FA
100
AcDbEntity
  8
0
370
               0
390
0
 62
               1
100
AcDbVertex
100
AcDb3dPolylineVertex
 10
15881.468803658114
 20
2215.9825011252633
 30
-0.0000000000009095
 70
              32
  0
SEQEND
  5
3FB
100
AcDbEntity
  8
0
370
               0
390
0
 62
               1
  0
POLYLINE
  5
3FC
100
AcDbEntity
  8
0
370
               0
390
0
 62
               1
100
AcDb3dPolyline
 66
               1
 10
0.0
 20
0.0
 30
0.0
 70
               8
  0
VERTEX
  5
3FD
100
AcDbEntity
  8
0
370
               0
390
0
 62
               1
100
AcDbVertex
100
AcDb3dPolylineVertex
 10
16416.968803658114
 20
2025.4825011252633
 30
-0.0000000000009095
 70
              32
  0
VERTEX
  5
3FE
100
AcDbEntity
  8
0
370
               0
390
0
 62
               1
100
AcDbVertex
100
AcDb3dPolylineVertex
 10
16375.968803658114
 20
2025.4825011252633
 30
-0.0000000000009095
 70
              32
  0
SEQEND
  5
3FF
100
AcDbEntity
  8
0
370
               0
390
0
 62
               1
  0
POLYLINE
  5
400
100
AcDbEntity
  8
0
370
               0
390
0
 62
               1
100
AcDb3dPolyline
 66
               1
 10
0.0
 20
0.0
 30
0.0
 70
               8
  0
VERTEX
  5
401
100
AcDbEntity
  8
0
370
               0
390
0
 62
               1
100
AcDbVertex
100
AcDb3dPolylineVertex
 10
16375.968803658114
 20
2066.4825011252633
 30
-0.0000000000009095
 70
              32
  0
VERTEX
  5
402
100
AcDbEntity
  8
0
370
               0
390
0
 62
               1
100
AcDbVertex
100
AcDb3dPolylineVertex
 10
16416.968803658114
 20
2066.4825011252633
 30
-0.0000000000009095
 70
              32
  0
SEQEND
  5
403
100
AcDbEntity
  8
0
370
               0
390
0
 62
               1
  0
POLYLINE
  5
404
100
AcDbEntity
  8
0
370
               0
390
0
 62
               1
100
AcDb3dPolyline
 66
               1
 10
0.0
 20
0.0
 30
0.0
 70
               8
  0
VERTEX
  5
405
100
AcDbEntity
  8
0
370
               0
390
0
 62
               1
100
AcDbVertex
100
AcDb3dPolylineVertex
 10
16416.968803658114
 20
2025.4415829615905
 30
-0.0000000000009095
 70
              32
  0
VERTEX
  5
406
100
AcDbEntity
  8
0
370
               0
390
0
 62
               1
100
AcDbVertex
100
AcDb3dPolylineVertex
 10
16375.968803658114
 20
2025.4415829615905
 30
-0.0000000000009095
 70
              32
  0
SEQEND
  5
407
100
AcDbEntity
  8
0
370
               0
390
0
 62
               1
  0
POLYLINE
  5
408
100
AcDbEntity
  8
0
370
               0
390
0
 62
               1
100
AcDb3dPolyline
 66
               1
 10
0.0
 20
0.0
 30
0.0
 70
               8
  0
VERTEX
  5
409
100
AcDbEntity
  8
0
370
               0
390
0
 62
               1
100
AcDbVertex
100
AcDb3dPolylineVertex
 10
16375.968803658114
 20
2066.5234192889361
 30
-0.0000000000009095
 70
              32
  0
VERTEX
  5
40A
100
AcDbEntity
  8
0
370
               0
390
0
 62
               1
100
AcDbVertex
100
AcDb3dPolylineVertex
 10
16416.968803658114
 20
2066.5234192889361
 30
-0.0000000000009095
 70
              32
  0
SEQEND
  5
40B
100
AcDbEntity
  8
0
370
               0
390
0
 62
               1
  0
POLYLINE
  5
40C
100
AcDbEntity
  8
0
370
               0
390
0
 62
               1
100
AcDb3dPolyline
 66
               1
 10
0.0
 20
0.0
 30
0.0
 70
               8
  0
VERTEX
  5
40D
100
AcDbEntity
  8
0
370
               0
390
0
 62
               1
100
AcDbVertex
100
AcDb3dPolylineVertex
 10
16439.468803658114
 20
2216.9825011252665
 30
-0.0000000000009095
 70
              32
  0
VERTEX
  5
40E
100
AcDbEntity
  8
0
370
               0
390
0
 62
               1
100
AcDbVertex
100
AcDb3dPolylineVertex
 10
15883.468803658116
 20
2216.9825011252665
 30
-0.0000000000009095
 70
              32
  0
SEQEND
  5
40F
100
AcDbEntity
  8
0
370
               0
390
0
 62
               1
  0
POLYLINE
  5
410
100
AcDbEntity
  8
0
370
               0
390
0
 62
               1
100
AcDb3dPolyline
 66
               1
 10
0.0
 20
0.0
 30
0.0
 70
               8
  0
VERTEX
  5
411
100
AcDbEntity
  8
0
370
               0
390
0
 62
               1
100
AcDbVertex
100
AcDb3dPolylineVertex
 10
15883.468803658116
 20
2216.9825011252665
 30
-0.0000000000009095
 70
              32
  0
VERTEX
  5
412
100
AcDbEntity
  8
0
370
               0
390
0
 62
               1
100
AcDbVertex
100
AcDb3dPolylineVertex
 10
15883.468803658116
 20
2215.9825011252638
 30
-0.0000000000009095
 70
              32
  0
SEQEND
  5
413
100
AcDbEntity
  8
0
370
               0
390
0
 62
               1
  0
POLYLINE
  5
414
100
AcDbEntity
  8
0
370
               0
390
0
 62
               1
100
AcDb3dPolyline
 66
               1
 10
0.0
 20
0.0
 30
0.0
 70
               8
  0
VERTEX
  5
415
100
AcDbEntity
  8
0
370
               0
390
0
 62
               1
100
AcDbVertex
100
AcDb3dPolylineVertex
 10
16439.468803658114
 20
2215.9825011252633
 30
-0.0000000000009095
 70
              32
  0
VERTEX
  5
416
100
AcDbEntity
  8
0
370
               0
390
0
 62
               1
100
AcDbVertex
100
AcDb3dPolylineVertex
 10
16439.468803658114
 20
2216.982501125266
 30
-0.0000000000009095
 70
              32
  0
SEQEND
  5
417
100
AcDbEntity
  8
0
370
               0
390
0
 62
               1
  0
POLYLINE
  5
418
100
AcDbEntity
  8
0
370
               0
390
0
 62
               1
100
AcDb3dPolyline
 66
               1
 10
0.0
 20
0.0
 30
0.0
 70
               8
  0
VERTEX
  5
419
100
AcDbEntity
  8
0
370
               0
390
0
 62
               1
100
AcDbVertex
100
AcDb3dPolylineVertex
 10
16439.468803658114
 20
1875.9825011252633
 30
-0.0000000000009095
 70
              32
  0
VERTEX
  5
41A
100
AcDbEntity
  8
0
370
               0
390
0
 62
               1
100
AcDbVertex
100
AcDb3dPolylineVertex
 10
16439.468803658114
 20
1874.9825011252588
 30
-0.0000000000009095
 70
              32
  0
SEQEND
  5
41B
100
AcDbEntity
  8
0
370
               0
390
0
 62
               1
  0
POLYLINE
  5
41C
100
AcDbEntity
  8
0
370
               0
390
0
 62
               1
100
AcDb3dPolyline
 66
               1
 10
0.0
 20
0.0
 30
0.0
 70
               8
  0
VERTEX
  5
41D
100
AcDbEntity
  8
0
370
               0
390
0
 62
               1
100
AcDbVertex
100
AcDb3dPolylineVertex
 10
16439.468803658114
 20
1874.9825011252588
 30
-0.0000000000009095
 70
              32
  0
VERTEX
  5
41E
100
AcDbEntity
  8
0
370
               0
390
0
 62
               1
100
AcDbVertex
100
AcDb3dPolylineVertex
 10
15883.468803658116
 20
1874.9825011252592
 30
-0.0000000000009095
 70
              32
  0
SEQEND
  5
41F
100
AcDbEntity
  8
0
370
               0
390
0
 62
               1
  0
POLYLINE
  5
420
100
AcDbEntity
  8
0
370
               0
390
0
 62
               1
100
AcDb3dPolyline
 66
               1
 10
0.0
 20
0.0
 30
0.0
 70
               8
  0
VERTEX
  5
421
100
AcDbEntity
  8
0
370
               0
390
0
 62
               1
100
AcDbVertex
100
AcDb3dPolylineVertex
 10
15883.468803658116
 20
1874.9825011252592
 30
-0.0000000000009095
 70
              32
  0
VERTEX
  5
422
100
AcDbEntity
  8
0
370
               0
390
0
 62
               1
100
AcDbVertex
100
AcDb3dPolylineVertex
 10
15883.468803658116
 20
1875.9825011252633
 30
-0.0000000000009095
 70
              32
  0
SEQEND
  5
423
100
AcDbEntity
  8
0
370
               0
390
0
 62
               1
  0
POLYLINE
  5
424
100
AcDbEntity
  8
0
370
               0
390
0
 62
               1
100
AcDb3dPolyline
 66
               1
 10
0.0
 20
0.0
 30
0.0
 70
               8
  0
VERTEX
  5
425
100
AcDbEntity
  8
0
370
               0
390
0
 62
               1
100
AcDbVertex
100
AcDb3dPolylineVertex
 10
15880.468803658114
 20
1874.9825011252615
 30
-0.0000000000009095
 70
              32
  0
VERTEX
  5
426
100
AcDbEntity
  8
0
370
               0
390
0
 62
               1
100
AcDbVertex
100
AcDb3dPolylineVertex
 10
15871.468803658114
 20
1874.9825011252615
 30
-0.0000000000009095
 70
              32
  0
SEQEND
  5
427
100
AcDbEntity
  8
0
370
               0
390
0
 62
               1
  0
POLYLINE
  5
428
100
AcDbEntity
  8
0
370
               0
390
0
 62
               1
100
AcDb3dPolyline
 66
               1
 10
0.0
 20
0.0
 30
0.0
 70
               8
  0
VERTEX
  5
429
100
AcDbEntity
  8
0
370
               0
390
0
 62
               1
100
AcDbVertex
100
AcDb3dPolylineVertex
 10
15871.468803658114
 20
2216.9825011252665
 30
-0.0000000000009095
 70
              32
  0
VERTEX
  5
42A
100
AcDbEntity
  8
0
370
               0
390
0
 62
               1
100
AcDbVertex
100
AcDb3dPolylineVertex
 10
15880.468803658114
 20
2216.9825011252665
 30
-0.0000000000009095
 70
              32
  0
SEQEND
  5
42B
100
AcDbEntity
  8
0
370
               0
390
0
 62
               1
  0
POLYLINE
  5
42C
100
AcDbEntity
  8
0
370
               0
390
0
 62
               1
100
AcDb3dPolyline
 66
               1
 10
0.0
 20
0.0
 30
0.0
 70
               8
  0
VERTEX
  5
42D
100
AcDbEntity
  8
0
370
               0
390
0
 62
               1
100
AcDbVertex
100
AcDb3dPolylineVertex
 10
15880.468803658116
 20
1878.9825011252615
 30
-0.0000000000009095
 70
              32
  0
VERTEX
  5
42E
100
AcDbEntity
  8
0
370
               0
390
0
 62
               1
100
AcDbVertex
100
AcDb3dPolylineVertex
 10
15881.468803658114
 20
1878.9825011252615
 30
-0.0000000000009095
 70
              32
  0
SEQEND
  5
42F
100
AcDbEntity
  8
0
370
               0
390
0
 62
               1
  0
POLYLINE
  5
430
100
AcDbEntity
  8
0
370
               0
390
0
 62
               1
100
AcDb3dPolyline
 66
               1
 10
0.0
 20
0.0
 30
0.0
 70
               8
  0
VERTEX
  5
431
100
AcDbEntity
  8
0
370
               0
390
0
 62
               1
100
AcDbVertex
100
AcDb3dPolylineVertex
 10
15880.468803658116
 20
1874.9825011252615
 30
-0.0000000000009095
 70
              32
  0
VERTEX
  5
432
100
AcDbEntity
  8
0
370
               0
390
0
 62
               1
100
AcDbVertex
100
AcDb3dPolylineVertex
 10
15883.468803658114
 20
1874.9825011252615
 30
-0.0000000000009095
 70
              32
  0
SEQEND
  5
433
100
AcDbEntity
  8
0
370
               0
390
0
 62
               1
  0
POLYLINE
  5
434
100
AcDbEntity
  8
0
370
               0
390
0
 62
               1
100
AcDb3dPolyline
 66
               1
 10
0.0
 20
0.0
 30
0.0
 70
               8
  0
VERTEX
  5
435
100
AcDbEntity
  8
0
370
               0
390
0
 62
               1
100
AcDbVertex
100
AcDb3dPolylineVertex
 10
15883.468803658114
 20
1874.9825011252615
 30
-0.0000000000009095
 70
              32
  0
VERTEX
  5
436
100
AcDbEntity
  8
0
370
               0
390
0
 62
               1
100
AcDbVertex
100
AcDb3dPolylineVertex
 10
15883.468803658114
 20
1875.9825011252633
 30
-0.0000000000009095
 70
              32
  0
SEQEND
  5
437
100
AcDbEntity
  8
0
370
               0
390
0
 62
               1
  0
POLYLINE
  5
438
100
AcDbEntity
  8
0
370
               0
390
0
 62
               1
100
AcDb3dPolyline
 66
               1
 10
0.0
 20
0.0
 30
0.0
 70
               8
  0
VERTEX
  5
439
100
AcDbEntity
  8
0
370
               0
390
0
 62
               1
100
AcDbVertex
100
AcDb3dPolylineVertex
 10
15883.468803658114
 20
2216.9825011252665
 30
-0.0000000000009095
 70
              32
  0
VERTEX
  5
43A
100
AcDbEntity
  8
0
370
               0
390
0
 62
               1
100
AcDbVertex
100
AcDb3dPolylineVertex
 10
15880.468803658114
 20
2216.9825011252665
 30
-0.0000000000009095
 70
              32
  0
SEQEND
  5
43B
100
AcDbEntity
  8
0
370
               0
390
0
 62
               1
  0
POLYLINE
  5
43C
100
AcDbEntity
  8
0
370
               0
390
0
 62
               1
100
AcDb3dPolyline
 66
               1
 10
0.0
 20
0.0
 30
0.0
 70
               8
  0
VERTEX
  5
43D
100
AcDbEntity
  8
0
370
               0
390
0
 62
               1
100
AcDbVertex
100
AcDb3dPolylineVertex
 10
15883.468803658114
 20
2215.9825011252633
 30
-0.0000000000009095
 70
              32
  0
VERTEX
  5
43E
100
AcDbEntity
  8
0
370
               0
390
0
 62
               1
100
AcDbVertex
100
AcDb3dPolylineVertex
 10
15883.468803658114
 20
2216.9825011252665
 30
-0.0000000000009095
 70
              32
  0
SEQEND
  5
43F
100
AcDbEntity
  8
0
370
               0
390
0
 62
               1
  0
POLYLINE
  5
440
100
AcDbEntity
  8
0
370
               0
390
0
 62
               1
100
AcDb3dPolyline
 66
               1
 10
0.0
 20
0.0
 30
0.0
 70
               8
  0
VERTEX
  5
441
100
AcDbEntity
  8
0
370
               0
390
0
 62
               1
100
AcDbVertex
100
AcDb3dPolylineVertex
 10
15880.468803658114
 20
2212.9825011252665
 30
-0.0000000000009095
 70
              32
  0
VERTEX
  5
442
100
AcDbEntity
  8
0
370
               0
390
0
 62
               1
100
AcDbVertex
100
AcDb3dPolylineVertex
 10
15881.468803658114
 20
2212.9825011252665
 30
-0.0000000000009095
 70
              32
  0
SEQEND
  5
443
100
AcDbEntity
  8
0
370
               0
390
0
 62
               1
  0
POLYLINE
  5
444
100
AcDbEntity
  8
0
370
               0
390
0
 62
               1
100
AcDb3dPolyline
 66
               1
 10
0.0
 20
0.0
 30
0.0
 70
               8
  0
VERTEX
  5
445
100
AcDbEntity
  8
0
370
               0
390
0
 62
               1
100
AcDbVertex
100
AcDb3dPolylineVertex
 10
16451.468803658114
 20
2216.9825011252651
 30
-0.0000000000009095
 70
              32
  0
VERTEX
  5
446
100
AcDbEntity
  8
0
370
               0
390
0
 62
               1
100
AcDbVertex
100
AcDb3dPolylineVertex
 10
16451.468803658114
 20
2200.0484909729807
 30
-0.0000000000009095
 70
              32
  0
SEQEND
  5
447
100
AcDbEntity
  8
0
370
               0
390
0
 62
               1
  0
POLYLINE
  5
448
100
AcDbEntity
  8
0
370
               0
390
0
 62
               1
100
AcDb3dPolyline
 66
               1
 10
0.0
 20
0.0
 30
0.0
 70
               8
  0
VERTEX
  5
449
100
AcDbEntity
  8
0
370
               0
390
0
 62
               1
100
AcDbVertex
100
AcDb3dPolylineVertex
 10
16451.468803658114
 20
1891.9165112775809
 30
-0.0000000000009095
 70
              32
  0
VERTEX
  5
44A
100
AcDbEntity
  8
0
370
               0
390
0
 62
               1
100
AcDbVertex
100
AcDb3dPolylineVertex
 10
16451.468803658114
 20
2200.0484909729444
 30
-0.0000000000009095
 70
              32
  0
SEQEND
  5
44B
100
AcDbEntity
  8
0
370
               0
390
0
 62
               1
  0
POLYLINE
  5
44C
100
AcDbEntity
  8
0
370
               0
390
0
 62
               1
100
AcDb3dPolyline
 66
               1
 10
0.0
 20
0.0
 30
0.0
 70
               8
  0
VERTEX
  5
44D
100
AcDbEntity
  8
0
370
               0
390
0
 62
               1
100
AcDbVertex
100
AcDb3dPolylineVertex
 10
16451.468803658114
 20
1891.9165112775445
 30
-0.0000000000009095
 70
              32
  0
VERTEX
  5
44E
100
AcDbEntity
  8
0
370
               0
390
0
 62
               1
100
AcDbVertex
100
AcDb3dPolylineVertex
 10
16451.468803658114
 20
1874.9825011252597
 30
-0.0000000000009095
 70
              32
  0
SEQEND
  5
44F
100
AcDbEntity
  8
0
370
               0
390
0
 62
               1
  0
POLYLINE
  5
450
100
AcDbEntity
  8
0
370
               0
390
0
 62
               1
100
AcDb3dPolyline
 66
               1
 10
0.0
 20
0.0
 30
0.0
 70
               8
  0
VERTEX
  5
451
100
AcDbEntity
  8
0
370
               0
390
0
 62
               1
100
AcDbVertex
100
AcDb3dPolylineVertex
 10
16442.468803658114
 20
2216.9825011252651
 30
-0.0000000000009095
 70
              32
  0
VERTEX
  5
452
100
AcDbEntity
  8
0
370
               0
390
0
 62
               1
100
AcDbVertex
100
AcDb3dPolylineVertex
 10
16442.468803658114
 20
2200.0484909729807
 30
-0.0000000000009095
 70
              32
  0
SEQEND
  5
453
100
AcDbEntity
  8
0
370
               0
390
0
 62
               1
  0
POLYLINE
  5
454
100
AcDbEntity
  8
0
370
               0
390
0
 62
               1
100
AcDb3dPolyline
 66
               1
 10
0.0
 20
0.0
 30
0.0
 70
               8
  0
VERTEX
  5
455
100
AcDbEntity
  8
0
370
               0
390
0
 62
               1
100
AcDbVertex
100
AcDb3dPolylineVertex
 10
16442.468803658114
 20
2200.0484909729439
 30
-0.0000000000009095
 70
              32
  0
VERTEX
  5
456
100
AcDbEntity
  8
0
370
               0
390
0
 62
               1
100
AcDbVertex
100
AcDb3dPolylineVertex
 10
16442.468803658114
 20
1891.9165112775795
 30
-0.0000000000009095
 70
              32
  0
SEQEND
  5
457
100
AcDbEntity
  8
0
370
               0
390
0
 62
               1
  0
POLYLINE
  5
458
100
AcDbEntity
  8
0
370
               0
390
0
 62
               1
100
AcDb3dPolyline
 66
               1
 10
0.0
 20
0.0
 30
0.0
 70
               8
  0
VERTEX
  5
459
100
AcDbEntity
  8
0
370
               0
390
0
 62
               1
100
AcDbVertex
100
AcDb3dPolylineVertex
 10
16442.468803658114
 20
1891.9165112775445
 30
-0.0000000000009095
 70
              32
  0
VERTEX
  5
45A
100
AcDbEntity
  8
0
370
               0
390
0
 62
               1
100
AcDbVertex
100
AcDb3dPolylineVertex
 10
16442.468803658114
 20
1874.9825011252597
 30
-0.0000000000009095
 70
              32
  0
SEQEND
  5
45B
100
AcDbEntity
  8
0
370
               0
390
0
 62
               1
  0
POLYLINE
  5
45C
100
AcDbEntity
  8
0
370
               0
390
0
 62
               1
100
AcDb3dPolyline
 66
               1
 10
0.0
 20
0.0
 30
0.0
 70
               8
  0
VERTEX
  5
45D
100
AcDbEntity
  8
0
370
               0
390
0
 62
               1
100
AcDbVertex
100
AcDb3dPolylineVertex
 10
15881.468803658114
 20
2215.9825011252633
 30
-0.0000000000009095
 70
              32
  0
VERTEX
  5
45E
100
AcDbEntity
  8
0
370
               0
390
0
 62
               1
100
AcDbVertex
100
AcDb3dPolylineVertex
 10
15881.468803658114
 20
2199.8951914805925
 30
-0.0000000000009095
 70
              32
  0
SEQEND
  5
45F
100
AcDbEntity
  8
0
370
               0
390
0
 62
               1
  0
POLYLINE
  5
460
100
AcDbEntity
  8
0
370
               0
390
0
 62
               1
100
AcDb3dPolyline
 66
               1
 10
0.0
 20
0.0
 30
0.0
 70
               8
  0
VERTEX
  5
461
100
AcDbEntity
  8
0
370
               0
390
0
 62
               1
100
AcDbVertex
100
AcDb3dPolylineVertex
 10
16441.468803658114
 20
2215.9825011252633
 30
-0.0000000000009095
 70
              32
  0
VERTEX
  5
462
100
AcDbEntity
  8
0
370
               0
390
0
 62
               1
100
AcDbVertex
100
AcDb3dPolylineVertex
 10
16441.468803658114
 20
2199.8951914805925
 30
-0.0000000000009095
 70
              32
  0
SEQEND
  5
463
100
AcDbEntity
  8
0
370
               0
390
0
 62
               1
  0
POLYLINE
  5
464
100
AcDbEntity
  8
0
370
               0
390
0
 62
               1
100
AcDb3dPolyline
 66
               1
 10
0.0
 20
0.0
 30
0.0
 70
               8
  0
VERTEX
  5
465
100
AcDbEntity
  8
0
370
               0
390
0
 62
               1
100
AcDbVertex
100
AcDb3dPolylineVertex
 10
15881.468803658114
 20
1892.0698107699341
 30
-0.0000000000009095
 70
              32
  0
VERTEX
  5
466
100
AcDbEntity
  8
0
370
               0
390
0
 62
               1
100
AcDbVertex
100
AcDb3dPolylineVertex
 10
15881.468803658114
 20
1875.9825011252633
 30
-0.0000000000009095
 70
              32
  0
SEQEND
  5
467
100
AcDbEntity
  8
0
370
               0
390
0
 62
               1
  0
POLYLINE
  5
468
100
AcDbEntity
  8
0
370
               0
390
0
 62
               1
100
AcDb3dPolyline
 66
               1
 10
0.0
 20
0.0
 30
0.0
 70
               8
  0
VERTEX
  5
469
100
AcDbEntity
  8
0
370
               0
390
0
 62
               1
100
AcDbVertex
100
AcDb3dPolylineVertex
 10
16441.468803658114
 20
1892.0698107699341
 30
-0.0000000000009095
 70
              32
  0
VERTEX
  5
46A
100
AcDbEntity
  8
0
370
               0
390
0
 62
               1
100
AcDbVertex
100
AcDb3dPolylineVertex
 10
16441.468803658114
 20
1875.9825011252633
 30
-0.0000000000009095
 70
              32
  0
SEQEND
  5
46B
100
AcDbEntity
  8
0
370
               0
390
0
 62
               1
  0
POLYLINE
  5
46C
100
AcDbEntity
  8
0
370
               0
390
0
 62
               1
100
AcDb3dPolyline
 66
               1
 10
0.0
 20
0.0
 30
0.0
 70
               8
  0
VERTEX
  5
46D
100
AcDbEntity
  8
0
370
               0
390
0
 62
               1
100
AcDbVertex
100
AcDb3dPolylineVertex
 10
16416.968803658114
 20
2025.4415829615796
 30
-0.0000000000009095
 70
              32
  0
VERTEX
  5
46E
100
AcDbEntity
  8
0
370
               0
390
0
 62
               1
100
AcDbVertex
100
AcDb3dPolylineVertex
 10
16416.968803658114
 20
2066.5234192889507
 30
-0.0000000000009095
 70
              32
  0
SEQEND
  5
46F
100
AcDbEntity
  8
0
370
               0
390
0
 62
               1
  0
POLYLINE
  5
470
100
AcDbEntity
  8
0
370
               0
390
0
 62
               1
100
AcDb3dPolyline
 66
               1
 10
0.0
 20
0.0
 30
0.0
 70
               8
  0
VERTEX
  5
471
100
AcDbEntity
  8
0
370
               0
390
0
 62
               1
100
AcDbVertex
100
AcDb3dPolylineVertex
 10
16375.968803658114
 20
2066.5234192889479
 30
-0.0000000000009095
 70
              32
  0
VERTEX
  5
472
100
AcDbEntity
  8
0
370
               0
390
0
 62
               1
100
AcDbVertex
100
AcDb3dPolylineVertex
 10
16375.968803658114
 20
2025.4415829615768
 30
-0.0000000000009095
 70
              32
  0
SEQEND
  5
473
100
AcDbEntity
  8
0
370
               0
390
0
 62
               1
  0
POLYLINE
  5
474
100
AcDbEntity
  8
0
370
               0
390
0
 62
               1
100
AcDb3dPolyline
 66
               1
 10
0.0
 20
0.0
 30
0.0
 70
               8
  0
VERTEX
  5
475
100
AcDbEntity
  8
0
370
               0
390
0
 62
               1
100
AcDbVertex
100
AcDb3dPolylineVertex
 10
16441.468803658114
 20
2199.8951914805562
 30
-0.0000000000009095
 70
              32
  0
VERTEX
  5
476
100
AcDbEntity
  8
0
370
               0
390
0
 62
               1
100
AcDbVertex
100
AcDb3dPolylineVertex
 10
16441.468803658114
 20
1892.0698107699695
 30
-0.0000000000009095
 70
              32
  0
SEQEND
  5
477
100
AcDbEntity
  8
0
370
               0
390
0
 62
               1
  0
POLYLINE
  5
478
100
AcDbEntity
  8
0
370
               0
390
0
 62
               1
100
AcDb3dPolyline
 66
               1
 10
0.0
 20
0.0
 30
0.0
 70
               8
  0
VERTEX
  5
479
100
AcDbEntity
  8
0
370
               0
390
0
 62
               1
100
AcDbVertex
100
AcDb3dPolylineVertex
 10
15881.468803658114
 20
2199.8951914805562
 30
-0.0000000000009095
 70
              32
  0
VERTEX
  5
47A
100
AcDbEntity
  8
0
370
               0
390
0
 62
               1
100
AcDbVertex
100
AcDb3dPolylineVertex
 10
15881.468803658114
 20
1892.0698107699695
 30
-0.0000000000009095
 70
              32
  0
SEQEND
  5
47B
100
AcDbEntity
  8
0
370
               0
390
0
 62
               1
  0
POLYLINE
  5
47C
100
AcDbEntity
  8
0
370
               0
390
0
 62
               1
100
AcDb3dPolyline
 66
               1
 10
0.0
 20
0.0
 30
0.0
 70
               8
  0
VERTEX
  5
47D
100
AcDbEntity
  8
0
370
               0
390
0
 62
               1
100
AcDbVertex
100
AcDb3dPolylineVertex
 10
15871.468803658114
 20
1891.9165112775459
 30
-0.0000000000009095
 70
              32
  0
VERTEX
  5
47E
100
AcDbEntity
  8
0
370
               0
390
0
 62
               1
100
AcDbVertex
100
AcDb3dPolylineVertex
 10
15871.468803658114
 20
1874.9825011252615
 30
-0.0000000000009095
 70
              32
  0
SEQEND
  5
47F
100
AcDbEntity
  8
0
370
               0
390
0
 62
               1
  0
POLYLINE
  5
480
100
AcDbEntity
  8
0
370
               0
390
0
 62
               1
100
AcDb3dPolyline
 66
               1
 10
0.0
 20
0.0
 30
0.0
 70
               8
  0
VERTEX
  5
481
100
AcDbEntity
  8
0
370
               0
390
0
 62
               1
100
AcDbVertex
100
AcDb3dPolylineVertex
 10
15871.468803658114
 20
1891.9165112775827
 30
-0.0000000000009095
 70
              32
  0
VERTEX
  5
482
100
AcDbEntity
  8
0
370
               0
390
0
 62
               1
100
AcDbVertex
100
AcDb3dPolylineVertex
 10
15871.468803658114
 20
2200.0484909729462
 30
-0.0000000000009095
 70
              32
  0
SEQEND
  5
483
100
AcDbEntity
  8
0
370
               0
390
0
 62
               1
  0
POLYLINE
  5
484
100
AcDbEntity
  8
0
370
               0
390
0
 62
               1
100
AcDb3dPolyline
 66
               1
 10
0.0
 20
0.0
 30
0.0
 70
               8
  0
VERTEX
  5
485
100
AcDbEntity
  8
0
370
               0
390
0
 62
               1
100
AcDbVertex
100
AcDb3dPolylineVertex
 10
15871.468803658114
 20
2216.9825011252665
 30
-0.0000000000009095
 70
              32
  0
VERTEX
  5
486
100
AcDbEntity
  8
0
370
               0
390
0
 62
               1
100
AcDbVertex
100
AcDb3dPolylineVertex
 10
15871.468803658114
 20
2200.0484909729821
 30
-0.0000000000009095
 70
              32
  0
SEQEND
  5
487
100
AcDbEntity
  8
0
370
               0
390
0
 62
               1
  0
POLYLINE
  5
488
100
AcDbEntity
  8
0
370
               0
390
0
 62
               1
100
AcDb3dPolyline
 66
               1
 10
0.0
 20
0.0
 30
0.0
 70
               8
  0
VERTEX
  5
489
100
AcDbEntity
  8
0
370
               0
390
0
 62
               1
100
AcDbVertex
100
AcDb3dPolylineVertex
 10
15880.468803658114
 20
1874.9825011252615
 30
-0.0000000000009095
 70
              32
  0
VERTEX
  5
48A
100
AcDbEntity
  8
0
370
               0
390
0
 62
               1
100
AcDbVertex
100
AcDb3dPolylineVertex
 10
15880.468803658114
 20
1891.9165112775459
 30
-0.0000000000009095
 70
              32
  0
SEQEND
  5
48B
100
AcDbEntity
  8
0
370
               0
390
0
 62
               1
  0
POLYLINE
  5
48C
100
AcDbEntity
  8
0
370
               0
390
0
 62
               1
100
AcDb3dPolyline
 66
               1
 10
0.0
 20
0.0
 30
0.0
 70
               8
  0
VERTEX
  5
48D
100
AcDbEntity
  8
0
370
               0
390
0
 62
               1
100
AcDbVertex
100
AcDb3dPolylineVertex
 10
15880.468803658114
 20
1891.9165112775827
 30
-0.0000000000009095
 70
              32
  0
VERTEX
  5
48E
100
AcDbEntity
  8
0
370
               0
390
0
 62
               1
100
AcDbVertex
100
AcDb3dPolylineVertex
 10
15880.468803658114
 20
2200.0484909729462
 30
-0.0000000000009095
 70
              32
  0
SEQEND
  5
48F
100
AcDbEntity
  8
0
370
               0
390
0
 62
               1
  0
POLYLINE
  5
490
100
AcDbEntity
  8
0
370
               0
390
0
 62
               1
100
AcDb3dPolyline
 66
               1
 10
0.0
 20
0.0
 30
0.0
 70
               8
  0
VERTEX
  5
491
100
AcDbEntity
  8
0
370
               0
390
0
 62
               1
100
AcDbVertex
100
AcDb3dPolylineVertex
 10
15880.468803658114
 20
2200.0484909729817
 30
-0.0000000000009095
 70
              32
  0
VERTEX
  5
492
100
AcDbEntity
  8
0
370
               0
390
0
 62
               1
100
AcDbVertex
100
AcDb3dPolylineVertex
 10
15880.468803658114
 20
2216.9825011252665
 30
-0.0000000000009095
 70
              32
  0
SEQEND
  5
493
100
AcDbEntity
  8
0
370
               0
390
0
 62
               1
  0
INSERT
  5
494
100
AcDbEntity
  8
0
390
0
 62
               1
100
AcDbBlockReference
  2
グループ
 10
16538.918617005351
 20
2114.3813530119533
 30
0.0
  0
INSERT
  5
495
100
AcDbEntity
  8
0
390
0
 62
               1
100
AcDbBlockReference
  2
グループ-1
 10
16538.918617005351
 20
2114.3813530119533
 30
0.0
  0
INSERT
  5
496
100
AcDbEntity
  8
0
390
0
 62
               1
100
AcDbBlockReference
  2
グループ-2
 10
16538.918617005351
 20
2114.3813530119533
 30
0.0
  0
INSERT
  5
497
100
AcDbEntity
  8
0
390
0
 62
               1
100
AcDbBlockReference
  2
グループ-3
 10
16538.918617005351
 20
2114.3813530119533
 30
0.0
  0
INSERT
  5
498
100
AcDbEntity
  8
0
390
0
 62
               1
100
AcDbBlockReference
  2
グループ-4
 10
16538.918617005351
 20
2114.3813530119533
 30
0.0
  0
DIMENSION
  5
499
100
AcDbEntity
  8
寸法
370
               0
390
0
  6
Continuous
 62
               1
100
AcDbDimension
  2
*D6
 10
15871.468803658114
 20
1725.0
 30
0.0
 11
16161.468803658114
 21
1725.0
 31
0.0
 71
               5
 72
               1
 41
1.0
 42
0.0
  3
HIBINO
100
AcDbAlignedDimension
 13
16451.468803658114
 23
1874.9825011252597
 33
0.0
 14
15871.468803658114
 24
1874.9825011252615
 34
0.0
100
AcDbRotatedDimension
1001
ACAD
1000
DSTYLE
1002
{
1070
             271
1070
               0
1070
             279
1070
               2
1070
             340
1005
2C
1070
             147
1040
10.0
1002
}
  0
DIMENSION
  5
49A
100
AcDbEntity
  8
寸法
370
               0
390
0
  6
Continuous
 62
               1
100
AcDbDimension
  2
*D7
 10
15750.0
 20
2216.9825011252665
 30
0.0
 11
15750.0
 21
2045.982501125264
 31
0.0
 71
               5
 72
               1
 41
1.0
 42
0.0
  3
HIBINO
100
AcDbAlignedDimension
 13
15871.468803658114
 23
1874.9825011252615
 33
0.0
 14
15875.968803658114
 24
2216.9825011252665
 34
0.0
 50
-90.0
100
AcDbRotatedDimension
1001
ACAD
1000
DSTYLE
1002
{
1070
             279
1070
               2
1070
             340
1005
2C
1070
             147
1040
10.0
1002
}
  0
DIMENSION
  5
49B
100
AcDbEntity
  8
寸法
370
               0
390
0
  6
Continuous
 62
               1
100
AcDbDimension
  2
*D8
 10
15496.057420213572
 20
1725.0
 30
0.0
 11
15321.061435228919
 21
1725.0
 31
0.0
 71
               5
 72
               1
 41
1.0
 42
0.0
  3
HIBINO
100
AcDbAlignedDimension
 13
15146.065450244265
 23
2050.0
 33
0.0
 14
15496.057420213572
 24
1874.9825011252597
 34
0.0
100
AcDbRotatedDimension
1001
ACAD
1000
DSTYLE
1002
{
1070
             271
1070
               0
1070
             279
1070
               2
1070
             340
1005
2C
1070
             147
1040
10.0
1002
}
  0
ENDSEC
  0
SECTION
  2
OBJECTS
  0
DICTIONARY
  5
19
100
AcDbDictionary
280
               0
281
               1
  3
ACAD_GROUP
350
1A
  3
ACAD_MLINESTYLE
350
1B
  3
ACAD_LAYOUT
350
1E
  3
ACAD_PLOTSETTINGS
350
22
  3
ACAD_PLOTSTYLENAME
350
1F
  3
ACAD_WIPEOUT_VARS
350
23
  0
DICTIONARY
  5
1A
102
{ACAD_REACTORS
330
19
102
}
100
AcDbDictionary
280
               0
281
               1
  0
DICTIONARY
  5
1B
102
{ACAD_REACTORS
330
19
102
}
100
AcDbDictionary
280
               0
281
               1
  3
Standard
350
1C
  0
MLINESTYLE
  5
1C
102
{ACAD_REACTORS
330
1B
102
}
100
AcDbMlineStyle
  2
Standard
 70
               0
  3

 62
               0
 51
90.0
 52
90.0
 71
               2
 49
0.5
 62
             256
  6
ByLayer
 49
-0.5
 62
             256
  6
ByLayer
  0
ACDBDICTIONARYWDFLT
  5
1F
102
{ACAD_REACTORS
330
19
102
}
100
AcDbDictionary
281
               1
  3
Normal
350
1D
100
AcDbDictionaryWithDefault
340
1D
  0
ACDBPLACEHOLDER
  5
1D
102
{ACAD_REACTORS
330
1F
102
}
  0
LAYOUT
  5
20
102
{ACAD_REACTORS
330
1E
102
}
100
AcDbPlotSettings
  1

  2

  4

  6

 40
0.0
 41
0.0
 42
0.0
 43
0.0
 44
0.0
 45
0.0
 46
0.0
 47
0.0
 48
0.0
 49
0.0
140
0.0
141
0.0
142
1.0
143
1.0
 70
            1024
 72
               0
 73
               0
 74
               0
  7
U12i.ctb
 75
               0
147
1.0
148
0.0
149
0.0
100
AcDbLayout
  1
Model
 70
               0
 71
               0
 10
0.0
 20
0.0
 11
0.0
 21
0.0
 12
0.0
 22
0.0
 32
0.0
 14
0.0
 24
0.0
 34
0.0
 15
0.0
 25
0.0
 35
0.0
146
0.0
 13
0.0
 23
0.0
 33
0.0
 16
0.0
 26
0.0
 36
0.0
 17
0.0
 27
0.0
 37
0.0
 76
               0
330
A
331
0
345
0
346
0
  0
LAYOUT
  5
21
102
{ACAD_REACTORS
330
1E
102
}
100
AcDbPlotSettings
  1

  2

  4

  6

 40
0.0
 41
0.0
 42
0.0
 43
0.0
 44
0.0
 45
0.0
 46
0.0
 47
0.0
 48
0.0
 49
0.0
140
0.0
141
0.0
142
1.0
143
1.0
 70
               0
 72
               0
 73
               0
 74
               0
  7

 75
               0
147
1.0
148
0.0
149
0.0
100
AcDbLayout
  1
Layout1
 70
               0
 71
               0
 10
0.0
 20
0.0
 11
0.0
 21
0.0
 12
0.0
 22
0.0
 32
0.0
 14
0.0
 24
0.0
 34
0.0
 15
0.0
 25
0.0
 35
0.0
146
0.0
 13
0.0
 23
0.0
 33
0.0
 16
0.0
 26
0.0
 36
0.0
 17
0.0
 27
0.0
 37
0.0
 76
               0
330
B
331
0
345
0
346
0
  0
DICTIONARY
  5
1E
102
{ACAD_REACTORS
330
19
102
}
100
AcDbDictionary
280
               0
281
               1
  3
Layout1
350
21
  3
Model
350
20
  0
DICTIONARY
  5
22
102
{ACAD_REACTORS
330
19
102
}
100
AcDbDictionary
280
               0
281
               1
  0
WIPEOUTVARIABLES
  5
23
100
AcDbWipeoutVariables
 70
               0
  0
ENDSEC
  0
EOF
