  0
SECTION
  2
HEADER
  9
$ACADVER
  1
AC1015
  9
$ACADMAINTVER
 70
               6
  9
$DWGCODEPAGE
  3
ANSI_932
  9
$INSBASE
 10
0.0
 20
0.0
 30
0.0
  9
$EXTMIN
 10
-1249.9999999999998
 20
-1866.5383663178545
 30
0.0
  9
$EXTMAX
 10
1449.9999999999998
 20
2139.4710705281227
 30
0.0
  9
$LIMMIN
 10
0.0
 20
0.0
  9
$LIMMAX
 10
0.0
 20
0.0
  9
$ORTHOMODE
 70
               0
  9
$REGENMODE
 70
               1
  9
$FILLMODE
 70
               1
  9
$QTEXTMODE
 70
               0
  9
$MIRRTEXT
 70
               1
  9
$LTSCALE
 40
76.199999999999989
  9
$ATTMODE
 70
               1
  9
$TEXTSIZE
 40
0.2
  9
$TRACEWID
 40
1.0
  9
$TEXTSTYLE
  7
Standard
  9
$CLAYER
  8
一般
  9
$CELTYPE
  6
Continuous
  9
$CECOLOR
 62
             256
  9
$CELTSCALE
 40
1.0
  9
$DISPSILH
 70
               0
  9
$DIMSCALE
 40
1.0
  9
$DIMASZ
 40
37.50933837890625
  9
$DIMEXO
 40
29.999999999999996
  9
$DIMDLI
 40
4.9999999999999991
  9
$DIMRND
 40
0.0
  9
$DIMDLE
 40
0.0
  9
$DIMEXE
 40
29.999999999999996
  9
$DIMTP
 40
0.0
  9
$DIMTM
 40
0.0
  9
$DIMTXT
 40
40.721028645833343
  9
$DIMCEN
 40
0.0
  9
$DIMTSZ
 40
0.0
  9
$DIMTOL
 70
               0
  9
$DIMLIM
 70
               0
  9
$DIMTIH
 70
               0
  9
$DIMTOH
 70
               0
  9
$DIMSE1
 70
               0
  9
$DIMSE2
 70
               0
  9
$DIMTAD
 70
               1
  9
$DIMZIN
 70
              11
  9
$DIMBLK
  1
VW_EMPTYARROW
  9
$DIMASO
 70
               1
  9
$DIMSHO
 70
               1
  9
$DIMPOST
  1
<>
  9
$DIMAPOST
  1
[]
  9
$DIMALT
 70
               0
  9
$DIMALTD
 70
               2
  9
$DIMALTF
 40
1.0
  9
$DIMLFAC
 40
1.0
  9
$DIMTOFL
 70
               1
  9
$DIMTVP
 40
0.0
  9
$DIMTIX
 70
               1
  9
$DIMSOXD
 70
               0
  9
$DIMSAH
 70
               0
  9
$DIMBLK1
  1

  9
$DIMBLK2
  1

  9
$DIMSTYLE
  2
HIBINO
  9
$DIMCLRD
 70
               0
  9
$DIMCLRE
 70
               0
  9
$DIMCLRT
 70
               0
  9
$DIMTFAC
 40
1.0
  9
$DIMGAP
 40
0.4999999999999999
  9
$DIMJUST
 70
               0
  9
$DIMSD1
 70
               0
  9
$DIMSD2
 70
               0
  9
$DIMTOLJ
 70
               1
  9
$DIMTZIN
 70
              11
  9
$DIMALTZ
 70
              11
  9
$DIMALTTZ
 70
              11
  9
$DIMUPT
 70
               0
  9
$DIMDEC
 70
               2
  9
$DIMTDEC
 70
               2
  9
$DIMALTU
 70
               2
  9
$DIMALTTD
 70
               2
  9
$DIMTXSTY
  7
ＭＳ ゴシック
  9
$DIMAUNIT
 70
               0
  9
$DIMADEC
 70
               0
  9
$DIMALTRND
 40
0.0
  9
$DIMAZIN
 70
               0
  9
$DIMDSEP
 70
              46
  9
$DIMATFIT
 70
               0
  9
$DIMFRAC
 70
               2
  9
$DIMLDRBLK
  1

  9
$DIMLUNIT
 70
               2
  9
$DIMLWD
 70
              -2
  9
$DIMLWE
 70
              -2
  9
$DIMTMOVE
 70
               0
  9
$LUNITS
 70
               2
  9
$LUPREC
 70
               4
  9
$SKETCHINC
 40
0.1
  9
$FILLETRAD
 40
0.0
  9
$AUNITS
 70
               0
  9
$AUPREC
 70
               0
  9
$MENU
  1
acad
  9
$ELEVATION
 40
0.0
  9
$PELEVATION
 40
0.0
  9
$THICKNESS
 40
0.0
  9
$LIMCHECK
 70
               0
  9
$CHAMFERA
 40
0.0
  9
$CHAMFERB
 40
0.0
  9
$CHAMFERC
 40
0.0
  9
$CHAMFERD
 40
0.0
  9
$SKPOLY
 70
               0
  9
$TDCREATE
 40
2458499.675856481
  9
$TDUCREATE
 40
0.000000000
  9
$TDUPDATE
 40
2458499.675856481
  9
$TDUUPDATE
 40
0.000000000
  9
$TDINDWG
 40
0.0000000000
  9
$TDUSRTIMER
 40
0.0000000000
  9
$USRTIMER
 70
               1
  9
$ANGBASE
 50
0.0
  9
$ANGDIR
 70
               0
  9
$PDMODE
 70
               1
  9
$PDSIZE
 40
-2.0
  9
$PLINEWID
 40
0.0
  9
$SPLFRAME
 70
               0
  9
$SPLINETYPE
 70
               6
  9
$SPLINESEGS
 70
               8
  9
$HANDSEED
  5
5E4
  9
$SURFTAB1
 70
               6
  9
$SURFTAB2
 70
               6
  9
$SURFTYPE
 70
               6
  9
$SURFU
 70
               6
  9
$SURFV
 70
               6
  9
$UCSBASE
  2

  9
$UCSNAME
  2

  9
$UCSORG
 10
0.0
 20
0.0
 30
0.0
  9
$UCSXDIR
 10
1.0
 20
0.0
 30
0.0
  9
$UCSYDIR
 10
0.0
 20
1.0
 30
0.0
  9
$UCSORTHOREF
  2

  9
$UCSORTHOVIEW
 70
               0
  9
$UCSORGTOP
 10
0.0
 20
0.0
 30
0.0
  9
$UCSORGBOTTOM
 10
0.0
 20
0.0
 30
0.0
  9
$UCSORGLEFT
 10
0.0
 20
0.0
 30
0.0
  9
$UCSORGRIGHT
 10
0.0
 20
0.0
 30
0.0
  9
$UCSORGFRONT
 10
0.0
 20
0.0
 30
0.0
  9
$UCSORGBACK
 10
0.0
 20
0.0
 30
0.0
  9
$PUCSBASE
  2

  9
$PUCSNAME
  2

  9
$PUCSORG
 10
0.0
 20
0.0
 30
0.0
  9
$PUCSXDIR
 10
1.0
 20
0.0
 30
0.0
  9
$PUCSYDIR
 10
0.0
 20
1.0
 30
0.0
  9
$PUCSORTHOREF
  2

  9
$PUCSORTHOVIEW
 70
               0
  9
$PUCSORGTOP
 10
0.0
 20
0.0
 30
0.0
  9
$PUCSORGBOTTOM
 10
0.0
 20
0.0
 30
0.0
  9
$PUCSORGLEFT
 10
0.0
 20
0.0
 30
0.0
  9
$PUCSORGRIGHT
 10
0.0
 20
0.0
 30
0.0
  9
$PUCSORGFRONT
 10
0.0
 20
0.0
 30
0.0
  9
$PUCSORGBACK
 10
0.0
 20
0.0
 30
0.0
  9
$USERI1
 70
               0
  9
$USERI2
 70
               0
  9
$USERI3
 70
               0
  9
$USERI4
 70
               0
  9
$USERI5
 70
               0
  9
$USERR1
 40
0.0
  9
$USERR2
 40
0.0
  9
$USERR3
 40
0.0
  9
$USERR4
 40
0.0
  9
$USERR5
 40
0.0
  9
$WORLDVIEW
 70
               1
  9
$SHADEDGE
 70
               3
  9
$SHADEDIF
 70
              70
  9
$TILEMODE
 70
               1
  9
$MAXACTVP
 70
              64
  9
$PINSBASE
 10
0.0
 20
0.0
 30
0.0
  9
$PLIMCHECK
 70
               0
  9
$PEXTMIN
 10
1.0000000000000000E+20
 20
1.0000000000000000E+20
 30
1.0000000000000000E+20
  9
$PEXTMAX
 10
-1.0000000000000000E+20
 20
-1.0000000000000000E+20
 30
-1.0000000000000000E+20
  9
$PLIMMIN
 10
0.0
 20
0.0
  9
$PLIMMAX
 10
12.0
 20
9.0
  9
$UNITMODE
 70
               0
  9
$VISRETAIN
 70
               0
  9
$PLINEGEN
 70
               1
  9
$PSLTSCALE
 70
               0
  9
$TREEDEPTH
 70
            3020
  9
$CMLSTYLE
  2
Standard
  9
$CMLJUST
 70
               0
  9
$CMLSCALE
 40
1.0
  9
$PROXYGRAPHICS
 70
               0
  9
$MEASUREMENT
 70
               1
  9
$CELWEIGHT
370
               0
  9
$ENDCAPS
280
               0
  9
$JOINSTYLE
280
               0
  9
$LWDISPLAY
290
               0
  9
$INSUNITS
 70
               4
  9
$HYPERLINKBASE
  1

  9
$STYLESHEET
  1

  9
$XEDIT
290
               1
  9
$CEPSNTYPE
380
               0
  9
$PSTYLEMODE
290
               1
  9
$FINGERPRINTGUID
  2

  9
$VERSIONGUID
  2

  9
$EXTNAMES
290
               1
  9
$PSVPSCALE
 40
0.0
  0
ENDSEC
  0
SECTION
  2
CLASSES
  0
CLASS
  1
LWPOLYLINE
  2
AcDbPolyline
  3
AutoCAD 2000
 90
        0
280
               0
281
               1
  0
CLASS
  1
IMAGE
  2
AcDbRasterImage
  3
ISM
 90
      127
280
               0
281
               1
  0
CLASS
  1
OLE2FRAME
  2
AcDbOle2Frame
  3
AutoCAD 2000
 90
        0
280
               0
281
               1
  0
CLASS
  1
HATCH
  2
AcDbHatch
  3
AutoCAD 2000
 90
        0
280
               0
281
               1
  0
CLASS
  1
DICTIONARYVAR
  2
AcDbDictionaryVar
  3
AutoCAD 2000
 90
        0
280
               0
281
               0
  0
CLASS
  1
RASTERVARIABLES
  2
AcDbRasterVariables
  3
ISM
 90
        0
280
               0
281
               0
  0
CLASS
  1
IMAGEDEF
  2
AcDbRasterImageDef
  3
ISM
 90
        0
280
               0
281
               0
  0
CLASS
  1
IMAGEDEF_REACTOR
  2
AcDbRasterImageDefReactor
  3
ISM
 90
        1
280
               0
281
               0
  0
CLASS
  1
IDBUFFER
  2
AcDbIdBuffer
  3
AutoCAD 2000
 90
        0
280
               0
281
               0
  0
CLASS
  1
SPATIAL_FILTER
  2
AcDbSpatialFilter
  3
AutoCAD 2000
 90
        0
280
               0
281
               0
  0
CLASS
  1
XRECORD
  2
AcDbXrecord
  3
AutoCAD 2000
 90
        0
280
               0
281
               0
  0
CLASS
  1
SORTENTSTABLE
  2
AcDbSortentsTable
  3
AutoCAD 2000
 90
        0
280
               0
281
               0
  0
CLASS
  1
LAYER_INDEX
  2
AcDbLayerIndex
  3
AutoCAD 2000
 90
        0
280
               0
281
               0
  0
CLASS
  1
SPATIAL_INDEX
  2
AcDbSpatialIndex
  3
AutoCAD 2000
 90
        0
280
               0
281
               0
  0
CLASS
  1
OBJECT_PTR
  2
CAseDLPNTableRecord
  3
"ASE-LPNTableRecord"
 90
        1
280
               0
281
               0
  0
CLASS
  1
LAYOUT
  2
AcDbLayout
  3
AutoCAD 2000
 90
        0
280
               0
281
               0
  0
CLASS
  1
PLOTSETTINGS
  2
AcDbPlotSettings
  3
AutoCAD 2000
 90
        0
280
               0
281
               0
  0
CLASS
  1
ACDBDICTIONARYWDFLT
  2
AcDbDictionaryWithDefault
  3
AutoCAD 2000
 90
        0
280
               0
281
               0
  0
CLASS
  1
ACDBPLACEHOLDER
  2
AcDbPlaceHolder
  3
AutoCAD 2000
 90
        0
280
               0
281
               0
  0
CLASS
  1
VBA_PROJECT
  2
AcDbVbaProject
  3
acadvba
 90
        0
280
               0
281
               0
  0
CLASS
  1
WIPEOUT
  2
AcDbWipeout
  3
WipeOut|AutoCAD Express Tool|expresstools@autodesk.com
 90
      127
280
               0
281
               1
  0
CLASS
  1
WIPEOUTVARIABLES
  2
AcDbWipeoutVariables
  3
WipeOut|AutoCAD Express Tool|expresstools@autodesk.com
 90
        0
280
               0
281
               0
  0
CLASS
  1
RTEXT
  2
RText
  3
RText|AutoCAD Express Tool|expresstools@autodesk.com
 90
        0
280
               0
281
               1
  0
CLASS
  1
ARCALIGNEDTEXT
  2
AcDbArcAlignedText
  3
ATEXT|AutoCAD Express Tool|expresstools@autodesk.com
 90
        0
280
               0
281
               1
  0
ENDSEC
  0
SECTION
  2
TABLES
  0
TABLE
  2
VPORT
  5
7
100
AcDbSymbolTable
 70
               1
  0
VPORT
  5
15
100
AcDbSymbolTableRecord
100
AcDbViewportTableRecord
  2
*ACTIVE
 70
               0
 10
0.0
 20
0.0
 11
1.0
 21
1.0
 12
100.0
 22
136.46635210513409
 13
0.0
 23
0.0
 14
1.0
 24
1.0
 15
0.0
 25
0.0
 16
0.0
 26
0.0
 36
1.0
 17
0.0
 27
0.0
 37
0.0
 40
4006.0094368459772
 41
0.688564
 42
50.0
 43
0.0
 44
0.0
 50
0.0
 51
0.0
 71
               0
 72
            2000
 73
               1
 74
               1
 75
               0
 76
               0
 77
               0
 78
               0
281
               0
 65
               0
110
0.0
120
0.0
130
0.0
111
1.0
121
0.0
131
0.0
112
0.0
122
1.0
132
0.0
345
0
346
0
 79
               0
146
0.0
  0
ENDTAB
  0
TABLE
  2
LTYPE
  5
4
100
AcDbSymbolTable
 70
              13
  0
LTYPE
  5
11
100
AcDbSymbolTableRecord
100
AcDbLinetypeTableRecord
  2
ByBlock
 70
              64
  3

 72
              65
 73
               0
 40
0.0
  0
LTYPE
  5
12
100
AcDbSymbolTableRecord
100
AcDbLinetypeTableRecord
  2
ByLayer
 70
              64
  3

 72
              65
 73
               0
 40
0.0
  0
LTYPE
  5
13
100
AcDbSymbolTableRecord
100
AcDbLinetypeTableRecord
  2
Continuous
 70
              64
  3
Solid line
 72
              65
 73
               0
 40
0.0
  0
LTYPE
  5
2C
100
AcDbSymbolTableRecord
100
AcDbLinetypeTableRecord
  2
STYLE_01
 70
               0
  3

 72
              65
 73
               2
 40
0.4166412353515625
 49
0.208282470703125
 74
               0
 49
-0.2083587646484375
 74
               0
  0
LTYPE
  5
2D
100
AcDbSymbolTableRecord
100
AcDbLinetypeTableRecord
  2
STYLE_02
 70
               0
  3

 72
              65
 73
               2
 40
0.694427490234375
 49
0.4860687255859375
 74
               0
 49
-0.2083587646484375
 74
               0
  0
LTYPE
  5
2E
100
AcDbSymbolTableRecord
100
AcDbLinetypeTableRecord
  2
STYLE_03
 70
               0
  3

 72
              65
 73
               2
 40
1.25
 49
1.0416412353515625
 74
               0
 49
-0.2083587646484375
 74
               0
  0
LTYPE
  5
2F
100
AcDbSymbolTableRecord
100
AcDbLinetypeTableRecord
  2
STYLE_04
 70
               0
  3

 72
              65
 73
               2
 40
1.5277099609375
 49
1.319427490234375
 74
               0
 49
-0.208282470703125
 74
               0
  0
LTYPE
  5
30
100
AcDbSymbolTableRecord
100
AcDbLinetypeTableRecord
  2
STYLE_05
 70
               0
  3

 72
              65
 73
               2
 40
0.208282470703125
 49
0.069427490234375
 74
               0
 49
-0.13885498046875
 74
               0
  0
LTYPE
  5
31
100
AcDbSymbolTableRecord
100
AcDbLinetypeTableRecord
  2
STYLE_06
 70
               0
  3

 72
              65
 73
               4
 40
1.0416412353515625
 49
0.625
 74
               0
 49
-0.208282470703125
 74
               0
 49
0.069427490234375
 74
               0
 49
-0.1389312744140625
 74
               0
  0
LTYPE
  5
32
100
AcDbSymbolTableRecord
100
AcDbLinetypeTableRecord
  2
STYLE_07
 70
               0
  3

 72
              65
 73
               6
 40
1.875
 49
0.625
 74
               0
 49
-0.208282470703125
 74
               0
 49
0.625
 74
               0
 49
-0.2083587646484375
 74
               0
 49
0.069427490234375
 74
               0
 49
-0.1389312744140625
 74
               0
  0
LTYPE
  5
33
100
AcDbSymbolTableRecord
100
AcDbLinetypeTableRecord
  2
STYLE_08
 70
               0
  3

 72
              65
 73
               6
 40
1.25
 49
0.625
 74
               0
 49
-0.208282470703125
 74
               0
 49
0.069427490234375
 74
               0
 49
-0.1389312744140625
 74
               0
 49
0.069427490234375
 74
               0
 49
-0.1389312744140625
 74
               0
  0
LTYPE
  5
34
100
AcDbSymbolTableRecord
100
AcDbLinetypeTableRecord
  2
STYLE_09
 70
               0
  3

 72
              65
 73
               4
 40
5.0
 49
3.75
 74
               0
 49
-0.2777862548828125
 74
               0
 49
0.694427490234375
 74
               0
 49
-0.2777862548828125
 74
               0
  0
LTYPE
  5
35
100
AcDbSymbolTableRecord
100
AcDbLinetypeTableRecord
  2
STYLE_10
 70
               0
  3

 72
              65
 73
               6
 40
5.9375
 49
3.75
 74
               0
 49
-0.2777862548828125
 74
               0
 49
0.694427490234375
 74
               0
 49
-0.2777862548828125
 74
               0
 49
0.625
 74
               0
 49
-0.3125
 74
               0
  0
ENDTAB
  0
TABLE
  2
LAYER
  5
2
100
AcDbSymbolTable
 70
               5
  0
LAYER
  5
14
100
AcDbSymbolTableRecord
100
AcDbLayerTableRecord
  2
0
 70
               0
 62
               7
  6
Continuous
290
               1
370
              -3
390
1D
  0
LAYER
  5
36
100
AcDbSymbolTableRecord
100
AcDbLayerTableRecord
  2
一般
 70
               0
 62
               7
  6
Continuous
290
               1
370
               0
390
1D
  0
LAYER
  5
37
100
AcDbSymbolTableRecord
100
AcDbLayerTableRecord
  2
寸法
 70
               0
 62
               7
  6
Continuous
290
               1
370
               0
390
1D
  0
LAYER
  5
38
100
AcDbSymbolTableRecord
100
AcDbLayerTableRecord
  2
Layer1
 70
               0
 62
               3
  6
Continuous
290
               1
370
               0
390
1D
  0
LAYER
  5
39
100
AcDbSymbolTableRecord
100
AcDbLayerTableRecord
  2
Defpoints
 70
               0
 62
               7
  6
Continuous
290
               0
370
              -3
390
1D
  0
ENDTAB
  0
TABLE
  2
STYLE
  5
3
100
AcDbSymbolTable
 70
               2
  0
STYLE
  5
17
100
AcDbSymbolTableRecord
100
AcDbTextStyleTableRecord
  2
Standard
 70
               0
 40
0.0
 41
1.0
 50
0.0
 71
               0
 42
0.0
  3
txt
  4
BIGFONT.SHX
  0
STYLE
  5
2B
100
AcDbSymbolTableRecord
100
AcDbTextStyleTableRecord
  2
ＭＳ ゴシック
 70
               0
 40
0.0
 41
1.0
 50
0.0
 71
               0
 42
0.0
  3

  4
ＭＳ ゴシック
1001
ACAD
1000
ＭＳ ゴシック
1071
        0
  0
ENDTAB
  0
TABLE
  2
VIEW
  5
5
100
AcDbSymbolTable
 70
               0
  0
ENDTAB
  0
TABLE
  2
UCS
  5
6
100
AcDbSymbolTable
 70
               0
  0
ENDTAB
  0
TABLE
  2
APPID
  5
8
100
AcDbSymbolTable
 70
               1
  0
APPID
  5
16
100
AcDbSymbolTableRecord
100
AcDbRegAppTableRecord
  2
ACAD
 70
               0
  0
ENDTAB
  0
TABLE
  2
DIMSTYLE
  5
9
100
AcDbSymbolTable
 70
               2
100
AcDbDimStyleTable
 71
               0
  0
DIMSTYLE
105
18
100
AcDbSymbolTableRecord
100
AcDbDimStyleTableRecord
  2
Standard
 70
               0
  3

  4

 40
1.0
 41
0.18
 42
0.0625
 43
0.38
 44
0.18
 45
0.0
 46
0.0
 47
0.0
 48
0.0
 71
               0
 72
               0
 73
               1
 74
               1
 75
               0
 76
               0
 77
               0
 78
               0
 79
               0
140
0.18
141
0.09
142
0.0
143
25.399999999999999
144
1.0
145
0.0
146
1.0
147
0.09
148
0.0
170
               0
171
               2
172
               0
173
               0
174
               0
175
               0
176
               0
177
               0
178
               0
179
               0
271
               4
272
               4
273
               2
274
               2
275
               0
276
               0
277
               2
278
              46
279
               0
280
               0
281
               0
282
               0
283
               1
284
               0
285
               0
286
               0
288
               0
289
               3
340
17
341
0
342
0
343
0
344
0
371
              -2
372
              -2
  0
DIMSTYLE
105
43
100
AcDbSymbolTableRecord
100
AcDbDimStyleTableRecord
  2
HIBINO
 70
               0
  3
<>
  4
[]
 40
1.0
 41
37.50933837890625
 42
29.999999999999996
 43
4.9999999999999991
 44
29.999999999999996
 45
0.0
 46
0.0
 47
0.0
 48
0.0
 71
               0
 72
               0
 73
               0
 74
               0
 75
               0
 76
               0
 77
               1
 78
              11
 79
               0
140
40.721028645833343
141
0.0
142
0.0
143
1.0
144
1.0
145
0.0
146
1.0
147
0.4999999999999999
148
0.0
170
               0
171
               2
172
               1
173
               0
174
               1
175
               0
176
               0
177
               0
178
               0
179
               0
271
               2
272
               2
273
               2
274
               2
275
               0
276
               2
277
               2
278
              46
279
               0
280
               0
281
               0
282
               0
283
               1
284
              11
285
              11
286
              11
288
               0
289
               0
340
2B
341
3A
342
3A
343
0
344
0
371
              -2
372
              -2
  0
ENDTAB
  0
TABLE
  2
BLOCK_RECORD
  5
1
100
AcDbSymbolTable
 70
               8
  0
BLOCK_RECORD
  5
A
100
AcDbSymbolTableRecord
100
AcDbBlockTableRecord
  2
*MODEL_SPACE
340
20
  0
BLOCK_RECORD
  5
B
100
AcDbSymbolTableRecord
100
AcDbBlockTableRecord
  2
*PAPER_SPACE
340
21
  0
BLOCK_RECORD
  5
3A
100
AcDbSymbolTableRecord
100
AcDbBlockTableRecord
  2
VW_EMPTYARROW
340
0
  0
BLOCK_RECORD
  5
24
100
AcDbSymbolTableRecord
100
AcDbBlockTableRecord
  2
*D1
340
0
  0
BLOCK_RECORD
  5
25
100
AcDbSymbolTableRecord
100
AcDbBlockTableRecord
  2
*D2
340
0
  0
BLOCK_RECORD
  5
26
100
AcDbSymbolTableRecord
100
AcDbBlockTableRecord
  2
*D3
340
0
  0
BLOCK_RECORD
  5
27
100
AcDbSymbolTableRecord
100
AcDbBlockTableRecord
  2
*D4
340
0
  0
BLOCK_RECORD
  5
28
100
AcDbSymbolTableRecord
100
AcDbBlockTableRecord
  2
*D5
340
0
  0
BLOCK_RECORD
  5
29
100
AcDbSymbolTableRecord
100
AcDbBlockTableRecord
  2
Callout
340
0
102
{BLKREFS
331
5E2
102
}
  0
BLOCK_RECORD
  5
2A
100
AcDbSymbolTableRecord
100
AcDbBlockTableRecord
  2
Callout-1
340
0
102
{BLKREFS
331
5E3
102
}
  0
ENDTAB
  0
ENDSEC
  0
SECTION
  2
BLOCKS
  0
BLOCK
  5
D
100
AcDbEntity
  8
0
390
0
100
AcDbBlockBegin
  2
*MODEL_SPACE
 70
               0
 10
0.0
 20
0.0
 30
0.0
  3
*MODEL_SPACE
  1

  0
ENDBLK
  5
E
100
AcDbEntity
  8
0
390
0
100
AcDbBlockEnd
  0
BLOCK
  5
F
100
AcDbEntity
 67
               1
  8
0
390
0
100
AcDbBlockBegin
  2
*PAPER_SPACE
 70
               0
 10
0.0
 20
0.0
 30
0.0
  3
*PAPER_SPACE
  1

  0
ENDBLK
  5
10
100
AcDbEntity
 67
               1
  8
0
390
0
100
AcDbBlockEnd
  0
BLOCK
  5
3B
100
AcDbEntity
  8
0
370
              -2
390
0
  6
ByBlock
 62
               0
100
AcDbBlockBegin
  2
VW_EMPTYARROW
 70
               0
 10
0.0
 20
0.0
 30
0.0
  3
VW_EMPTYARROW
  1

  0
LINE
  5
3C
100
AcDbEntity
  8
0
370
              -2
390
0
  6
ByBlock
 62
               0
100
AcDbLine
 10
0.0
 20
0.0
 30
0.0
 11
-1.0
 21
0.0
 31
0.0
  0
POLYLINE
  5
3D
100
AcDbEntity
  8
一般
370
              -2
390
0
  6
Continuous
 62
               0
100
AcDb2dPolyline
 66
               1
 10
0.0
 20
0.0
 30
0.0
 75
               5
  0
VERTEX
  5
3E
100
AcDbEntity
  8
一般
370
              -2
390
0
  6
Continuous
 62
               0
100
AcDbVertex
100
AcDb2dVertex
 10
-0.99993896484375
 20
0.2679328381102957
 30
0.0
  0
VERTEX
  5
3F
100
AcDbEntity
  8
一般
370
              -2
390
0
  6
Continuous
 62
               0
100
AcDbVertex
100
AcDb2dVertex
 10
0.0
 20
0.0
 30
0.0
  0
VERTEX
  5
40
100
AcDbEntity
  8
一般
370
              -2
390
0
  6
Continuous
 62
               0
100
AcDbVertex
100
AcDb2dVertex
 10
-0.9999389648437499
 20
-0.2679328381102959
 30
0.0
  0
SEQEND
  5
41
100
AcDbEntity
  8
一般
370
              -2
390
0
  6
Continuous
 62
               0
  0
ENDBLK
  5
42
100
AcDbEntity
  8
0
390
0
100
AcDbBlockEnd
  0
BLOCK
  5
44
100
AcDbEntity
  8
寸法
390
0
100
AcDbBlockBegin
  2
*D1
 70
               1
 10
0.0
 20
0.0
 30
0.0
  3
*D1
  1

  0
LINE
  5
45
100
AcDbEntity
  8
寸法
370
              -2
390
0
  6
Continuous
 62
               0
100
AcDbLine
 10
-200.0
 20
-630.0
 30
0.0
 11
-200.0
 21
-780.00000000013142
 31
0.0
  0
LINE
  5
46
100
AcDbEntity
  8
寸法
370
              -2
390
0
  6
Continuous
 62
               0
100
AcDbLine
 10
148.00000000000085
 20
-629.9999999999975
 30
0.0
 11
148.00000000000085
 21
-780.00000000013142
 31
0.0
  0
LINE
  5
47
100
AcDbEntity
  8
寸法
370
              -2
390
0
  6
Continuous
 62
               0
100
AcDbLine
 10
-200.0
 20
-750.00000000013142
 30
0.0
 11
148.00000000000085
 21
-750.00000000013142
 31
0.0
  0
POLYLINE
  5
48
100
AcDbEntity
  8
一般
370
              -2
390
0
  6
Continuous
 62
               0
100
AcDb2dPolyline
 66
               1
 10
0.0
 20
0.0
 30
0.0
 75
               5
  0
VERTEX
  5
49
100
AcDbEntity
  8
一般
370
              -2
390
0
  6
Continuous
 62
               0
100
AcDbVertex
100
AcDb2dVertex
 10
-162.49066162109375
 20
-760.05059692738507
 30
0.0
  0
VERTEX
  5
4A
100
AcDbEntity
  8
一般
370
              -2
390
0
  6
Continuous
 62
               0
100
AcDbVertex
100
AcDb2dVertex
 10
-200.0
 20
-750.00000000013142
 30
0.0
  0
VERTEX
  5
4B
100
AcDbEntity
  8
一般
370
              -2
390
0
  6
Continuous
 62
               0
100
AcDbVertex
100
AcDb2dVertex
 10
-162.49066162109375
 20
-739.94940307287777
 30
0.0
  0
SEQEND
  5
4C
100
AcDbEntity
  8
一般
370
              -2
390
0
  6
Continuous
 62
               0
  0
POLYLINE
  5
4D
100
AcDbEntity
  8
一般
370
              -2
390
0
  6
Continuous
 62
               0
100
AcDb2dPolyline
 66
               1
 10
0.0
 20
0.0
 30
0.0
 75
               5
  0
VERTEX
  5
4E
100
AcDbEntity
  8
一般
370
              -2
390
0
  6
Continuous
 62
               0
100
AcDbVertex
100
AcDb2dVertex
 10
110.49066162109459
 20
-739.94940307287777
 30
0.0
  0
VERTEX
  5
4F
100
AcDbEntity
  8
一般
370
              -2
390
0
  6
Continuous
 62
               0
100
AcDbVertex
100
AcDb2dVertex
 10
148.00000000000085
 20
-750.00000000013142
 30
0.0
  0
VERTEX
  5
50
100
AcDbEntity
  8
一般
370
              -2
390
0
  6
Continuous
 62
               0
100
AcDbVertex
100
AcDb2dVertex
 10
110.4906616210946
 20
-760.05059692738507
 30
0.0
  0
SEQEND
  5
51
100
AcDbEntity
  8
一般
370
              -2
390
0
  6
Continuous
 62
               0
  0
MTEXT
  5
52
100
AcDbEntity
  8
寸法
390
0
 62
               0
100
AcDbMText
 10
-65.687499999999588
 20
-694.37063802096475
 30
0.0
 40
40.721028645833343
 41
0.0
 71
               1
 72
               1
  1
{\fＭＳ ゴシック|b0|i0|c128|p0;\l348}
 73
               1
 44
0.7828267384257843
  0
POINT
  5
53
100
AcDbEntity
  8
Defpoints
370
               0
390
0
 62
               0
100
AcDbPoint
 10
148.00000000000085
 20
-599.9999999999975
 30
0.0
  0
POINT
  5
54
100
AcDbEntity
  8
Defpoints
370
               0
390
0
 62
               0
100
AcDbPoint
 10
-200.0
 20
-600.0
 30
0.0
  0
POINT
  5
55
100
AcDbEntity
  8
Defpoints
370
               0
390
0
 62
               0
100
AcDbPoint
 10
-200.0
 20
-750.00000000013142
 30
0.0
  0
ENDBLK
  5
56
100
AcDbEntity
  8
寸法
390
0
100
AcDbBlockEnd
  0
BLOCK
  5
57
100
AcDbEntity
  8
寸法
390
0
100
AcDbBlockBegin
  2
*D2
 70
               1
 10
0.0
 20
0.0
 30
0.0
  3
*D2
  1

  0
LINE
  5
58
100
AcDbEntity
  8
寸法
370
              -2
390
0
  6
Continuous
 62
               0
100
AcDbLine
 10
-230.0
 20
-600.0
 30
0.0
 11
-380.00000000022936
 21
-600.0
 31
0.0
  0
LINE
  5
59
100
AcDbEntity
  8
寸法
370
              -2
390
0
  6
Continuous
 62
               0
100
AcDbLine
 10
-230.00000000000728
 20
30.000000000000256
 30
0.0
 11
-380.00000000022936
 21
30.000000000000256
 31
0.0
  0
LINE
  5
5A
100
AcDbEntity
  8
寸法
370
              -2
390
0
  6
Continuous
 62
               0
100
AcDbLine
 10
-350.00000000022936
 20
-600.0
 30
0.0
 11
-350.00000000022936
 21
30.000000000000256
 31
0.0
  0
POLYLINE
  5
5B
100
AcDbEntity
  8
一般
370
              -2
390
0
  6
Continuous
 62
               0
100
AcDb2dPolyline
 66
               1
 10
0.0
 20
0.0
 30
0.0
 75
               5
  0
VERTEX
  5
5C
100
AcDbEntity
  8
一般
370
              -2
390
0
  6
Continuous
 62
               0
100
AcDbVertex
100
AcDb2dVertex
 10
-339.94940307297571
 20
-562.49066162109375
 30
0.0
  0
VERTEX
  5
5D
100
AcDbEntity
  8
一般
370
              -2
390
0
  6
Continuous
 62
               0
100
AcDbVertex
100
AcDb2dVertex
 10
-350.00000000022936
 20
-600.0
 30
0.0
  0
VERTEX
  5
5E
100
AcDbEntity
  8
一般
370
              -2
390
0
  6
Continuous
 62
               0
100
AcDbVertex
100
AcDb2dVertex
 10
-360.05059692748301
 20
-562.49066162109375
 30
0.0
  0
SEQEND
  5
5F
100
AcDbEntity
  8
一般
370
              -2
390
0
  6
Continuous
 62
               0
  0
POLYLINE
  5
60
100
AcDbEntity
  8
一般
370
              -2
390
0
  6
Continuous
 62
               0
100
AcDb2dPolyline
 66
               1
 10
0.0
 20
0.0
 30
0.0
 75
               5
  0
VERTEX
  5
61
100
AcDbEntity
  8
一般
370
              -2
390
0
  6
Continuous
 62
               0
100
AcDbVertex
100
AcDb2dVertex
 10
-360.05059692748301
 20
-7.5093383789059942
 30
0.0
  0
VERTEX
  5
62
100
AcDbEntity
  8
一般
370
              -2
390
0
  6
Continuous
 62
               0
100
AcDbVertex
100
AcDb2dVertex
 10
-350.00000000022936
 20
30.000000000000256
 30
0.0
  0
VERTEX
  5
63
100
AcDbEntity
  8
一般
370
              -2
390
0
  6
Continuous
 62
               0
100
AcDbVertex
100
AcDb2dVertex
 10
-339.94940307297571
 20
-7.5093383789059942
 30
0.0
  0
SEQEND
  5
64
100
AcDbEntity
  8
一般
370
              -2
390
0
  6
Continuous
 62
               0
  0
MTEXT
  5
65
100
AcDbEntity
  8
寸法
390
0
 62
               0
100
AcDbMText
 10
-405.62936197939598
 20
-324.68749999999989
 30
0.0
 40
40.721028645833343
 41
0.0
 71
               1
 72
               1
  1
{\fＭＳ ゴシック|b0|i0|c128|p0;\l630}
 11
0.0
 21
1.0
 31
0.0
 73
               1
 44
0.7828267384257843
  0
POINT
  5
66
100
AcDbEntity
  8
Defpoints
370
               0
390
0
 62
               0
100
AcDbPoint
 10
-200.00000000000728
 20
30.000000000000256
 30
0.0
  0
POINT
  5
67
100
AcDbEntity
  8
Defpoints
370
               0
390
0
 62
               0
100
AcDbPoint
 10
-200.0
 20
-600.0
 30
0.0
  0
POINT
  5
68
100
AcDbEntity
  8
Defpoints
370
               0
390
0
 62
               0
100
AcDbPoint
 10
-350.00000000022936
 20
-600.0
 30
0.0
  0
ENDBLK
  5
69
100
AcDbEntity
  8
寸法
390
0
100
AcDbBlockEnd
  0
BLOCK
  5
6A
100
AcDbEntity
  8
寸法
390
0
100
AcDbBlockBegin
  2
*D3
 70
               1
 10
0.0
 20
0.0
 30
0.0
  3
*D3
  1

  0
LINE
  5
6B
100
AcDbEntity
  8
寸法
370
              -2
390
0
  6
Continuous
 62
               0
100
AcDbLine
 10
-116.00000000022938
 20
200.00144234933828
 30
0.0
 11
-380.00000000022936
 21
200.00144234933828
 31
0.0
  0
LINE
  5
6C
100
AcDbEntity
  8
寸法
370
              -2
390
0
  6
Continuous
 62
               0
100
AcDbLine
 10
-129.00000000022936
 20
520.00000000000023
 30
0.0
 11
-380.00000000022936
 21
520.00000000000023
 31
0.0
  0
LINE
  5
6D
100
AcDbEntity
  8
寸法
370
              -2
390
0
  6
Continuous
 62
               0
100
AcDbLine
 10
-350.00000000022936
 20
200.00144234933828
 30
0.0
 11
-350.00000000022936
 21
520.00000000000023
 31
0.0
  0
POLYLINE
  5
6E
100
AcDbEntity
  8
一般
370
              -2
390
0
  6
Continuous
 62
               0
100
AcDb2dPolyline
 66
               1
 10
0.0
 20
0.0
 30
0.0
 75
               5
  0
VERTEX
  5
6F
100
AcDbEntity
  8
一般
370
              -2
390
0
  6
Continuous
 62
               0
100
AcDbVertex
100
AcDb2dVertex
 10
-339.94940307297571
 20
237.51078072824453
 30
0.0
  0
VERTEX
  5
70
100
AcDbEntity
  8
一般
370
              -2
390
0
  6
Continuous
 62
               0
100
AcDbVertex
100
AcDb2dVertex
 10
-350.00000000022936
 20
200.00144234933828
 30
0.0
  0
VERTEX
  5
71
100
AcDbEntity
  8
一般
370
              -2
390
0
  6
Continuous
 62
               0
100
AcDbVertex
100
AcDb2dVertex
 10
-360.05059692748301
 20
237.51078072824453
 30
0.0
  0
SEQEND
  5
72
100
AcDbEntity
  8
一般
370
              -2
390
0
  6
Continuous
 62
               0
  0
POLYLINE
  5
73
100
AcDbEntity
  8
一般
370
              -2
390
0
  6
Continuous
 62
               0
100
AcDb2dPolyline
 66
               1
 10
0.0
 20
0.0
 30
0.0
 75
               5
  0
VERTEX
  5
74
100
AcDbEntity
  8
一般
370
              -2
390
0
  6
Continuous
 62
               0
100
AcDbVertex
100
AcDb2dVertex
 10
-360.05059692748301
 20
482.49066162109398
 30
0.0
  0
VERTEX
  5
75
100
AcDbEntity
  8
一般
370
              -2
390
0
  6
Continuous
 62
               0
100
AcDbVertex
100
AcDb2dVertex
 10
-350.00000000022936
 20
520.00000000000023
 30
0.0
  0
VERTEX
  5
76
100
AcDbEntity
  8
一般
370
              -2
390
0
  6
Continuous
 62
               0
100
AcDbVertex
100
AcDb2dVertex
 10
-339.94940307297571
 20
482.49066162109398
 30
0.0
  0
SEQEND
  5
77
100
AcDbEntity
  8
一般
370
              -2
390
0
  6
Continuous
 62
               0
  0
MTEXT
  5
78
100
AcDbEntity
  8
寸法
390
0
 62
               0
100
AcDbMText
 10
-405.62936197939598
 20
320.31322117466925
 30
0.0
 40
40.721028645833343
 41
0.0
 71
               1
 72
               1
  1
{\fＭＳ ゴシック|b0|i0|c128|p0;\l320}
 11
0.0
 21
1.0
 31
0.0
 73
               1
 44
0.7828267384257843
  0
POINT
  5
79
100
AcDbEntity
  8
Defpoints
370
               0
390
0
 62
               0
100
AcDbPoint
 10
-99.000000000229377
 20
520.00000000000023
 30
0.0
  0
POINT
  5
7A
100
AcDbEntity
  8
Defpoints
370
               0
390
0
 62
               0
100
AcDbPoint
 10
-86.000000000229377
 20
200.00144234933828
 30
0.0
  0
POINT
  5
7B
100
AcDbEntity
  8
Defpoints
370
               0
390
0
 62
               0
100
AcDbPoint
 10
-350.00000000022936
 20
200.00144234933828
 30
0.0
  0
ENDBLK
  5
7C
100
AcDbEntity
  8
寸法
390
0
100
AcDbBlockEnd
  0
BLOCK
  5
7D
100
AcDbEntity
  8
寸法
390
0
100
AcDbBlockBegin
  2
*D4
 70
               1
 10
0.0
 20
0.0
 30
0.0
  3
*D4
  1

  0
LINE
  5
7E
100
AcDbEntity
  8
寸法
370
              -2
390
0
  6
Continuous
 62
               0
100
AcDbLine
 10
147.99986635394345
 20
430.60881211689593
 30
0.0
 11
147.99986635394345
 21
576.7319329919045
 31
0.0
  0
ARC
  5
7F
100
AcDbEntity
  8
寸法
370
              -2
390
0
  6
Continuous
 62
               0
100
AcDbCircle
 10
147.99986635394345
 20
380.60881211689593
 30
0.0
 40
166.12312087500857
100
AcDbArc
 50
90.0
 51
144.99998250212354
  0
POLYLINE
  5
80
100
AcDbEntity
  8
一般
370
              -2
390
0
  6
Continuous
 62
               0
100
AcDb2dPolyline
 66
               1
 10
0.0
 20
0.0
 30
0.0
 75
               5
  0
VERTEX
  5
81
100
AcDbEntity
  8
一般
370
              -2
390
0
  6
Continuous
 62
               0
100
AcDbVertex
100
AcDb2dVertex
 10
42.098341025053344
 20
500.33126088786889
 30
0.0
  0
VERTEX
  5
82
100
AcDbEntity
  8
一般
370
              -2
390
0
  6
Continuous
 62
               0
100
AcDbVertex
100
AcDb2dVertex
 10
11.91980138492336
 20
475.89316134214903
 30
0.0
  0
VERTEX
  5
83
100
AcDbEntity
  8
一般
370
              -2
390
0
  6
Continuous
 62
               0
100
AcDbVertex
100
AcDb2dVertex
 10
25.836133589531684
 20
512.14644618902037
 30
0.0
  0
SEQEND
  5
84
100
AcDbEntity
  8
一般
370
              -2
390
0
  6
Continuous
 62
               0
  0
POLYLINE
  5
85
100
AcDbEntity
  8
一般
370
              -2
390
0
  6
Continuous
 62
               0
100
AcDb2dPolyline
 66
               1
 10
0.0
 20
0.0
 30
0.0
 75
               5
  0
VERTEX
  5
86
100
AcDbEntity
  8
一般
370
              -2
390
0
  6
Continuous
 62
               0
100
AcDbVertex
100
AcDb2dVertex
 10
110.4905279750372
 20
556.78252991915815
 30
0.0
  0
VERTEX
  5
87
100
AcDbEntity
  8
一般
370
              -2
390
0
  6
Continuous
 62
               0
100
AcDbVertex
100
AcDb2dVertex
 10
147.99986635394345
 20
546.7319329919045
 30
0.0
  0
VERTEX
  5
88
100
AcDbEntity
  8
一般
370
              -2
390
0
  6
Continuous
 62
               0
100
AcDbVertex
100
AcDb2dVertex
 10
110.4905279750372
 20
536.68133606465085
 30
0.0
  0
SEQEND
  5
89
100
AcDbEntity
  8
一般
370
              -2
390
0
  6
Continuous
 62
               0
  0
MTEXT
  5
8A
100
AcDbEntity
  8
寸法
390
0
 62
               0
100
AcDbMText
 10
13.168764990831036
 20
564.44276866736834
 30
0.0
 40
40.72104684955552
 41
0.0
 71
               1
 72
               1
  1
{\fＭＳ ゴシック|b0|i0|c128|p0;\l55°}
 11
0.9216172320702354
 21
0.3881000870280731
 31
0.0
 73
               1
 44
0.7828267384257843
  0
POINT
  5
8B
100
AcDbEntity
  8
Defpoints
370
               0
390
0
 62
               0
100
AcDbPoint
 10
147.99986635394345
 20
400.60881211689593
 30
0.0
  0
POINT
  5
8C
100
AcDbEntity
  8
Defpoints
370
               0
390
0
 62
               0
100
AcDbPoint
 10
-29.610799453874407
 20
504.97322001760233
 30
0.0
  0
POINT
  5
8D
100
AcDbEntity
  8
Defpoints
370
               0
390
0
 62
               0
100
AcDbPoint
 10
147.99986635394345
 20
380.60881211689593
 30
0.0
  0
ENDBLK
  5
8E
100
AcDbEntity
  8
寸法
390
0
100
AcDbBlockEnd
  0
BLOCK
  5
8F
100
AcDbEntity
  8
寸法
390
0
100
AcDbBlockBegin
  2
*D5
 70
               1
 10
0.0
 20
0.0
 30
0.0
  3
*D5
  1

  0
LINE
  5
90
100
AcDbEntity
  8
寸法
370
              -2
390
0
  6
Continuous
 62
               0
100
AcDbLine
 10
-199.99994481854367
 20
447.91227891377093
 30
0.0
 11
-199.99994481854367
 21
636.09354967481454
 31
0.0
  0
LINE
  5
91
100
AcDbEntity
  8
寸法
370
              -2
390
0
  6
Continuous
 62
               0
100
AcDbLine
 10
-107.82785896388846
 20
529.5477893127196
 30
0.0
 11
-63.384870658000224
 21
593.01901701744259
 31
0.0
  0
ARC
  5
92
100
AcDbEntity
  8
寸法
370
              -2
390
0
  6
Continuous
 62
               0
100
AcDbCircle
 10
-199.99994481854367
 20
397.91227891377093
 30
0.0
 40
208.18127076104358
100
AcDbArc
 50
55.000026526105941
 51
90.0
  0
POLYLINE
  5
93
100
AcDbEntity
  8
一般
370
              -2
390
0
  6
Continuous
 62
               0
100
AcDb2dPolyline
 66
               1
 10
0.0
 20
0.0
 30
0.0
 75
               5
  0
VERTEX
  5
94
100
AcDbEntity
  8
一般
370
              -2
390
0
  6
Continuous
 62
               0
100
AcDbVertex
100
AcDb2dVertex
 10
-162.49060643963742
 20
596.04295274756078
 30
0.0
  0
VERTEX
  5
95
100
AcDbEntity
  8
一般
370
              -2
390
0
  6
Continuous
 62
               0
100
AcDbVertex
100
AcDb2dVertex
 10
-199.99994481854367
 20
606.09354967481454
 30
0.0
  0
VERTEX
  5
96
100
AcDbEntity
  8
一般
370
              -2
390
0
  6
Continuous
 62
               0
100
AcDbVertex
100
AcDb2dVertex
 10
-162.49060643963742
 20
616.14414660206808
 30
0.0
  0
SEQEND
  5
97
100
AcDbEntity
  8
一般
370
              -2
390
0
  6
Continuous
 62
               0
  0
POLYLINE
  5
98
100
AcDbEntity
  8
一般
370
              -2
390
0
  6
Continuous
 62
               0
100
AcDb2dPolyline
 66
               1
 10
0.0
 20
0.0
 30
0.0
 75
               5
  0
VERTEX
  5
99
100
AcDbEntity
  8
一般
370
              -2
390
0
  6
Continuous
 62
               0
100
AcDbVertex
100
AcDb2dVertex
 10
-105.55321801557069
 20
598.19188737889453
 30
0.0
  0
VERTEX
  5
9A
100
AcDbEntity
  8
一般
370
              -2
390
0
  6
Continuous
 62
               0
100
AcDbVertex
100
AcDb2dVertex
 10
-80.592152371297018
 20
568.44444772235147
 30
0.0
  0
VERTEX
  5
9B
100
AcDbEntity
  8
一般
370
              -2
390
0
  6
Continuous
 62
               0
100
AcDbVertex
100
AcDb2dVertex
 10
-117.08278915304054
 20
581.72595334032553
 30
0.0
  0
SEQEND
  5
9C
100
AcDbEntity
  8
一般
370
              -2
390
0
  6
Continuous
 62
               0
  0
MTEXT
  5
9D
100
AcDbEntity
  8
寸法
390
0
 62
               0
100
AcDbMText
 10
-141.55491632002662
 20
660.55350991949456
 30
0.0
 40
40.72104684955552
 41
0.0
 71
               1
 72
               1
  1
{\fＭＳ ゴシック|b0|i0|c128|p0;\l35°}
 11
0.9143408501931739
 21
-0.4049454403595921
 31
0.0
 73
               1
 44
0.7828267384257843
  0
POINT
  5
9E
100
AcDbEntity
  8
Defpoints
370
               0
390
0
 62
               0
100
AcDbPoint
 10
-199.99994481854367
 20
417.91227891377093
 30
0.0
  0
POINT
  5
9F
100
AcDbEntity
  8
Defpoints
370
               0
390
0
 62
               0
100
AcDbPoint
 10
-125.03514067718528
 20
504.97322001762836
 30
0.0
  0
POINT
  5
A0
100
AcDbEntity
  8
Defpoints
370
               0
390
0
 62
               0
100
AcDbPoint
 10
-199.99994481854367
 20
397.91227891377093
 30
0.0
  0
ENDBLK
  5
A1
100
AcDbEntity
  8
寸法
390
0
100
AcDbBlockEnd
  0
BLOCK
  5
A2
100
AcDbEntity
  8
Layer1
390
0
100
AcDbBlockBegin
  2
Callout
 70
               2
 10
0.0
 20
0.0
 30
0.0
  3
Callout
  1

  0
MTEXT
  5
A3
100
AcDbEntity
  8
Layer1
390
0
 62
               1
100
AcDbMText
 10
10.571097176612213
 20
-51.493293256142792
 30
0.0
 40
36.64892578125
 41
675.24900000000002
 71
               1
 72
               1
  1
{\fＭＳ ゴシック|b0|i0|c128|p0;\lG712Proのこの位置のネジ径は左右ともに8mmです。}
 11
-0.1767060989258258
 21
-0.9842636611205436
 31
0.0
 73
               1
 44
0.7828267384257843
  0
LINE
  5
A4
100
AcDbEntity
  8
Layer1
370
               0
390
0
  6
Continuous
 62
               1
100
AcDbLine
 10
-8.4156279613424694
 20
-46.875556860865885
 30
0.0
 11
0.0
 21
0.0
 31
0.0
  0
LINE
  5
A5
100
AcDbEntity
  8
Layer1
370
               0
390
0
  6
Continuous
 62
               1
100
AcDbLine
 10
0.0
 20
0.0
 30
0.0
 11
563.08389342346516
 21
0.0
 31
0.0
  0
POLYLINE
  5
A6
100
AcDbEntity
  8
一般
370
               0
390
0
  6
Continuous
 62
               1
100
AcDb2dPolyline
 66
               1
 10
0.0
 20
0.0
 30
0.0
 75
               5
  0
VERTEX
  5
A7
100
AcDbEntity
  8
一般
370
               0
390
0
  6
Continuous
 62
               1
100
AcDbVertex
100
AcDb2dVertex
 10
515.45889342346516
 20
12.76108028953222
 30
0.0
  0
VERTEX
  5
A8
100
AcDbEntity
  8
一般
370
               0
390
0
  6
Continuous
 62
               1
100
AcDbVertex
100
AcDb2dVertex
 10
563.08389342346516
 20
0.0
 30
0.0
  0
VERTEX
  5
A9
100
AcDbEntity
  8
一般
370
               0
390
0
  6
Continuous
 62
               1
100
AcDbVertex
100
AcDb2dVertex
 10
515.45889342346516
 20
-12.761080289532231
 30
0.0
  0
SEQEND
  5
AA
100
AcDbEntity
  8
一般
370
               0
390
0
  6
Continuous
 62
               1
  0
ENDBLK
  5
AB
100
AcDbEntity
  8
Layer1
390
0
100
AcDbBlockEnd
  0
BLOCK
  5
AC
100
AcDbEntity
  8
一般
390
0
100
AcDbBlockBegin
  2
Callout-1
 70
               2
 10
0.0
 20
0.0
 30
0.0
  3
Callout-1
  1

  0
MTEXT
  5
AD
100
AcDbEntity
  8
一般
390
0
 62
               1
100
AcDbMText
 10
-85.649175137135757
 20
-48.429495863568341
 30
0.0
 40
36.64892578125
 41
95.504000000000019
 71
               1
 72
               1
  1
{\fＭＳ ゴシック|b0|i0|c128|p0;\lΦM6}
 11
-0.9507734442330665
 21
-0.3098868466734138
 31
0.0
 73
               1
 44
0.7828267384257843
  0
LINE
  5
AE
100
AcDbEntity
  8
一般
370
               0
390
0
  6
Continuous
 62
               1
100
AcDbLine
 10
-90.561170563199596
 20
-29.516722145642639
 30
0.0
 11
0.0
 21
0.0
 31
0.0
  0
LINE
  5
AF
100
AcDbEntity
  8
一般
370
               0
390
0
  6
Continuous
 62
               1
100
AcDbLine
 10
0.0
 20
0.0
 30
0.0
 11
225.60581837296601
 21
0.0
 31
0.0
  0
POLYLINE
  5
B0
100
AcDbEntity
  8
一般
370
               0
390
0
  6
Continuous
 62
               1
100
AcDb2dPolyline
 66
               1
 10
0.0
 20
0.0
 30
0.0
 75
               5
  0
VERTEX
  5
B1
100
AcDbEntity
  8
一般
370
               0
390
0
  6
Continuous
 62
               1
100
AcDbVertex
100
AcDb2dVertex
 10
177.98081837296601
 20
12.76108028953222
 30
0.0
  0
VERTEX
  5
B2
100
AcDbEntity
  8
一般
370
               0
390
0
  6
Continuous
 62
               1
100
AcDbVertex
100
AcDb2dVertex
 10
225.60581837296601
 20
0.0
 30
0.0
  0
VERTEX
  5
B3
100
AcDbEntity
  8
一般
370
               0
390
0
  6
Continuous
 62
               1
100
AcDbVertex
100
AcDb2dVertex
 10
177.98081837296601
 20
-12.761080289532231
 30
0.0
  0
SEQEND
  5
B4
100
AcDbEntity
  8
一般
370
               0
390
0
  6
Continuous
 62
               1
  0
ENDBLK
  5
B5
100
AcDbEntity
  8
一般
390
0
100
AcDbBlockEnd
  0
ENDSEC
  0
SECTION
  2
ENTITIES
  0
LINE
  5
B6
100
AcDbEntity
  8
一般
370
               0
390
0
  6
Continuous
 62
               2
100
AcDbLine
 10
-1249.9999999999998
 20
2139.4710705281227
 30
0.0
 11
1449.9999999999998
 21
2139.4710705281227
 31
0.0
  0
LINE
  5
B7
100
AcDbEntity
  8
一般
370
               0
390
0
  6
Continuous
 62
               2
100
AcDbLine
 10
1449.9999999999998
 20
-1760.5289294718773
 30
0.0
 11
-1249.9999999999998
 21
-1760.5289294718773
 31
0.0
  0
LINE
  5
B8
100
AcDbEntity
  8
一般
370
               0
390
0
  6
Continuous
 62
               2
100
AcDbLine
 10
-1249.9999999999998
 20
-1760.5289294718773
 30
0.0
 11
-1249.9999999999998
 21
2139.4710705281227
 31
0.0
  0
LINE
  5
B9
100
AcDbEntity
  8
一般
370
               0
390
0
  6
Continuous
 62
               2
100
AcDbLine
 10
1449.9999999999998
 20
2139.4710705281227
 30
0.0
 11
1449.9999999999998
 21
-1760.5289294718773
 31
0.0
  0
LINE
  5
BA
100
AcDbEntity
  8
一般
370
               0
390
0
  6
Continuous
 62
               2
100
AcDbLine
 10
99.999999999999986
 20
-1423.0289294718771
 30
0.0
 11
1449.9999999999998
 21
-1423.0289294718771
 31
0.0
  0
LINE
  5
BB
100
AcDbEntity
  8
一般
370
               0
390
0
  6
Continuous
 62
               2
100
AcDbLine
 10
99.999999999999986
 20
-1760.5289294718773
 30
0.0
 11
99.999999999999986
 21
-1423.0289294718771
 31
0.0
  0
MTEXT
  5
BC
100
AcDbEntity
  8
一般
390
0
 62
               1
100
AcDbMText
 10
113.49999999999999
 20
-1436.2267122843773
 30
0.0
 40
24.432617187499996
 41
0.0
 71
               1
 72
               1
  1
{\fＭＳ ゴシック|b0|i0|c128|p0;\lNOTE}
 73
               1
 44
0.7828267384257843
  0
LINE
  5
BD
100
AcDbEntity
  8
一般
370
               0
390
0
  6
Continuous
 62
               1
100
AcDbLine
 10
625.0
 20
-1760.5289294718773
 30
0.0
 11
625.0
 21
-1423.0289294718771
 31
0.0
  0
MTEXT
  5
BE
100
AcDbEntity
  8
一般
390
0
 62
               1
100
AcDbMText
 10
638.5
 20
-1436.2267122843773
 30
0.0
 40
24.432617187499996
 41
0.0
 71
               1
 72
               1
  1
{\fＭＳ ゴシック|b0|i0|c128|p0;\lTITLE}
 73
               1
 44
0.7828267384257843
  0
LINE
  5
BF
100
AcDbEntity
  8
一般
370
               0
390
0
  6
Continuous
 62
               1
100
AcDbLine
 10
99.999999999999986
 20
-1610.5289294718771
 30
0.0
 11
1449.9999999999998
 21
-1610.5289294718771
 31
0.0
  0
MTEXT
  5
C0
100
AcDbEntity
  8
一般
390
0
 62
               1
100
AcDbMText
 10
826.0
 20
-1622.8819122843772
 30
0.0
 40
24.432617187499996
 41
0.0
 71
               1
 72
               1
  1
{\fＭＳ ゴシック|b0|i0|c128|p0;\lDRAWN}
 73
               1
 44
0.7828267384257843
  0
MTEXT
  5
C1
100
AcDbEntity
  8
一般
390
0
 62
               1
100
AcDbMText
 10
451.0
 20
-1622.8819122843772
 30
0.0
 40
24.432617187499996
 41
0.0
 71
               1
 72
               1
  1
{\fＭＳ ゴシック|b0|i0|c128|p0;\lDATE}
 73
               1
 44
0.7828267384257843
  0
MTEXT
  5
C2
100
AcDbEntity
  8
一般
390
0
 62
               1
100
AcDbMText
 10
300.99999999999994
 20
-1622.8819122843772
 30
0.0
 40
24.432617187499996
 41
0.0
 71
               1
 72
               1
  1
{\fＭＳ ゴシック|b0|i0|c128|p0;\lSCALE}
 73
               1
 44
0.7828267384257843
  0
MTEXT
  5
C3
100
AcDbEntity
  8
一般
390
0
 62
               1
100
AcDbMText
 10
638.5
 20
-1622.8819122843772
 30
0.0
 40
24.432617187499996
 41
0.0
 71
               1
 72
               1
  1
{\fＭＳ ゴシック|b0|i0|c128|p0;\lDESIGN}
 73
               1
 44
0.7828267384257843
  0
MTEXT
  5
C4
100
AcDbEntity
  8
一般
390
0
 62
               1
100
AcDbMText
 10
1200.9999999999998
 20
-1622.8819122843772
 30
0.0
 40
24.432617187499996
 41
0.0
 71
               1
 72
               1
  1
{\fＭＳ ゴシック|b0|i0|c128|p0;\lDRAWING NO.}
 73
               1
 44
0.7828267384257843
  0
MTEXT
  5
C5
100
AcDbEntity
  8
一般
390
0
 62
               1
100
AcDbMText
 10
1013.4999999999999
 20
-1622.8819122843772
 30
0.0
 40
24.432617187499996
 41
0.0
 71
               1
 72
               1
  1
{\fＭＳ ゴシック|b0|i0|c128|p0;\lCHECK}
 73
               1
 44
0.7828267384257843
  0
LINE
  5
C6
100
AcDbEntity
  8
一般
370
               0
390
0
  6
Continuous
 62
               1
100
AcDbLine
 10
315.62499999999994
 20
-1741.7789294718773
 30
0.0
 11
371.875
 21
-1685.5289294718771
 31
0.0
  0
MTEXT
  5
C7
100
AcDbEntity
  8
一般
390
0
 62
               1
100
AcDbMText
 10
306.24999999999994
 20
-1677.7304622843772
 30
0.0
 40
24.432617187499996
 41
0.0
 71
               1
 72
               1
  1
{\fＭＳ ゴシック|b0|i0|c128|p0;\l1}
 73
               1
 44
0.7828267384257843
  0
LINE
  5
C8
100
AcDbEntity
  8
一般
370
               0
390
0
  6
Continuous
 62
               1
100
AcDbLine
 10
287.49999999999994
 20
-1760.5289294718773
 30
0.0
 11
287.49999999999994
 21
-1610.5289294718771
 31
0.0
  0
LINE
  5
C9
100
AcDbEntity
  8
一般
370
               0
390
0
  6
Continuous
 62
               1
100
AcDbLine
 10
437.49999999999994
 20
-1760.5289294718773
 30
0.0
 11
437.49999999999994
 21
-1610.5289294718771
 31
0.0
  0
LINE
  5
CA
100
AcDbEntity
  8
一般
370
               0
390
0
  6
Continuous
 62
               1
100
AcDbLine
 10
812.49999999999989
 20
-1610.5289294718771
 30
0.0
 11
812.49999999999989
 21
-1760.5289294718773
 31
0.0
  0
LINE
  5
CB
100
AcDbEntity
  8
一般
370
               0
390
0
  6
Continuous
 62
               1
100
AcDbLine
 10
1187.5
 20
-1610.5289294718771
 30
0.0
 11
1187.5
 21
-1760.5289294718773
 31
0.0
  0
LINE
  5
CC
100
AcDbEntity
  8
一般
370
               0
390
0
  6
Continuous
 62
               1
100
AcDbLine
 10
999.99999999999989
 20
-1760.5289294718773
 30
0.0
 11
999.99999999999989
 21
-1610.5289294718771
 31
0.0
  0
MTEXT
  5
CD
100
AcDbEntity
  8
一般
390
0
 62
               1
100
AcDbMText
 10
450.34809999999999
 20
-1693.1416122843773
 30
0.0
 40
24.432617187499996
 41
0.0
 71
               1
 72
               1
  1
{\fＭＳ ゴシック|b0|i0|c128|p0;\l2019.01}
 73
               1
 44
0.7828267384257843
  0
MTEXT
  5
CE
100
AcDbEntity
  8
一般
390
0
 62
               1
100
AcDbMText
 10
362.5
 20
-1705.8554622843772
 30
0.0
 40
24.432617187499996
 41
0.0
 71
               1
 72
               1
  1
{\fＭＳ ゴシック|b0|i0|c128|p0;\l15}
 73
               1
 44
0.7828267384257843
  0
MTEXT
  5
CF
100
AcDbEntity
  8
一般
390
0
 62
               1
100
AcDbMText
 10
835.08715016551935
 20
-1673.1416122843773
 30
0.0
 40
24.432617187499996
 41
0.0
 71
               1
 72
               1
  1
{\fＭＳ ゴシック|b0|i0|c128|p0;\lkojima\P shohei}
 73
               1
 44
0.7828267384257843
  0
MTEXT
  5
D0
100
AcDbEntity
  8
一般
390
0
 62
               1
100
AcDbMText
 10
158.25000000000023
 20
-1682.023695096877
 30
0.0
 40
48.865234374999993
 41
0.0
 71
               1
 72
               1
  1
{\fＭＳ ゴシック|b0|i0|c128|p0;\lA4}
 73
               1
 44
0.7828267384257843
  0
MTEXT
  5
D1
100
AcDbEntity
  8
一般
390
0
 62
               1
100
AcDbMText
 10
114.37499999999997
 20
-1625.3881372843771
 30
0.0
 40
24.432617187499996
 41
0.0
 71
               1
 72
               1
  1
{\fＭＳ ゴシック|b0|i0|c128|p0;\lPAPER SIZE}
 73
               1
 44
0.7828267384257843
  0
MTEXT
  5
D2
100
AcDbEntity
  8
一般
390
0
 62
               1
100
AcDbMText
 10
-1208.6054711466472
 20
-1803.9701957449379
 30
0.0
 40
52.937337239583329
 41
0.0
 71
               1
 72
               1
  1
{\fＭＳ ゴシック|b0|i0|c128|p0;\lHibino-Intersound Corporation}
 73
               1
 44
0.7828267384257843
  0
MTEXT
  5
D3
100
AcDbEntity
  8
一般
390
0
 62
               1
100
AcDbMText
 10
402.70914520320849
 20
-1798.7038719455968
 30
0.0
 40
52.937337239583329
 41
0.0
 71
               1
 72
               1
  1
{\fＭＳ ゴシック|b0|i0|c128|p0;\lヒビノインタ ーサウンド株式会社}
 73
               1
 44
0.7828267384257843
  0
MTEXT
  5
D4
100
AcDbEntity
  8
一般
390
0
 62
               1
100
AcDbMText
 10
-1018.7499999999998
 20
2047.0190463093727
 30
0.0
 40
36.64892578125
 41
0.0
 71
               1
 72
               1
  1
{\fＭＳ ゴシック|b0|i0|c128|p0;\l仕様}
 73
               1
 44
0.7828267384257843
  0
LINE
  5
D5
100
AcDbEntity
  8
一般
370
               0
390
0
  6
Continuous
 62
               1
100
AcDbLine
 10
-1037.4999999999998
 20
1989.4710705281225
 30
0.0
 11
1175.0
 21
1989.4710705281225
 31
0.0
  0
LINE
  5
D6
100
AcDbEntity
  8
一般
370
               0
390
0
  6
Continuous
 62
               1
100
AcDbLine
 10
-1037.4999999999998
 20
1933.2210705281225
 30
0.0
 11
1175.0
 21
1933.2210705281225
 31
0.0
  0
LINE
  5
D7
100
AcDbEntity
  8
一般
370
               0
390
0
  6
Continuous
 62
               1
100
AcDbLine
 10
-1037.4999999999998
 20
1820.7210705281225
 30
0.0
 11
1175.0
 21
1820.7210705281225
 31
0.0
  0
LINE
  5
D8
100
AcDbEntity
  8
一般
370
               0
390
0
  6
Continuous
 62
               1
100
AcDbLine
 10
-1037.4999999999998
 20
1708.2210705281225
 30
0.0
 11
1175.0
 21
1708.2210705281225
 31
0.0
  0
LINE
  5
D9
100
AcDbEntity
  8
一般
370
               0
390
0
  6
Continuous
 62
               1
100
AcDbLine
 10
-1037.4999999999998
 20
1764.4710705281225
 30
0.0
 11
1175.0
 21
1764.4710705281225
 31
0.0
  0
LINE
  5
DA
100
AcDbEntity
  8
一般
370
               0
390
0
  6
Continuous
 62
               1
100
AcDbLine
 10
-1037.4999999999998
 20
1989.4710705281225
 30
0.0
 11
-1037.4999999999998
 21
1033.2210705281225
 31
0.0
  0
LINE
  5
DB
100
AcDbEntity
  8
一般
370
               0
390
0
  6
Continuous
 62
               1
100
AcDbLine
 10
-549.99999999999989
 20
1989.4710705281225
 30
0.0
 11
-550.0
 21
1033.2210705281225
 31
0.0
  0
LINE
  5
DC
100
AcDbEntity
  8
一般
370
               0
390
0
  6
Continuous
 62
               1
100
AcDbLine
 10
1175.0
 20
1989.4710705281225
 30
0.0
 11
1175.0
 21
1033.2210705281225
 31
0.0
  0
LINE
  5
DD
100
AcDbEntity
  8
一般
370
               0
390
0
  6
Continuous
 62
               1
100
AcDbLine
 10
-1037.4999999999998
 20
1651.9710705281225
 30
0.0
 11
1175.0
 21
1651.9710705281225
 31
0.0
  0
LINE
  5
DE
100
AcDbEntity
  8
一般
370
               0
390
0
  6
Continuous
 62
               1
100
AcDbLine
 10
-1037.4999999999998
 20
1595.7210705281225
 30
0.0
 11
1175.0
 21
1595.7210705281225
 31
0.0
  0
LINE
  5
DF
100
AcDbEntity
  8
一般
370
               0
390
0
  6
Continuous
 62
               1
100
AcDbLine
 10
-1037.4999999999998
 20
1539.4710705281225
 30
0.0
 11
1175.0
 21
1539.4710705281225
 31
0.0
  0
LINE
  5
E0
100
AcDbEntity
  8
一般
370
               0
390
0
  6
Continuous
 62
               1
100
AcDbLine
 10
-549.99999999999989
 20
1483.2210705281225
 30
0.0
 11
1175.0
 21
1483.2210705281225
 31
0.0
  0
LINE
  5
E1
100
AcDbEntity
  8
一般
370
               0
390
0
  6
Continuous
 62
               1
100
AcDbLine
 10
-1037.4999999999998
 20
1426.9710705281225
 30
0.0
 11
1175.0
 21
1426.9710705281225
 31
0.0
  0
LINE
  5
E2
100
AcDbEntity
  8
一般
370
               0
390
0
  6
Continuous
 62
               1
100
AcDbLine
 10
-1037.4999999999998
 20
1370.7210705281225
 30
0.0
 11
1175.0
 21
1370.7210705281225
 31
0.0
  0
LINE
  5
E3
100
AcDbEntity
  8
一般
370
               0
390
0
  6
Continuous
 62
               1
100
AcDbLine
 10
-1037.4999999999998
 20
1314.4710705281225
 30
0.0
 11
1175.0
 21
1314.4710705281225
 31
0.0
  0
LINE
  5
E4
100
AcDbEntity
  8
一般
370
               0
390
0
  6
Continuous
 62
               1
100
AcDbLine
 10
-1037.4999999999998
 20
1258.2210705281225
 30
0.0
 11
1175.0
 21
1258.2210705281225
 31
0.0
  0
LINE
  5
E5
100
AcDbEntity
  8
一般
370
               0
390
0
  6
Continuous
 62
               1
100
AcDbLine
 10
-1037.4999999999998
 20
1201.9710705281225
 30
0.0
 11
1175.0
 21
1201.9710705281225
 31
0.0
  0
LINE
  5
E6
100
AcDbEntity
  8
一般
370
               0
390
0
  6
Continuous
 62
               1
100
AcDbLine
 10
-1037.4999999999998
 20
1145.7210705281225
 30
0.0
 11
1175.0
 21
1145.7210705281225
 31
0.0
  0
MTEXT
  5
E7
100
AcDbEntity
  8
一般
390
0
 62
               1
100
AcDbMText
 10
-1025.6690458141777
 20
1245.4594923168543
 30
0.0
 40
28.504720052083332
 41
0.0
 71
               1
 72
               1
  1
{\fＭＳ ゴシック|b0|i0|c128|p0;\lエンクロージャー}
 73
               1
 44
0.7828267384257843
  0
MTEXT
  5
E8
100
AcDbEntity
  8
一般
390
0
 62
               1
100
AcDbMText
 10
-535.67086744805556
 20
1131.2623898504482
 30
0.0
 40
28.504720052083332
 41
0.0
 71
               1
 72
               1
  1
{\fＭＳ ゴシック|b0|i0|c128|p0;\l348(W)×630(H)×320(D)mm(突起部含まず）}
 73
               1
 44
0.7828267384257843
  0
MTEXT
  5
E9
100
AcDbEntity
  8
一般
390
0
 62
               1
100
AcDbMText
 10
-537.02083333333303
 20
1188.5752916119359
 30
0.0
 40
28.504720052083332
 41
0.0
 71
               1
 72
               1
  1
{\fＭＳ ゴシック|b0|i0|c128|p0;\l黒}
 73
               1
 44
0.7828267384257843
  0
MTEXT
  5
EA
100
AcDbEntity
  8
一般
390
0
 62
               1
100
AcDbMText
 10
-1024.1042327804998
 20
1189.808122208914
 30
0.0
 40
28.504720052083332
 41
0.0
 71
               1
 72
               1
  1
{\fＭＳ ゴシック|b0|i0|c128|p0;\l仕上げ}
 73
               1
 44
0.7828267384257843
  0
MTEXT
  5
EB
100
AcDbEntity
  8
一般
390
0
 62
               1
100
AcDbMText
 10
-1024.601519865879
 20
1358.4202673208104
 30
0.0
 40
28.504720052083332
 41
0.0
 71
               1
 72
               1
  1
{\fＭＳ ゴシック|b0|i0|c128|p0;\l入力コネクタ ー}
 73
               1
 44
0.7828267384257843
  0
MTEXT
  5
EC
100
AcDbEntity
  8
一般
390
0
 62
               1
100
AcDbMText
 10
-536.18981026699521
 20
1355.6342908533809
 30
0.0
 40
28.504720052083332
 41
0.0
 71
               1
 72
               1
  1
{\fＭＳ ゴシック|b0|i0|c128|p0;\l2×Neutrik NL4MP}
 73
               1
 44
0.7828267384257843
  0
MTEXT
  5
ED
100
AcDbEntity
  8
一般
390
0
 62
               1
100
AcDbMText
 10
-1024.6613089117031
 20
1301.0163999848423
 30
0.0
 40
28.504720052083332
 41
0.0
 71
               1
 72
               1
  1
{\fＭＳ ゴシック|b0|i0|c128|p0;\l公称インピーダンス}
 73
               1
 44
0.7828267384257843
  0
MTEXT
  5
EE
100
AcDbEntity
  8
一般
390
0
 62
               1
100
AcDbMText
 10
-536.31755831573355
 20
1299.0254465181972
 30
0.0
 40
28.504720052083332
 41
0.0
 71
               1
 72
               1
  1
{\fＭＳ ゴシック|b0|i0|c128|p0;\l8Ω}
 73
               1
 44
0.7828267384257843
  0
MTEXT
  5
EF
100
AcDbEntity
  8
一般
390
0
 62
               1
100
AcDbMText
 10
-1025.0126584846873
 20
1919.4123487916597
 30
0.0
 40
28.504720052083332
 41
0.0
 71
               1
 72
               1
  1
{\fＭＳ ゴシック|b0|i0|c128|p0;\l形式}
 73
               1
 44
0.7828267384257843
  0
MTEXT
  5
F0
100
AcDbEntity
  8
一般
390
0
 62
               1
100
AcDbMText
 10
-536.48192368489981
 20
1919.058600956532
 30
0.0
 40
28.504720052083332
 41
0.0
 71
               1
 72
               1
  1
{\fＭＳ ゴシック|b0|i0|c128|p0;\l3-Way フルレンジ・スピーカーシステム}
 73
               1
 44
0.7828267384257843
  0
MTEXT
  5
F1
100
AcDbEntity
  8
一般
390
0
 62
               1
100
AcDbMText
 10
-1024.4746630620011
 20
1807.837460750013
 30
0.0
 40
28.504720052083332
 41
0.0
 71
               1
 72
               1
  1
{\fＭＳ ゴシック|b0|i0|c128|p0;\l周波数特性}
 73
               1
 44
0.7828267384257843
  0
MTEXT
  5
F2
100
AcDbEntity
  8
一般
390
0
 62
               1
100
AcDbMText
 10
-1024.6851515934682
 20
1752.2445982566383
 30
0.0
 40
28.504720052083332
 41
0.0
 71
               1
 72
               1
  1
{\fＭＳ ゴシック|b0|i0|c128|p0;\l許容入力(AES/ピーク）}
 73
               1
 44
0.7828267384257843
  0
MTEXT
  5
F3
100
AcDbEntity
  8
一般
390
0
 62
               1
100
AcDbMText
 10
-1024.95100959824
 20
1694.8415104226822
 30
0.0
 40
28.504720052083332
 41
0.0
 71
               1
 72
               1
  1
{\fＭＳ ゴシック|b0|i0|c128|p0;\l感度}
 73
               1
 44
0.7828267384257843
  0
MTEXT
  5
F4
100
AcDbEntity
  8
一般
390
0
 62
               1
100
AcDbMText
 10
-1024.0617590132797
 20
1638.0322417408461
 30
0.0
 40
28.504720052083332
 41
0.0
 71
               1
 72
               1
  1
{\fＭＳ ゴシック|b0|i0|c128|p0;\l最大音圧}
 73
               1
 44
0.7828267384257843
  0
MTEXT
  5
F5
100
AcDbEntity
  8
一般
390
0
 62
               1
100
AcDbMText
 10
-1026.9238918044339
 20
1582.6683485087062
 30
0.0
 40
28.504720052083332
 41
0.0
 71
               1
 72
               1
  1
{\fＭＳ ゴシック|b0|i0|c128|p0;\lカバレージ角}
 73
               1
 44
0.7828267384257843
  0
MTEXT
  5
F6
100
AcDbEntity
  8
一般
390
0
 62
               1
100
AcDbMText
 10
-1035.8775726487947
 20
1526.9719196637684
 30
0.0
 40
28.504720052083332
 41
0.0
 71
               1
 72
               1
  1
{\fＭＳ ゴシック|b0|i0|c128|p0;\lドライバー構成}
 73
               1
 44
0.7828267384257843
  0
MTEXT
  5
F7
100
AcDbEntity
  8
一般
390
0
 62
               1
100
AcDbMText
 10
-1026.471587995183
 20
1413.6136704990577
 30
0.0
 40
28.504720052083332
 41
0.0
 71
               1
 72
               1
  1
{\fＭＳ ゴシック|b0|i0|c128|p0;\lクロスオーバー}
 73
               1
 44
0.7828267384257843
  0
MTEXT
  5
F8
100
AcDbEntity
  8
一般
390
0
 62
               1
100
AcDbMText
 10
-1025.1979001382085
 20
1133.3251273644453
 30
0.0
 40
28.504720052083332
 41
0.0
 71
               1
 72
               1
  1
{\fＭＳ ゴシック|b0|i0|c128|p0;\l寸法}
 73
               1
 44
0.7828267384257843
  0
MTEXT
  5
F9
100
AcDbEntity
  8
一般
390
0
 62
               1
100
AcDbMText
 10
-536.83241855456731
 20
1075.1993692043864
 30
0.0
 40
28.504720052083332
 41
0.0
 71
               1
 72
               1
  1
{\fＭＳ ゴシック|b0|i0|c128|p0;\l約21.5kg}
 73
               1
 44
0.7828267384257843
  0
MTEXT
  5
FA
100
AcDbEntity
  8
一般
390
0
 62
               1
100
AcDbMText
 10
-1025.0646197390083
 20
1076.7208100580128
 30
0.0
 40
28.504720052083332
 41
0.0
 71
               1
 72
               1
  1
{\fＭＳ ゴシック|b0|i0|c128|p0;\l重量}
 73
               1
 44
0.7828267384257843
  0
MTEXT
  5
FB
100
AcDbEntity
  8
一般
390
0
 62
               1
100
AcDbMText
 10
-536.18228146724891
 20
1805.4775062230642
 30
0.0
 40
28.504720052083332
 41
0.0
 71
               1
 72
               1
  1
{\fＭＳ ゴシック|b0|i0|c128|p0;\l60Hz～21kHz(-3dB)}
 73
               1
 44
0.7828267384257843
  0
MTEXT
  5
FC
100
AcDbEntity
  8
一般
390
0
 62
               1
100
AcDbMText
 10
-538.73948746270071
 20
1749.2563291919264
 30
0.0
 40
28.504720052083332
 41
0.0
 71
               1
 72
               1
  1
{\fＭＳ ゴシック|b0|i0|c128|p0;\l1000W/4000W}
 73
               1
 44
0.7828267384257843
  0
MTEXT
  5
FD
100
AcDbEntity
  8
一般
390
0
 62
               1
100
AcDbMText
 10
-535.81151909252526
 20
1693.5506054969335
 30
0.0
 40
28.504720052083332
 41
0.0
 71
               1
 72
               1
  1
{\fＭＳ ゴシック|b0|i0|c128|p0;\l98dB}
 73
               1
 44
0.7828267384257843
  0
MTEXT
  5
FE
100
AcDbEntity
  8
一般
390
0
 62
               1
100
AcDbMText
 10
-538.73793878201752
 20
1636.6185152919204
 30
0.0
 40
28.504720052083332
 41
0.0
 71
               1
 72
               1
  1
{\fＭＳ ゴシック|b0|i0|c128|p0;\l134dB}
 73
               1
 44
0.7828267384257843
  0
MTEXT
  5
FF
100
AcDbEntity
  8
一般
390
0
 62
               1
100
AcDbMText
 10
-536.77926249873042
 20
1581.403027130428
 30
0.0
 40
28.504720052083332
 41
0.0
 71
               1
 72
               1
  1
{\fＭＳ ゴシック|b0|i0|c128|p0;\l90°×60°}
 73
               1
 44
0.7828267384257843
  0
MTEXT
  5
100
100
AcDbEntity
  8
一般
390
0
 62
               1
100
AcDbMText
 10
-536.64192804436641
 20
1525.2431347761701
 30
0.0
 40
28.504720052083332
 41
0.0
 71
               1
 72
               1
  1
{\fＭＳ ゴシック|b0|i0|c128|p0;\l低域：1×12インチネオジム磁石採用、4インチボイスコイル}
 73
               1
 44
0.7828267384257843
  0
MTEXT
  5
101
100
AcDbEntity
  8
一般
390
0
 62
               1
100
AcDbMText
 10
-539.32149895591465
 20
1469.7664841258988
 30
0.0
 40
28.504720052083332
 41
0.0
 71
               1
 72
               1
  1
{\fＭＳ ゴシック|b0|i0|c128|p0;\l中高域：1.4インチネオジム磁石採用コアキシャルドライバー、3.5インチ+1.75インチボイスコイル }
 73
               1
 44
0.7828267384257843
  0
MTEXT
  5
102
100
AcDbEntity
  8
一般
390
0
 62
               1
100
AcDbMText
 10
-537.19891253044671
 20
1413.4570529986215
 30
0.0
 40
28.504720052083332
 41
0.0
 71
               1
 72
               1
  1
{\fＭＳ ゴシック|b0|i0|c128|p0;\lバッシブ：750Hz、6.3kHz}
 73
               1
 44
0.7828267384257843
  0
MTEXT
  5
103
100
AcDbEntity
  8
一般
390
0
 62
               1
100
AcDbMText
 10
-537.35697357009121
 20
1244.5348673835595
 30
0.0
 40
28.504720052083332
 41
0.0
 71
               1
 72
               1
  1
{\fＭＳ ゴシック|b0|i0|c128|p0;\l合板}
 73
               1
 44
0.7828267384257843
  0
LINE
  5
104
100
AcDbEntity
  8
一般
370
               0
390
0
  6
Continuous
 62
               1
100
AcDbLine
 10
-1037.4999999999998
 20
1089.4710705281225
 30
0.0
 11
1175.0
 21
1089.4710705281225
 31
0.0
  0
LINE
  5
105
100
AcDbEntity
  8
一般
370
               0
390
0
  6
Continuous
 62
               1
100
AcDbLine
 10
-1037.4999999999998
 20
1033.2210705281225
 30
0.0
 11
1175.0
 21
1033.2210705281225
 31
0.0
  0
LINE
  5
106
100
AcDbEntity
  8
一般
370
               0
390
0
  6
Continuous
 62
               1
100
AcDbLine
 10
-549.99999999999989
 20
1876.9710705281225
 30
0.0
 11
1175.0
 21
1876.9710705281225
 31
0.0
  0
LINE
  5
107
100
AcDbEntity
  8
一般
370
               0
390
0
  6
Continuous
 62
               1
100
AcDbLine
 10
400.0
 20
1989.4710705281225
 30
0.0
 11
400.0
 21
1933.2210705281225
 31
0.0
  0
LINE
  5
108
100
AcDbEntity
  8
一般
370
               0
390
0
  6
Continuous
 62
               1
100
AcDbLine
 10
400.0
 20
1876.9710705281225
 30
0.0
 11
400.0
 21
1820.7210705281225
 31
0.0
  0
MTEXT
  5
109
100
AcDbEntity
  8
一般
390
0
 62
               1
100
AcDbMText
 10
-536.18228146724891
 20
1861.7275062230642
 30
0.0
 40
28.504720052083332
 41
0.0
 71
               1
 72
               1
  1
{\fＭＳ ゴシック|b0|i0|c128|p0;\lL仕様}
 73
               1
 44
0.7828267384257843
  0
MTEXT
  5
10A
100
AcDbEntity
  8
一般
390
0
 62
               1
100
AcDbMText
 10
-283.34375
 20
1975.3086009565322
 30
0.0
 40
28.504720052083332
 41
0.0
 71
               1
 72
               1
  1
{\fＭＳ ゴシック|b0|i0|c128|p0;\lG712Pro-L}
 73
               1
 44
0.7828267384257843
  0
MTEXT
  5
10B
100
AcDbEntity
  8
一般
390
0
 62
               1
100
AcDbMText
 10
566.65625
 20
1975.3086009565322
 30
0.0
 40
28.504720052083332
 41
0.0
 71
               1
 72
               1
  1
{\fＭＳ ゴシック|b0|i0|c128|p0;\lG712Pro-R}
 73
               1
 44
0.7828267384257843
  0
MTEXT
  5
10C
100
AcDbEntity
  8
一般
390
0
 62
               1
100
AcDbMText
 10
413.81771853275097
 20
1861.7275062230642
 30
0.0
 40
28.504720052083332
 41
0.0
 71
               1
 72
               1
  1
{\fＭＳ ゴシック|b0|i0|c128|p0;\lR仕様}
 73
               1
 44
0.7828267384257843
  0
MTEXT
  5
10D
100
AcDbEntity
  8
一般
390
0
 62
               1
100
AcDbMText
 10
-200.0
 20
-1539.8376536906271
 30
0.0
 40
36.64892578125
 41
0.0
 71
               1
 72
               1
  1
{\fＭＳ ゴシック|b0|i0|c128|p0;\l(単位：mm)}
 73
               1
 44
0.7828267384257843
  0
DIMENSION
  5
10E
100
AcDbEntity
  8
寸法
370
               0
390
0
  6
Continuous
 62
               1
100
AcDbDimension
  2
*D1
 10
-200.0
 20
-750.00000000013142
 30
0.0
 11
-25.999999999999588
 21
-750.00000000013142
 31
0.0
 71
               5
 72
               1
 41
1.0
 42
0.0
  3
HIBINO
100
AcDbAlignedDimension
 13
148.00000000000085
 23
-599.9999999999975
 33
0.0
 14
-200.0
 24
-600.0
 34
0.0
100
AcDbRotatedDimension
1001
ACAD
1000
DSTYLE
1002
{
1070
             279
1070
               2
1070
             340
1005
2B
1070
             147
1040
7.5
1002
}
  0
DIMENSION
  5
10F
100
AcDbEntity
  8
寸法
370
               0
390
0
  6
Continuous
 62
               1
100
AcDbDimension
  2
*D2
 10
-350.00000000022936
 20
-600.0
 30
0.0
 11
-350.00000000022936
 21
-284.99999999999989
 31
0.0
 71
               5
 72
               1
 41
1.0
 42
0.0
  3
HIBINO
100
AcDbAlignedDimension
 13
-200.00000000000728
 23
30.000000000000256
 33
0.0
 14
-200.0
 24
-600.0
 34
0.0
 50
-90.0
100
AcDbRotatedDimension
1001
ACAD
1000
DSTYLE
1002
{
1070
             279
1070
               2
1070
             340
1005
2B
1070
             147
1040
7.5
1002
}
  0
DIMENSION
  5
110
100
AcDbEntity
  8
寸法
370
               0
390
0
  6
Continuous
 62
               1
100
AcDbDimension
  2
*D3
 10
-350.00000000022936
 20
200.00144234933828
 30
0.0
 11
-350.00000000022936
 21
360.00072117466925
 31
0.0
 71
               5
 72
               1
 41
1.0
 42
0.0
  3
HIBINO
100
AcDbAlignedDimension
 13
-99.000000000229377
 23
520.00000000000023
 33
0.0
 14
-86.000000000229377
 24
200.00144234933828
 34
0.0
 50
-90.0
100
AcDbRotatedDimension
1001
ACAD
1000
DSTYLE
1002
{
1070
             279
1070
               2
1070
             340
1005
2B
1070
             147
1040
7.5
1002
}
  0
DIMENSION
  5
111
100
AcDbEntity
  8
寸法
370
               0
390
0
  6
Continuous
 62
               1
100
AcDbDimension
  2
*D4
 10
71.292768164110129
 20
527.9618316874089
 30
0.0
 11
80.616718032266945
 21
540.62287220111727
 31
0.0
 70
             133
 71
               5
 72
               1
 41
1.0
 42
0.0
  3
HIBINO
100
AcDb3PointAngularDimension
 13
147.99986635394345
 23
400.60881211689593
 33
0.0
 14
-29.610799453874407
 24
504.97322001760233
 34
0.0
 15
147.99986635394345
 25
380.60881211689593
 35
0.0
1001
ACAD
1000
DSTYLE
1002
{
1070
             279
1070
               2
1070
             342
1005
3A
1070
             340
1005
2B
1070
             140
1040
40.72104684955552
1070
               3
1000
<> 
1070
             147
1040
7.5
1002
}
  0
DIMENSION
  5
112
100
AcDbEntity
  8
寸法
370
               0
390
0
  6
Continuous
 62
               1
100
AcDbDimension
  2
*D5
 10
-137.39867531274274
 20
596.45830015807849
 30
0.0
 11
-112.66079765289659
 21
595.11847539216762
 31
0.0
 70
             133
 71
               5
 72
               1
 41
1.0
 42
0.0
  3
HIBINO
100
AcDb3PointAngularDimension
 13
-199.99994481854367
 23
417.91227891377093
 33
0.0
 14
-125.03514067718528
 24
504.97322001762836
 34
0.0
 15
-199.99994481854367
 25
397.91227891377093
 35
0.0
1001
ACAD
1000
DSTYLE
1002
{
1070
             279
1070
               2
1070
             342
1005
3A
1070
             340
1005
2B
1070
             140
1040
40.72104684955552
1070
               3
1000
<> 
1070
             147
1040
7.5
1002
}
  0
MTEXT
  5
113
100
AcDbEntity
  8
一般
390
0
 62
               1
100
AcDbMText
 10
869.99999999999989
 20
-1547.6351138229102
 30
0.0
 40
36.64892578125
 41
0.0
 71
               1
 72
               1
  1
{\fＭＳ ゴシック|b0|i0|c128|p0;\lG712Pro-(L/R)}
 73
               1
 44
0.7828267384257843
  0
MTEXT
  5
114
100
AcDbEntity
  8
一般
390
0
 62
               1
100
AcDbMText
 10
849.99999999999989
 20
-1442.1214516652647
 30
0.0
 40
36.64892578125
 41
0.0
 71
               1
 72
               1
  1
{\fＭＳ ゴシック|b0|i0|c128|p0;\lCODA AUDIO}
 73
               1
 44
0.7828267384257843
  0
MTEXT
  5
115
100
AcDbEntity
  8
一般
390
0
 62
               1
100
AcDbMText
 10
-1099.9999999999998
 20
-1672.5263122843774
 30
0.0
 40
24.432617187499996
 41
0.0
 71
               1
 72
               1
  1
{\fＭＳ ゴシック|b0|i0|c128|p0;\l仕様および外観は予告なく変更されることがありますので、ご了承ください。}
 73
               1
 44
0.7828267384257843
  0
MTEXT
  5
116
100
AcDbEntity
  8
一般
390
0
 62
               1
100
AcDbMText
 10
818.01865503068905
 20
-1501.100924193154
 30
0.0
 40
24.432617187500004
 41
0.0
 71
               1
 72
               1
  1
{\fＭＳ ゴシック|b0|i0|c128|p0;\l3Way-フルレンジ・スピーカー}
 73
               1
 44
0.7828267384257843
  0
LINE
  5
117
100
AcDbEntity
  8
一般
370
               0
390
0
  6
Continuous
 62
               1
100
AcDbLine
 10
147.99986690214797
 20
-1080.6088121168957
 30
0.0
 11
-29.610798905661696
 21
-1204.9732200175956
 31
0.0
  0
ARC
  5
118
100
AcDbEntity
  8
一般
370
               0
390
0
  6
Continuous
 62
               1
100
AcDbCircle
 10
121.99997957469083
 20
-940.6678689519938
 30
0.0
 40
26.000000000011823
100
AcDbArc
 50
0.0
 51
78.680114483260297
  0
LINE
  5
119
100
AcDbEntity
  8
一般
370
               0
390
0
  6
Continuous
 62
               1
100
AcDbLine
 10
-125.03514012897803
 20
-1204.9732200176293
 30
0.0
 11
-199.99994427033732
 21
-1097.9122789137707
 31
0.0
  0
ARC
  5
11A
100
AcDbEntity
  8
一般
370
               0
390
0
  6
Continuous
 62
               1
100
AcDbCircle
 10
-174.00002042529093
 20
-940.66786895199152
 30
0.0
 40
26.000000000008875
100
AcDbArc
 50
101.31988551673884
 51
180.0
  0
LINE
  5
11B
100
AcDbEntity
  8
一般
370
               0
390
0
  6
Continuous
 62
               1
100
AcDbLine
 10
-199.99994427033732
 20
-1097.9122789137707
 30
0.0
 11
-200.00002042530002
 21
-940.66786895199107
 31
0.0
  0
CIRCLE
  5
11C
100
AcDbEntity
  8
一般
370
               0
390
0
  6
Continuous
 62
               1
100
AcDbCircle
 10
-26.000020425301855
 20
-1054.9122756467718
 30
0.0
 40
21.0
  0
CIRCLE
  5
11D
100
AcDbEntity
  8
一般
370
               0
390
0
  6
Continuous
 62
               1
100
AcDbCircle
 10
-26.000020425301855
 20
-1054.9122756467718
 30
0.0
 40
53.5
  0
ARC
  5
11E
100
AcDbEntity
  8
一般
370
               0
390
0
  6
Continuous
 62
               1
100
AcDbCircle
 10
-77.322969517343054
 20
-1136.7401351437909
 30
0.0
 40
83.259864856208935
100
AcDbArc
 50
235.03672521798509
 51
304.96327478203011
  0
ARC
  5
11F
100
AcDbEntity
  8
一般
370
               0
390
0
  6
Continuous
 62
               1
100
AcDbCircle
 10
-105.55322832324136
 20
-1183.8015538334564
 30
0.0
 40
9.9999999999972253
100
AcDbArc
 50
183.26588377230928
 51
246.86863833532306
  0
ARC
  5
120
100
AcDbEntity
  8
一般
370
               0
390
0
  6
Continuous
 62
               1
100
AcDbCircle
 10
-105.55322832324772
 20
-1184.9409451063664
 30
0.0
 40
10.000000000000455
100
AcDbArc
 50
90.0
 51
176.73411622683574
  0
LINE
  5
121
100
AcDbEntity
  8
一般
370
               0
390
0
  6
Continuous
 62
               1
100
AcDbLine
 10
-45.553228323245904
 20
-1174.9409451063659
 30
0.0
 11
-105.55322832324772
 21
-1174.9409451063659
 31
0.0
  0
ARC
  5
122
100
AcDbEntity
  8
一般
370
               0
390
0
  6
Continuous
 62
               1
100
AcDbCircle
 10
-75.553228323247723
 20
-1113.5740804191066
 30
0.0
 40
86.366864687260787
100
AcDbArc
 50
246.86863833532425
 51
293.13136166467581
  0
ARC
  5
123
100
AcDbEntity
  8
一般
370
               0
390
0
  6
Continuous
 62
               1
100
AcDbCircle
 10
-45.553228323250451
 20
-1183.801553833456
 30
0.0
 40
9.999999999996831
100
AcDbArc
 50
293.13136166467746
 51
356.73411622763581
  0
ARC
  5
124
100
AcDbEntity
  8
一般
370
               0
390
0
  6
Continuous
 62
               1
100
AcDbCircle
 10
-45.553228323245904
 20
-1184.9409451063659
 30
0.0
 40
10.000000000000664
100
AcDbArc
 50
3.2658837731119568
 51
89.999999999999986
  0
CIRCLE
  5
125
100
AcDbEntity
  8
一般
370
               0
390
0
  6
Continuous
 62
               1
100
AcDbCircle
 10
-66.000020425301855
 20
-1054.912275646773
 30
0.0
 40
3.9999999999990905
  0
CIRCLE
  5
126
100
AcDbEntity
  8
一般
370
               0
390
0
  6
Continuous
 62
               1
100
AcDbCircle
 10
-26.000020425301855
 20
-1094.9122756467734
 30
0.0
 40
3.9999999999990905
  0
CIRCLE
  5
127
100
AcDbEntity
  8
一般
370
               0
390
0
  6
Continuous
 62
               1
100
AcDbCircle
 10
-26.000020425301855
 20
-1014.9122756467725
 30
0.0
 40
3.9999999999990905
  0
CIRCLE
  5
128
100
AcDbEntity
  8
一般
370
               0
390
0
  6
Continuous
 62
               1
100
AcDbCircle
 10
13.999979574698145
 20
-1054.912275646773
 30
0.0
 40
4.0
  0
ARC
  5
129
100
AcDbEntity
  8
一般
370
               0
390
0
  6
Continuous
 62
               1
100
AcDbCircle
 10
-26.000020425299127
 20
-1680.0000000000441
 30
0.0
 40
780.000000000044
100
AcDbArc
 50
78.680114483260368
 51
101.31988551673957
  0
LINE
  5
12A
100
AcDbEntity
  8
一般
370
               0
390
0
  6
Continuous
 62
               1
100
AcDbLine
 10
147.99997957470083
 20
-940.66786895199311
 30
0.0
 11
147.99986690214797
 21
-1080.6088121168957
 31
0.0
  0
ARC
  5
12B
100
AcDbEntity
  8
一般
370
               0
390
0
  6
Continuous
 62
               1
100
AcDbCircle
 10
121.99997902648538
 20
240.66786895199388
 30
0.0
 40
26.000000000011728
100
AcDbArc
 50
281.31988551673965
 51
0.0
  0
LINE
  5
12C
100
AcDbEntity
  8
一般
370
               0
390
0
  6
Continuous
 62
               1
100
AcDbLine
 10
-29.610799453874407
 20
504.97322001760233
 30
0.0
 11
147.99986635394345
 21
380.60881211689593
 31
0.0
  0
LINE
  5
12D
100
AcDbEntity
  8
一般
370
               0
390
0
  6
Continuous
 62
               1
100
AcDbLine
 10
144.00000000000267
 20
-572.99999999999636
 30
0.0
 11
126.31830238725972
 21
-572.99999999999659
 31
0.0
  0
LINE
  5
12E
100
AcDbEntity
  8
一般
370
               0
390
0
  6
Continuous
 62
               1
100
AcDbLine
 10
127.10344827585406
 20
-599.9999999999975
 30
0.0
 11
148.00000000000085
 21
-599.9999999999975
 31
0.0
  0
LINE
  5
12F
100
AcDbEntity
  8
一般
370
               0
390
0
  6
Continuous
 62
               1
100
AcDbLine
 10
148.00000000000085
 20
-584.9999999999975
 30
0.0
 11
127.10344827585406
 21
-584.99999999999773
 31
0.0
  0
LINE
  5
130
100
AcDbEntity
  8
一般
370
               0
390
0
  6
Continuous
 62
               1
100
AcDbLine
 10
127.10344827584861
 20
15.000000000002473
 30
0.0
 11
147.99999999999631
 21
15.000000000002757
 31
0.0
  0
LINE
  5
131
100
AcDbEntity
  8
一般
370
               0
390
0
  6
Continuous
 62
               1
100
AcDbLine
 10
147.9999999999954
 20
30.000000000002473
 30
0.0
 11
127.10344827584861
 21
30.000000000002473
 31
0.0
  0
LINE
  5
132
100
AcDbEntity
  8
一般
370
               0
390
0
  6
Continuous
 62
               1
100
AcDbLine
 10
132.99978242326955
 20
-294.99999368156887
 30
0.0
 11
97.999935011161128
 21
-294.99999368156909
 31
0.0
  0
ARC
  5
133
100
AcDbEntity
  8
一般
370
               0
390
0
  6
Continuous
 62
               1
100
AcDbCircle
 10
130.99999999999812
 20
-392.93489099974477
 30
0.0
 40
2.0000000000002762
100
AcDbArc
 50
192.79846756443246
 51
0.0
  0
ARC
  5
134
100
AcDbEntity
  8
一般
370
               0
390
0
  6
Continuous
 62
               1
100
AcDbCircle
 10
130.99999999999812
 20
-464.26510900025323
 30
0.0
 40
2.0
100
AcDbArc
 50
0.0000000000260551
 51
167.20153243557073
  0
LINE
  5
135
100
AcDbEntity
  8
一般
370
               0
390
0
  6
Continuous
 62
               1
100
AcDbLine
 10
121.00017533708608
 20
9.0000263455917491
 30
0.0
 11
132.99978242326864
 21
9.0000263455917491
 31
0.0
  0
LINE
  5
136
100
AcDbEntity
  8
一般
370
               0
390
0
  6
Continuous
 62
               1
100
AcDbLine
 10
132.99978242326864
 20
-21.000004648823534
 30
0.0
 11
121.00017533708608
 21
-21.000004648823534
 31
0.0
  0
LINE
  5
137
100
AcDbEntity
  8
一般
370
               0
390
0
  6
Continuous
 62
               1
100
AcDbLine
 10
121.0001753370879
 20
-269.99998772110439
 30
0.0
 11
132.99978242326955
 21
-269.99998772110439
 31
0.0
  0
LINE
  5
138
100
AcDbEntity
  8
一般
370
               0
390
0
  6
Continuous
 62
               1
100
AcDbLine
 10
-199.99994481854367
 20
397.91227891377093
 30
0.0
 11
-125.03514067718528
 21
504.97322001762836
 31
0.0
  0
ARC
  5
139
100
AcDbEntity
  8
一般
370
               0
390
0
  6
Continuous
 62
               1
100
AcDbCircle
 10
-174.00002097349909
 20
240.66786895199195
 30
0.0
 40
26.000000000010004
100
AcDbArc
 50
180.0
 51
258.6801144832595
  0
LINE
  5
13A
100
AcDbEntity
  8
一般
370
               0
390
0
  6
Continuous
 62
               1
100
AcDbLine
 10
-200.00002097350728
 20
240.66786895199195
 30
0.0
 11
-199.99994481854367
 21
397.91227891377093
 31
0.0
  0
ARC
  5
13B
100
AcDbEntity
  8
一般
370
               0
390
0
  6
Continuous
 62
               1
100
AcDbCircle
 10
-26.000020973505471
 20
980.00000000004434
 30
0.0
 40
780.00000000004434
100
AcDbArc
 50
258.68011448326041
 51
281.31988551673965
  0
ARC
  5
13C
100
AcDbEntity
  8
一般
370
               0
390
0
  6
Continuous
 62
               1
100
AcDbCircle
 10
-77.322970065549399
 20
436.74013514379112
 30
0.0
 40
83.25986485620912
100
AcDbArc
 50
55.036725217973711
 51
124.96327478201493
  0
CIRCLE
  5
13D
100
AcDbEntity
  8
一般
370
               0
390
0
  6
Continuous
 62
               1
100
AcDbCircle
 10
-26.000020973506381
 20
314.91227564677263
 30
0.0
 40
6.5000000000218279
  0
CIRCLE
  5
13E
100
AcDbEntity
  8
一般
370
               0
390
0
  6
Continuous
 62
               1
100
AcDbCircle
 10
-26.000020973506381
 20
394.91227564677342
 30
0.0
 40
6.5000000000218279
  0
ARC
  5
13F
100
AcDbEntity
  8
一般
370
               0
390
0
  6
Continuous
 62
               1
100
AcDbCircle
 10
-105.55322887145316
 20
484.9409451063666
 30
0.0
 40
10.000000000000274
100
AcDbArc
 50
183.26588377316426
 51
270.0
  0
ARC
  5
140
100
AcDbEntity
  8
一般
370
               0
390
0
  6
Continuous
 62
               1
100
AcDbCircle
 10
-105.5532288714477
 20
483.80155383345664
 30
0.0
 40
9.9999999999969358
100
AcDbArc
 50
113.13136166467721
 51
176.73411622769075
  0
ARC
  5
141
100
AcDbEntity
  8
一般
370
               0
390
0
  6
Continuous
 62
               1
100
AcDbCircle
 10
-75.553228871451338
 20
413.57408041910639
 30
0.0
 40
86.366864687261
100
AcDbArc
 50
66.868638335324334
 51
113.13136166467565
  0
LINE
  5
142
100
AcDbEntity
  8
一般
370
               0
390
0
  6
Continuous
 62
               1
100
AcDbLine
 10
-105.55322887145316
 20
474.94094510636671
 30
0.0
 11
-45.553228871450429
 21
474.94094510636671
 31
0.0
  0
ARC
  5
143
100
AcDbEntity
  8
一般
370
               0
390
0
  6
Continuous
 62
               1
100
AcDbCircle
 10
-45.553228871454976
 20
483.80155383345618
 30
0.0
 40
9.9999999999953033
100
AcDbArc
 50
3.2658837723908087
 51
66.868638335319972
  0
ARC
  5
144
100
AcDbEntity
  8
一般
370
               0
390
0
  6
Continuous
 62
               1
100
AcDbCircle
 10
-45.553228871452248
 20
484.94094510636614
 30
0.0
 40
9.9999999999995453
100
AcDbArc
 50
270.0
 51
356.73411622691373
  0
CIRCLE
  5
145
100
AcDbEntity
  8
一般
370
               0
390
0
  6
Continuous
 62
               1
100
AcDbCircle
 10
-26.000020973506381
 20
314.91227564677263
 30
0.0
 40
3.4999999999790816
  0
CIRCLE
  5
146
100
AcDbEntity
  8
一般
370
               0
390
0
  6
Continuous
 62
               1
100
AcDbCircle
 10
-26.000020973506381
 20
394.91227564677342
 30
0.0
 40
3.4999999999790816
  0
LINE
  5
147
100
AcDbEntity
  8
一般
370
               0
390
0
  6
Continuous
 62
               1
100
AcDbLine
 10
-178.31830238725797
 20
-572.99999999999841
 30
0.0
 11
-196.00000000000455
 21
-572.99999999999864
 31
0.0
  0
LINE
  5
148
100
AcDbEntity
  8
一般
370
               0
390
0
  6
Continuous
 62
               1
100
AcDbLine
 10
-200.0
 20
-600.0
 30
0.0
 11
-179.10344827585504
 21
-599.99999999999966
 31
0.0
  0
LINE
  5
149
100
AcDbEntity
  8
一般
370
               0
390
0
  6
Continuous
 62
               1
100
AcDbLine
 10
-179.10344827585504
 20
-584.99999999999977
 30
0.0
 11
-200.00000000000364
 21
-585.0
 31
0.0
  0
LINE
  5
14A
100
AcDbEntity
  8
一般
370
               0
390
0
  6
Continuous
 62
               1
100
AcDbLine
 10
-196.00000000000819
 20
2.9999999999995737
 30
0.0
 11
-178.31830238726343
 21
2.9999999999997726
 31
0.0
  0
LINE
  5
14B
100
AcDbEntity
  8
一般
370
               0
390
0
  6
Continuous
 62
               1
100
AcDbLine
 10
-200.00000000000728
 20
15.000000000000256
 30
0.0
 11
-179.1034482758605
 21
15.000000000000455
 31
0.0
  0
LINE
  5
14C
100
AcDbEntity
  8
一般
370
               0
390
0
  6
Continuous
 62
               1
100
AcDbLine
 10
-179.1034482758605
 20
30.000000000000426
 30
0.0
 11
-200.00000000000728
 21
30.000000000000256
 31
0.0
  0
LINE
  5
14D
100
AcDbEntity
  8
一般
370
               0
390
0
  6
Continuous
 62
               1
100
AcDbLine
 10
-200.00000000000364
 20
-585.0
 30
0.0
 11
-200.00000000000728
 21
15.000000000000256
 31
0.0
  0
LINE
  5
14E
100
AcDbEntity
  8
一般
370
               0
390
0
  6
Continuous
 62
               1
100
AcDbLine
 10
-196.00000000000819
 20
2.9999999999995737
 30
0.0
 11
-196.00000000000455
 21
-572.99999999999864
 31
0.0
  0
LINE
  5
14F
100
AcDbEntity
  8
一般
370
               0
390
0
  6
Continuous
 62
               1
100
AcDbLine
 10
-196.00000000000455
 20
-572.99999999999864
 30
0.0
 11
-196.00021376202949
 21
-585.00000023808195
 31
0.0
  0
LINE
  5
150
100
AcDbEntity
  8
一般
370
               0
390
0
  6
Continuous
 62
               1
100
AcDbLine
 10
-200.0
 20
-600.0
 30
0.0
 11
-200.00000000000364
 21
-585.0
 31
0.0
  0
LINE
  5
151
100
AcDbEntity
  8
一般
370
               0
390
0
  6
Continuous
 62
               1
100
AcDbLine
 10
-196.00021376203495
 20
15.00000870261465
 30
0.0
 11
-196.00000000000819
 21
2.9999999999995737
 31
0.0
  0
LINE
  5
152
100
AcDbEntity
  8
一般
370
               0
390
0
  6
Continuous
 62
               1
100
AcDbLine
 10
-200.00000000000728
 20
30.000000000000256
 30
0.0
 11
-200.00000000000728
 21
15.000000000000256
 31
0.0
  0
LINE
  5
153
100
AcDbEntity
  8
一般
370
               0
390
0
  6
Continuous
 62
               1
100
AcDbLine
 10
-185.00005735944706
 20
2.9999843839195535
 30
0.0
 11
-185.0000573594416
 21
-573.00000572170939
 31
0.0
  0
ARC
  5
154
100
AcDbEntity
  8
一般
370
               0
390
0
  6
Continuous
 62
               1
100
AcDbCircle
 10
-26.000000000001833
 20
-428.59999999999945
 30
0.0
 40
150.20000000000024
100
AcDbArc
 50
46.239852310357939
 51
87.079499885891906
  0
ARC
  5
155
100
AcDbEntity
  8
一般
370
               0
390
0
  6
Continuous
 62
               1
100
AcDbCircle
 10
-26.000000000001833
 20
-428.59999999999945
 30
0.0
 40
150.20000000000016
100
AcDbArc
 50
92.920500114108123
 51
133.76014768964203
  0
LINE
  5
156
100
AcDbEntity
  8
一般
370
               0
390
0
  6
Continuous
 62
               1
100
AcDbLine
 10
-32.062168260324157
 20
-274.34999430145831
 30
0.0
 11
-34.083004136789
 21
-277.85000884499152
 31
0.0
  0
LINE
  5
157
100
AcDbEntity
  8
一般
370
               0
390
0
  6
Continuous
 62
               1
100
AcDbLine
 10
-17.917270799386657
 20
-277.85000884499141
 30
0.0
 11
-19.937629838693297
 21
-274.34999430145808
 31
0.0
  0
CIRCLE
  5
158
100
AcDbEntity
  8
一般
370
               0
390
0
  6
Continuous
 62
               1
100
AcDbCircle
 10
-26.000000000005471
 20
-277.84999999999968
 30
0.0
 40
1.6000000000003638
  0
CIRCLE
  5
159
100
AcDbEntity
  8
一般
370
               0
390
0
  6
Continuous
 62
               1
100
AcDbCircle
 10
-26.000000000005471
 20
-277.84999999999968
 30
0.0
 40
7.0
  0
CIRCLE
  5
15A
100
AcDbEntity
  8
一般
370
               0
390
0
  6
Continuous
 62
               1
100
AcDbCircle
 10
-26.000000000005471
 20
-277.84999999999968
 30
0.0
 40
4.5999999999748979
  0
LINE
  5
15B
100
AcDbEntity
  8
一般
370
               0
390
0
  6
Continuous
 62
               1
100
AcDbLine
 10
97.999935011161128
 20
-294.99999368156909
 30
0.0
 11
97.999999999995438
 21
-167.19459099446226
 31
0.0
  0
LINE
  5
15C
100
AcDbEntity
  8
一般
370
               0
390
0
  6
Continuous
 62
               1
100
AcDbLine
 10
-185.00000000000455
 20
-167.19459099446431
 30
0.0
 11
-185.00000000000182
 21
-392.93489099973795
 31
0.0
  0
ARC
  5
15D
100
AcDbEntity
  8
一般
370
               0
390
0
  6
Continuous
 62
               1
100
AcDbCircle
 10
-26.000000000001833
 20
-428.59999999999945
 30
0.0
 40
159.00000000000063
100
AcDbArc
 50
12.79846756443566
 51
167.20153243555802
  0
LINE
  5
15E
100
AcDbEntity
  8
一般
370
               0
390
0
  6
Continuous
 62
               1
100
AcDbLine
 10
121.0001753370879
 20
-294.99999368156887
 30
0.0
 11
121.0001753370879
 21
-269.99998772110439
 31
0.0
  0
LINE
  5
15F
100
AcDbEntity
  8
一般
370
               0
390
0
  6
Continuous
 62
               1
100
AcDbLine
 10
-19.000000000000014
 20
-583.49999999999716
 30
0.0
 11
-33.000000000000014
 21
-583.49999999999716
 31
0.0
  0
LINE
  5
160
100
AcDbEntity
  8
一般
370
               0
390
0
  6
Continuous
 62
               1
100
AcDbLine
 10
-179.10344827585504
 20
-599.99999999999966
 30
0.0
 11
127.10344827585406
 21
-599.9999999999975
 31
0.0
  0
LINE
  5
161
100
AcDbEntity
  8
一般
370
               0
390
0
  6
Continuous
 62
               1
100
AcDbLine
 10
127.10344827585406
 20
-584.99999999999773
 30
0.0
 11
-179.10344827585504
 21
-584.99999999999977
 31
0.0
  0
CIRCLE
  5
162
100
AcDbEntity
  8
一般
370
               0
390
0
  6
Continuous
 62
               1
100
AcDbCircle
 10
-26.000000000001833
 20
-428.59999999999945
 30
0.0
 40
39.250000000000909
  0
CIRCLE
  5
163
100
AcDbEntity
  8
一般
370
               0
390
0
  6
Continuous
 62
               1
100
AcDbCircle
 10
-26.000000000001833
 20
-428.59999999999945
 30
0.0
 40
122.60999999999967
  0
ARC
  5
164
100
AcDbEntity
  8
一般
370
               0
390
0
  6
Continuous
 62
               1
100
AcDbCircle
 10
-26.000000000001833
 20
-428.59999999999945
 30
0.0
 40
150.20000000000022
100
AcDbArc
 50
267.32878971385475
 51
268.76014768965325
  0
LINE
  5
165
100
AcDbEntity
  8
一般
370
               0
390
0
  6
Continuous
 62
               1
100
AcDbLine
 10
-32.062168260324157
 20
-281.34999358620257
 30
0.0
 11
-30.041332383859313
 21
-284.8500081297359
 31
0.0
  0
ARC
  5
166
100
AcDbEntity
  8
一般
370
               0
390
0
  6
Continuous
 62
               1
100
AcDbCircle
 10
-26.000000000001833
 20
-428.59999999999945
 30
0.0
 40
150.20000000000056
100
AcDbArc
 50
181.23985231035289
 51
223.76014768966468
  0
LINE
  5
167
100
AcDbEntity
  8
一般
370
               0
390
0
  6
Continuous
 62
               1
100
AcDbLine
 10
-185.0000573594416
 20
-573.00000572170939
 30
0.0
 11
-185.00000000000182
 21
-464.26510900025551
 31
0.0
  0
ARC
  5
168
100
AcDbEntity
  8
一般
370
               0
390
0
  6
Continuous
 62
               1
100
AcDbCircle
 10
-26.000000000001833
 20
-428.59999999999945
 30
0.0
 40
159.00000000000003
100
AcDbArc
 50
192.79846756444201
 51
245.25450659013856
  0
LINE
  5
169
100
AcDbEntity
  8
一般
370
               0
390
0
  6
Continuous
 62
               1
100
AcDbLine
 10
-33.000000000000014
 20
-572.9999999999975
 30
0.0
 11
-178.31830238725797
 21
-572.99999999999841
 31
0.0
  0
ARC
  5
16A
100
AcDbEntity
  8
一般
370
               0
390
0
  6
Continuous
 62
               1
100
AcDbCircle
 10
-26.000000000001833
 20
-428.59999999999945
 30
0.0
 40
150.20000000000016
100
AcDbArc
 50
226.23985231035789
 51
254.02561338732369
  0
LINE
  5
16B
100
AcDbEntity
  8
一般
370
               0
390
0
  6
Continuous
 62
               1
100
AcDbLine
 10
-178.31813826154121
 20
-585.00000023808195
 30
0.0
 11
-178.31830238725797
 21
-572.99999999999841
 31
0.0
  0
LINE
  5
16C
100
AcDbEntity
  8
一般
370
               0
390
0
  6
Continuous
 62
               1
100
AcDbLine
 10
-179.10344827585504
 20
-584.99999999999977
 30
0.0
 11
-179.10344827585504
 21
-599.99999999999966
 31
0.0
  0
ARC
  5
16D
100
AcDbEntity
  8
一般
370
               0
390
0
  6
Continuous
 62
               1
100
AcDbCircle
 10
-131.53568709209594
 20
-534.13568709209176
 30
0.0
 40
3.25000000000087
100
AcDbArc
 50
315.00000000000568
 51
135.00000000000847
  0
ARC
  5
16E
100
AcDbEntity
  8
一般
370
               0
390
0
  6
Continuous
 62
               1
100
AcDbCircle
 10
-132.59634726387321
 20
-535.19634726387244
 30
0.0
 40
4.0000000000004112
100
AcDbArc
 50
126.3431595135084
 51
323.65684048653139
  0
LINE
  5
16F
100
AcDbEntity
  8
一般
370
               0
390
0
  6
Continuous
 62
               1
100
AcDbLine
 10
-133.83378413095215
 20
-531.837590053236
 30
0.0
 11
-134.48066976150585
 21
-532.48447568378901
 31
0.0
  0
ARC
  5
170
100
AcDbEntity
  8
一般
370
               0
390
0
  6
Continuous
 62
               1
100
AcDbCircle
 10
-132.59634726387321
 20
-535.19634726387244
 30
0.0
 40
4.0000000000002274
100
AcDbArc
 50
90.0
 51
95.161852191563383
  0
LINE
  5
171
100
AcDbEntity
  8
一般
370
               0
390
0
  6
Continuous
 62
               1
100
AcDbLine
 10
-129.88447568379252
 20
-537.08066976150144
 30
0.0
 11
-129.23759005323791
 21
-536.43378413094865
 31
0.0
  0
LINE
  5
172
100
AcDbEntity
  8
一般
370
               0
390
0
  6
Continuous
 62
               1
100
AcDbLine
 10
-33.000000000000014
 20
-583.49999999999716
 30
0.0
 11
-33.000000000000014
 21
-572.9999999999975
 31
0.0
  0
ARC
  5
173
100
AcDbEntity
  8
一般
370
               0
390
0
  6
Continuous
 62
               1
100
AcDbCircle
 10
-26.000000000001833
 20
-428.59999999999945
 30
0.0
 40
150.20000000000002
100
AcDbArc
 50
136.23985231033515
 51
178.76014768964711
  0
ARC
  5
174
100
AcDbEntity
  8
一般
370
               0
390
0
  6
Continuous
 62
               1
100
AcDbCircle
 10
-175.25000000000364
 20
-428.59999999999889
 30
0.0
 40
3.25
100
AcDbArc
 50
270.0
 51
90.0
  0
LINE
  5
175
100
AcDbEntity
  8
一般
370
               0
390
0
  6
Continuous
 62
               1
100
AcDbLine
 10
-175.25000000000364
 20
-425.34999999999923
 30
0.0
 11
-176.1648344320356
 21
-425.34999999999923
 31
0.0
  0
LINE
  5
176
100
AcDbEntity
  8
一般
370
               0
390
0
  6
Continuous
 62
               1
100
AcDbLine
 10
-176.16483443203651
 20
-431.84999999999889
 30
0.0
 11
-175.25000000000364
 21
-431.84999999999889
 31
0.0
  0
ARC
  5
177
100
AcDbEntity
  8
一般
370
               0
390
0
  6
Continuous
 62
               1
100
AcDbCircle
 10
-176.75
 20
-428.60000000000105
 30
0.0
 40
4.0000000000003411
100
AcDbArc
 50
90.0
 51
278.65684049174001
  0
ARC
  5
178
100
AcDbEntity
  8
一般
370
               0
390
0
  6
Continuous
 62
               1
100
AcDbCircle
 10
-176.75
 20
-428.60000000000105
 30
0.0
 40
4.0000000000000577
100
AcDbArc
 50
81.343159508259504
 51
90.0
  0
ARC
  5
179
100
AcDbEntity
  8
一般
370
               0
390
0
  6
Continuous
 62
               1
100
AcDbCircle
 10
-183.00000000000182
 20
-464.26510900025551
 30
0.0
 40
2.0000000000003268
100
AcDbArc
 50
12.798467564438816
 51
180.0
  0
ARC
  5
17A
100
AcDbEntity
  8
一般
370
               0
390
0
  6
Continuous
 62
               1
100
AcDbCircle
 10
-183.00000000000182
 20
-392.93489099973795
 30
0.0
 40
2.0000000000009095
100
AcDbArc
 50
180.0
 51
347.20153243555484
  0
LINE
  5
17B
100
AcDbEntity
  8
一般
370
               0
390
0
  6
Continuous
 62
               1
100
AcDbLine
 10
-134.48066976150403
 20
-324.71552431620933
 30
0.0
 11
-133.83378413095033
 21
-325.36240994676336
 31
0.0
  0
ARC
  5
17C
100
AcDbEntity
  8
一般
370
               0
390
0
  6
Continuous
 62
               1
100
AcDbCircle
 10
-132.59634726387867
 20
-322.00365273612761
 30
0.0
 40
4.0
100
AcDbArc
 50
270.0
 51
5.1645029199109445
  0
ARC
  5
17D
100
AcDbEntity
  8
一般
370
               0
390
0
  6
Continuous
 62
               1
100
AcDbCircle
 10
-132.59634726387867
 20
-322.00365273612761
 30
0.0
 40
3.9999999999998441
100
AcDbArc
 50
36.343159514250267
 51
233.65684048572433
  0
ARC
  5
17E
100
AcDbEntity
  8
一般
370
               0
390
0
  6
Continuous
 62
               1
100
AcDbCircle
 10
-132.59634726387867
 20
-322.00365273612761
 30
0.0
 40
4.0000000000000666
100
AcDbArc
 50
264.8354910786345
 51
270.0
  0
LINE
  5
17F
100
AcDbEntity
  8
一般
370
               0
390
0
  6
Continuous
 62
               1
100
AcDbLine
 10
-129.23759005323791
 20
-320.7662158690498
 30
0.0
 11
-129.88447568379161
 21
-320.1193302384969
 31
0.0
  0
LINE
  5
180
100
AcDbEntity
  8
一般
370
               0
390
0
  6
Continuous
 62
               1
100
AcDbLine
 10
-34.083004136789
 20
-277.85000884499152
 30
0.0
 11
-32.062168260324157
 21
-281.34999358620257
 31
0.0
  0
ARC
  5
181
100
AcDbEntity
  8
一般
370
               0
390
0
  6
Continuous
 62
               1
100
AcDbCircle
 10
-26.000000000001833
 20
-428.59999999999945
 30
0.0
 40
150.19999999999968
100
AcDbArc
 50
316.23985231033527
 51
358.76014768965354
  0
ARC
  5
182
100
AcDbEntity
  8
一般
370
               0
390
0
  6
Continuous
 62
               1
100
AcDbCircle
 10
-26.000000000001833
 20
-428.59999999999945
 30
0.0
 40
159.00000000000014
100
AcDbArc
 50
294.74549340986141
 51
347.20153243556439
  0
LINE
  5
183
100
AcDbEntity
  8
一般
370
               0
390
0
  6
Continuous
 62
               1
100
AcDbLine
 10
126.31830238725972
 20
-572.99999999999659
 30
0.0
 11
-19.000000000000014
 21
-572.9999999999975
 31
0.0
  0
ARC
  5
184
100
AcDbEntity
  8
一般
370
               0
390
0
  6
Continuous
 62
               1
100
AcDbCircle
 10
-26.000000000001833
 20
-428.59999999999945
 30
0.0
 40
150.20000000000056
100
AcDbArc
 50
285.97438661267626
 51
313.76014768964194
  0
LINE
  5
185
100
AcDbEntity
  8
一般
370
               0
390
0
  6
Continuous
 62
               1
100
AcDbLine
 10
-19.000000000000014
 20
-572.9999999999975
 30
0.0
 11
-19.000000000000014
 21
-583.49999999999716
 31
0.0
  0
LINE
  5
186
100
AcDbEntity
  8
一般
370
               0
390
0
  6
Continuous
 62
               1
100
AcDbLine
 10
-29.250000000001833
 20
-577.84999999999945
 30
0.0
 11
-29.250000000001833
 21
-578.76483443203301
 31
0.0
  0
LINE
  5
187
100
AcDbEntity
  8
一般
370
               0
390
0
  6
Continuous
 62
               1
100
AcDbLine
 10
-22.750000000001833
 20
-578.76483443203301
 30
0.0
 11
-22.750000000001833
 21
-577.84999999999945
 31
0.0
  0
ARC
  5
188
100
AcDbEntity
  8
一般
370
               0
390
0
  6
Continuous
 62
               1
100
AcDbCircle
 10
-26.000000000001833
 20
-577.84999999999945
 30
0.0
 40
3.25
100
AcDbArc
 50
0.0
 51
179.99999999999196
  0
ARC
  5
189
100
AcDbEntity
  8
一般
370
               0
390
0
  6
Continuous
 62
               1
100
AcDbCircle
 10
-26.000000000001833
 20
-428.59999999999945
 30
0.0
 40
150.20000000000022
100
AcDbArc
 50
271.23985231034675
 51
272.67121028614531
  0
ARC
  5
18A
100
AcDbEntity
  8
一般
370
               0
390
0
  6
Continuous
 62
               1
100
AcDbCircle
 10
-25.999999999999105
 20
-579.34999999999968
 30
0.0
 40
3.999999999999889
100
AcDbArc
 50
171.34315950877308
 51
8.6568404912269443
  0
LINE
  5
18B
100
AcDbEntity
  8
一般
370
               0
390
0
  6
Continuous
 62
               1
100
AcDbLine
 10
126.31834016253099
 20
-585.00000023807979
 30
0.0
 11
126.31830238725972
 21
-572.99999999999659
 31
0.0
  0
LINE
  5
18C
100
AcDbEntity
  8
一般
370
               0
390
0
  6
Continuous
 62
               1
100
AcDbLine
 10
127.10344827585406
 20
-584.99999999999773
 30
0.0
 11
127.10344827585406
 21
-599.9999999999975
 31
0.0
  0
LINE
  5
18D
100
AcDbEntity
  8
一般
370
               0
390
0
  6
Continuous
 62
               1
100
AcDbLine
 10
77.237590053235166
 20
-536.43378413094842
 30
0.0
 11
77.884475683787954
 21
-537.08066976150144
 31
0.0
  0
LINE
  5
18E
100
AcDbEntity
  8
一般
370
               0
390
0
  6
Continuous
 62
               1
100
AcDbLine
 10
82.480669761498561
 20
-532.48447568378901
 30
0.0
 11
81.833784130945773
 21
-531.83759005323532
 31
0.0
  0
ARC
  5
18F
100
AcDbEntity
  8
一般
370
               0
390
0
  6
Continuous
 62
               1
100
AcDbCircle
 10
79.535687092087741
 20
-534.13568709209153
 30
0.0
 40
3.2500000000003881
100
AcDbArc
 50
44.999999999985825
 51
225.00000000005102
  0
ARC
  5
190
100
AcDbEntity
  8
一般
370
               0
390
0
  6
Continuous
 62
               1
100
AcDbCircle
 10
80.59634726387047
 20
-535.19634726387085
 30
0.0
 40
4.0
100
AcDbArc
 50
270.0
 51
53.656840493476011
  0
ARC
  5
191
100
AcDbEntity
  8
一般
370
               0
390
0
  6
Continuous
 62
               1
100
AcDbCircle
 10
80.59634726387047
 20
-535.19634726387085
 30
0.0
 40
4.0000000000002132
100
AcDbArc
 50
216.34315950651947
 51
270.0
  0
LINE
  5
192
100
AcDbEntity
  8
一般
370
               0
390
0
  6
Continuous
 62
               1
100
AcDbLine
 10
-21.958465715158141
 20
-284.85000812973567
 30
0.0
 11
-19.937629838693297
 21
-281.34999358620234
 31
0.0
  0
LINE
  5
193
100
AcDbEntity
  8
一般
370
               0
390
0
  6
Continuous
 62
               1
100
AcDbLine
 10
-26.000137468086919
 20
-284.85000812973567
 30
0.0
 11
-21.958465715158141
 21
-284.85000812973567
 31
0.0
  0
LINE
  5
194
100
AcDbEntity
  8
一般
370
               0
390
0
  6
Continuous
 62
               1
100
AcDbLine
 10
-30.041332383859313
 20
-284.8500081297359
 30
0.0
 11
-26.000137468086919
 21
-284.85000812973567
 31
0.0
  0
LINE
  5
195
100
AcDbEntity
  8
一般
370
               0
390
0
  6
Continuous
 62
               1
100
AcDbLine
 10
-19.937629838693297
 20
-281.34999358620234
 30
0.0
 11
-17.917270799386657
 21
-277.85000884499141
 31
0.0
  0
ARC
  5
196
100
AcDbEntity
  8
一般
370
               0
390
0
  6
Continuous
 62
               1
100
AcDbCircle
 10
-26.000000000001833
 20
-428.59999999999945
 30
0.0
 40
150.19999999999959
100
AcDbArc
 50
1.2398523103529009
 51
43.760147689664791
  0
LINE
  5
197
100
AcDbEntity
  8
一般
370
               0
390
0
  6
Continuous
 62
               1
100
AcDbLine
 10
124.16483443203099
 20
-425.34999999999877
 30
0.0
 11
123.24999999999902
 21
-425.34999999999877
 31
0.0
  0
LINE
  5
198
100
AcDbEntity
  8
一般
370
               0
390
0
  6
Continuous
 62
               1
100
AcDbLine
 10
123.24999999999902
 20
-431.84999999999877
 30
0.0
 11
124.16483443203099
 21
-431.84999999999877
 31
0.0
  0
ARC
  5
199
100
AcDbEntity
  8
一般
370
               0
390
0
  6
Continuous
 62
               1
100
AcDbCircle
 10
123.24999999999629
 20
-428.59999999999877
 30
0.0
 40
3.25
100
AcDbArc
 50
90.0
 51
270.0
  0
ARC
  5
19A
100
AcDbEntity
  8
一般
370
               0
390
0
  6
Continuous
 62
               1
100
AcDbCircle
 10
124.74999999999629
 20
-428.59999999999889
 30
0.0
 40
4.0000000000001137
100
AcDbArc
 50
270.0
 51
98.656840491687745
  0
ARC
  5
19B
100
AcDbEntity
  8
一般
370
               0
390
0
  6
Continuous
 62
               1
100
AcDbCircle
 10
124.74999999999629
 20
-428.59999999999889
 30
0.0
 40
4.0000000000001847
100
AcDbArc
 50
261.34315950831251
 51
270.0
  0
LINE
  5
19C
100
AcDbEntity
  8
一般
370
               0
390
0
  6
Continuous
 62
               1
100
AcDbLine
 10
81.833784130945773
 20
-325.3624099467628
 30
0.0
 11
82.480669761498561
 21
-324.71552431620898
 31
0.0
  0
ARC
  5
19D
100
AcDbEntity
  8
一般
370
               0
390
0
  6
Continuous
 62
               1
100
AcDbCircle
 10
79.53568709208956
 20
-323.06431290790647
 30
0.0
 40
3.2500000000005489
100
AcDbArc
 50
135.00000000001134
 51
315.00000000000983
  0
ARC
  5
19E
100
AcDbEntity
  8
一般
370
               0
390
0
  6
Continuous
 62
               1
100
AcDbCircle
 10
80.596347263865923
 20
-322.00365273612738
 30
0.0
 40
3.9999999999998144
100
AcDbArc
 50
306.34315950083459
 51
143.65684049919989
  0
ARC
  5
19F
100
AcDbEntity
  8
一般
370
               0
390
0
  6
Continuous
 62
               1
100
AcDbCircle
 10
80.596347263865923
 20
-322.00365273612738
 30
0.0
 40
4.0
100
AcDbArc
 50
270.0
 51
275.16090289739088
  0
LINE
  5
1A0
100
AcDbEntity
  8
一般
370
               0
390
0
  6
Continuous
 62
               1
100
AcDbLine
 10
77.884475683787045
 20
-320.11933023849679
 30
0.0
 11
77.237590053233347
 21
-320.76621586905048
 31
0.0
  0
LINE
  5
1A1
100
AcDbEntity
  8
一般
370
               0
390
0
  6
Continuous
 62
               1
100
AcDbLine
 10
-178.31830238726343
 20
2.9999999999997726
 30
0.0
 11
88.624836601305091
 21
3.0000000000015632
 31
0.0
  0
LINE
  5
1A2
100
AcDbEntity
  8
一般
370
               0
390
0
  6
Continuous
 62
               1
100
AcDbLine
 10
-179.1034482758605
 20
15.000000000000455
 30
0.0
 11
127.10344827584861
 21
15.000000000002473
 31
0.0
  0
LINE
  5
1A3
100
AcDbEntity
  8
一般
370
               0
390
0
  6
Continuous
 62
               1
100
AcDbLine
 10
127.10344827584861
 20
30.000000000002473
 30
0.0
 11
-179.1034482758605
 21
30.000000000000426
 31
0.0
  0
LINE
  5
1A4
100
AcDbEntity
  8
一般
370
               0
390
0
  6
Continuous
 62
               1
100
AcDbLine
 10
-30.041332383859313
 20
-270.85000956024737
 30
0.0
 11
-32.062168260324157
 21
-274.34999430145831
 31
0.0
  0
ARC
  5
1A5
100
AcDbEntity
  8
一般
370
               0
390
0
  6
Continuous
 62
               1
100
AcDbCircle
 10
-43.500000000006381
 20
12.400000000004155
 30
0.0
 40
278.60000000000326
100
AcDbArc
 50
247.40646832567913
 51
292.59353167432062
  0
ARC
  5
1A6
100
AcDbEntity
  8
一般
370
               0
390
0
  6
Continuous
 62
               1
100
AcDbCircle
 10
94.500000000076383
 20
-125.59999999999945
 30
0.0
 40
278.60000000008637
100
AcDbArc
 50
188.52462508463478
 51
202.59353167432343
  0
ARC
  5
1A7
100
AcDbEntity
  8
一般
370
               0
390
0
  6
Continuous
 62
               1
100
AcDbCircle
 10
-141.85292050036514
 20
-223.95292050035937
 30
0.0
 40
22.600000000000549
100
AcDbArc
 50
202.59353167432988
 51
247.40646832567899
  0
CIRCLE
  5
1A8
100
AcDbEntity
  8
一般
370
               0
390
0
  6
Continuous
 62
               1
100
AcDbCircle
 10
-148.85891039680155
 20
-230.95891039679555
 30
0.0
 40
3.25
  0
ARC
  5
1A9
100
AcDbEntity
  8
一般
370
               0
390
0
  6
Continuous
 62
               1
100
AcDbCircle
 10
-183.00000000001728
 20
-167.19459099446431
 30
0.0
 40
2.0000000000002425
100
AcDbArc
 50
8.5246250846405509
 51
179.99999999999997
  0
LINE
  5
1AA
100
AcDbEntity
  8
一般
370
               0
390
0
  6
Continuous
 62
               1
100
AcDbLine
 10
-178.31813826154757
 20
15.000008702614849
 30
0.0
 11
-178.31830238726343
 21
2.9999999999997726
 31
0.0
  0
ARC
  5
1AB
100
AcDbEntity
  8
一般
370
               0
390
0
  6
Continuous
 62
               1
100
AcDbCircle
 10
-141.85292050037151
 20
-27.247079499632946
 30
0.0
 40
22.599999999994122
100
AcDbArc
 50
112.59353167432073
 51
157.40646832567697
  0
LINE
  5
1AC
100
AcDbEntity
  8
一般
370
               0
390
0
  6
Continuous
 62
               1
100
AcDbLine
 10
-185.00005735944706
 20
2.9999843839195535
 30
0.0
 11
-185.00000000000455
 21
-84.005409005544578
 31
0.0
  0
ARC
  5
1AD
100
AcDbEntity
  8
一般
370
               0
390
0
  6
Continuous
 62
               1
100
AcDbCircle
 10
94.500000000076383
 20
-125.59999999999945
 30
0.0
 40
278.60000000008017
100
AcDbArc
 50
157.40646832567657
 51
171.47537491536519
  0
ARC
  5
1AE
100
AcDbEntity
  8
一般
370
               0
390
0
  6
Continuous
 62
               1
100
AcDbCircle
 10
-183.00000000001819
 20
-84.005409005544578
 30
0.0
 40
2.000000000005457
100
AcDbArc
 50
180.0
 51
351.47537491537304
  0
ARC
  5
1AF
100
AcDbEntity
  8
一般
370
               0
390
0
  6
Continuous
 62
               1
100
AcDbCircle
 10
-43.500000000004562
 20
-263.60000000000559
 30
0.0
 40
278.60000000000633
100
AcDbArc
 50
106.877534367791
 51
112.59353167432083
  0
CIRCLE
  5
1B0
100
AcDbEntity
  8
一般
370
               0
390
0
  6
Continuous
 62
               1
100
AcDbCircle
 10
-148.85891039680337
 20
-20.241089603204443
 30
0.0
 40
3.25
  0
LINE
  5
1B1
100
AcDbEntity
  8
一般
370
               0
390
0
  6
Continuous
 62
               1
100
AcDbLine
 10
-179.1034482758605
 20
15.000000000000455
 30
0.0
 11
-179.1034482758605
 21
30.000000000000426
 31
0.0
  0
LINE
  5
1B2
100
AcDbEntity
  8
一般
370
               0
390
0
  6
Continuous
 62
               1
100
AcDbLine
 10
97.999999999995438
 20
-167.19459099446226
 30
0.0
 11
97.999999999994529
 21
-84.005409005542532
 31
0.0
  0
LINE
  5
1B3
100
AcDbEntity
  8
一般
370
               0
390
0
  6
Continuous
 62
               1
100
AcDbLine
 10
-26.000137468086919
 20
-270.85000956024714
 30
0.0
 11
-30.041332383859313
 21
-270.85000956024737
 31
0.0
  0
LINE
  5
1B4
100
AcDbEntity
  8
一般
370
               0
390
0
  6
Continuous
 62
               1
100
AcDbLine
 10
-19.937629838693297
 20
-274.34999430145808
 30
0.0
 11
-21.958465715158141
 21
-270.85000956024714
 31
0.0
  0
LINE
  5
1B5
100
AcDbEntity
  8
一般
370
               0
390
0
  6
Continuous
 62
               1
100
AcDbLine
 10
-21.958465715158141
 20
-270.85000956024714
 30
0.0
 11
-26.000137468086919
 21
-270.85000956024714
 31
0.0
  0
ARC
  5
1B6
100
AcDbEntity
  8
一般
370
               0
390
0
  6
Continuous
 62
               1
100
AcDbCircle
 10
-181.49999999998818
 20
-125.60000000000082
 30
0.0
 40
278.59999999998792
100
AcDbArc
 50
337.40646832567052
 51
351.47537491535883
  0
CIRCLE
  5
1B7
100
AcDbEntity
  8
一般
370
               0
390
0
  6
Continuous
 62
               1
100
AcDbCircle
 10
61.85891039679062
 20
-230.95891039679395
 30
0.0
 40
3.25
  0
ARC
  5
1B8
100
AcDbEntity
  8
一般
370
               0
390
0
  6
Continuous
 62
               1
100
AcDbCircle
 10
54.852920500351487
 20
-223.95292050035437
 30
0.0
 40
22.600000000005736
100
AcDbArc
 50
292.59353167432096
 51
337.40646832567023
  0
ARC
  5
1B9
100
AcDbEntity
  8
一般
370
               0
390
0
  6
Continuous
 62
               1
100
AcDbCircle
 10
96.000000000005443
 20
-167.19459099446226
 30
0.0
 40
2.000000000001819
100
AcDbArc
 50
0.0000000000195413
 51
171.47537491535272
  0
ARC
  5
1BA
100
AcDbEntity
  8
一般
370
               0
390
0
  6
Continuous
 62
               1
100
AcDbCircle
 10
-43.500000000004562
 20
-263.60000000000559
 30
0.0
 40
278.60000000000628
100
AcDbArc
 50
67.406468325679185
 51
73.122465632209
  0
LINE
  5
1BB
100
AcDbEntity
  8
一般
370
               0
390
0
  6
Continuous
 62
               1
100
AcDbLine
 10
97.999999999999076
 20
3.0000000000015632
 30
0.0
 11
97.99993501115749
 21
15.000008702616668
 31
0.0
  0
LINE
  5
1BC
100
AcDbEntity
  8
一般
370
               0
390
0
  6
Continuous
 62
               1
100
AcDbLine
 10
88.624839643725849
 20
15.000008702616668
 30
0.0
 11
88.624836601305091
 21
3.0000000000015632
 31
0.0
  0
LINE
  5
1BD
100
AcDbEntity
  8
一般
370
               0
390
0
  6
Continuous
 62
               1
100
AcDbLine
 10
121.00017533708608
 20
-21.000004648823534
 30
0.0
 11
121.00017533708608
 21
9.0000263455917491
 31
0.0
  0
LINE
  5
1BE
100
AcDbEntity
  8
一般
370
               0
390
0
  6
Continuous
 62
               1
100
AcDbLine
 10
88.624836601305091
 20
3.0000000000015632
 30
0.0
 11
97.999999999999076
 21
3.0000000000015632
 31
0.0
  0
ARC
  5
1BF
100
AcDbEntity
  8
一般
370
               0
390
0
  6
Continuous
 62
               1
100
AcDbCircle
 10
-181.49999999998818
 20
-125.60000000000082
 30
0.0
 40
278.59999999998621
100
AcDbArc
 50
8.5246250846411975
 51
22.593531674329427
  0
ARC
  5
1C0
100
AcDbEntity
  8
一般
370
               0
390
0
  6
Continuous
 62
               1
100
AcDbCircle
 10
54.852920500355125
 20
-27.247079499637238
 30
0.0
 40
22.599999999999532
100
AcDbArc
 50
22.593531674329693
 51
67.406468325680109
  0
CIRCLE
  5
1C1
100
AcDbEntity
  8
一般
370
               0
390
0
  6
Continuous
 62
               1
100
AcDbCircle
 10
61.858910396788801
 20
-20.241089603203136
 30
0.0
 40
3.25
  0
LINE
  5
1C2
100
AcDbEntity
  8
一般
370
               0
390
0
  6
Continuous
 62
               1
100
AcDbLine
 10
97.999999999994529
 20
-84.005409005542532
 30
0.0
 11
97.999999999999076
 21
3.0000000000015632
 31
0.0
  0
ARC
  5
1C3
100
AcDbEntity
  8
一般
370
               0
390
0
  6
Continuous
 62
               1
100
AcDbCircle
 10
96.000000000005443
 20
-84.005409005542532
 30
0.0
 40
2.0000000000020792
100
AcDbArc
 50
188.52462508464009
 51
0.0
  0
LINE
  5
1C4
100
AcDbEntity
  8
一般
370
               0
390
0
  6
Continuous
 62
               1
100
AcDbLine
 10
127.10344827584861
 20
15.000000000002473
 30
0.0
 11
127.10344827584861
 21
30.000000000002473
 31
0.0
  0
LINE
  5
1C5
100
AcDbEntity
  8
一般
370
               0
390
0
  6
Continuous
 62
               1
100
AcDbLine
 10
147.99986635394345
 20
380.60881211689593
 30
0.0
 11
147.9999790264954
 21
240.66786895199331
 31
0.0
  0
LINE
  5
1C6
100
AcDbEntity
  8
一般
370
               0
390
0
  6
Continuous
 62
               1
100
AcDbLine
 10
-777.91227891377002
 20
15.000008702613741
 30
0.0
 11
-663.91227140358569
 21
15.000008702613741
 31
0.0
  0
LINE
  5
1C7
100
AcDbEntity
  8
一般
370
               0
390
0
  6
Continuous
 62
               1
100
AcDbLine
 10
-777.91227891377002
 20
-585.00000023808286
 30
0.0
 11
-663.91227140358569
 21
-585.00000023808286
 31
0.0
  0
LINE
  5
1C8
100
AcDbEntity
  8
一般
370
               0
390
0
  6
Continuous
 62
               1
100
AcDbLine
 10
-777.91227891377002
 20
-600.00000083412942
 30
0.0
 11
-620.6678689519922
 21
-600.00000000000091
 31
0.0
  0
LINE
  5
1C9
100
AcDbEntity
  8
一般
370
               0
390
0
  6
Continuous
 62
               1
100
AcDbLine
 10
-620.6678689519922
 20
-585.00000000000091
 30
0.0
 11
-777.91227891377002
 21
-585.00000023808286
 31
0.0
  0
LINE
  5
1CA
100
AcDbEntity
  8
一般
370
               0
390
0
  6
Continuous
 62
               1
100
AcDbLine
 10
-620.6678689519922
 20
29.999999999999346
 30
0.0
 11
-777.91227891377002
 21
29.999994397498966
 31
0.0
  0
LINE
  5
1CB
100
AcDbEntity
  8
一般
370
               0
390
0
  6
Continuous
 62
               1
100
AcDbLine
 10
-777.91227891377002
 20
15.000008702613741
 30
0.0
 11
-620.6678689519922
 21
14.999999999999346
 31
0.0
  0
LINE
  5
1CC
100
AcDbEntity
  8
一般
370
               0
390
0
  6
Continuous
 62
               1
100
AcDbLine
 10
-884.97322001763041
 20
-572.99999999999955
 30
0.0
 11
-884.97322001763041
 21
2.9999999999995453
 31
0.0
  0
LINE
  5
1CD
100
AcDbEntity
  8
一般
370
               0
390
0
  6
Continuous
 62
               1
100
AcDbLine
 10
-777.91227891377002
 20
-585.00000023808286
 30
0.0
 11
-777.91227891377002
 21
15.000008702613741
 31
0.0
  0
LINE
  5
1CE
100
AcDbEntity
  8
一般
370
               0
390
0
  6
Continuous
 62
               1
100
AcDbLine
 10
-884.9732198499787
 20
15.000008702614139
 30
0.0
 11
-884.9732198499787
 21
-585.00000023808252
 31
0.0
  0
LINE
  5
1CF
100
AcDbEntity
  8
一般
370
               0
390
0
  6
Continuous
 62
               1
100
AcDbLine
 10
-777.91227891377002
 20
-585.00000023808286
 30
0.0
 11
-777.91227891377002
 21
15.000008702613741
 31
0.0
  0
LINE
  5
1D0
100
AcDbEntity
  8
一般
370
               0
390
0
  6
Continuous
 62
               1
100
AcDbLine
 10
147.99999999999631
 20
15.000000000002757
 30
0.0
 11
148.00000000000085
 21
-584.9999999999975
 31
0.0
  0
LINE
  5
1D1
100
AcDbEntity
  8
一般
370
               0
390
0
  6
Continuous
 62
               1
100
AcDbLine
 10
132.99978242326864
 20
15.000008702616952
 30
0.0
 11
132.9997824232741
 21
-573.00000572170711
 31
0.0
  0
LINE
  5
1D2
100
AcDbEntity
  8
一般
370
               0
390
0
  6
Continuous
 62
               1
100
AcDbLine
 10
144.00000000000267
 20
-572.99999999999636
 30
0.0
 11
143.99993882585653
 21
15.000008702617151
 31
0.0
  0
LINE
  5
1D3
100
AcDbEntity
  8
一般
370
               0
390
0
  6
Continuous
 62
               1
100
AcDbLine
 10
132.99999999999812
 20
-464.26510900025323
 30
0.0
 11
132.9997824232741
 21
-573.00000572170711
 31
0.0
  0
LINE
  5
1D4
100
AcDbEntity
  8
一般
370
               0
390
0
  6
Continuous
 62
               1
100
AcDbLine
 10
143.99993882586108
 20
-585.00000023807956
 30
0.0
 11
144.00000000000267
 21
-572.99999999999636
 31
0.0
  0
LINE
  5
1D5
100
AcDbEntity
  8
一般
370
               0
390
0
  6
Continuous
 62
               1
100
AcDbLine
 10
148.00000000000085
 20
-584.9999999999975
 30
0.0
 11
148.00000000000085
 21
-599.9999999999975
 31
0.0
  0
LINE
  5
1D6
100
AcDbEntity
  8
一般
370
               0
390
0
  6
Continuous
 62
               1
100
AcDbLine
 10
132.9999999999954
 20
-392.93489099974477
 30
0.0
 11
132.99978242326955
 21
-294.99999368156887
 31
0.0
  0
LINE
  5
1D7
100
AcDbEntity
  8
一般
370
               0
390
0
  6
Continuous
 62
               1
100
AcDbLine
 10
-884.9732198499787
 20
-585.00000023808252
 30
0.0
 11
-777.91227891377002
 21
-585.00000023808286
 31
0.0
  0
LINE
  5
1D8
100
AcDbEntity
  8
一般
370
               0
390
0
  6
Continuous
 62
               1
100
AcDbLine
 10
-884.97322001763041
 20
-600.00000000000023
 30
0.0
 11
-777.91227891377002
 21
-600.00000083412942
 31
0.0
  0
LINE
  5
1D9
100
AcDbEntity
  8
一般
370
               0
390
0
  6
Continuous
 62
               1
100
AcDbLine
 10
-777.91227891377002
 20
-585.00000023808286
 30
0.0
 11
-884.9732198499787
 21
-585.00000023808252
 31
0.0
  0
LINE
  5
1DA
100
AcDbEntity
  8
一般
370
               0
390
0
  6
Continuous
 62
               1
100
AcDbLine
 10
-900.0
 20
-600.0
 30
0.0
 11
-884.97322001763041
 21
-600.00000000000023
 31
0.0
  0
LINE
  5
1DB
100
AcDbEntity
  8
一般
370
               0
390
0
  6
Continuous
 62
               1
100
AcDbLine
 10
-884.97322001763041
 20
-572.99999999999955
 30
0.0
 11
-900.0
 21
-572.99999999999909
 31
0.0
  0
LINE
  5
1DC
100
AcDbEntity
  8
一般
370
               0
390
0
  6
Continuous
 62
               1
100
AcDbLine
 10
-884.9732198499787
 20
-585.00000023808252
 30
0.0
 11
-884.97322001763041
 21
-572.99999999999955
 31
0.0
  0
LINE
  5
1DD
100
AcDbEntity
  8
一般
370
               0
390
0
  6
Continuous
 62
               1
100
AcDbLine
 10
-884.9732198499787
 20
-585.00000023808252
 30
0.0
 11
-884.97322001763041
 21
-600.00000000000023
 31
0.0
  0
LINE
  5
1DE
100
AcDbEntity
  8
一般
370
               0
390
0
  6
Continuous
 62
               1
100
AcDbLine
 10
-900.0
 20
-572.99999999999909
 30
0.0
 11
-900.0
 21
-600.0
 31
0.0
  0
LINE
  5
1DF
100
AcDbEntity
  8
一般
370
               0
390
0
  6
Continuous
 62
               1
100
AcDbLine
 10
-777.91227891377002
 20
-585.00000023808286
 30
0.0
 11
-777.91227891377002
 21
-600.00000083412942
 31
0.0
  0
LINE
  5
1E0
100
AcDbEntity
  8
一般
370
               0
390
0
  6
Continuous
 62
               1
100
AcDbLine
 10
147.99999999999631
 20
15.000000000002757
 30
0.0
 11
147.9999999999954
 21
30.000000000002473
 31
0.0
  0
LINE
  5
1E1
100
AcDbEntity
  8
一般
370
               0
390
0
  6
Continuous
 62
               1
100
AcDbLine
 10
-777.91227891377002
 20
15.000008702613741
 30
0.0
 11
-884.9732198499787
 21
15.000008702614139
 31
0.0
  0
LINE
  5
1E2
100
AcDbEntity
  8
一般
370
               0
390
0
  6
Continuous
 62
               1
100
AcDbLine
 10
-777.91227891377002
 20
29.999994397498966
 30
0.0
 11
-884.97322001762859
 21
29.999999999999915
 31
0.0
  0
LINE
  5
1E3
100
AcDbEntity
  8
一般
370
               0
390
0
  6
Continuous
 62
               1
100
AcDbLine
 10
-884.9732198499787
 20
15.000008702614139
 30
0.0
 11
-777.91227891377002
 21
15.000008702613741
 31
0.0
  0
LINE
  5
1E4
100
AcDbEntity
  8
一般
370
               0
390
0
  6
Continuous
 62
               1
100
AcDbLine
 10
-884.97322001763041
 20
2.9999999999995453
 30
0.0
 11
-884.9732198499787
 21
15.000008702614139
 31
0.0
  0
LINE
  5
1E5
100
AcDbEntity
  8
一般
370
               0
390
0
  6
Continuous
 62
               1
100
AcDbLine
 10
-900.0
 20
30.000000000000256
 30
0.0
 11
-900.0
 21
2.9999999999995453
 31
0.0
  0
LINE
  5
1E6
100
AcDbEntity
  8
一般
370
               0
390
0
  6
Continuous
 62
               1
100
AcDbLine
 10
-900.0
 20
2.9999999999995453
 30
0.0
 11
-884.97322001763041
 21
2.9999999999995453
 31
0.0
  0
LINE
  5
1E7
100
AcDbEntity
  8
一般
370
               0
390
0
  6
Continuous
 62
               1
100
AcDbLine
 10
-884.97322001762859
 20
29.999999999999915
 30
0.0
 11
-900.0
 21
30.000000000000256
 31
0.0
  0
LINE
  5
1E8
100
AcDbEntity
  8
一般
370
               0
390
0
  6
Continuous
 62
               1
100
AcDbLine
 10
-884.9732198499787
 20
15.000008702614139
 30
0.0
 11
-884.97322001762859
 21
29.999999999999915
 31
0.0
  0
LINE
  5
1E9
100
AcDbEntity
  8
一般
370
               0
390
0
  6
Continuous
 62
               1
100
AcDbLine
 10
-777.91227891377002
 20
15.000008702613741
 30
0.0
 11
-777.91227891377002
 21
29.999994397498966
 31
0.0
  0
LINE
  5
1EA
100
AcDbEntity
  8
一般
370
               0
390
0
  6
Continuous
 62
               1
100
AcDbLine
 10
-585.61227564677301
 20
-277.85000000000059
 30
0.0
 11
-585.61227564677301
 21
-270.85000000000082
 31
0.0
  0
LINE
  5
1EB
100
AcDbEntity
  8
一般
370
               0
390
0
  6
Continuous
 62
               1
100
AcDbLine
 10
-621.91227569511921
 20
15.000008702613741
 30
0.0
 11
-621.91227569511921
 21
-585.00000023808286
 31
0.0
  0
LINE
  5
1EC
100
AcDbEntity
  8
一般
370
               0
390
0
  6
Continuous
 62
               1
100
AcDbLine
 10
-663.91227140358569
 20
-585.00000023808286
 30
0.0
 11
-663.91227140358569
 21
15.000008702613741
 31
0.0
  0
LINE
  5
1ED
100
AcDbEntity
  8
一般
370
               0
390
0
  6
Continuous
 62
               1
100
AcDbLine
 10
-619.41227564677502
 20
-272.85000000000036
 30
0.0
 11
-619.41227564677502
 21
-277.85000000000059
 31
0.0
  0
LINE
  5
1EE
100
AcDbEntity
  8
一般
370
               0
390
0
  6
Continuous
 62
               1
100
AcDbLine
 10
-589.61228027275865
 20
-274.34999430145922
 30
0.0
 11
-589.61228027275865
 21
-277.85000884499243
 31
0.0
  0
LINE
  5
1EF
100
AcDbEntity
  8
一般
370
               0
390
0
  6
Continuous
 62
               1
100
AcDbLine
 10
-612.41227879456346
 20
-270.85000956024828
 30
0.0
 11
-612.41227879456346
 21
-277.85000884499243
 31
0.0
  0
LINE
  5
1F0
100
AcDbEntity
  8
一般
370
               0
390
0
  6
Continuous
 62
               1
100
AcDbLine
 10
-599.09584390814052
 20
-572.99999999999932
 30
0.0
 11
-620.66786895199766
 21
-572.99999999999955
 31
0.0
  0
LINE
  5
1F1
100
AcDbEntity
  8
一般
370
               0
390
0
  6
Continuous
 62
               1
100
AcDbLine
 10
-620.6678689519922
 20
-600.00000000000091
 30
0.0
 11
-595.17365753653394
 21
-600.00000000000057
 31
0.0
  0
LINE
  5
1F2
100
AcDbEntity
  8
一般
370
               0
390
0
  6
Continuous
 62
               1
100
AcDbLine
 10
-595.17365753653394
 20
-585.00000000000068
 30
0.0
 11
-620.6678689519922
 21
-585.00000000000091
 31
0.0
  0
LINE
  5
1F3
100
AcDbEntity
  8
一般
370
               0
390
0
  6
Continuous
 62
               1
100
AcDbLine
 10
-612.41227879456346
 20
-284.85000812973681
 30
0.0
 11
-589.61228027275865
 21
-284.85000812973681
 31
0.0
  0
LINE
  5
1F4
100
AcDbEntity
  8
一般
370
               0
390
0
  6
Continuous
 62
               1
100
AcDbLine
 10
-612.41227879456346
 20
-277.85000884499243
 30
0.0
 11
-589.61228027275865
 21
-277.85000884499243
 31
0.0
  0
CIRCLE
  5
1F5
100
AcDbEntity
  8
一般
370
               0
390
0
  6
Continuous
 62
               1
100
AcDbCircle
 10
-650.91227564677502
 20
-564.00000000000159
 30
0.0
 40
4.0
  0
LINE
  5
1F6
100
AcDbEntity
  8
一般
370
               0
390
0
  6
Continuous
 62
               1
100
AcDbLine
 10
-621.91227569511921
 20
-585.00000023808286
 30
0.0
 11
-621.91227569511921
 21
-573.00000572171029
 31
0.0
  0
LINE
  5
1F7
100
AcDbEntity
  8
一般
370
               0
390
0
  6
Continuous
 62
               1
100
AcDbLine
 10
-621.91227569511921
 20
-573.00000572171029
 30
0.0
 11
-620.66786895199766
 21
-572.99999999999955
 31
0.0
  0
LINE
  5
1F8
100
AcDbEntity
  8
一般
370
               0
390
0
  6
Continuous
 62
               1
100
AcDbLine
 10
-620.66786895199766
 20
-572.99999999999955
 30
0.0
 11
-620.6678689519922
 21
-585.00000000000091
 31
0.0
  0
LINE
  5
1F9
100
AcDbEntity
  8
一般
370
               0
390
0
  6
Continuous
 62
               1
100
AcDbLine
 10
-620.6678689519922
 20
-600.00000000000091
 30
0.0
 11
-620.6678689519922
 21
-585.00000000000091
 31
0.0
  0
CIRCLE
  5
1FA
100
AcDbEntity
  8
一般
370
               0
390
0
  6
Continuous
 62
               1
100
AcDbCircle
 10
-734.91227564677502
 20
-285.00000000000068
 30
0.0
 40
6.5000000000463842
  0
CIRCLE
  5
1FB
100
AcDbEntity
  8
一般
370
               0
390
0
  6
Continuous
 62
               1
100
AcDbCircle
 10
-734.91227564677502
 20
-285.00000000000068
 30
0.0
 40
4.2000000000000455
  0
CIRCLE
  5
1FC
100
AcDbEntity
  8
一般
370
               0
390
0
  6
Continuous
 62
               1
100
AcDbCircle
 10
-650.91227564677502
 20
-285.00000000000068
 30
0.0
 40
4.0
  0
LINE
  5
1FD
100
AcDbEntity
  8
一般
370
               0
390
0
  6
Continuous
 62
               1
100
AcDbLine
 10
-619.41227564677502
 20
-282.85000000000036
 30
0.0
 11
-612.41227879456346
 21
-282.85000407662062
 31
0.0
  0
LINE
  5
1FE
100
AcDbEntity
  8
一般
370
               0
390
0
  6
Continuous
 62
               1
100
AcDbLine
 10
-619.41227564677502
 20
-277.85000000000059
 30
0.0
 11
-619.41227564677502
 21
-282.85000000000036
 31
0.0
  0
LINE
  5
1FF
100
AcDbEntity
  8
一般
370
               0
390
0
  6
Continuous
 62
               1
100
AcDbLine
 10
-621.91227569512102
 20
-280.85000002350489
 30
0.0
 11
-619.41227807930773
 21
-280.85000002350489
 31
0.0
  0
LINE
  5
200
100
AcDbEntity
  8
一般
370
               0
390
0
  6
Continuous
 62
               1
100
AcDbLine
 10
-612.41227879456346
 20
-277.85000884499243
 30
0.0
 11
-612.41227879456346
 21
-284.85000812973681
 31
0.0
  0
LINE
  5
201
100
AcDbEntity
  8
一般
370
               0
390
0
  6
Continuous
 62
               1
100
AcDbLine
 10
-584.03157280724463
 20
-572.99999999999841
 30
0.0
 11
-599.09584390814052
 21
-572.99999999999932
 31
0.0
  0
LINE
  5
202
100
AcDbEntity
  8
一般
370
               0
390
0
  6
Continuous
 62
               1
100
AcDbLine
 10
-584.00000000000091
 20
-583.49999999999807
 30
0.0
 11
-584.03157280724463
 21
-583.49999999999807
 31
0.0
  0
LINE
  5
203
100
AcDbEntity
  8
一般
370
               0
390
0
  6
Continuous
 62
               1
100
AcDbLine
 10
-584.03157280724463
 20
-583.49999999999807
 30
0.0
 11
-584.03157280724463
 21
-572.99999999999841
 31
0.0
  0
LINE
  5
204
100
AcDbEntity
  8
一般
370
               0
390
0
  6
Continuous
 62
               1
100
AcDbLine
 10
-595.17365753653394
 20
-600.00000000000057
 30
0.0
 11
-580.0
 21
-599.99999999999966
 31
0.0
  0
LINE
  5
205
100
AcDbEntity
  8
一般
370
               0
390
0
  6
Continuous
 62
               1
100
AcDbLine
 10
-580.0
 20
-584.99999999999955
 30
0.0
 11
-595.17365753653394
 21
-585.00000000000068
 31
0.0
  0
LINE
  5
206
100
AcDbEntity
  8
一般
370
               0
390
0
  6
Continuous
 62
               1
100
AcDbLine
 10
-599.09585609367969
 20
-585.00000023808286
 30
0.0
 11
-599.09584390814052
 21
-572.99999999999932
 31
0.0
  0
LINE
  5
207
100
AcDbEntity
  8
一般
370
               0
390
0
  6
Continuous
 62
               1
100
AcDbLine
 10
-595.17365753653394
 20
-585.00000000000068
 30
0.0
 11
-595.17365753653394
 21
-600.00000000000057
 31
0.0
  0
LINE
  5
208
100
AcDbEntity
  8
一般
370
               0
390
0
  6
Continuous
 62
               1
100
AcDbLine
 10
-583.99999632767413
 20
-585.00000023808161
 30
0.0
 11
-584.00000000000091
 21
-583.49999999999807
 31
0.0
  0
LINE
  5
209
100
AcDbEntity
  8
一般
370
               0
390
0
  6
Continuous
 62
               1
100
AcDbLine
 10
-580.0
 20
-599.99999999999966
 30
0.0
 11
-580.0
 21
-584.99999999999955
 31
0.0
  0
LINE
  5
20A
100
AcDbEntity
  8
一般
370
               0
390
0
  6
Continuous
 62
               1
100
AcDbLine
 10
-585.61227564677301
 20
-284.85000000000036
 30
0.0
 11
-585.61227564677301
 21
-277.85000000000059
 31
0.0
  0
POLYLINE
  5
20B
100
AcDbEntity
  8
一般
370
               0
390
0
  6
Continuous
 62
               1
100
AcDb3dPolyline
 66
               1
 10
0.0
 20
0.0
 30
0.0
 70
               8
  0
VERTEX
  5
20C
100
AcDbEntity
  8
一般
370
               0
390
0
  6
Continuous
 62
               1
100
AcDbVertex
100
AcDb3dPolylineVertex
 10
-584.61259221282853
 20
-283.8504156258806
 30
0.0
 70
              32
  0
VERTEX
  5
20D
100
AcDbEntity
  8
一般
370
               0
390
0
  6
Continuous
 62
               1
100
AcDbVertex
100
AcDb3dPolylineVertex
 10
-584.61259221282853
 20
-283.84641562588058
 30
0.0
 70
              32
  0
VERTEX
  5
20E
100
AcDbEntity
  8
一般
370
               0
390
0
  6
Continuous
 62
               1
100
AcDbVertex
100
AcDb3dPolylineVertex
 10
-584.61259221282853
 20
-283.84341562588054
 30
0.0
 70
              32
  0
VERTEX
  5
20F
100
AcDbEntity
  8
一般
370
               0
390
0
  6
Continuous
 62
               1
100
AcDbVertex
100
AcDb3dPolylineVertex
 10
-584.61259221282853
 20
-283.83941562588052
 30
0.0
 70
              32
  0
VERTEX
  5
210
100
AcDbEntity
  8
一般
370
               0
390
0
  6
Continuous
 62
               1
100
AcDbVertex
100
AcDb3dPolylineVertex
 10
-584.61259221282853
 20
-283.83641562588059
 30
0.0
 70
              32
  0
VERTEX
  5
211
100
AcDbEntity
  8
一般
370
               0
390
0
  6
Continuous
 62
               1
100
AcDbVertex
100
AcDb3dPolylineVertex
 10
-584.61259221282853
 20
-283.83241562588057
 30
0.0
 70
              32
  0
VERTEX
  5
212
100
AcDbEntity
  8
一般
370
               0
390
0
  6
Continuous
 62
               1
100
AcDbVertex
100
AcDb3dPolylineVertex
 10
-584.61259221282853
 20
-283.82841562588055
 30
0.0
 70
              32
  0
VERTEX
  5
213
100
AcDbEntity
  8
一般
370
               0
390
0
  6
Continuous
 62
               1
100
AcDbVertex
100
AcDb3dPolylineVertex
 10
-584.61259221282853
 20
-283.82541562588051
 30
0.0
 70
              32
  0
VERTEX
  5
214
100
AcDbEntity
  8
一般
370
               0
390
0
  6
Continuous
 62
               1
100
AcDbVertex
100
AcDb3dPolylineVertex
 10
-584.61259221282853
 20
-283.8214156258806
 30
0.0
 70
              32
  0
VERTEX
  5
215
100
AcDbEntity
  8
一般
370
               0
390
0
  6
Continuous
 62
               1
100
AcDbVertex
100
AcDb3dPolylineVertex
 10
-584.61259221282853
 20
-283.81841562588056
 30
0.0
 70
              32
  0
VERTEX
  5
216
100
AcDbEntity
  8
一般
370
               0
390
0
  6
Continuous
 62
               1
100
AcDbVertex
100
AcDb3dPolylineVertex
 10
-584.61259221282853
 20
-283.81441562588054
 30
0.0
 70
              32
  0
VERTEX
  5
217
100
AcDbEntity
  8
一般
370
               0
390
0
  6
Continuous
 62
               1
100
AcDbVertex
100
AcDb3dPolylineVertex
 10
-584.61259221282853
 20
-283.81041562588052
 30
0.0
 70
              32
  0
VERTEX
  5
218
100
AcDbEntity
  8
一般
370
               0
390
0
  6
Continuous
 62
               1
100
AcDbVertex
100
AcDb3dPolylineVertex
 10
-584.61259221282853
 20
-283.80741562588059
 30
0.0
 70
              32
  0
VERTEX
  5
219
100
AcDbEntity
  8
一般
370
               0
390
0
  6
Continuous
 62
               1
100
AcDbVertex
100
AcDb3dPolylineVertex
 10
-584.61259221282853
 20
-283.80341562588058
 30
0.0
 70
              32
  0
VERTEX
  5
21A
100
AcDbEntity
  8
一般
370
               0
390
0
  6
Continuous
 62
               1
100
AcDbVertex
100
AcDb3dPolylineVertex
 10
-584.61259221282853
 20
-283.79941562588056
 30
0.0
 70
              32
  0
VERTEX
  5
21B
100
AcDbEntity
  8
一般
370
               0
390
0
  6
Continuous
 62
               1
100
AcDbVertex
100
AcDb3dPolylineVertex
 10
-584.61259221282853
 20
-283.79541562588054
 30
0.0
 70
              32
  0
VERTEX
  5
21C
100
AcDbEntity
  8
一般
370
               0
390
0
  6
Continuous
 62
               1
100
AcDbVertex
100
AcDb3dPolylineVertex
 10
-584.61259221282853
 20
-283.79141562588052
 30
0.0
 70
              32
  0
VERTEX
  5
21D
100
AcDbEntity
  8
一般
370
               0
390
0
  6
Continuous
 62
               1
100
AcDbVertex
100
AcDb3dPolylineVertex
 10
-584.61259221282853
 20
-283.78741562588061
 30
0.0
 70
              32
  0
VERTEX
  5
21E
100
AcDbEntity
  8
一般
370
               0
390
0
  6
Continuous
 62
               1
100
AcDbVertex
100
AcDb3dPolylineVertex
 10
-584.61259221282853
 20
-283.78341562588059
 30
0.0
 70
              32
  0
VERTEX
  5
21F
100
AcDbEntity
  8
一般
370
               0
390
0
  6
Continuous
 62
               1
100
AcDbVertex
100
AcDb3dPolylineVertex
 10
-584.61259221282853
 20
-283.77941562588057
 30
0.0
 70
              32
  0
VERTEX
  5
220
100
AcDbEntity
  8
一般
370
               0
390
0
  6
Continuous
 62
               1
100
AcDbVertex
100
AcDb3dPolylineVertex
 10
-584.61259221282853
 20
-283.77541562588056
 30
0.0
 70
              32
  0
VERTEX
  5
221
100
AcDbEntity
  8
一般
370
               0
390
0
  6
Continuous
 62
               1
100
AcDbVertex
100
AcDb3dPolylineVertex
 10
-584.61259221282853
 20
-283.77141562588054
 30
0.0
 70
              32
  0
VERTEX
  5
222
100
AcDbEntity
  8
一般
370
               0
390
0
  6
Continuous
 62
               1
100
AcDbVertex
100
AcDb3dPolylineVertex
 10
-584.61259221282853
 20
-283.76741562588052
 30
0.0
 70
              32
  0
VERTEX
  5
223
100
AcDbEntity
  8
一般
370
               0
390
0
  6
Continuous
 62
               1
100
AcDbVertex
100
AcDb3dPolylineVertex
 10
-584.61259221282853
 20
-283.76241562588052
 30
0.0
 70
              32
  0
VERTEX
  5
224
100
AcDbEntity
  8
一般
370
               0
390
0
  6
Continuous
 62
               1
100
AcDbVertex
100
AcDb3dPolylineVertex
 10
-584.61259221282853
 20
-283.75841562588062
 30
0.0
 70
              32
  0
VERTEX
  5
225
100
AcDbEntity
  8
一般
370
               0
390
0
  6
Continuous
 62
               1
100
AcDbVertex
100
AcDb3dPolylineVertex
 10
-584.61259221282853
 20
-283.75341562588051
 30
0.0
 70
              32
  0
VERTEX
  5
226
100
AcDbEntity
  8
一般
370
               0
390
0
  6
Continuous
 62
               1
100
AcDbVertex
100
AcDb3dPolylineVertex
 10
-584.61259221282853
 20
-283.7494156258806
 30
0.0
 70
              32
  0
VERTEX
  5
227
100
AcDbEntity
  8
一般
370
               0
390
0
  6
Continuous
 62
               1
100
AcDbVertex
100
AcDb3dPolylineVertex
 10
-584.61259221282853
 20
-283.74441562588061
 30
0.0
 70
              32
  0
VERTEX
  5
228
100
AcDbEntity
  8
一般
370
               0
390
0
  6
Continuous
 62
               1
100
AcDbVertex
100
AcDb3dPolylineVertex
 10
-584.61259221282853
 20
-283.73941562588061
 30
0.0
 70
              32
  0
VERTEX
  5
229
100
AcDbEntity
  8
一般
370
               0
390
0
  6
Continuous
 62
               1
100
AcDbVertex
100
AcDb3dPolylineVertex
 10
-584.61259221282853
 20
-283.73441562588062
 30
0.0
 70
              32
  0
VERTEX
  5
22A
100
AcDbEntity
  8
一般
370
               0
390
0
  6
Continuous
 62
               1
100
AcDbVertex
100
AcDb3dPolylineVertex
 10
-584.61259221282853
 20
-283.7304156258806
 30
0.0
 70
              32
  0
VERTEX
  5
22B
100
AcDbEntity
  8
一般
370
               0
390
0
  6
Continuous
 62
               1
100
AcDbVertex
100
AcDb3dPolylineVertex
 10
-584.61259221282853
 20
-283.72441562588051
 30
0.0
 70
              32
  0
VERTEX
  5
22C
100
AcDbEntity
  8
一般
370
               0
390
0
  6
Continuous
 62
               1
100
AcDbVertex
100
AcDb3dPolylineVertex
 10
-584.61259221282853
 20
-283.71941562588052
 30
0.0
 70
              32
  0
VERTEX
  5
22D
100
AcDbEntity
  8
一般
370
               0
390
0
  6
Continuous
 62
               1
100
AcDbVertex
100
AcDb3dPolylineVertex
 10
-584.61259221282853
 20
-283.71441562588052
 30
0.0
 70
              32
  0
VERTEX
  5
22E
100
AcDbEntity
  8
一般
370
               0
390
0
  6
Continuous
 62
               1
100
AcDbVertex
100
AcDb3dPolylineVertex
 10
-584.61259221282853
 20
-283.70941562588052
 30
0.0
 70
              32
  0
VERTEX
  5
22F
100
AcDbEntity
  8
一般
370
               0
390
0
  6
Continuous
 62
               1
100
AcDbVertex
100
AcDb3dPolylineVertex
 10
-584.61259221282853
 20
-283.70341562588055
 30
0.0
 70
              32
  0
VERTEX
  5
230
100
AcDbEntity
  8
一般
370
               0
390
0
  6
Continuous
 62
               1
100
AcDbVertex
100
AcDb3dPolylineVertex
 10
-584.61259221282853
 20
-283.69841562588056
 30
0.0
 70
              32
  0
VERTEX
  5
231
100
AcDbEntity
  8
一般
370
               0
390
0
  6
Continuous
 62
               1
100
AcDbVertex
100
AcDb3dPolylineVertex
 10
-584.61259221282853
 20
-283.69241562588059
 30
0.0
 70
              32
  0
VERTEX
  5
232
100
AcDbEntity
  8
一般
370
               0
390
0
  6
Continuous
 62
               1
100
AcDbVertex
100
AcDb3dPolylineVertex
 10
-584.61259221282853
 20
-283.68641562588061
 30
0.0
 70
              32
  0
VERTEX
  5
233
100
AcDbEntity
  8
一般
370
               0
390
0
  6
Continuous
 62
               1
100
AcDbVertex
100
AcDb3dPolylineVertex
 10
-584.61259221282853
 20
-283.68041562588053
 30
0.0
 70
              32
  0
VERTEX
  5
234
100
AcDbEntity
  8
一般
370
               0
390
0
  6
Continuous
 62
               1
100
AcDbVertex
100
AcDb3dPolylineVertex
 10
-584.61259221282853
 20
-283.67441562588056
 30
0.0
 70
              32
  0
VERTEX
  5
235
100
AcDbEntity
  8
一般
370
               0
390
0
  6
Continuous
 62
               1
100
AcDbVertex
100
AcDb3dPolylineVertex
 10
-584.61259221282853
 20
-283.66841562588058
 30
0.0
 70
              32
  0
VERTEX
  5
236
100
AcDbEntity
  8
一般
370
               0
390
0
  6
Continuous
 62
               1
100
AcDbVertex
100
AcDb3dPolylineVertex
 10
-584.61259221282853
 20
-283.66141562588052
 30
0.0
 70
              32
  0
VERTEX
  5
237
100
AcDbEntity
  8
一般
370
               0
390
0
  6
Continuous
 62
               1
100
AcDbVertex
100
AcDb3dPolylineVertex
 10
-584.61259221282853
 20
-283.65541562588055
 30
0.0
 70
              32
  0
VERTEX
  5
238
100
AcDbEntity
  8
一般
370
               0
390
0
  6
Continuous
 62
               1
100
AcDbVertex
100
AcDb3dPolylineVertex
 10
-584.61259221282853
 20
-283.6484156258806
 30
0.0
 70
              32
  0
VERTEX
  5
239
100
AcDbEntity
  8
一般
370
               0
390
0
  6
Continuous
 62
               1
100
AcDbVertex
100
AcDb3dPolylineVertex
 10
-584.61259221282853
 20
-283.64141562588054
 30
0.0
 70
              32
  0
VERTEX
  5
23A
100
AcDbEntity
  8
一般
370
               0
390
0
  6
Continuous
 62
               1
100
AcDbVertex
100
AcDb3dPolylineVertex
 10
-584.61259221282853
 20
-283.63441562588059
 30
0.0
 70
              32
  0
VERTEX
  5
23B
100
AcDbEntity
  8
一般
370
               0
390
0
  6
Continuous
 62
               1
100
AcDbVertex
100
AcDb3dPolylineVertex
 10
-584.61259221282853
 20
-283.62741562588053
 30
0.0
 70
              32
  0
VERTEX
  5
23C
100
AcDbEntity
  8
一般
370
               0
390
0
  6
Continuous
 62
               1
100
AcDbVertex
100
AcDb3dPolylineVertex
 10
-584.61259221282853
 20
-283.62041562588058
 30
0.0
 70
              32
  0
VERTEX
  5
23D
100
AcDbEntity
  8
一般
370
               0
390
0
  6
Continuous
 62
               1
100
AcDbVertex
100
AcDb3dPolylineVertex
 10
-584.61259221282853
 20
-283.61341562588052
 30
0.0
 70
              32
  0
VERTEX
  5
23E
100
AcDbEntity
  8
一般
370
               0
390
0
  6
Continuous
 62
               1
100
AcDbVertex
100
AcDb3dPolylineVertex
 10
-584.61259221282853
 20
-283.6054156258806
 30
0.0
 70
              32
  0
VERTEX
  5
23F
100
AcDbEntity
  8
一般
370
               0
390
0
  6
Continuous
 62
               1
100
AcDbVertex
100
AcDb3dPolylineVertex
 10
-584.61259221282853
 20
-283.59741562588056
 30
0.0
 70
              32
  0
VERTEX
  5
240
100
AcDbEntity
  8
一般
370
               0
390
0
  6
Continuous
 62
               1
100
AcDbVertex
100
AcDb3dPolylineVertex
 10
-584.61259221282853
 20
-283.58941562588052
 30
0.0
 70
              32
  0
VERTEX
  5
241
100
AcDbEntity
  8
一般
370
               0
390
0
  6
Continuous
 62
               1
100
AcDbVertex
100
AcDb3dPolylineVertex
 10
-584.61259221282853
 20
-283.5814156258806
 30
0.0
 70
              32
  0
VERTEX
  5
242
100
AcDbEntity
  8
一般
370
               0
390
0
  6
Continuous
 62
               1
100
AcDbVertex
100
AcDb3dPolylineVertex
 10
-584.61259221282853
 20
-283.57341562588056
 30
0.0
 70
              32
  0
VERTEX
  5
243
100
AcDbEntity
  8
一般
370
               0
390
0
  6
Continuous
 62
               1
100
AcDbVertex
100
AcDb3dPolylineVertex
 10
-584.61259221282853
 20
-283.56441562588054
 30
0.0
 70
              32
  0
VERTEX
  5
244
100
AcDbEntity
  8
一般
370
               0
390
0
  6
Continuous
 62
               1
100
AcDbVertex
100
AcDb3dPolylineVertex
 10
-584.61259221282853
 20
-283.55641562588062
 30
0.0
 70
              32
  0
VERTEX
  5
245
100
AcDbEntity
  8
一般
370
               0
390
0
  6
Continuous
 62
               1
100
AcDbVertex
100
AcDb3dPolylineVertex
 10
-584.61259221282853
 20
-283.5474156258806
 30
0.0
 70
              32
  0
VERTEX
  5
246
100
AcDbEntity
  8
一般
370
               0
390
0
  6
Continuous
 62
               1
100
AcDbVertex
100
AcDb3dPolylineVertex
 10
-584.61259221282853
 20
-283.53841562588059
 30
0.0
 70
              32
  0
VERTEX
  5
247
100
AcDbEntity
  8
一般
370
               0
390
0
  6
Continuous
 62
               1
100
AcDbVertex
100
AcDb3dPolylineVertex
 10
-584.61259221282853
 20
-283.52941562588057
 30
0.0
 70
              32
  0
VERTEX
  5
248
100
AcDbEntity
  8
一般
370
               0
390
0
  6
Continuous
 62
               1
100
AcDbVertex
100
AcDb3dPolylineVertex
 10
-584.61259221282853
 20
-283.51941562588058
 30
0.0
 70
              32
  0
VERTEX
  5
249
100
AcDbEntity
  8
一般
370
               0
390
0
  6
Continuous
 62
               1
100
AcDbVertex
100
AcDb3dPolylineVertex
 10
-584.61259221282853
 20
-283.51041562588057
 30
0.0
 70
              32
  0
VERTEX
  5
24A
100
AcDbEntity
  8
一般
370
               0
390
0
  6
Continuous
 62
               1
100
AcDbVertex
100
AcDb3dPolylineVertex
 10
-584.61259221282853
 20
-283.50041562588058
 30
0.0
 70
              32
  0
VERTEX
  5
24B
100
AcDbEntity
  8
一般
370
               0
390
0
  6
Continuous
 62
               1
100
AcDbVertex
100
AcDb3dPolylineVertex
 10
-584.61259221282853
 20
-283.49041562588059
 30
0.0
 70
              32
  0
VERTEX
  5
24C
100
AcDbEntity
  8
一般
370
               0
390
0
  6
Continuous
 62
               1
100
AcDbVertex
100
AcDb3dPolylineVertex
 10
-584.61259221282853
 20
-283.4804156258806
 30
0.0
 70
              32
  0
VERTEX
  5
24D
100
AcDbEntity
  8
一般
370
               0
390
0
  6
Continuous
 62
               1
100
AcDbVertex
100
AcDb3dPolylineVertex
 10
-584.61259221282853
 20
-283.46941562588052
 30
0.0
 70
              32
  0
VERTEX
  5
24E
100
AcDbEntity
  8
一般
370
               0
390
0
  6
Continuous
 62
               1
100
AcDbVertex
100
AcDb3dPolylineVertex
 10
-584.61259221282853
 20
-283.45841562588055
 30
0.0
 70
              32
  0
VERTEX
  5
24F
100
AcDbEntity
  8
一般
370
               0
390
0
  6
Continuous
 62
               1
100
AcDbVertex
100
AcDb3dPolylineVertex
 10
-584.61259221282853
 20
-283.44841562588056
 30
0.0
 70
              32
  0
VERTEX
  5
250
100
AcDbEntity
  8
一般
370
               0
390
0
  6
Continuous
 62
               1
100
AcDbVertex
100
AcDb3dPolylineVertex
 10
-584.61259221282853
 20
-283.43641562588061
 30
0.0
 70
              32
  0
VERTEX
  5
251
100
AcDbEntity
  8
一般
370
               0
390
0
  6
Continuous
 62
               1
100
AcDbVertex
100
AcDb3dPolylineVertex
 10
-584.61259221282853
 20
-283.42541562588053
 30
0.0
 70
              32
  0
VERTEX
  5
252
100
AcDbEntity
  8
一般
370
               0
390
0
  6
Continuous
 62
               1
100
AcDbVertex
100
AcDb3dPolylineVertex
 10
-584.61259221282853
 20
-283.41341562588059
 30
0.0
 70
              32
  0
VERTEX
  5
253
100
AcDbEntity
  8
一般
370
               0
390
0
  6
Continuous
 62
               1
100
AcDbVertex
100
AcDb3dPolylineVertex
 10
-584.61259221282853
 20
-283.40241562588062
 30
0.0
 70
              32
  0
VERTEX
  5
254
100
AcDbEntity
  8
一般
370
               0
390
0
  6
Continuous
 62
               1
100
AcDbVertex
100
AcDb3dPolylineVertex
 10
-584.61259221282853
 20
-283.39041562588056
 30
0.0
 70
              32
  0
VERTEX
  5
255
100
AcDbEntity
  8
一般
370
               0
390
0
  6
Continuous
 62
               1
100
AcDbVertex
100
AcDb3dPolylineVertex
 10
-584.61259221282853
 20
-283.37741562588053
 30
0.0
 70
              32
  0
VERTEX
  5
256
100
AcDbEntity
  8
一般
370
               0
390
0
  6
Continuous
 62
               1
100
AcDbVertex
100
AcDb3dPolylineVertex
 10
-584.61259221282853
 20
-283.36541562588059
 30
0.0
 70
              32
  0
VERTEX
  5
257
100
AcDbEntity
  8
一般
370
               0
390
0
  6
Continuous
 62
               1
100
AcDbVertex
100
AcDb3dPolylineVertex
 10
-584.61259221282853
 20
-283.35241562588055
 30
0.0
 70
              32
  0
VERTEX
  5
258
100
AcDbEntity
  8
一般
370
               0
390
0
  6
Continuous
 62
               1
100
AcDbVertex
100
AcDb3dPolylineVertex
 10
-584.61259221282853
 20
-283.33941562588052
 30
0.0
 70
              32
  0
VERTEX
  5
259
100
AcDbEntity
  8
一般
370
               0
390
0
  6
Continuous
 62
               1
100
AcDbVertex
100
AcDb3dPolylineVertex
 10
-584.61259221282853
 20
-283.3264156258806
 30
0.0
 70
              32
  0
VERTEX
  5
25A
100
AcDbEntity
  8
一般
370
               0
390
0
  6
Continuous
 62
               1
100
AcDbVertex
100
AcDb3dPolylineVertex
 10
-584.61259221282853
 20
-283.31341562588057
 30
0.0
 70
              32
  0
VERTEX
  5
25B
100
AcDbEntity
  8
一般
370
               0
390
0
  6
Continuous
 62
               1
100
AcDbVertex
100
AcDb3dPolylineVertex
 10
-584.61259221282853
 20
-283.29941562588056
 30
0.0
 70
              32
  0
VERTEX
  5
25C
100
AcDbEntity
  8
一般
370
               0
390
0
  6
Continuous
 62
               1
100
AcDbVertex
100
AcDb3dPolylineVertex
 10
-584.61259221282853
 20
-283.28641562588052
 30
0.0
 70
              32
  0
VERTEX
  5
25D
100
AcDbEntity
  8
一般
370
               0
390
0
  6
Continuous
 62
               1
100
AcDbVertex
100
AcDb3dPolylineVertex
 10
-584.61259221282853
 20
-283.27241562588051
 30
0.0
 70
              32
  0
VERTEX
  5
25E
100
AcDbEntity
  8
一般
370
               0
390
0
  6
Continuous
 62
               1
100
AcDbVertex
100
AcDb3dPolylineVertex
 10
-584.61259221282853
 20
-283.25841562588062
 30
0.0
 70
              32
  0
VERTEX
  5
25F
100
AcDbEntity
  8
一般
370
               0
390
0
  6
Continuous
 62
               1
100
AcDbVertex
100
AcDb3dPolylineVertex
 10
-584.61259221282853
 20
-283.24341562588052
 30
0.0
 70
              32
  0
VERTEX
  5
260
100
AcDbEntity
  8
一般
370
               0
390
0
  6
Continuous
 62
               1
100
AcDbVertex
100
AcDb3dPolylineVertex
 10
-584.61259221282853
 20
-283.22941562588062
 30
0.0
 70
              32
  0
VERTEX
  5
261
100
AcDbEntity
  8
一般
370
               0
390
0
  6
Continuous
 62
               1
100
AcDbVertex
100
AcDb3dPolylineVertex
 10
-584.61259221282853
 20
-283.21441562588052
 30
0.0
 70
              32
  0
VERTEX
  5
262
100
AcDbEntity
  8
一般
370
               0
390
0
  6
Continuous
 62
               1
100
AcDbVertex
100
AcDb3dPolylineVertex
 10
-584.61259221282853
 20
-283.19941562588053
 30
0.0
 70
              32
  0
VERTEX
  5
263
100
AcDbEntity
  8
一般
370
               0
390
0
  6
Continuous
 62
               1
100
AcDbVertex
100
AcDb3dPolylineVertex
 10
-584.61259221282853
 20
-283.18441562588055
 30
0.0
 70
              32
  0
VERTEX
  5
264
100
AcDbEntity
  8
一般
370
               0
390
0
  6
Continuous
 62
               1
100
AcDbVertex
100
AcDb3dPolylineVertex
 10
-584.61259221282853
 20
-283.16941562588056
 30
0.0
 70
              32
  0
VERTEX
  5
265
100
AcDbEntity
  8
一般
370
               0
390
0
  6
Continuous
 62
               1
100
AcDbVertex
100
AcDb3dPolylineVertex
 10
-584.61259221282853
 20
-283.15441562588057
 30
0.0
 70
              32
  0
VERTEX
  5
266
100
AcDbEntity
  8
一般
370
               0
390
0
  6
Continuous
 62
               1
100
AcDbVertex
100
AcDb3dPolylineVertex
 10
-584.61259221282853
 20
-283.13841562588061
 30
0.0
 70
              32
  0
VERTEX
  5
267
100
AcDbEntity
  8
一般
370
               0
390
0
  6
Continuous
 62
               1
100
AcDbVertex
100
AcDb3dPolylineVertex
 10
-584.61259221282853
 20
-283.12241562588054
 30
0.0
 70
              32
  0
VERTEX
  5
268
100
AcDbEntity
  8
一般
370
               0
390
0
  6
Continuous
 62
               1
100
AcDbVertex
100
AcDb3dPolylineVertex
 10
-584.61259221282853
 20
-283.10641562588057
 30
0.0
 70
              32
  0
VERTEX
  5
269
100
AcDbEntity
  8
一般
370
               0
390
0
  6
Continuous
 62
               1
100
AcDbVertex
100
AcDb3dPolylineVertex
 10
-584.61259221282853
 20
-283.09041562588061
 30
0.0
 70
              32
  0
VERTEX
  5
26A
100
AcDbEntity
  8
一般
370
               0
390
0
  6
Continuous
 62
               1
100
AcDbVertex
100
AcDb3dPolylineVertex
 10
-584.61259221282853
 20
-283.07441562588053
 30
0.0
 70
              32
  0
VERTEX
  5
26B
100
AcDbEntity
  8
一般
370
               0
390
0
  6
Continuous
 62
               1
100
AcDbVertex
100
AcDb3dPolylineVertex
 10
-584.61259221282853
 20
-283.05741562588059
 30
0.0
 70
              32
  0
VERTEX
  5
26C
100
AcDbEntity
  8
一般
370
               0
390
0
  6
Continuous
 62
               1
100
AcDbVertex
100
AcDb3dPolylineVertex
 10
-584.61259221282853
 20
-283.04141562588052
 30
0.0
 70
              32
  0
VERTEX
  5
26D
100
AcDbEntity
  8
一般
370
               0
390
0
  6
Continuous
 62
               1
100
AcDbVertex
100
AcDb3dPolylineVertex
 10
-584.61259221282853
 20
-283.02441562588058
 30
0.0
 70
              32
  0
VERTEX
  5
26E
100
AcDbEntity
  8
一般
370
               0
390
0
  6
Continuous
 62
               1
100
AcDbVertex
100
AcDb3dPolylineVertex
 10
-584.61259221282853
 20
-283.00741562588053
 30
0.0
 70
              32
  0
VERTEX
  5
26F
100
AcDbEntity
  8
一般
370
               0
390
0
  6
Continuous
 62
               1
100
AcDbVertex
100
AcDb3dPolylineVertex
 10
-584.61259221282853
 20
-282.99041562588059
 30
0.0
 70
              32
  0
VERTEX
  5
270
100
AcDbEntity
  8
一般
370
               0
390
0
  6
Continuous
 62
               1
100
AcDbVertex
100
AcDb3dPolylineVertex
 10
-584.61259221282853
 20
-282.97341562588053
 30
0.0
 70
              32
  0
VERTEX
  5
271
100
AcDbEntity
  8
一般
370
               0
390
0
  6
Continuous
 62
               1
100
AcDbVertex
100
AcDb3dPolylineVertex
 10
-584.61259221282853
 20
-282.95541562588062
 30
0.0
 70
              32
  0
VERTEX
  5
272
100
AcDbEntity
  8
一般
370
               0
390
0
  6
Continuous
 62
               1
100
AcDbVertex
100
AcDb3dPolylineVertex
 10
-584.61259221282853
 20
-282.93841562588057
 30
0.0
 70
              32
  0
VERTEX
  5
273
100
AcDbEntity
  8
一般
370
               0
390
0
  6
Continuous
 62
               1
100
AcDbVertex
100
AcDb3dPolylineVertex
 10
-584.61259221282853
 20
-282.92041562588054
 30
0.0
 70
              32
  0
VERTEX
  5
274
100
AcDbEntity
  8
一般
370
               0
390
0
  6
Continuous
 62
               1
100
AcDbVertex
100
AcDb3dPolylineVertex
 10
-584.61259221282853
 20
-282.90241562588062
 30
0.0
 70
              32
  0
VERTEX
  5
275
100
AcDbEntity
  8
一般
370
               0
390
0
  6
Continuous
 62
               1
100
AcDbVertex
100
AcDb3dPolylineVertex
 10
-584.61259221282853
 20
-282.88441562588059
 30
0.0
 70
              32
  0
VERTEX
  5
276
100
AcDbEntity
  8
一般
370
               0
390
0
  6
Continuous
 62
               1
100
AcDbVertex
100
AcDb3dPolylineVertex
 10
-584.61259221282853
 20
-282.86641562588056
 30
0.0
 70
              32
  0
VERTEX
  5
277
100
AcDbEntity
  8
一般
370
               0
390
0
  6
Continuous
 62
               1
100
AcDbVertex
100
AcDb3dPolylineVertex
 10
-584.61259221282853
 20
-282.84841562588053
 30
0.0
 70
              32
  0
VERTEX
  5
278
100
AcDbEntity
  8
一般
370
               0
390
0
  6
Continuous
 62
               1
100
AcDbVertex
100
AcDb3dPolylineVertex
 10
-584.61259221282853
 20
-282.83041562588062
 30
0.0
 70
              32
  0
VERTEX
  5
279
100
AcDbEntity
  8
一般
370
               0
390
0
  6
Continuous
 62
               1
100
AcDbVertex
100
AcDb3dPolylineVertex
 10
-584.61259221282853
 20
-282.81141562588061
 30
0.0
 70
              32
  0
VERTEX
  5
27A
100
AcDbEntity
  8
一般
370
               0
390
0
  6
Continuous
 62
               1
100
AcDbVertex
100
AcDb3dPolylineVertex
 10
-584.61259221282853
 20
-282.79341562588058
 30
0.0
 70
              32
  0
VERTEX
  5
27B
100
AcDbEntity
  8
一般
370
               0
390
0
  6
Continuous
 62
               1
100
AcDbVertex
100
AcDb3dPolylineVertex
 10
-584.61259221282853
 20
-282.77441562588058
 30
0.0
 70
              32
  0
VERTEX
  5
27C
100
AcDbEntity
  8
一般
370
               0
390
0
  6
Continuous
 62
               1
100
AcDbVertex
100
AcDb3dPolylineVertex
 10
-584.61259221282853
 20
-282.75541562588057
 30
0.0
 70
              32
  0
VERTEX
  5
27D
100
AcDbEntity
  8
一般
370
               0
390
0
  6
Continuous
 62
               1
100
AcDbVertex
100
AcDb3dPolylineVertex
 10
-584.61259221282853
 20
-282.73641562588057
 30
0.0
 70
              32
  0
VERTEX
  5
27E
100
AcDbEntity
  8
一般
370
               0
390
0
  6
Continuous
 62
               1
100
AcDbVertex
100
AcDb3dPolylineVertex
 10
-584.61259221282853
 20
-282.71741562588056
 30
0.0
 70
              32
  0
VERTEX
  5
27F
100
AcDbEntity
  8
一般
370
               0
390
0
  6
Continuous
 62
               1
100
AcDbVertex
100
AcDb3dPolylineVertex
 10
-584.61259221282853
 20
-282.69841562588056
 30
0.0
 70
              32
  0
VERTEX
  5
280
100
AcDbEntity
  8
一般
370
               0
390
0
  6
Continuous
 62
               1
100
AcDbVertex
100
AcDb3dPolylineVertex
 10
-584.61259221282853
 20
-282.67841562588058
 30
0.0
 70
              32
  0
VERTEX
  5
281
100
AcDbEntity
  8
一般
370
               0
390
0
  6
Continuous
 62
               1
100
AcDbVertex
100
AcDb3dPolylineVertex
 10
-584.61259221282853
 20
-282.65941562588057
 30
0.0
 70
              32
  0
VERTEX
  5
282
100
AcDbEntity
  8
一般
370
               0
390
0
  6
Continuous
 62
               1
100
AcDbVertex
100
AcDb3dPolylineVertex
 10
-584.61259221282853
 20
-282.63941562588059
 30
0.0
 70
              32
  0
VERTEX
  5
283
100
AcDbEntity
  8
一般
370
               0
390
0
  6
Continuous
 62
               1
100
AcDbVertex
100
AcDb3dPolylineVertex
 10
-584.61259221282853
 20
-282.61941562588061
 30
0.0
 70
              32
  0
VERTEX
  5
284
100
AcDbEntity
  8
一般
370
               0
390
0
  6
Continuous
 62
               1
100
AcDbVertex
100
AcDb3dPolylineVertex
 10
-584.61259221282853
 20
-282.59941562588062
 30
0.0
 70
              32
  0
VERTEX
  5
285
100
AcDbEntity
  8
一般
370
               0
390
0
  6
Continuous
 62
               1
100
AcDbVertex
100
AcDb3dPolylineVertex
 10
-584.61259221282853
 20
-282.57941562588053
 30
0.0
 70
              32
  0
VERTEX
  5
286
100
AcDbEntity
  8
一般
370
               0
390
0
  6
Continuous
 62
               1
100
AcDbVertex
100
AcDb3dPolylineVertex
 10
-584.61259221282853
 20
-282.55941562588055
 30
0.0
 70
              32
  0
VERTEX
  5
287
100
AcDbEntity
  8
一般
370
               0
390
0
  6
Continuous
 62
               1
100
AcDbVertex
100
AcDb3dPolylineVertex
 10
-584.61259221282853
 20
-282.53841562588059
 30
0.0
 70
              32
  0
VERTEX
  5
288
100
AcDbEntity
  8
一般
370
               0
390
0
  6
Continuous
 62
               1
100
AcDbVertex
100
AcDb3dPolylineVertex
 10
-584.61259221282853
 20
-282.51841562588061
 30
0.0
 70
              32
  0
VERTEX
  5
289
100
AcDbEntity
  8
一般
370
               0
390
0
  6
Continuous
 62
               1
100
AcDbVertex
100
AcDb3dPolylineVertex
 10
-584.61259221282853
 20
-282.49741562588054
 30
0.0
 70
              32
  0
VERTEX
  5
28A
100
AcDbEntity
  8
一般
370
               0
390
0
  6
Continuous
 62
               1
100
AcDbVertex
100
AcDb3dPolylineVertex
 10
-584.61259221282853
 20
-282.47741562588055
 30
0.0
 70
              32
  0
VERTEX
  5
28B
100
AcDbEntity
  8
一般
370
               0
390
0
  6
Continuous
 62
               1
100
AcDbVertex
100
AcDb3dPolylineVertex
 10
-584.61259221282853
 20
-282.4564156258806
 30
0.0
 70
              32
  0
VERTEX
  5
28C
100
AcDbEntity
  8
一般
370
               0
390
0
  6
Continuous
 62
               1
100
AcDbVertex
100
AcDb3dPolylineVertex
 10
-584.61259221282853
 20
-282.43541562588052
 30
0.0
 70
              32
  0
VERTEX
  5
28D
100
AcDbEntity
  8
一般
370
               0
390
0
  6
Continuous
 62
               1
100
AcDbVertex
100
AcDb3dPolylineVertex
 10
-584.61259221282853
 20
-282.41441562588057
 30
0.0
 70
              32
  0
VERTEX
  5
28E
100
AcDbEntity
  8
一般
370
               0
390
0
  6
Continuous
 62
               1
100
AcDbVertex
100
AcDb3dPolylineVertex
 10
-584.61259221282853
 20
-282.39241562588052
 30
0.0
 70
              32
  0
VERTEX
  5
28F
100
AcDbEntity
  8
一般
370
               0
390
0
  6
Continuous
 62
               1
100
AcDbVertex
100
AcDb3dPolylineVertex
 10
-584.61259221282853
 20
-282.37141562588056
 30
0.0
 70
              32
  0
VERTEX
  5
290
100
AcDbEntity
  8
一般
370
               0
390
0
  6
Continuous
 62
               1
100
AcDbVertex
100
AcDb3dPolylineVertex
 10
-584.61259221282853
 20
-282.34941562588062
 30
0.0
 70
              32
  0
VERTEX
  5
291
100
AcDbEntity
  8
一般
370
               0
390
0
  6
Continuous
 62
               1
100
AcDbVertex
100
AcDb3dPolylineVertex
 10
-584.61259221282853
 20
-282.32841562588055
 30
0.0
 70
              32
  0
VERTEX
  5
292
100
AcDbEntity
  8
一般
370
               0
390
0
  6
Continuous
 62
               1
100
AcDbVertex
100
AcDb3dPolylineVertex
 10
-584.61259221282853
 20
-282.30641562588062
 30
0.0
 70
              32
  0
VERTEX
  5
293
100
AcDbEntity
  8
一般
370
               0
390
0
  6
Continuous
 62
               1
100
AcDbVertex
100
AcDb3dPolylineVertex
 10
-584.61259221282853
 20
-282.28441562588057
 30
0.0
 70
              32
  0
VERTEX
  5
294
100
AcDbEntity
  8
一般
370
               0
390
0
  6
Continuous
 62
               1
100
AcDbVertex
100
AcDb3dPolylineVertex
 10
-584.61259221282853
 20
-282.26241562588052
 30
0.0
 70
              32
  0
VERTEX
  5
295
100
AcDbEntity
  8
一般
370
               0
390
0
  6
Continuous
 62
               1
100
AcDbVertex
100
AcDb3dPolylineVertex
 10
-584.61259221282853
 20
-282.24041562588059
 30
0.0
 70
              32
  0
VERTEX
  5
296
100
AcDbEntity
  8
一般
370
               0
390
0
  6
Continuous
 62
               1
100
AcDbVertex
100
AcDb3dPolylineVertex
 10
-584.61259221282853
 20
-282.21741562588056
 30
0.0
 70
              32
  0
VERTEX
  5
297
100
AcDbEntity
  8
一般
370
               0
390
0
  6
Continuous
 62
               1
100
AcDbVertex
100
AcDb3dPolylineVertex
 10
-584.61259221282853
 20
-282.19541562588051
 30
0.0
 70
              32
  0
VERTEX
  5
298
100
AcDbEntity
  8
一般
370
               0
390
0
  6
Continuous
 62
               1
100
AcDbVertex
100
AcDb3dPolylineVertex
 10
-584.61259221282853
 20
-282.1724156258806
 30
0.0
 70
              32
  0
VERTEX
  5
299
100
AcDbEntity
  8
一般
370
               0
390
0
  6
Continuous
 62
               1
100
AcDbVertex
100
AcDb3dPolylineVertex
 10
-584.61259221282853
 20
-282.15041562588056
 30
0.0
 70
              32
  0
VERTEX
  5
29A
100
AcDbEntity
  8
一般
370
               0
390
0
  6
Continuous
 62
               1
100
AcDbVertex
100
AcDb3dPolylineVertex
 10
-584.61259221282853
 20
-282.12741562588053
 30
0.0
 70
              32
  0
VERTEX
  5
29B
100
AcDbEntity
  8
一般
370
               0
390
0
  6
Continuous
 62
               1
100
AcDbVertex
100
AcDb3dPolylineVertex
 10
-584.61259221282853
 20
-282.10441562588062
 30
0.0
 70
              32
  0
VERTEX
  5
29C
100
AcDbEntity
  8
一般
370
               0
390
0
  6
Continuous
 62
               1
100
AcDbVertex
100
AcDb3dPolylineVertex
 10
-584.61259221282853
 20
-282.0814156258806
 30
0.0
 70
              32
  0
VERTEX
  5
29D
100
AcDbEntity
  8
一般
370
               0
390
0
  6
Continuous
 62
               1
100
AcDbVertex
100
AcDb3dPolylineVertex
 10
-584.61259221282853
 20
-282.05741562588059
 30
0.0
 70
              32
  0
VERTEX
  5
29E
100
AcDbEntity
  8
一般
370
               0
390
0
  6
Continuous
 62
               1
100
AcDbVertex
100
AcDb3dPolylineVertex
 10
-584.61259221282853
 20
-282.03441562588057
 30
0.0
 70
              32
  0
VERTEX
  5
29F
100
AcDbEntity
  8
一般
370
               0
390
0
  6
Continuous
 62
               1
100
AcDbVertex
100
AcDb3dPolylineVertex
 10
-584.61259221282853
 20
-282.01041562588057
 30
0.0
 70
              32
  0
VERTEX
  5
2A0
100
AcDbEntity
  8
一般
370
               0
390
0
  6
Continuous
 62
               1
100
AcDbVertex
100
AcDb3dPolylineVertex
 10
-584.61259221282853
 20
-281.98741562588054
 30
0.0
 70
              32
  0
VERTEX
  5
2A1
100
AcDbEntity
  8
一般
370
               0
390
0
  6
Continuous
 62
               1
100
AcDbVertex
100
AcDb3dPolylineVertex
 10
-584.61259221282853
 20
-281.96341562588054
 30
0.0
 70
              32
  0
VERTEX
  5
2A2
100
AcDbEntity
  8
一般
370
               0
390
0
  6
Continuous
 62
               1
100
AcDbVertex
100
AcDb3dPolylineVertex
 10
-584.61259221282853
 20
-281.93941562588054
 30
0.0
 70
              32
  0
VERTEX
  5
2A3
100
AcDbEntity
  8
一般
370
               0
390
0
  6
Continuous
 62
               1
100
AcDbVertex
100
AcDb3dPolylineVertex
 10
-584.61259221282853
 20
-281.91541562588054
 30
0.0
 70
              32
  0
VERTEX
  5
2A4
100
AcDbEntity
  8
一般
370
               0
390
0
  6
Continuous
 62
               1
100
AcDbVertex
100
AcDb3dPolylineVertex
 10
-584.61259221282853
 20
-281.89141562588054
 30
0.0
 70
              32
  0
VERTEX
  5
2A5
100
AcDbEntity
  8
一般
370
               0
390
0
  6
Continuous
 62
               1
100
AcDbVertex
100
AcDb3dPolylineVertex
 10
-584.61259221282853
 20
-281.86741562588054
 30
0.0
 70
              32
  0
VERTEX
  5
2A6
100
AcDbEntity
  8
一般
370
               0
390
0
  6
Continuous
 62
               1
100
AcDbVertex
100
AcDb3dPolylineVertex
 10
-584.61259221282853
 20
-281.84241562588056
 30
0.0
 70
              32
  0
VERTEX
  5
2A7
100
AcDbEntity
  8
一般
370
               0
390
0
  6
Continuous
 62
               1
100
AcDbVertex
100
AcDb3dPolylineVertex
 10
-584.61259221282853
 20
-281.81841562588056
 30
0.0
 70
              32
  0
VERTEX
  5
2A8
100
AcDbEntity
  8
一般
370
               0
390
0
  6
Continuous
 62
               1
100
AcDbVertex
100
AcDb3dPolylineVertex
 10
-584.61259221282853
 20
-281.79341562588058
 30
0.0
 70
              32
  0
VERTEX
  5
2A9
100
AcDbEntity
  8
一般
370
               0
390
0
  6
Continuous
 62
               1
100
AcDbVertex
100
AcDb3dPolylineVertex
 10
-584.61259221282853
 20
-281.76841562588061
 30
0.0
 70
              32
  0
VERTEX
  5
2AA
100
AcDbEntity
  8
一般
370
               0
390
0
  6
Continuous
 62
               1
100
AcDbVertex
100
AcDb3dPolylineVertex
 10
-584.61259221282853
 20
-281.74341562588052
 30
0.0
 70
              32
  0
VERTEX
  5
2AB
100
AcDbEntity
  8
一般
370
               0
390
0
  6
Continuous
 62
               1
100
AcDbVertex
100
AcDb3dPolylineVertex
 10
-584.61259221282853
 20
-281.71841562588054
 30
0.0
 70
              32
  0
VERTEX
  5
2AC
100
AcDbEntity
  8
一般
370
               0
390
0
  6
Continuous
 62
               1
100
AcDbVertex
100
AcDb3dPolylineVertex
 10
-584.61259221282853
 20
-281.69341562588056
 30
0.0
 70
              32
  0
VERTEX
  5
2AD
100
AcDbEntity
  8
一般
370
               0
390
0
  6
Continuous
 62
               1
100
AcDbVertex
100
AcDb3dPolylineVertex
 10
-584.61259221282853
 20
-281.66841562588058
 30
0.0
 70
              32
  0
VERTEX
  5
2AE
100
AcDbEntity
  8
一般
370
               0
390
0
  6
Continuous
 62
               1
100
AcDbVertex
100
AcDb3dPolylineVertex
 10
-584.61259221282853
 20
-281.64341562588061
 30
0.0
 70
              32
  0
VERTEX
  5
2AF
100
AcDbEntity
  8
一般
370
               0
390
0
  6
Continuous
 62
               1
100
AcDbVertex
100
AcDb3dPolylineVertex
 10
-584.61259221282853
 20
-281.61741562588054
 30
0.0
 70
              32
  0
VERTEX
  5
2B0
100
AcDbEntity
  8
一般
370
               0
390
0
  6
Continuous
 62
               1
100
AcDbVertex
100
AcDb3dPolylineVertex
 10
-584.61259221282853
 20
-281.59241562588056
 30
0.0
 70
              32
  0
VERTEX
  5
2B1
100
AcDbEntity
  8
一般
370
               0
390
0
  6
Continuous
 62
               1
100
AcDbVertex
100
AcDb3dPolylineVertex
 10
-584.61259221282853
 20
-281.56641562588061
 30
0.0
 70
              32
  0
VERTEX
  5
2B2
100
AcDbEntity
  8
一般
370
               0
390
0
  6
Continuous
 62
               1
100
AcDbVertex
100
AcDb3dPolylineVertex
 10
-584.61259221282853
 20
-281.54041562588054
 30
0.0
 70
              32
  0
VERTEX
  5
2B3
100
AcDbEntity
  8
一般
370
               0
390
0
  6
Continuous
 62
               1
100
AcDbVertex
100
AcDb3dPolylineVertex
 10
-584.61259221282853
 20
-281.51441562588059
 30
0.0
 70
              32
  0
VERTEX
  5
2B4
100
AcDbEntity
  8
一般
370
               0
390
0
  6
Continuous
 62
               1
100
AcDbVertex
100
AcDb3dPolylineVertex
 10
-584.61259221282853
 20
-281.48841562588052
 30
0.0
 70
              32
  0
VERTEX
  5
2B5
100
AcDbEntity
  8
一般
370
               0
390
0
  6
Continuous
 62
               1
100
AcDbVertex
100
AcDb3dPolylineVertex
 10
-584.61259221282853
 20
-281.46241562588057
 30
0.0
 70
              32
  0
VERTEX
  5
2B6
100
AcDbEntity
  8
一般
370
               0
390
0
  6
Continuous
 62
               1
100
AcDbVertex
100
AcDb3dPolylineVertex
 10
-584.61259221282853
 20
-281.43641562588061
 30
0.0
 70
              32
  0
VERTEX
  5
2B7
100
AcDbEntity
  8
一般
370
               0
390
0
  6
Continuous
 62
               1
100
AcDbVertex
100
AcDb3dPolylineVertex
 10
-584.61259221282853
 20
-281.41041562588055
 30
0.0
 70
              32
  0
VERTEX
  5
2B8
100
AcDbEntity
  8
一般
370
               0
390
0
  6
Continuous
 62
               1
100
AcDbVertex
100
AcDb3dPolylineVertex
 10
-584.61259221282853
 20
-281.38341562588062
 30
0.0
 70
              32
  0
VERTEX
  5
2B9
100
AcDbEntity
  8
一般
370
               0
390
0
  6
Continuous
 62
               1
100
AcDbVertex
100
AcDb3dPolylineVertex
 10
-584.61259221282853
 20
-281.35741562588055
 30
0.0
 70
              32
  0
VERTEX
  5
2BA
100
AcDbEntity
  8
一般
370
               0
390
0
  6
Continuous
 62
               1
100
AcDbVertex
100
AcDb3dPolylineVertex
 10
-584.61259221282853
 20
-281.33041562588062
 30
0.0
 70
              32
  0
VERTEX
  5
2BB
100
AcDbEntity
  8
一般
370
               0
390
0
  6
Continuous
 62
               1
100
AcDbVertex
100
AcDb3dPolylineVertex
 10
-584.61259221282853
 20
-281.30341562588058
 30
0.0
 70
              32
  0
VERTEX
  5
2BC
100
AcDbEntity
  8
一般
370
               0
390
0
  6
Continuous
 62
               1
100
AcDbVertex
100
AcDb3dPolylineVertex
 10
-584.61259221282853
 20
-281.27641562588053
 30
0.0
 70
              32
  0
VERTEX
  5
2BD
100
AcDbEntity
  8
一般
370
               0
390
0
  6
Continuous
 62
               1
100
AcDbVertex
100
AcDb3dPolylineVertex
 10
-584.61259221282853
 20
-281.2494156258806
 30
0.0
 70
              32
  0
VERTEX
  5
2BE
100
AcDbEntity
  8
一般
370
               0
390
0
  6
Continuous
 62
               1
100
AcDbVertex
100
AcDb3dPolylineVertex
 10
-584.61259221282853
 20
-281.22241562588056
 30
0.0
 70
              32
  0
VERTEX
  5
2BF
100
AcDbEntity
  8
一般
370
               0
390
0
  6
Continuous
 62
               1
100
AcDbVertex
100
AcDb3dPolylineVertex
 10
-584.61259221282853
 20
-281.19541562588051
 30
0.0
 70
              32
  0
VERTEX
  5
2C0
100
AcDbEntity
  8
一般
370
               0
390
0
  6
Continuous
 62
               1
100
AcDbVertex
100
AcDb3dPolylineVertex
 10
-584.61259221282853
 20
-281.16841562588058
 30
0.0
 70
              32
  0
VERTEX
  5
2C1
100
AcDbEntity
  8
一般
370
               0
390
0
  6
Continuous
 62
               1
100
AcDbVertex
100
AcDb3dPolylineVertex
 10
-584.61259221282853
 20
-281.14141562588054
 30
0.0
 70
              32
  0
VERTEX
  5
2C2
100
AcDbEntity
  8
一般
370
               0
390
0
  6
Continuous
 62
               1
100
AcDbVertex
100
AcDb3dPolylineVertex
 10
-584.61259221282853
 20
-281.11341562588052
 30
0.0
 70
              32
  0
VERTEX
  5
2C3
100
AcDbEntity
  8
一般
370
               0
390
0
  6
Continuous
 62
               1
100
AcDbVertex
100
AcDb3dPolylineVertex
 10
-584.61259221282853
 20
-281.08641562588059
 30
0.0
 70
              32
  0
VERTEX
  5
2C4
100
AcDbEntity
  8
一般
370
               0
390
0
  6
Continuous
 62
               1
100
AcDbVertex
100
AcDb3dPolylineVertex
 10
-584.61259221282853
 20
-281.05841562588057
 30
0.0
 70
              32
  0
VERTEX
  5
2C5
100
AcDbEntity
  8
一般
370
               0
390
0
  6
Continuous
 62
               1
100
AcDbVertex
100
AcDb3dPolylineVertex
 10
-584.61259221282853
 20
-281.03041562588055
 30
0.0
 70
              32
  0
VERTEX
  5
2C6
100
AcDbEntity
  8
一般
370
               0
390
0
  6
Continuous
 62
               1
100
AcDbVertex
100
AcDb3dPolylineVertex
 10
-584.61259221282853
 20
-281.00241562588053
 30
0.0
 70
              32
  0
VERTEX
  5
2C7
100
AcDbEntity
  8
一般
370
               0
390
0
  6
Continuous
 62
               1
100
AcDbVertex
100
AcDb3dPolylineVertex
 10
-584.61259221282853
 20
-280.97441562588062
 30
0.0
 70
              32
  0
VERTEX
  5
2C8
100
AcDbEntity
  8
一般
370
               0
390
0
  6
Continuous
 62
               1
100
AcDbVertex
100
AcDb3dPolylineVertex
 10
-584.61259221282853
 20
-280.9464156258806
 30
0.0
 70
              32
  0
VERTEX
  5
2C9
100
AcDbEntity
  8
一般
370
               0
390
0
  6
Continuous
 62
               1
100
AcDbVertex
100
AcDb3dPolylineVertex
 10
-584.61259221282853
 20
-280.91841562588058
 30
0.0
 70
              32
  0
VERTEX
  5
2CA
100
AcDbEntity
  8
一般
370
               0
390
0
  6
Continuous
 62
               1
100
AcDbVertex
100
AcDb3dPolylineVertex
 10
-584.61259221282853
 20
-280.89041562588056
 30
0.0
 70
              32
  0
VERTEX
  5
2CB
100
AcDbEntity
  8
一般
370
               0
390
0
  6
Continuous
 62
               1
100
AcDbVertex
100
AcDb3dPolylineVertex
 10
-584.61259221282853
 20
-280.86241562588054
 30
0.0
 70
              32
  0
VERTEX
  5
2CC
100
AcDbEntity
  8
一般
370
               0
390
0
  6
Continuous
 62
               1
100
AcDbVertex
100
AcDb3dPolylineVertex
 10
-584.61259221282853
 20
-280.83341562588055
 30
0.0
 70
              32
  0
VERTEX
  5
2CD
100
AcDbEntity
  8
一般
370
               0
390
0
  6
Continuous
 62
               1
100
AcDbVertex
100
AcDb3dPolylineVertex
 10
-584.61259221282853
 20
-280.80541562588053
 30
0.0
 70
              32
  0
VERTEX
  5
2CE
100
AcDbEntity
  8
一般
370
               0
390
0
  6
Continuous
 62
               1
100
AcDbVertex
100
AcDb3dPolylineVertex
 10
-584.61259221282853
 20
-280.77641562588053
 30
0.0
 70
              32
  0
VERTEX
  5
2CF
100
AcDbEntity
  8
一般
370
               0
390
0
  6
Continuous
 62
               1
100
AcDbVertex
100
AcDb3dPolylineVertex
 10
-584.61259221282853
 20
-280.74841562588063
 30
0.0
 70
              32
  0
VERTEX
  5
2D0
100
AcDbEntity
  8
一般
370
               0
390
0
  6
Continuous
 62
               1
100
AcDbVertex
100
AcDb3dPolylineVertex
 10
-584.61259221282853
 20
-280.71941562588052
 30
0.0
 70
              32
  0
VERTEX
  5
2D1
100
AcDbEntity
  8
一般
370
               0
390
0
  6
Continuous
 62
               1
100
AcDbVertex
100
AcDb3dPolylineVertex
 10
-584.61259221282853
 20
-280.69041562588052
 30
0.0
 70
              32
  0
VERTEX
  5
2D2
100
AcDbEntity
  8
一般
370
               0
390
0
  6
Continuous
 62
               1
100
AcDbVertex
100
AcDb3dPolylineVertex
 10
-584.61259221282853
 20
-280.66141562588052
 30
0.0
 70
              32
  0
VERTEX
  5
2D3
100
AcDbEntity
  8
一般
370
               0
390
0
  6
Continuous
 62
               1
100
AcDbVertex
100
AcDb3dPolylineVertex
 10
-584.61259221282853
 20
-280.63241562588053
 30
0.0
 70
              32
  0
VERTEX
  5
2D4
100
AcDbEntity
  8
一般
370
               0
390
0
  6
Continuous
 62
               1
100
AcDbVertex
100
AcDb3dPolylineVertex
 10
-584.61259221282853
 20
-280.60341562588053
 30
0.0
 70
              32
  0
VERTEX
  5
2D5
100
AcDbEntity
  8
一般
370
               0
390
0
  6
Continuous
 62
               1
100
AcDbVertex
100
AcDb3dPolylineVertex
 10
-584.61259221282853
 20
-280.57441562588053
 30
0.0
 70
              32
  0
VERTEX
  5
2D6
100
AcDbEntity
  8
一般
370
               0
390
0
  6
Continuous
 62
               1
100
AcDbVertex
100
AcDb3dPolylineVertex
 10
-584.61259221282853
 20
-280.54541562588054
 30
0.0
 70
              32
  0
VERTEX
  5
2D7
100
AcDbEntity
  8
一般
370
               0
390
0
  6
Continuous
 62
               1
100
AcDbVertex
100
AcDb3dPolylineVertex
 10
-584.61259221282853
 20
-280.51641562588054
 30
0.0
 70
              32
  0
VERTEX
  5
2D8
100
AcDbEntity
  8
一般
370
               0
390
0
  6
Continuous
 62
               1
100
AcDbVertex
100
AcDb3dPolylineVertex
 10
-584.61259221282853
 20
-280.48641562588057
 30
0.0
 70
              32
  0
VERTEX
  5
2D9
100
AcDbEntity
  8
一般
370
               0
390
0
  6
Continuous
 62
               1
100
AcDbVertex
100
AcDb3dPolylineVertex
 10
-584.61259221282853
 20
-280.45741562588057
 30
0.0
 70
              32
  0
VERTEX
  5
2DA
100
AcDbEntity
  8
一般
370
               0
390
0
  6
Continuous
 62
               1
100
AcDbVertex
100
AcDb3dPolylineVertex
 10
-584.61259221282853
 20
-280.4274156258806
 30
0.0
 70
              32
  0
VERTEX
  5
2DB
100
AcDbEntity
  8
一般
370
               0
390
0
  6
Continuous
 62
               1
100
AcDbVertex
100
AcDb3dPolylineVertex
 10
-584.61259221282853
 20
-280.3984156258806
 30
0.0
 70
              32
  0
VERTEX
  5
2DC
100
AcDbEntity
  8
一般
370
               0
390
0
  6
Continuous
 62
               1
100
AcDbVertex
100
AcDb3dPolylineVertex
 10
-584.61259221282853
 20
-280.36841562588052
 30
0.0
 70
              32
  0
VERTEX
  5
2DD
100
AcDbEntity
  8
一般
370
               0
390
0
  6
Continuous
 62
               1
100
AcDbVertex
100
AcDb3dPolylineVertex
 10
-584.61259221282853
 20
-280.33841562588054
 30
0.0
 70
              32
  0
VERTEX
  5
2DE
100
AcDbEntity
  8
一般
370
               0
390
0
  6
Continuous
 62
               1
100
AcDbVertex
100
AcDb3dPolylineVertex
 10
-584.61259221282853
 20
-280.30841562588057
 30
0.0
 70
              32
  0
VERTEX
  5
2DF
100
AcDbEntity
  8
一般
370
               0
390
0
  6
Continuous
 62
               1
100
AcDbVertex
100
AcDb3dPolylineVertex
 10
-584.61259221282853
 20
-280.2784156258806
 30
0.0
 70
              32
  0
VERTEX
  5
2E0
100
AcDbEntity
  8
一般
370
               0
390
0
  6
Continuous
 62
               1
100
AcDbVertex
100
AcDb3dPolylineVertex
 10
-584.61259221282853
 20
-280.24841562588063
 30
0.0
 70
              32
  0
VERTEX
  5
2E1
100
AcDbEntity
  8
一般
370
               0
390
0
  6
Continuous
 62
               1
100
AcDbVertex
100
AcDb3dPolylineVertex
 10
-584.61259221282853
 20
-280.21841562588054
 30
0.0
 70
              32
  0
VERTEX
  5
2E2
100
AcDbEntity
  8
一般
370
               0
390
0
  6
Continuous
 62
               1
100
AcDbVertex
100
AcDb3dPolylineVertex
 10
-584.61259221282853
 20
-280.18841562588057
 30
0.0
 70
              32
  0
VERTEX
  5
2E3
100
AcDbEntity
  8
一般
370
               0
390
0
  6
Continuous
 62
               1
100
AcDbVertex
100
AcDb3dPolylineVertex
 10
-584.61259221282853
 20
-280.15841562588059
 30
0.0
 70
              32
  0
VERTEX
  5
2E4
100
AcDbEntity
  8
一般
370
               0
390
0
  6
Continuous
 62
               1
100
AcDbVertex
100
AcDb3dPolylineVertex
 10
-584.61259221282853
 20
-280.12741562588053
 30
0.0
 70
              32
  0
VERTEX
  5
2E5
100
AcDbEntity
  8
一般
370
               0
390
0
  6
Continuous
 62
               1
100
AcDbVertex
100
AcDb3dPolylineVertex
 10
-584.61259221282853
 20
-280.09741562588056
 30
0.0
 70
              32
  0
VERTEX
  5
2E6
100
AcDbEntity
  8
一般
370
               0
390
0
  6
Continuous
 62
               1
100
AcDbVertex
100
AcDb3dPolylineVertex
 10
-584.61259221282853
 20
-280.06741562588059
 30
0.0
 70
              32
  0
VERTEX
  5
2E7
100
AcDbEntity
  8
一般
370
               0
390
0
  6
Continuous
 62
               1
100
AcDbVertex
100
AcDb3dPolylineVertex
 10
-584.61259221282853
 20
-280.03641562588052
 30
0.0
 70
              32
  0
VERTEX
  5
2E8
100
AcDbEntity
  8
一般
370
               0
390
0
  6
Continuous
 62
               1
100
AcDbVertex
100
AcDb3dPolylineVertex
 10
-584.61259221282853
 20
-280.00541562588057
 30
0.0
 70
              32
  0
VERTEX
  5
2E9
100
AcDbEntity
  8
一般
370
               0
390
0
  6
Continuous
 62
               1
100
AcDbVertex
100
AcDb3dPolylineVertex
 10
-584.61259221282853
 20
-279.9754156258806
 30
0.0
 70
              32
  0
VERTEX
  5
2EA
100
AcDbEntity
  8
一般
370
               0
390
0
  6
Continuous
 62
               1
100
AcDbVertex
100
AcDb3dPolylineVertex
 10
-584.61259221282853
 20
-279.94441562588054
 30
0.0
 70
              32
  0
VERTEX
  5
2EB
100
AcDbEntity
  8
一般
370
               0
390
0
  6
Continuous
 62
               1
100
AcDbVertex
100
AcDb3dPolylineVertex
 10
-584.61259221282853
 20
-279.91341562588059
 30
0.0
 70
              32
  0
VERTEX
  5
2EC
100
AcDbEntity
  8
一般
370
               0
390
0
  6
Continuous
 62
               1
100
AcDbVertex
100
AcDb3dPolylineVertex
 10
-584.61259221282853
 20
-279.88241562588053
 30
0.0
 70
              32
  0
VERTEX
  5
2ED
100
AcDbEntity
  8
一般
370
               0
390
0
  6
Continuous
 62
               1
100
AcDbVertex
100
AcDb3dPolylineVertex
 10
-584.61259221282853
 20
-279.85141562588058
 30
0.0
 70
              32
  0
VERTEX
  5
2EE
100
AcDbEntity
  8
一般
370
               0
390
0
  6
Continuous
 62
               1
100
AcDbVertex
100
AcDb3dPolylineVertex
 10
-584.61259221282853
 20
-279.82041562588051
 30
0.0
 70
              32
  0
VERTEX
  5
2EF
100
AcDbEntity
  8
一般
370
               0
390
0
  6
Continuous
 62
               1
100
AcDbVertex
100
AcDb3dPolylineVertex
 10
-584.61259221282853
 20
-279.78941562588057
 30
0.0
 70
              32
  0
VERTEX
  5
2F0
100
AcDbEntity
  8
一般
370
               0
390
0
  6
Continuous
 62
               1
100
AcDbVertex
100
AcDb3dPolylineVertex
 10
-584.61259221282853
 20
-279.75841562588062
 30
0.0
 70
              32
  0
VERTEX
  5
2F1
100
AcDbEntity
  8
一般
370
               0
390
0
  6
Continuous
 62
               1
100
AcDbVertex
100
AcDb3dPolylineVertex
 10
-584.61259221282853
 20
-279.72741562588055
 30
0.0
 70
              32
  0
VERTEX
  5
2F2
100
AcDbEntity
  8
一般
370
               0
390
0
  6
Continuous
 62
               1
100
AcDbVertex
100
AcDb3dPolylineVertex
 10
-584.61259221282853
 20
-279.6964156258806
 30
0.0
 70
              32
  0
VERTEX
  5
2F3
100
AcDbEntity
  8
一般
370
               0
390
0
  6
Continuous
 62
               1
100
AcDbVertex
100
AcDb3dPolylineVertex
 10
-584.61259221282853
 20
-279.66441562588057
 30
0.0
 70
              32
  0
VERTEX
  5
2F4
100
AcDbEntity
  8
一般
370
               0
390
0
  6
Continuous
 62
               1
100
AcDbVertex
100
AcDb3dPolylineVertex
 10
-584.61259221282853
 20
-279.63341562588062
 30
0.0
 70
              32
  0
VERTEX
  5
2F5
100
AcDbEntity
  8
一般
370
               0
390
0
  6
Continuous
 62
               1
100
AcDbVertex
100
AcDb3dPolylineVertex
 10
-584.61259221282853
 20
-279.60241562588055
 30
0.0
 70
              32
  0
VERTEX
  5
2F6
100
AcDbEntity
  8
一般
370
               0
390
0
  6
Continuous
 62
               1
100
AcDbVertex
100
AcDb3dPolylineVertex
 10
-584.61259221282853
 20
-279.57041562588051
 30
0.0
 70
              32
  0
VERTEX
  5
2F7
100
AcDbEntity
  8
一般
370
               0
390
0
  6
Continuous
 62
               1
100
AcDbVertex
100
AcDb3dPolylineVertex
 10
-584.61259221282853
 20
-279.53941562588057
 30
0.0
 70
              32
  0
VERTEX
  5
2F8
100
AcDbEntity
  8
一般
370
               0
390
0
  6
Continuous
 62
               1
100
AcDbVertex
100
AcDb3dPolylineVertex
 10
-584.61259221282853
 20
-279.50741562588053
 30
0.0
 70
              32
  0
VERTEX
  5
2F9
100
AcDbEntity
  8
一般
370
               0
390
0
  6
Continuous
 62
               1
100
AcDbVertex
100
AcDb3dPolylineVertex
 10
-584.61259221282853
 20
-279.4754156258806
 30
0.0
 70
              32
  0
VERTEX
  5
2FA
100
AcDbEntity
  8
一般
370
               0
390
0
  6
Continuous
 62
               1
100
AcDbVertex
100
AcDb3dPolylineVertex
 10
-584.61259221282853
 20
-279.44441562588054
 30
0.0
 70
              32
  0
VERTEX
  5
2FB
100
AcDbEntity
  8
一般
370
               0
390
0
  6
Continuous
 62
               1
100
AcDbVertex
100
AcDb3dPolylineVertex
 10
-584.61259221282853
 20
-279.41241562588061
 30
0.0
 70
              32
  0
VERTEX
  5
2FC
100
AcDbEntity
  8
一般
370
               0
390
0
  6
Continuous
 62
               1
100
AcDbVertex
100
AcDb3dPolylineVertex
 10
-584.61259221282853
 20
-279.38041562588057
 30
0.0
 70
              32
  0
VERTEX
  5
2FD
100
AcDbEntity
  8
一般
370
               0
390
0
  6
Continuous
 62
               1
100
AcDbVertex
100
AcDb3dPolylineVertex
 10
-584.61259221282853
 20
-279.34841562588053
 30
0.0
 70
              32
  0
VERTEX
  5
2FE
100
AcDbEntity
  8
一般
370
               0
390
0
  6
Continuous
 62
               1
100
AcDbVertex
100
AcDb3dPolylineVertex
 10
-584.61259221282853
 20
-279.31741562588059
 30
0.0
 70
              32
  0
VERTEX
  5
2FF
100
AcDbEntity
  8
一般
370
               0
390
0
  6
Continuous
 62
               1
100
AcDbVertex
100
AcDb3dPolylineVertex
 10
-584.61259221282853
 20
-279.28541562588055
 30
0.0
 70
              32
  0
VERTEX
  5
300
100
AcDbEntity
  8
一般
370
               0
390
0
  6
Continuous
 62
               1
100
AcDbVertex
100
AcDb3dPolylineVertex
 10
-584.61259221282853
 20
-279.25341562588062
 30
0.0
 70
              32
  0
VERTEX
  5
301
100
AcDbEntity
  8
一般
370
               0
390
0
  6
Continuous
 62
               1
100
AcDbVertex
100
AcDb3dPolylineVertex
 10
-584.61259221282853
 20
-279.22141562588058
 30
0.0
 70
              32
  0
VERTEX
  5
302
100
AcDbEntity
  8
一般
370
               0
390
0
  6
Continuous
 62
               1
100
AcDbVertex
100
AcDb3dPolylineVertex
 10
-584.61259221282853
 20
-279.18941562588054
 30
0.0
 70
              32
  0
VERTEX
  5
303
100
AcDbEntity
  8
一般
370
               0
390
0
  6
Continuous
 62
               1
100
AcDbVertex
100
AcDb3dPolylineVertex
 10
-584.61259221282853
 20
-279.15641562588053
 30
0.0
 70
              32
  0
VERTEX
  5
304
100
AcDbEntity
  8
一般
370
               0
390
0
  6
Continuous
 62
               1
100
AcDbVertex
100
AcDb3dPolylineVertex
 10
-584.61259221282853
 20
-279.1244156258806
 30
0.0
 70
              32
  0
VERTEX
  5
305
100
AcDbEntity
  8
一般
370
               0
390
0
  6
Continuous
 62
               1
100
AcDbVertex
100
AcDb3dPolylineVertex
 10
-584.61259221282853
 20
-279.09241562588056
 30
0.0
 70
              32
  0
VERTEX
  5
306
100
AcDbEntity
  8
一般
370
               0
390
0
  6
Continuous
 62
               1
100
AcDbVertex
100
AcDb3dPolylineVertex
 10
-584.61259221282853
 20
-279.06041562588052
 30
0.0
 70
              32
  0
VERTEX
  5
307
100
AcDbEntity
  8
一般
370
               0
390
0
  6
Continuous
 62
               1
100
AcDbVertex
100
AcDb3dPolylineVertex
 10
-584.61259221282853
 20
-279.0284156258806
 30
0.0
 70
              32
  0
VERTEX
  5
308
100
AcDbEntity
  8
一般
370
               0
390
0
  6
Continuous
 62
               1
100
AcDbVertex
100
AcDb3dPolylineVertex
 10
-584.61259221282853
 20
-278.99541562588058
 30
0.0
 70
              32
  0
VERTEX
  5
309
100
AcDbEntity
  8
一般
370
               0
390
0
  6
Continuous
 62
               1
100
AcDbVertex
100
AcDb3dPolylineVertex
 10
-584.61259221282853
 20
-278.96341562588054
 30
0.0
 70
              32
  0
VERTEX
  5
30A
100
AcDbEntity
  8
一般
370
               0
390
0
  6
Continuous
 62
               1
100
AcDbVertex
100
AcDb3dPolylineVertex
 10
-584.61259221282853
 20
-278.93141562588062
 30
0.0
 70
              32
  0
VERTEX
  5
30B
100
AcDbEntity
  8
一般
370
               0
390
0
  6
Continuous
 62
               1
100
AcDbVertex
100
AcDb3dPolylineVertex
 10
-584.61259221282853
 20
-278.8984156258806
 30
0.0
 70
              32
  0
VERTEX
  5
30C
100
AcDbEntity
  8
一般
370
               0
390
0
  6
Continuous
 62
               1
100
AcDbVertex
100
AcDb3dPolylineVertex
 10
-584.61259221282853
 20
-278.86641562588056
 30
0.0
 70
              32
  0
VERTEX
  5
30D
100
AcDbEntity
  8
一般
370
               0
390
0
  6
Continuous
 62
               1
100
AcDbVertex
100
AcDb3dPolylineVertex
 10
-584.61259221282853
 20
-278.83341562588055
 30
0.0
 70
              32
  0
VERTEX
  5
30E
100
AcDbEntity
  8
一般
370
               0
390
0
  6
Continuous
 62
               1
100
AcDbVertex
100
AcDb3dPolylineVertex
 10
-584.61259221282853
 20
-278.80141562588062
 30
0.0
 70
              32
  0
VERTEX
  5
30F
100
AcDbEntity
  8
一般
370
               0
390
0
  6
Continuous
 62
               1
100
AcDbVertex
100
AcDb3dPolylineVertex
 10
-584.61259221282853
 20
-278.76841562588061
 30
0.0
 70
              32
  0
VERTEX
  5
310
100
AcDbEntity
  8
一般
370
               0
390
0
  6
Continuous
 62
               1
100
AcDbVertex
100
AcDb3dPolylineVertex
 10
-584.61259221282853
 20
-278.73641562588057
 30
0.0
 70
              32
  0
VERTEX
  5
311
100
AcDbEntity
  8
一般
370
               0
390
0
  6
Continuous
 62
               1
100
AcDbVertex
100
AcDb3dPolylineVertex
 10
-584.61259221282853
 20
-278.70341562588055
 30
0.0
 70
              32
  0
VERTEX
  5
312
100
AcDbEntity
  8
一般
370
               0
390
0
  6
Continuous
 62
               1
100
AcDbVertex
100
AcDb3dPolylineVertex
 10
-584.61259221282853
 20
-278.67141562588051
 30
0.0
 70
              32
  0
VERTEX
  5
313
100
AcDbEntity
  8
一般
370
               0
390
0
  6
Continuous
 62
               1
100
AcDbVertex
100
AcDb3dPolylineVertex
 10
-584.61259221282853
 20
-278.63841562588061
 30
0.0
 70
              32
  0
VERTEX
  5
314
100
AcDbEntity
  8
一般
370
               0
390
0
  6
Continuous
 62
               1
100
AcDbVertex
100
AcDb3dPolylineVertex
 10
-584.61259221282853
 20
-278.6054156258806
 30
0.0
 70
              32
  0
VERTEX
  5
315
100
AcDbEntity
  8
一般
370
               0
390
0
  6
Continuous
 62
               1
100
AcDbVertex
100
AcDb3dPolylineVertex
 10
-584.61259221282853
 20
-278.57341562588056
 30
0.0
 70
              32
  0
VERTEX
  5
316
100
AcDbEntity
  8
一般
370
               0
390
0
  6
Continuous
 62
               1
100
AcDbVertex
100
AcDb3dPolylineVertex
 10
-584.61259221282853
 20
-278.54041562588054
 30
0.0
 70
              32
  0
VERTEX
  5
317
100
AcDbEntity
  8
一般
370
               0
390
0
  6
Continuous
 62
               1
100
AcDbVertex
100
AcDb3dPolylineVertex
 10
-584.61259221282853
 20
-278.50741562588053
 30
0.0
 70
              32
  0
VERTEX
  5
318
100
AcDbEntity
  8
一般
370
               0
390
0
  6
Continuous
 62
               1
100
AcDbVertex
100
AcDb3dPolylineVertex
 10
-584.61259221282853
 20
-278.47441562588062
 30
0.0
 70
              32
  0
VERTEX
  5
319
100
AcDbEntity
  8
一般
370
               0
390
0
  6
Continuous
 62
               1
100
AcDbVertex
100
AcDb3dPolylineVertex
 10
-584.61259221282853
 20
-278.44241562588059
 30
0.0
 70
              32
  0
VERTEX
  5
31A
100
AcDbEntity
  8
一般
370
               0
390
0
  6
Continuous
 62
               1
100
AcDbVertex
100
AcDb3dPolylineVertex
 10
-584.61259221282853
 20
-278.40941562588057
 30
0.0
 70
              32
  0
VERTEX
  5
31B
100
AcDbEntity
  8
一般
370
               0
390
0
  6
Continuous
 62
               1
100
AcDbVertex
100
AcDb3dPolylineVertex
 10
-584.61259221282853
 20
-278.37641562588055
 30
0.0
 70
              32
  0
VERTEX
  5
31C
100
AcDbEntity
  8
一般
370
               0
390
0
  6
Continuous
 62
               1
100
AcDbVertex
100
AcDb3dPolylineVertex
 10
-584.61259221282853
 20
-278.34341562588054
 30
0.0
 70
              32
  0
VERTEX
  5
31D
100
AcDbEntity
  8
一般
370
               0
390
0
  6
Continuous
 62
               1
100
AcDbVertex
100
AcDb3dPolylineVertex
 10
-584.61259221282853
 20
-278.31041562588052
 30
0.0
 70
              32
  0
VERTEX
  5
31E
100
AcDbEntity
  8
一般
370
               0
390
0
  6
Continuous
 62
               1
100
AcDbVertex
100
AcDb3dPolylineVertex
 10
-584.61259221282853
 20
-278.2784156258806
 30
0.0
 70
              32
  0
VERTEX
  5
31F
100
AcDbEntity
  8
一般
370
               0
390
0
  6
Continuous
 62
               1
100
AcDbVertex
100
AcDb3dPolylineVertex
 10
-584.61259221282853
 20
-278.24541562588058
 30
0.0
 70
              32
  0
VERTEX
  5
320
100
AcDbEntity
  8
一般
370
               0
390
0
  6
Continuous
 62
               1
100
AcDbVertex
100
AcDb3dPolylineVertex
 10
-584.61259221282853
 20
-278.21241562588057
 30
0.0
 70
              32
  0
VERTEX
  5
321
100
AcDbEntity
  8
一般
370
               0
390
0
  6
Continuous
 62
               1
100
AcDbVertex
100
AcDb3dPolylineVertex
 10
-584.61259221282853
 20
-278.17941562588055
 30
0.0
 70
              32
  0
VERTEX
  5
322
100
AcDbEntity
  8
一般
370
               0
390
0
  6
Continuous
 62
               1
100
AcDbVertex
100
AcDb3dPolylineVertex
 10
-584.61259221282853
 20
-278.14641562588054
 30
0.0
 70
              32
  0
VERTEX
  5
323
100
AcDbEntity
  8
一般
370
               0
390
0
  6
Continuous
 62
               1
100
AcDbVertex
100
AcDb3dPolylineVertex
 10
-584.61259221282853
 20
-278.11341562588052
 30
0.0
 70
              32
  0
VERTEX
  5
324
100
AcDbEntity
  8
一般
370
               0
390
0
  6
Continuous
 62
               1
100
AcDbVertex
100
AcDb3dPolylineVertex
 10
-584.61259221282853
 20
-278.08041562588062
 30
0.0
 70
              32
  0
VERTEX
  5
325
100
AcDbEntity
  8
一般
370
               0
390
0
  6
Continuous
 62
               1
100
AcDbVertex
100
AcDb3dPolylineVertex
 10
-584.61259221282853
 20
-278.0474156258806
 30
0.0
 70
              32
  0
VERTEX
  5
326
100
AcDbEntity
  8
一般
370
               0
390
0
  6
Continuous
 62
               1
100
AcDbVertex
100
AcDb3dPolylineVertex
 10
-584.61259221282853
 20
-278.01441562588059
 30
0.0
 70
              32
  0
VERTEX
  5
327
100
AcDbEntity
  8
一般
370
               0
390
0
  6
Continuous
 62
               1
100
AcDbVertex
100
AcDb3dPolylineVertex
 10
-584.61259221282853
 20
-277.98141562588057
 30
0.0
 70
              32
  0
VERTEX
  5
328
100
AcDbEntity
  8
一般
370
               0
390
0
  6
Continuous
 62
               1
100
AcDbVertex
100
AcDb3dPolylineVertex
 10
-584.61259221282853
 20
-277.94841562588056
 30
0.0
 70
              32
  0
VERTEX
  5
329
100
AcDbEntity
  8
一般
370
               0
390
0
  6
Continuous
 62
               1
100
AcDbVertex
100
AcDb3dPolylineVertex
 10
-584.61259221282853
 20
-277.91541562588054
 30
0.0
 70
              32
  0
VERTEX
  5
32A
100
AcDbEntity
  8
一般
370
               0
390
0
  6
Continuous
 62
               1
100
AcDbVertex
100
AcDb3dPolylineVertex
 10
-584.61259221282853
 20
-277.88341562588062
 30
0.0
 70
              32
  0
VERTEX
  5
32B
100
AcDbEntity
  8
一般
370
               0
390
0
  6
Continuous
 62
               1
100
AcDbVertex
100
AcDb3dPolylineVertex
 10
-584.61259221282853
 20
-277.8504156258806
 30
0.0
 70
              32
  0
SEQEND
  5
32C
100
AcDbEntity
  8
一般
370
               0
390
0
  6
Continuous
 62
               1
  0
LINE
  5
32D
100
AcDbEntity
  8
一般
370
               0
390
0
  6
Continuous
 62
               1
100
AcDbLine
 10
-589.61228027275865
 20
-281.34999358620348
 30
0.0
 11
-589.61228027275865
 21
-284.85000812973681
 31
0.0
  0
LINE
  5
32E
100
AcDbEntity
  8
一般
370
               0
390
0
  6
Continuous
 62
               1
100
AcDbLine
 10
-589.61228027275865
 20
-277.85000884499243
 30
0.0
 11
-589.61228027275865
 21
-281.34999358620348
 31
0.0
  0
LINE
  5
32F
100
AcDbEntity
  8
一般
370
               0
390
0
  6
Continuous
 62
               1
100
AcDbLine
 10
-589.61228027275865
 20
-284.85000812973658
 30
0.0
 11
-585.61227564677301
 21
-284.85000000000036
 31
0.0
  0
ARC
  5
330
100
AcDbEntity
  8
一般
370
               0
390
0
  6
Continuous
 62
               1
100
AcDbCircle
 10
-585.61227564677301
 20
-283.85000000000036
 30
0.0
 40
1.0
100
AcDbArc
 50
270.0
 51
359.99999999997402
  0
LINE
  5
331
100
AcDbEntity
  8
一般
370
               0
390
0
  6
Continuous
 62
               1
100
AcDbLine
 10
-620.66786895199857
 20
2.9999999999986642
 30
0.0
 11
-599.09584390814052
 21
2.9999999999988631
 31
0.0
  0
LINE
  5
332
100
AcDbEntity
  8
一般
370
               0
390
0
  6
Continuous
 62
               1
100
AcDbLine
 10
-595.17365753653394
 20
29.999999999999517
 30
0.0
 11
-620.6678689519922
 21
29.999999999999346
 31
0.0
  0
LINE
  5
333
100
AcDbEntity
  8
一般
370
               0
390
0
  6
Continuous
 62
               1
100
AcDbLine
 10
-620.6678689519922
 20
14.999999999999346
 30
0.0
 11
-595.17365753653394
 21
14.999999999999545
 31
0.0
  0
LINE
  5
334
100
AcDbEntity
  8
一般
370
               0
390
0
  6
Continuous
 62
               1
100
AcDbLine
 10
-589.61228027275865
 20
-270.85000956024828
 30
0.0
 11
-612.41227879456346
 21
-270.85000956024828
 31
0.0
  0
LINE
  5
335
100
AcDbEntity
  8
一般
370
               0
390
0
  6
Continuous
 62
               1
100
AcDbLine
 10
-612.41227879456346
 20
-272.8500136133639
 30
0.0
 11
-619.41227564677502
 21
-272.85000000000036
 31
0.0
  0
LINE
  5
336
100
AcDbEntity
  8
一般
370
               0
390
0
  6
Continuous
 62
               1
100
AcDbLine
 10
-619.41227807930773
 20
-274.84998786415736
 30
0.0
 11
-621.91227569512102
 21
-274.84998786415736
 31
0.0
  0
LINE
  5
337
100
AcDbEntity
  8
一般
370
               0
390
0
  6
Continuous
 62
               1
100
AcDbLine
 10
-621.91227569511921
 20
2.999984383918644
 30
0.0
 11
-621.91227569511921
 21
15.000008702613741
 31
0.0
  0
LINE
  5
338
100
AcDbEntity
  8
一般
370
               0
390
0
  6
Continuous
 62
               1
100
AcDbLine
 10
-620.6678689519922
 20
14.999999999999346
 30
0.0
 11
-620.66786895199857
 21
2.9999999999986642
 31
0.0
  0
CIRCLE
  5
339
100
AcDbEntity
  8
一般
370
               0
390
0
  6
Continuous
 62
               1
100
AcDbCircle
 10
-650.91227564677502
 20
-5.9999999999997442
 30
0.0
 40
4.0
  0
LINE
  5
33A
100
AcDbEntity
  8
一般
370
               0
390
0
  6
Continuous
 62
               1
100
AcDbLine
 10
-621.91227569511921
 20
2.999984383918644
 30
0.0
 11
-620.66786895199857
 21
2.9999999999986642
 31
0.0
  0
LINE
  5
33B
100
AcDbEntity
  8
一般
370
               0
390
0
  6
Continuous
 62
               1
100
AcDbLine
 10
-620.6678689519922
 20
29.999999999999346
 30
0.0
 11
-620.6678689519922
 21
14.999999999999346
 31
0.0
  0
LINE
  5
33C
100
AcDbEntity
  8
一般
370
               0
390
0
  6
Continuous
 62
               1
100
AcDbLine
 10
-589.61228027275865
 20
-270.85000956024828
 30
0.0
 11
-589.61228027275865
 21
-274.34999430145922
 31
0.0
  0
LINE
  5
33D
100
AcDbEntity
  8
一般
370
               0
390
0
  6
Continuous
 62
               1
100
AcDbLine
 10
-585.61227564677301
 20
-270.85000000000082
 30
0.0
 11
-589.61228027275865
 21
-270.85000956024805
 31
0.0
  0
ARC
  5
33E
100
AcDbEntity
  8
一般
370
               0
390
0
  6
Continuous
 62
               1
100
AcDbCircle
 10
-585.61227564677301
 20
-271.84999999999991
 30
0.0
 40
1.0
100
AcDbArc
 50
359.99999999997402
 51
90.0
  0
LINE
  5
33F
100
AcDbEntity
  8
一般
370
               0
390
0
  6
Continuous
 62
               1
100
AcDbLine
 10
-599.09585609367969
 20
15.00000870261394
 30
0.0
 11
-599.09584390814052
 21
2.9999999999988631
 31
0.0
  0
LINE
  5
340
100
AcDbEntity
  8
一般
370
               0
390
0
  6
Continuous
 62
               1
100
AcDbLine
 10
-584.00000000000273
 20
2.9999999999997442
 30
0.0
 11
-583.99999632767413
 21
15.000008702614849
 31
0.0
  0
LINE
  5
341
100
AcDbEntity
  8
一般
370
               0
390
0
  6
Continuous
 62
               1
100
AcDbLine
 10
-599.09584390814052
 20
2.9999999999988631
 30
0.0
 11
-584.00000000000273
 21
2.9999999999997442
 31
0.0
  0
LINE
  5
342
100
AcDbEntity
  8
一般
370
               0
390
0
  6
Continuous
 62
               1
100
AcDbLine
 10
-580.0
 20
30.000000000000426
 30
0.0
 11
-595.17365753653394
 21
29.999999999999517
 31
0.0
  0
LINE
  5
343
100
AcDbEntity
  8
一般
370
               0
390
0
  6
Continuous
 62
               1
100
AcDbLine
 10
-595.17365753653394
 20
14.999999999999545
 30
0.0
 11
-580.0
 21
15.000000000000455
 31
0.0
  0
LINE
  5
344
100
AcDbEntity
  8
一般
370
               0
390
0
  6
Continuous
 62
               1
100
AcDbLine
 10
-595.17365753653394
 20
14.999999999999545
 30
0.0
 11
-595.17365753653394
 21
29.999999999999517
 31
0.0
  0
LINE
  5
345
100
AcDbEntity
  8
一般
370
               0
390
0
  6
Continuous
 62
               1
100
AcDbLine
 10
-580.0
 20
15.000000000000455
 30
0.0
 11
-580.0
 21
30.000000000000426
 31
0.0
  0
LINE
  5
346
100
AcDbEntity
  8
一般
370
               0
390
0
  6
Continuous
 62
               1
100
AcDbLine
 10
1073.0348110191501
 20
-584.99999940451346
 30
0.0
 11
1147.9998111717362
 21
-584.99999940451403
 31
0.0
  0
LINE
  5
347
100
AcDbEntity
  8
一般
370
               0
390
0
  6
Continuous
 62
               1
100
AcDbLine
 10
1147.9998111717407
 20
15.000009536182674
 30
0.0
 11
1073.0348110191537
 21
15.000009536183157
 31
0.0
  0
LINE
  5
348
100
AcDbEntity
  8
一般
370
               0
390
0
  6
Continuous
 62
               1
100
AcDbLine
 10
1073.0350070303787
 20
-599.99999916643128
 30
0.0
 11
1147.9998111717362
 21
-600.00000000056048
 31
0.0
  0
LINE
  5
349
100
AcDbEntity
  8
一般
370
               0
390
0
  6
Continuous
 62
               1
100
AcDbLine
 10
1147.9998111717362
 20
-584.99999940451403
 30
0.0
 11
1073.0348110191501
 21
-584.99999940451346
 31
0.0
  0
LINE
  5
34A
100
AcDbEntity
  8
一般
370
               0
390
0
  6
Continuous
 62
               1
100
AcDbLine
 10
1147.9998111717407
 20
29.999995231067956
 30
0.0
 11
1073.0350070303841
 21
30.000000833568961
 31
0.0
  0
LINE
  5
34B
100
AcDbEntity
  8
一般
370
               0
390
0
  6
Continuous
 62
               1
100
AcDbLine
 10
1073.0348110191537
 20
15.000009536183157
 30
0.0
 11
1147.9998111717407
 21
15.000009536182674
 31
0.0
  0
LINE
  5
34C
100
AcDbEntity
  8
一般
370
               0
390
0
  6
Continuous
 62
               1
100
AcDbLine
 10
799.9999999992508
 20
-584.99999940451153
 30
0.0
 11
799.99999999925444
 21
15.000009536185175
 31
0.0
  0
LINE
  5
34D
100
AcDbEntity
  8
一般
370
               0
390
0
  6
Continuous
 62
               1
100
AcDbLine
 10
977.61066580711508
 20
3.0000008335687767
 30
0.0
 11
977.61066580710963
 21
-572.99999916642992
 31
0.0
  0
LINE
  5
34E
100
AcDbEntity
  8
一般
370
               0
390
0
  6
Continuous
 62
               1
100
AcDbLine
 10
1073.035007030375
 20
-572.9999991664306
 30
0.0
 11
1073.0350070303814
 21
3.0000008335684356
 31
0.0
  0
LINE
  5
34F
100
AcDbEntity
  8
一般
370
               0
390
0
  6
Continuous
 62
               1
100
AcDbLine
 10
1073.0348110191537
 20
15.000009536183157
 30
0.0
 11
1073.0348110191501
 21
-584.99999940451346
 31
0.0
  0
LINE
  5
350
100
AcDbEntity
  8
一般
370
               0
390
0
  6
Continuous
 62
               1
100
AcDbLine
 10
977.61063575669891
 20
-584.99999940451266
 30
0.0
 11
977.61063575670164
 21
15.000009536183867
 31
0.0
  0
LINE
  5
351
100
AcDbEntity
  8
一般
370
               0
390
0
  6
Continuous
 62
               1
100
AcDbLine
 10
799.99999999925444
 20
15.000009536185175
 30
0.0
 11
799.9999999992508
 21
-584.99999940451153
 31
0.0
  0
LINE
  5
352
100
AcDbEntity
  8
一般
370
               0
390
0
  6
Continuous
 62
               1
100
AcDbLine
 10
799.9999999992508
 20
-584.99999940451153
 30
0.0
 11
977.61063575669891
 21
-584.99999940451266
 31
0.0
  0
LINE
  5
353
100
AcDbEntity
  8
一般
370
               0
390
0
  6
Continuous
 62
               1
100
AcDbLine
 10
799.9999999992508
 20
-600.00000000055797
 30
0.0
 11
977.6106658070596
 21
-599.99999916643083
 31
0.0
  0
LINE
  5
354
100
AcDbEntity
  8
一般
370
               0
390
0
  6
Continuous
 62
               1
100
AcDbLine
 10
799.9999999992508
 20
-584.99999940451153
 30
0.0
 11
977.61063575669891
 21
-584.99999940451266
 31
0.0
  0
LINE
  5
355
100
AcDbEntity
  8
一般
370
               0
390
0
  6
Continuous
 62
               1
100
AcDbLine
 10
799.9999999992508
 20
-600.00000000055797
 30
0.0
 11
799.9999999992508
 21
-584.99999940451153
 31
0.0
  0
CIRCLE
  5
356
100
AcDbEntity
  8
一般
370
               0
390
0
  6
Continuous
 62
               1
100
AcDbCircle
 10
1033.0530952246484
 20
-461.99999916643355
 30
0.0
 40
6.0
  0
ARC
  5
357
100
AcDbEntity
  8
一般
370
               0
390
0
  6
Continuous
 62
               1
100
AcDbCircle
 10
1033.0530952246484
 20
-461.99999916643355
 30
0.0
 40
9.0000000000003268
100
AcDbArc
 50
196.12762021316465
 51
350.40593177314395
  0
CIRCLE
  5
358
100
AcDbEntity
  8
一般
370
               0
390
0
  6
Continuous
 62
               1
100
AcDbCircle
 10
1033.0693360688149
 20
-461.99999916643242
 30
0.0
 40
12.093386622446815
  0
ARC
  5
359
100
AcDbEntity
  8
一般
370
               0
390
0
  6
Continuous
 62
               1
100
AcDbCircle
 10
1113.143712135636
 20
-478.7029002643676
 30
0.0
 40
129.00000000000662
100
AcDbArc
 50
159.06443109663419
 51
177.0099124229406
  0
ARC
  5
35A
100
AcDbEntity
  8
一般
370
               0
390
0
  6
Continuous
 62
               1
100
AcDbCircle
 10
937.49496000198019
 20
-478.7029002643344
 30
0.0
 40
129.00000000001236
100
AcDbArc
 50
2.9900875770463173
 51
20.935568903524267
  0
LINE
  5
35B
100
AcDbEntity
  8
一般
370
               0
390
0
  6
Continuous
 62
               1
100
AcDbLine
 10
1065.3191089622644
 20
-551.99999213274691
 30
0.0
 11
985.31918525621063
 21
-551.99999213274623
 31
0.0
  0
LINE
  5
35C
100
AcDbEntity
  8
一般
370
               0
390
0
  6
Continuous
 62
               1
100
AcDbLine
 10
977.6106658070596
 20
-599.99999916643083
 30
0.0
 11
1073.0350070303787
 21
-599.99999916643128
 31
0.0
  0
LINE
  5
35D
100
AcDbEntity
  8
一般
370
               0
390
0
  6
Continuous
 62
               1
100
AcDbLine
 10
1073.035007030375
 20
-572.9999991664306
 30
0.0
 11
977.61066580710963
 21
-572.99999916642992
 31
0.0
  0
LINE
  5
35E
100
AcDbEntity
  8
一般
370
               0
390
0
  6
Continuous
 62
               1
100
AcDbLine
 10
984.31925773545868
 20
-573.00000488814021
 30
0.0
 11
984.31933606881216
 21
-471.9738489943129
 31
0.0
  0
LINE
  5
35F
100
AcDbEntity
  8
一般
370
               0
390
0
  6
Continuous
 62
               1
100
AcDbLine
 10
977.61066580710963
 20
-572.99999916642992
 30
0.0
 11
977.61063575669891
 21
-584.99999940451266
 31
0.0
  0
LINE
  5
360
100
AcDbEntity
  8
一般
370
               0
390
0
  6
Continuous
 62
               1
100
AcDbLine
 10
977.61063575669891
 20
-584.99999940451266
 30
0.0
 11
977.6106658070596
 21
-599.99999916643083
 31
0.0
  0
CIRCLE
  5
361
100
AcDbEntity
  8
一般
370
               0
390
0
  6
Continuous
 62
               1
100
AcDbCircle
 10
991.31933606881125
 20
-545.99999916643242
 30
0.0
 40
2.75
  0
CIRCLE
  5
362
100
AcDbEntity
  8
一般
370
               0
390
0
  6
Continuous
 62
               1
100
AcDbCircle
 10
991.31933606881125
 20
-471.99999916643196
 30
0.0
 40
2.75
  0
LINE
  5
363
100
AcDbEntity
  8
一般
370
               0
390
0
  6
Continuous
 62
               1
100
AcDbLine
 10
1066.3193360688131
 20
-471.97384899431427
 30
0.0
 11
1066.3195133201746
 21
-573.00000488814089
 31
0.0
  0
LINE
  5
364
100
AcDbEntity
  8
一般
370
               0
390
0
  6
Continuous
 62
               1
100
AcDbLine
 10
1073.0348110191501
 20
-584.99999940451346
 30
0.0
 11
1073.0350070303787
 21
-599.99999916643128
 31
0.0
  0
LINE
  5
365
100
AcDbEntity
  8
一般
370
               0
390
0
  6
Continuous
 62
               1
100
AcDbLine
 10
1073.0348110191501
 20
-584.99999940451346
 30
0.0
 11
1073.035007030375
 21
-572.9999991664306
 31
0.0
  0
CIRCLE
  5
366
100
AcDbEntity
  8
一般
370
               0
390
0
  6
Continuous
 62
               1
100
AcDbCircle
 10
1045.0693360688149
 20
-511.4999991664331
 30
0.0
 40
1.75
  0
CIRCLE
  5
367
100
AcDbEntity
  8
一般
370
               0
390
0
  6
Continuous
 62
               1
100
AcDbCircle
 10
1033.0693360688131
 20
-520.99999916643264
 30
0.0
 40
12.093386622446815
  0
ARC
  5
368
100
AcDbEntity
  8
一般
370
               0
390
0
  6
Continuous
 62
               1
100
AcDbCircle
 10
1033.0530952246484
 20
-520.99999916643333
 30
0.0
 40
9.0000000000000515
100
AcDbArc
 50
9.5940682268560025
 51
163.87237978683532
  0
LINE
  5
369
100
AcDbEntity
  8
一般
370
               0
390
0
  6
Continuous
 62
               1
100
AcDbLine
 10
1023.0532169334567
 20
-518.50000619944262
 30
0.0
 11
1024.4072869917529
 21
-518.49999916643287
 31
0.0
  0
LINE
  5
36A
100
AcDbEntity
  8
一般
370
               0
390
0
  6
Continuous
 62
               1
100
AcDbLine
 10
1024.4072869917529
 20
-523.4999991664331
 30
0.0
 11
1023.0532169334567
 21
-523.50000143107104
 31
0.0
  0
LINE
  5
36B
100
AcDbEntity
  8
一般
370
               0
390
0
  6
Continuous
 62
               1
100
AcDbLine
 10
1023.0532169334567
 20
-518.50000619944262
 30
0.0
 11
1023.0532169334567
 21
-523.50000143107104
 31
0.0
  0
CIRCLE
  5
36C
100
AcDbEntity
  8
一般
370
               0
390
0
  6
Continuous
 62
               1
100
AcDbCircle
 10
1021.0693360688149
 20
-530.49999916643196
 30
0.0
 40
1.75
  0
CIRCLE
  5
36D
100
AcDbEntity
  8
一般
370
               0
390
0
  6
Continuous
 62
               1
100
AcDbCircle
 10
1033.0530952246484
 20
-520.99999916643333
 30
0.0
 40
6.0
  0
CIRCLE
  5
36E
100
AcDbEntity
  8
一般
370
               0
390
0
  6
Continuous
 62
               1
100
AcDbCircle
 10
1033.0530952246484
 20
-520.99999916643333
 30
0.0
 40
2.75
  0
LINE
  5
36F
100
AcDbEntity
  8
一般
370
               0
390
0
  6
Continuous
 62
               1
100
AcDbLine
 10
1041.927214899298
 20
-519.49999916643333
 30
0.0
 11
1043.0531978599695
 21
-519.49999332483958
 31
0.0
  0
LINE
  5
370
100
AcDbEntity
  8
一般
370
               0
390
0
  6
Continuous
 62
               1
100
AcDbLine
 10
1043.0531978599695
 20
-522.49999940451335
 30
0.0
 11
1043.0531978599695
 21
-519.49999332483958
 31
0.0
  0
LINE
  5
371
100
AcDbEntity
  8
一般
370
               0
390
0
  6
Continuous
 62
               1
100
AcDbLine
 10
1043.0531978599695
 20
-522.49999940451335
 30
0.0
 11
1041.927214899298
 21
-522.49999916643355
 31
0.0
  0
ARC
  5
372
100
AcDbEntity
  8
一般
370
               0
390
0
  6
Continuous
 62
               1
100
AcDbCircle
 10
1033.0530952246484
 20
-520.99999916643333
 30
0.0
 40
9.0000000000000426
100
AcDbArc
 50
196.12762021315842
 51
350.40593177314395
  0
CIRCLE
  5
373
100
AcDbEntity
  8
一般
370
               0
390
0
  6
Continuous
 62
               1
100
AcDbCircle
 10
1021.0693360688149
 20
-471.49999916643242
 30
0.0
 40
1.75
  0
CIRCLE
  5
374
100
AcDbEntity
  8
一般
370
               0
390
0
  6
Continuous
 62
               1
100
AcDbCircle
 10
1059.3193360688158
 20
-545.99999916643287
 30
0.0
 40
2.75
  0
CIRCLE
  5
375
100
AcDbEntity
  8
一般
370
               0
390
0
  6
Continuous
 62
               1
100
AcDbCircle
 10
1059.3193360688167
 20
-471.99999916643219
 30
0.0
 40
2.75
  0
ARC
  5
376
100
AcDbEntity
  8
一般
370
               0
390
0
  6
Continuous
 62
               1
100
AcDbCircle
 10
1010.6106658071114
 20
-374.99999916643139
 30
0.0
 40
6.5
100
AcDbArc
 50
180.0
 51
270.0
  0
ARC
  5
377
100
AcDbEntity
  8
一般
370
               0
390
0
  6
Continuous
 62
               1
100
AcDbCircle
 10
1010.6106658071114
 20
-306.99999916643139
 30
0.0
 40
6.5
100
AcDbArc
 50
90.0
 51
180.0
  0
ARC
  5
378
100
AcDbEntity
  8
一般
370
               0
390
0
  6
Continuous
 62
               1
100
AcDbCircle
 10
1042.4842907366312
 20
-450.67911078987618
 30
0.0
 40
52.999999999999595
100
AcDbArc
 50
129.76627983103776
 51
160.0653891967346
  0
CIRCLE
  5
379
100
AcDbEntity
  8
一般
370
               0
390
0
  6
Continuous
 62
               1
100
AcDbCircle
 10
992.61066580711235
 20
-378.99999916643196
 30
0.0
 40
3.4999999999918145
  0
CIRCLE
  5
37A
100
AcDbEntity
  8
一般
370
               0
390
0
  6
Continuous
 62
               1
100
AcDbCircle
 10
992.61066580711235
 20
-378.99999916643196
 30
0.0
 40
6.5000000000027285
  0
CIRCLE
  5
37B
100
AcDbEntity
  8
一般
370
               0
390
0
  6
Continuous
 62
               1
100
AcDbCircle
 10
992.61066580711235
 20
-302.99999916643173
 30
0.0
 40
3.4999999999354259
  0
CIRCLE
  5
37C
100
AcDbEntity
  8
一般
370
               0
390
0
  6
Continuous
 62
               1
100
AcDbCircle
 10
992.61066580711235
 20
-302.99999916643173
 30
0.0
 40
6.499999999920874
  0
LINE
  5
37D
100
AcDbEntity
  8
一般
370
               0
390
0
  6
Continuous
 62
               1
100
AcDbLine
 10
1004.1106658071124
 20
-374.99999916643173
 30
0.0
 11
1004.1106658071124
 21
-306.99999916643139
 31
0.0
  0
LINE
  5
37E
100
AcDbEntity
  8
一般
370
               0
390
0
  6
Continuous
 62
               1
100
AcDbLine
 10
1065.1106658071105
 20
-306.99999916643219
 30
0.0
 11
1065.1106658071105
 21
-374.99999916643196
 31
0.0
  0
CIRCLE
  5
37F
100
AcDbEntity
  8
一般
370
               0
390
0
  6
Continuous
 62
               1
100
AcDbCircle
 10
1045.0693360688149
 20
-452.49999916643219
 30
0.0
 40
1.75
  0
LINE
  5
380
100
AcDbEntity
  8
一般
370
               0
390
0
  6
Continuous
 62
               1
100
AcDbLine
 10
1058.6106658071105
 20
-381.49999916643219
 30
0.0
 11
1010.6106658071114
 21
-381.49999916643173
 31
0.0
  0
ARC
  5
381
100
AcDbEntity
  8
一般
370
               0
390
0
  6
Continuous
 62
               1
100
AcDbCircle
 10
1008.1543814010531
 20
-450.67911078996144
 30
0.0
 40
52.999999999974911
100
AcDbArc
 50
19.934610803807857
 51
50.233720168127462
  0
LINE
  5
382
100
AcDbEntity
  8
一般
370
               0
390
0
  6
Continuous
 62
               1
100
AcDbLine
 10
1023.0532169334567
 20
-459.49999094065356
 30
0.0
 11
1024.4072869917529
 21
-459.49999916643287
 31
0.0
  0
LINE
  5
383
100
AcDbEntity
  8
一般
370
               0
390
0
  6
Continuous
 62
               1
100
AcDbLine
 10
1024.4072869917529
 20
-464.49999916643355
 30
0.0
 11
1023.0532169334567
 21
-464.49998617228198
 31
0.0
  0
LINE
  5
384
100
AcDbEntity
  8
一般
370
               0
390
0
  6
Continuous
 62
               1
100
AcDbLine
 10
1023.0532169334567
 20
-459.49999094065356
 30
0.0
 11
1023.0532169334567
 21
-464.49998617228198
 31
0.0
  0
CIRCLE
  5
385
100
AcDbEntity
  8
一般
370
               0
390
0
  6
Continuous
 62
               1
100
AcDbCircle
 10
1033.0530952246484
 20
-461.99999916643355
 30
0.0
 40
2.75
  0
ARC
  5
386
100
AcDbEntity
  8
一般
370
               0
390
0
  6
Continuous
 62
               1
100
AcDbCircle
 10
1033.0530952246484
 20
-461.99999916643355
 30
0.0
 40
9.000000000000222
100
AcDbArc
 50
9.5940682268624258
 51
163.87237978683532
  0
LINE
  5
387
100
AcDbEntity
  8
一般
370
               0
390
0
  6
Continuous
 62
               1
100
AcDbLine
 10
1041.927214899298
 20
-460.49999916643333
 30
0.0
 11
1043.0531978599695
 21
-460.5000078683729
 31
0.0
  0
LINE
  5
388
100
AcDbEntity
  8
一般
370
               0
390
0
  6
Continuous
 62
               1
100
AcDbLine
 10
1043.0531978599695
 20
-463.49999904688548
 30
0.0
 11
1043.0531978599695
 21
-460.5000078683729
 31
0.0
  0
LINE
  5
389
100
AcDbEntity
  8
一般
370
               0
390
0
  6
Continuous
 62
               1
100
AcDbLine
 10
1043.0531978599695
 20
-463.49999904688548
 30
0.0
 11
1041.927214899298
 21
-463.49999916643287
 31
0.0
  0
CIRCLE
  5
38A
100
AcDbEntity
  8
一般
370
               0
390
0
  6
Continuous
 62
               1
100
AcDbCircle
 10
1025.3193360688131
 20
-412.41431583748749
 30
0.0
 40
2.75
  0
LINE
  5
38B
100
AcDbEntity
  8
一般
370
               0
390
0
  6
Continuous
 62
               1
100
AcDbLine
 10
1021.2883302244666
 20
-405.41431583748795
 30
0.0
 11
1029.350341913165
 21
-405.41431583748795
 31
0.0
  0
ARC
  5
38C
100
AcDbEntity
  8
一般
370
               0
390
0
  6
Continuous
 62
               1
100
AcDbCircle
 10
1021.6086324335449
 20
-426.41187299293756
 30
0.0
 40
21.000000000036039
100
AcDbArc
 50
90.873936970740218
 51
128.33764747297923
  0
ARC
  5
38D
100
AcDbEntity
  8
一般
370
               0
390
0
  6
Continuous
 62
               1
100
AcDbCircle
 10
1029.0300397039712
 20
-426.41187299289845
 30
0.0
 40
20.999999999998863
100
AcDbArc
 50
51.662352524289609
 51
89.126063028948053
  0
ARC
  5
38E
100
AcDbEntity
  8
一般
370
               0
390
0
  6
Continuous
 62
               1
100
AcDbCircle
 10
1058.6106658071105
 20
-374.99999916643196
 30
0.0
 40
6.5000000000002274
100
AcDbArc
 50
270.0
 51
0.0
  0
LINE
  5
38F
100
AcDbEntity
  8
一般
370
               0
390
0
  6
Continuous
 62
               1
100
AcDbLine
 10
1010.6106658071114
 20
-300.49999916643139
 30
0.0
 11
1058.6106658071105
 21
-300.49999916643162
 31
0.0
  0
ARC
  5
390
100
AcDbEntity
  8
一般
370
               0
390
0
  6
Continuous
 62
               1
100
AcDbCircle
 10
1058.6106658071105
 20
-306.99999916643219
 30
0.0
 40
6.5
100
AcDbArc
 50
0.0
 51
90.0
  0
LINE
  5
391
100
AcDbEntity
  8
一般
370
               0
390
0
  6
Continuous
 62
               1
100
AcDbLine
 10
977.61063575670164
 20
15.000009536183867
 30
0.0
 11
799.99999999925444
 21
15.000009536185175
 31
0.0
  0
LINE
  5
392
100
AcDbEntity
  8
一般
370
               0
390
0
  6
Continuous
 62
               1
100
AcDbLine
 10
977.61066580707416
 20
30.000000833569359
 30
0.0
 11
799.99999999925444
 21
29.999995231070457
 31
0.0
  0
LINE
  5
393
100
AcDbEntity
  8
一般
370
               0
390
0
  6
Continuous
 62
               1
100
AcDbLine
 10
977.61063575670164
 20
15.000009536183867
 30
0.0
 11
799.99999999925444
 21
15.000009536185175
 31
0.0
  0
LINE
  5
394
100
AcDbEntity
  8
一般
370
               0
390
0
  6
Continuous
 62
               1
100
AcDbLine
 10
799.99999999925444
 20
15.000009536185175
 30
0.0
 11
799.99999999925444
 21
29.999995231070457
 31
0.0
  0
ARC
  5
395
100
AcDbEntity
  8
一般
370
               0
390
0
  6
Continuous
 62
               1
100
AcDbCircle
 10
1025.3230952246515
 20
27.000000833568251
 30
0.0
 40
69.999999999999773
100
AcDbArc
 50
247.97568716295697
 51
292.024312837043
  0
LINE
  5
396
100
AcDbEntity
  8
一般
370
               0
390
0
  6
Continuous
 62
               1
100
AcDbLine
 10
1073.0350070303841
 20
30.000000833568961
 30
0.0
 11
977.61066580707416
 21
30.000000833569359
 31
0.0
  0
LINE
  5
397
100
AcDbEntity
  8
一般
370
               0
390
0
  6
Continuous
 62
               1
100
AcDbLine
 10
977.61066580711508
 20
3.0000008335687767
 30
0.0
 11
1073.0350070303814
 21
3.0000008335684356
 31
0.0
  0
LINE
  5
398
100
AcDbEntity
  8
一般
370
               0
390
0
  6
Continuous
 62
               1
100
AcDbLine
 10
977.61063575670164
 20
15.000009536183867
 30
0.0
 11
977.61066580711508
 21
3.0000008335687767
 31
0.0
  0
ARC
  5
399
100
AcDbEntity
  8
一般
370
               0
390
0
  6
Continuous
 62
               1
100
AcDbCircle
 10
1007.3230952246524
 20
-17.497190089005244
 30
0.0
 40
22.000000000001819
100
AcDbArc
 50
180.0
 51
247.97568716295734
  0
LINE
  5
39A
100
AcDbEntity
  8
一般
370
               0
390
0
  6
Continuous
 62
               1
100
AcDbLine
 10
985.32309522464971
 20
-17.497190089005016
 30
0.0
 11
985.32299995347989
 21
2.9999852174887565
 31
0.0
  0
LINE
  5
39B
100
AcDbEntity
  8
一般
370
               0
390
0
  6
Continuous
 62
               1
100
AcDbLine
 10
977.61066580707416
 20
30.000000833569359
 30
0.0
 11
977.61063575670164
 21
15.000009536183867
 31
0.0
  0
LINE
  5
39C
100
AcDbEntity
  8
一般
370
               0
390
0
  6
Continuous
 62
               1
100
AcDbLine
 10
1073.0350070303814
 20
3.0000008335684356
 30
0.0
 11
1073.0348110191537
 21
15.000009536183157
 31
0.0
  0
ARC
  5
39D
100
AcDbEntity
  8
一般
370
               0
390
0
  6
Continuous
 62
               1
100
AcDbCircle
 10
1043.3230952246524
 20
-17.497190089005528
 30
0.0
 40
21.999999999999538
100
AcDbArc
 50
292.02431283704004
 51
0.0
  0
LINE
  5
39E
100
AcDbEntity
  8
一般
370
               0
390
0
  6
Continuous
 62
               1
100
AcDbLine
 10
1065.3229236595346
 20
2.9999852174882449
 30
0.0
 11
1065.3230952246524
 21
-17.497190089005755
 31
0.0
  0
LINE
  5
39F
100
AcDbEntity
  8
一般
370
               0
390
0
  6
Continuous
 62
               1
100
AcDbLine
 10
1073.0348110191537
 20
15.000009536183157
 30
0.0
 11
1073.0350070303841
 21
30.000000833568961
 31
0.0
  0
LINE
  5
3A0
100
AcDbEntity
  8
一般
370
               0
390
0
  6
Continuous
 62
               1
100
AcDbLine
 10
1147.9998111717362
 20
-584.99999940451403
 30
0.0
 11
1147.9998111717407
 21
15.000009536182674
 31
0.0
  0
LINE
  5
3A1
100
AcDbEntity
  8
一般
370
               0
390
0
  6
Continuous
 62
               1
100
AcDbLine
 10
1147.9998111717362
 20
-584.99999940451403
 30
0.0
 11
1147.9998111717407
 21
15.000009536182674
 31
0.0
  0
LINE
  5
3A2
100
AcDbEntity
  8
一般
370
               0
390
0
  6
Continuous
 62
               1
100
AcDbLine
 10
1147.9998111717362
 20
-584.99999940451403
 30
0.0
 11
1147.9998111717362
 21
-600.00000000056048
 31
0.0
  0
LINE
  5
3A3
100
AcDbEntity
  8
一般
370
               0
390
0
  6
Continuous
 62
               1
100
AcDbLine
 10
1147.9998111717407
 20
15.000009536182674
 30
0.0
 11
1147.9998111717407
 21
29.999995231067956
 31
0.0
  0
CIRCLE
  5
3A4
100
AcDbEntity
  8
一般
370
               0
390
0
  6
Continuous
 62
               1
100
AcDbCircle
 10
-43.465162896372036
 20
-125.46694409566794
 30
0.0
 40
12.699999999999818
  0
LINE
  5
3A5
100
AcDbEntity
  8
一般
370
               0
390
0
  6
Continuous
 62
               1
100
AcDbLine
 10
480.60881211689775
 20
15.000008702615901
 30
0.0
 11
383.91227140358751
 21
15.000008702615901
 31
0.0
  0
LINE
  5
3A6
100
AcDbEntity
  8
一般
370
               0
390
0
  6
Continuous
 62
               1
100
AcDbLine
 10
383.91227140358751
 20
-585.00000023808082
 30
0.0
 11
480.60881211689775
 21
-585.00000023808082
 31
0.0
  0
LINE
  5
3A7
100
AcDbEntity
  8
一般
370
               0
390
0
  6
Continuous
 62
               1
100
AcDbLine
 10
480.60881211689775
 20
-585.00000023808082
 30
0.0
 11
340.66786895201312
 21
-584.99999999999875
 31
0.0
  0
LINE
  5
3A8
100
AcDbEntity
  8
一般
370
               0
390
0
  6
Continuous
 62
               1
100
AcDbLine
 10
340.66786895199311
 20
-599.99999999999875
 30
0.0
 11
480.60881211689775
 21
-600.00000083412726
 31
0.0
  0
LINE
  5
3A9
100
AcDbEntity
  8
一般
370
               0
390
0
  6
Continuous
 62
               1
100
AcDbLine
 10
480.60881211689775
 20
29.999994397501183
 30
0.0
 11
340.66786895199311
 21
30.000000000001222
 31
0.0
  0
LINE
  5
3AA
100
AcDbEntity
  8
一般
370
               0
390
0
  6
Continuous
 62
               1
100
AcDbLine
 10
340.66786895201312
 20
15.000000000001506
 30
0.0
 11
480.60881211689775
 21
15.000008702615901
 31
0.0
  0
LINE
  5
3AB
100
AcDbEntity
  8
一般
370
               0
390
0
  6
Continuous
 62
               1
100
AcDbLine
 10
305.61227564677483
 20
-270.85000000000036
 30
0.0
 11
305.61227564677483
 21
-284.8500000000007
 31
0.0
  0
LINE
  5
3AC
100
AcDbEntity
  8
一般
370
               0
390
0
  6
Continuous
 62
               1
100
AcDbLine
 10
341.91227569512102
 20
-585.00000023808082
 30
0.0
 11
341.91227569512102
 21
15.000008702615901
 31
0.0
  0
LINE
  5
3AD
100
AcDbEntity
  8
一般
370
               0
390
0
  6
Continuous
 62
               1
100
AcDbLine
 10
383.91227140358751
 20
15.000008702615901
 30
0.0
 11
383.91227140358751
 21
-585.00000023808082
 31
0.0
  0
LINE
  5
3AE
100
AcDbEntity
  8
一般
370
               0
390
0
  6
Continuous
 62
               1
100
AcDbLine
 10
339.41227564677502
 20
-282.8500000000007
 30
0.0
 11
339.41227564677502
 21
-272.8500000000007
 31
0.0
  0
POLYLINE
  5
3AF
100
AcDbEntity
  8
一般
370
               0
390
0
  6
Continuous
 62
               1
100
AcDb3dPolyline
 66
               1
 10
0.0
 20
0.0
 30
0.0
 70
               8
  0
VERTEX
  5
3B0
100
AcDbEntity
  8
一般
370
               0
390
0
  6
Continuous
 62
               1
100
AcDbVertex
100
AcDb3dPolylineVertex
 10
304.61212700142823
 20
-271.85041562588094
 30
0.0
 70
              32
  0
VERTEX
  5
3B1
100
AcDbEntity
  8
一般
370
               0
390
0
  6
Continuous
 62
               1
100
AcDbVertex
100
AcDb3dPolylineVertex
 10
304.61212700142823
 20
-271.85441562588096
 30
0.0
 70
              32
  0
VERTEX
  5
3B2
100
AcDbEntity
  8
一般
370
               0
390
0
  6
Continuous
 62
               1
100
AcDbVertex
100
AcDb3dPolylineVertex
 10
304.61212700142823
 20
-271.85841562588087
 30
0.0
 70
              32
  0
VERTEX
  5
3B3
100
AcDbEntity
  8
一般
370
               0
390
0
  6
Continuous
 62
               1
100
AcDbVertex
100
AcDb3dPolylineVertex
 10
304.61212700142823
 20
-271.86241562588089
 30
0.0
 70
              32
  0
VERTEX
  5
3B4
100
AcDbEntity
  8
一般
370
               0
390
0
  6
Continuous
 62
               1
100
AcDbVertex
100
AcDb3dPolylineVertex
 10
304.61212700142823
 20
-271.8664156258809
 30
0.0
 70
              32
  0
VERTEX
  5
3B5
100
AcDbEntity
  8
一般
370
               0
390
0
  6
Continuous
 62
               1
100
AcDbVertex
100
AcDb3dPolylineVertex
 10
304.61212700142823
 20
-271.8714156258809
 30
0.0
 70
              32
  0
VERTEX
  5
3B6
100
AcDbEntity
  8
一般
370
               0
390
0
  6
Continuous
 62
               1
100
AcDbVertex
100
AcDb3dPolylineVertex
 10
304.61212700142823
 20
-271.87541562588092
 30
0.0
 70
              32
  0
VERTEX
  5
3B7
100
AcDbEntity
  8
一般
370
               0
390
0
  6
Continuous
 62
               1
100
AcDbVertex
100
AcDb3dPolylineVertex
 10
304.61212700142823
 20
-271.87941562588094
 30
0.0
 70
              32
  0
VERTEX
  5
3B8
100
AcDbEntity
  8
一般
370
               0
390
0
  6
Continuous
 62
               1
100
AcDbVertex
100
AcDb3dPolylineVertex
 10
304.61212700142823
 20
-271.88441562588093
 30
0.0
 70
              32
  0
VERTEX
  5
3B9
100
AcDbEntity
  8
一般
370
               0
390
0
  6
Continuous
 62
               1
100
AcDbVertex
100
AcDb3dPolylineVertex
 10
304.61212700142823
 20
-271.88841562588095
 30
0.0
 70
              32
  0
VERTEX
  5
3BA
100
AcDbEntity
  8
一般
370
               0
390
0
  6
Continuous
 62
               1
100
AcDbVertex
100
AcDb3dPolylineVertex
 10
304.61212700142823
 20
-271.89241562588086
 30
0.0
 70
              32
  0
VERTEX
  5
3BB
100
AcDbEntity
  8
一般
370
               0
390
0
  6
Continuous
 62
               1
100
AcDbVertex
100
AcDb3dPolylineVertex
 10
304.61212700142823
 20
-271.89741562588085
 30
0.0
 70
              32
  0
VERTEX
  5
3BC
100
AcDbEntity
  8
一般
370
               0
390
0
  6
Continuous
 62
               1
100
AcDbVertex
100
AcDb3dPolylineVertex
 10
304.61212700142823
 20
-271.90241562588096
 30
0.0
 70
              32
  0
VERTEX
  5
3BD
100
AcDbEntity
  8
一般
370
               0
390
0
  6
Continuous
 62
               1
100
AcDbVertex
100
AcDb3dPolylineVertex
 10
304.61212700142823
 20
-271.90641562588087
 30
0.0
 70
              32
  0
VERTEX
  5
3BE
100
AcDbEntity
  8
一般
370
               0
390
0
  6
Continuous
 62
               1
100
AcDbVertex
100
AcDb3dPolylineVertex
 10
304.61212700142823
 20
-271.91141562588086
 30
0.0
 70
              32
  0
VERTEX
  5
3BF
100
AcDbEntity
  8
一般
370
               0
390
0
  6
Continuous
 62
               1
100
AcDbVertex
100
AcDb3dPolylineVertex
 10
304.61212700142823
 20
-271.91641562588086
 30
0.0
 70
              32
  0
VERTEX
  5
3C0
100
AcDbEntity
  8
一般
370
               0
390
0
  6
Continuous
 62
               1
100
AcDbVertex
100
AcDb3dPolylineVertex
 10
304.61212700142823
 20
-271.92141562588085
 30
0.0
 70
              32
  0
VERTEX
  5
3C1
100
AcDbEntity
  8
一般
370
               0
390
0
  6
Continuous
 62
               1
100
AcDbVertex
100
AcDb3dPolylineVertex
 10
304.61212700142823
 20
-271.92641562588096
 30
0.0
 70
              32
  0
VERTEX
  5
3C2
100
AcDbEntity
  8
一般
370
               0
390
0
  6
Continuous
 62
               1
100
AcDbVertex
100
AcDb3dPolylineVertex
 10
304.61212700142823
 20
-271.93141562588096
 30
0.0
 70
              32
  0
VERTEX
  5
3C3
100
AcDbEntity
  8
一般
370
               0
390
0
  6
Continuous
 62
               1
100
AcDbVertex
100
AcDb3dPolylineVertex
 10
304.61212700142823
 20
-271.93641562588095
 30
0.0
 70
              32
  0
VERTEX
  5
3C4
100
AcDbEntity
  8
一般
370
               0
390
0
  6
Continuous
 62
               1
100
AcDbVertex
100
AcDb3dPolylineVertex
 10
304.61212700142823
 20
-271.94141562588095
 30
0.0
 70
              32
  0
VERTEX
  5
3C5
100
AcDbEntity
  8
一般
370
               0
390
0
  6
Continuous
 62
               1
100
AcDbVertex
100
AcDb3dPolylineVertex
 10
304.61212700142823
 20
-271.94741562588092
 30
0.0
 70
              32
  0
VERTEX
  5
3C6
100
AcDbEntity
  8
一般
370
               0
390
0
  6
Continuous
 62
               1
100
AcDbVertex
100
AcDb3dPolylineVertex
 10
304.61212700142823
 20
-271.95241562588092
 30
0.0
 70
              32
  0
VERTEX
  5
3C7
100
AcDbEntity
  8
一般
370
               0
390
0
  6
Continuous
 62
               1
100
AcDbVertex
100
AcDb3dPolylineVertex
 10
304.61212700142823
 20
-271.95841562588089
 30
0.0
 70
              32
  0
VERTEX
  5
3C8
100
AcDbEntity
  8
一般
370
               0
390
0
  6
Continuous
 62
               1
100
AcDbVertex
100
AcDb3dPolylineVertex
 10
304.61212700142823
 20
-271.96341562588088
 30
0.0
 70
              32
  0
VERTEX
  5
3C9
100
AcDbEntity
  8
一般
370
               0
390
0
  6
Continuous
 62
               1
100
AcDbVertex
100
AcDb3dPolylineVertex
 10
304.61212700142823
 20
-271.96941562588086
 30
0.0
 70
              32
  0
VERTEX
  5
3CA
100
AcDbEntity
  8
一般
370
               0
390
0
  6
Continuous
 62
               1
100
AcDbVertex
100
AcDb3dPolylineVertex
 10
304.61212700142823
 20
-271.97541562588094
 30
0.0
 70
              32
  0
VERTEX
  5
3CB
100
AcDbEntity
  8
一般
370
               0
390
0
  6
Continuous
 62
               1
100
AcDbVertex
100
AcDb3dPolylineVertex
 10
304.61212700142823
 20
-271.98241562588089
 30
0.0
 70
              32
  0
VERTEX
  5
3CC
100
AcDbEntity
  8
一般
370
               0
390
0
  6
Continuous
 62
               1
100
AcDbVertex
100
AcDb3dPolylineVertex
 10
304.61212700142823
 20
-271.98841562588086
 30
0.0
 70
              32
  0
VERTEX
  5
3CD
100
AcDbEntity
  8
一般
370
               0
390
0
  6
Continuous
 62
               1
100
AcDbVertex
100
AcDb3dPolylineVertex
 10
304.61212700142823
 20
-271.99541562588092
 30
0.0
 70
              32
  0
VERTEX
  5
3CE
100
AcDbEntity
  8
一般
370
               0
390
0
  6
Continuous
 62
               1
100
AcDbVertex
100
AcDb3dPolylineVertex
 10
304.61212700142823
 20
-272.0014156258809
 30
0.0
 70
              32
  0
VERTEX
  5
3CF
100
AcDbEntity
  8
一般
370
               0
390
0
  6
Continuous
 62
               1
100
AcDbVertex
100
AcDb3dPolylineVertex
 10
304.61212700142823
 20
-272.00841562588096
 30
0.0
 70
              32
  0
VERTEX
  5
3D0
100
AcDbEntity
  8
一般
370
               0
390
0
  6
Continuous
 62
               1
100
AcDbVertex
100
AcDb3dPolylineVertex
 10
304.61212700142823
 20
-272.01541562588091
 30
0.0
 70
              32
  0
VERTEX
  5
3D1
100
AcDbEntity
  8
一般
370
               0
390
0
  6
Continuous
 62
               1
100
AcDbVertex
100
AcDb3dPolylineVertex
 10
304.61212700142823
 20
-272.02241562588085
 30
0.0
 70
              32
  0
VERTEX
  5
3D2
100
AcDbEntity
  8
一般
370
               0
390
0
  6
Continuous
 62
               1
100
AcDbVertex
100
AcDb3dPolylineVertex
 10
304.61212700142823
 20
-272.03041562588089
 30
0.0
 70
              32
  0
VERTEX
  5
3D3
100
AcDbEntity
  8
一般
370
               0
390
0
  6
Continuous
 62
               1
100
AcDbVertex
100
AcDb3dPolylineVertex
 10
304.61212700142823
 20
-272.03741562588095
 30
0.0
 70
              32
  0
VERTEX
  5
3D4
100
AcDbEntity
  8
一般
370
               0
390
0
  6
Continuous
 62
               1
100
AcDbVertex
100
AcDb3dPolylineVertex
 10
304.61212700142823
 20
-272.04541562588088
 30
0.0
 70
              32
  0
VERTEX
  5
3D5
100
AcDbEntity
  8
一般
370
               0
390
0
  6
Continuous
 62
               1
100
AcDbVertex
100
AcDb3dPolylineVertex
 10
304.61212700142823
 20
-272.05341562588092
 30
0.0
 70
              32
  0
VERTEX
  5
3D6
100
AcDbEntity
  8
一般
370
               0
390
0
  6
Continuous
 62
               1
100
AcDbVertex
100
AcDb3dPolylineVertex
 10
304.61212700142823
 20
-272.06241562588093
 30
0.0
 70
              32
  0
VERTEX
  5
3D7
100
AcDbEntity
  8
一般
370
               0
390
0
  6
Continuous
 62
               1
100
AcDbVertex
100
AcDb3dPolylineVertex
 10
304.61212700142823
 20
-272.07041562588086
 30
0.0
 70
              32
  0
VERTEX
  5
3D8
100
AcDbEntity
  8
一般
370
               0
390
0
  6
Continuous
 62
               1
100
AcDbVertex
100
AcDb3dPolylineVertex
 10
304.61212700142823
 20
-272.07941562588087
 30
0.0
 70
              32
  0
VERTEX
  5
3D9
100
AcDbEntity
  8
一般
370
               0
390
0
  6
Continuous
 62
               1
100
AcDbVertex
100
AcDb3dPolylineVertex
 10
304.61212700142823
 20
-272.08841562588088
 30
0.0
 70
              32
  0
VERTEX
  5
3DA
100
AcDbEntity
  8
一般
370
               0
390
0
  6
Continuous
 62
               1
100
AcDbVertex
100
AcDb3dPolylineVertex
 10
304.61212700142823
 20
-272.0974156258809
 30
0.0
 70
              32
  0
VERTEX
  5
3DB
100
AcDbEntity
  8
一般
370
               0
390
0
  6
Continuous
 62
               1
100
AcDbVertex
100
AcDb3dPolylineVertex
 10
304.61212700142823
 20
-272.10641562588091
 30
0.0
 70
              32
  0
VERTEX
  5
3DC
100
AcDbEntity
  8
一般
370
               0
390
0
  6
Continuous
 62
               1
100
AcDbVertex
100
AcDb3dPolylineVertex
 10
304.61212700142823
 20
-272.1164156258809
 30
0.0
 70
              32
  0
VERTEX
  5
3DD
100
AcDbEntity
  8
一般
370
               0
390
0
  6
Continuous
 62
               1
100
AcDbVertex
100
AcDb3dPolylineVertex
 10
304.61212700142823
 20
-272.1264156258809
 30
0.0
 70
              32
  0
VERTEX
  5
3DE
100
AcDbEntity
  8
一般
370
               0
390
0
  6
Continuous
 62
               1
100
AcDbVertex
100
AcDb3dPolylineVertex
 10
304.61212700142823
 20
-272.13641562588089
 30
0.0
 70
              32
  0
VERTEX
  5
3DF
100
AcDbEntity
  8
一般
370
               0
390
0
  6
Continuous
 62
               1
100
AcDbVertex
100
AcDb3dPolylineVertex
 10
304.61212700142823
 20
-272.14641562588088
 30
0.0
 70
              32
  0
VERTEX
  5
3E0
100
AcDbEntity
  8
一般
370
               0
390
0
  6
Continuous
 62
               1
100
AcDbVertex
100
AcDb3dPolylineVertex
 10
304.61212700142823
 20
-272.15741562588096
 30
0.0
 70
              32
  0
VERTEX
  5
3E1
100
AcDbEntity
  8
一般
370
               0
390
0
  6
Continuous
 62
               1
100
AcDbVertex
100
AcDb3dPolylineVertex
 10
304.61212700142823
 20
-272.16841562588093
 30
0.0
 70
              32
  0
VERTEX
  5
3E2
100
AcDbEntity
  8
一般
370
               0
390
0
  6
Continuous
 62
               1
100
AcDbVertex
100
AcDb3dPolylineVertex
 10
304.61212700142823
 20
-272.17941562588089
 30
0.0
 70
              32
  0
VERTEX
  5
3E3
100
AcDbEntity
  8
一般
370
               0
390
0
  6
Continuous
 62
               1
100
AcDbVertex
100
AcDb3dPolylineVertex
 10
304.61212700142823
 20
-272.19141562588095
 30
0.0
 70
              32
  0
VERTEX
  5
3E4
100
AcDbEntity
  8
一般
370
               0
390
0
  6
Continuous
 62
               1
100
AcDbVertex
100
AcDb3dPolylineVertex
 10
304.61212700142823
 20
-272.20241562588092
 30
0.0
 70
              32
  0
VERTEX
  5
3E5
100
AcDbEntity
  8
一般
370
               0
390
0
  6
Continuous
 62
               1
100
AcDbVertex
100
AcDb3dPolylineVertex
 10
304.61212700142823
 20
-272.21441562588086
 30
0.0
 70
              32
  0
VERTEX
  5
3E6
100
AcDbEntity
  8
一般
370
               0
390
0
  6
Continuous
 62
               1
100
AcDbVertex
100
AcDb3dPolylineVertex
 10
304.61212700142823
 20
-272.22741562588089
 30
0.0
 70
              32
  0
VERTEX
  5
3E7
100
AcDbEntity
  8
一般
370
               0
390
0
  6
Continuous
 62
               1
100
AcDbVertex
100
AcDb3dPolylineVertex
 10
304.61212700142823
 20
-272.24041562588093
 30
0.0
 70
              32
  0
VERTEX
  5
3E8
100
AcDbEntity
  8
一般
370
               0
390
0
  6
Continuous
 62
               1
100
AcDbVertex
100
AcDb3dPolylineVertex
 10
304.61212700142823
 20
-272.25341562588096
 30
0.0
 70
              32
  0
VERTEX
  5
3E9
100
AcDbEntity
  8
一般
370
               0
390
0
  6
Continuous
 62
               1
100
AcDbVertex
100
AcDb3dPolylineVertex
 10
304.61212700142823
 20
-272.26641562588088
 30
0.0
 70
              32
  0
VERTEX
  5
3EA
100
AcDbEntity
  8
一般
370
               0
390
0
  6
Continuous
 62
               1
100
AcDbVertex
100
AcDb3dPolylineVertex
 10
304.61212700142823
 20
-272.28041562588089
 30
0.0
 70
              32
  0
VERTEX
  5
3EB
100
AcDbEntity
  8
一般
370
               0
390
0
  6
Continuous
 62
               1
100
AcDbVertex
100
AcDb3dPolylineVertex
 10
304.61212700142823
 20
-272.2944156258809
 30
0.0
 70
              32
  0
VERTEX
  5
3EC
100
AcDbEntity
  8
一般
370
               0
390
0
  6
Continuous
 62
               1
100
AcDbVertex
100
AcDb3dPolylineVertex
 10
304.61212700142823
 20
-272.30841562588091
 30
0.0
 70
              32
  0
VERTEX
  5
3ED
100
AcDbEntity
  8
一般
370
               0
390
0
  6
Continuous
 62
               1
100
AcDbVertex
100
AcDb3dPolylineVertex
 10
304.61212700142823
 20
-272.3234156258809
 30
0.0
 70
              32
  0
VERTEX
  5
3EE
100
AcDbEntity
  8
一般
370
               0
390
0
  6
Continuous
 62
               1
100
AcDbVertex
100
AcDb3dPolylineVertex
 10
304.61212700142823
 20
-272.33841562588088
 30
0.0
 70
              32
  0
VERTEX
  5
3EF
100
AcDbEntity
  8
一般
370
               0
390
0
  6
Continuous
 62
               1
100
AcDbVertex
100
AcDb3dPolylineVertex
 10
304.61212700142823
 20
-272.35341562588087
 30
0.0
 70
              32
  0
VERTEX
  5
3F0
100
AcDbEntity
  8
一般
370
               0
390
0
  6
Continuous
 62
               1
100
AcDbVertex
100
AcDb3dPolylineVertex
 10
304.61212700142823
 20
-272.36941562588095
 30
0.0
 70
              32
  0
VERTEX
  5
3F1
100
AcDbEntity
  8
一般
370
               0
390
0
  6
Continuous
 62
               1
100
AcDbVertex
100
AcDb3dPolylineVertex
 10
304.61212700142823
 20
-272.38541562588091
 30
0.0
 70
              32
  0
VERTEX
  5
3F2
100
AcDbEntity
  8
一般
370
               0
390
0
  6
Continuous
 62
               1
100
AcDbVertex
100
AcDb3dPolylineVertex
 10
304.61212700142823
 20
-272.40141562588087
 30
0.0
 70
              32
  0
VERTEX
  5
3F3
100
AcDbEntity
  8
一般
370
               0
390
0
  6
Continuous
 62
               1
100
AcDbVertex
100
AcDb3dPolylineVertex
 10
304.61212700142823
 20
-272.41741562588095
 30
0.0
 70
              32
  0
VERTEX
  5
3F4
100
AcDbEntity
  8
一般
370
               0
390
0
  6
Continuous
 62
               1
100
AcDbVertex
100
AcDb3dPolylineVertex
 10
304.61212700142823
 20
-272.43441562588089
 30
0.0
 70
              32
  0
VERTEX
  5
3F5
100
AcDbEntity
  8
一般
370
               0
390
0
  6
Continuous
 62
               1
100
AcDbVertex
100
AcDb3dPolylineVertex
 10
304.61212700142823
 20
-272.45141562588094
 30
0.0
 70
              32
  0
VERTEX
  5
3F6
100
AcDbEntity
  8
一般
370
               0
390
0
  6
Continuous
 62
               1
100
AcDbVertex
100
AcDb3dPolylineVertex
 10
304.61212700142823
 20
-272.46841562588088
 30
0.0
 70
              32
  0
VERTEX
  5
3F7
100
AcDbEntity
  8
一般
370
               0
390
0
  6
Continuous
 62
               1
100
AcDbVertex
100
AcDb3dPolylineVertex
 10
304.61212700142823
 20
-272.48641562588091
 30
0.0
 70
              32
  0
VERTEX
  5
3F8
100
AcDbEntity
  8
一般
370
               0
390
0
  6
Continuous
 62
               1
100
AcDbVertex
100
AcDb3dPolylineVertex
 10
304.61212700142823
 20
-272.50441562588094
 30
0.0
 70
              32
  0
VERTEX
  5
3F9
100
AcDbEntity
  8
一般
370
               0
390
0
  6
Continuous
 62
               1
100
AcDbVertex
100
AcDb3dPolylineVertex
 10
304.61212700142823
 20
-272.52241562588085
 30
0.0
 70
              32
  0
VERTEX
  5
3FA
100
AcDbEntity
  8
一般
370
               0
390
0
  6
Continuous
 62
               1
100
AcDbVertex
100
AcDb3dPolylineVertex
 10
304.61212700142823
 20
-272.54041562588088
 30
0.0
 70
              32
  0
VERTEX
  5
3FB
100
AcDbEntity
  8
一般
370
               0
390
0
  6
Continuous
 62
               1
100
AcDbVertex
100
AcDb3dPolylineVertex
 10
304.61212700142823
 20
-272.55941562588089
 30
0.0
 70
              32
  0
VERTEX
  5
3FC
100
AcDbEntity
  8
一般
370
               0
390
0
  6
Continuous
 62
               1
100
AcDbVertex
100
AcDb3dPolylineVertex
 10
304.61212700142823
 20
-272.57841562588089
 30
0.0
 70
              32
  0
VERTEX
  5
3FD
100
AcDbEntity
  8
一般
370
               0
390
0
  6
Continuous
 62
               1
100
AcDbVertex
100
AcDb3dPolylineVertex
 10
304.61212700142823
 20
-272.5974156258809
 30
0.0
 70
              32
  0
VERTEX
  5
3FE
100
AcDbEntity
  8
一般
370
               0
390
0
  6
Continuous
 62
               1
100
AcDbVertex
100
AcDb3dPolylineVertex
 10
304.61212700142823
 20
-272.6164156258809
 30
0.0
 70
              32
  0
VERTEX
  5
3FF
100
AcDbEntity
  8
一般
370
               0
390
0
  6
Continuous
 62
               1
100
AcDbVertex
100
AcDb3dPolylineVertex
 10
304.61212700142823
 20
-272.63641562588089
 30
0.0
 70
              32
  0
VERTEX
  5
400
100
AcDbEntity
  8
一般
370
               0
390
0
  6
Continuous
 62
               1
100
AcDbVertex
100
AcDb3dPolylineVertex
 10
304.61212700142823
 20
-272.65641562588087
 30
0.0
 70
              32
  0
VERTEX
  5
401
100
AcDbEntity
  8
一般
370
               0
390
0
  6
Continuous
 62
               1
100
AcDbVertex
100
AcDb3dPolylineVertex
 10
304.61212700142823
 20
-272.67641562588096
 30
0.0
 70
              32
  0
VERTEX
  5
402
100
AcDbEntity
  8
一般
370
               0
390
0
  6
Continuous
 62
               1
100
AcDbVertex
100
AcDb3dPolylineVertex
 10
304.61212700142823
 20
-272.69641562588095
 30
0.0
 70
              32
  0
VERTEX
  5
403
100
AcDbEntity
  8
一般
370
               0
390
0
  6
Continuous
 62
               1
100
AcDbVertex
100
AcDb3dPolylineVertex
 10
304.61212700142823
 20
-272.7174156258809
 30
0.0
 70
              32
  0
VERTEX
  5
404
100
AcDbEntity
  8
一般
370
               0
390
0
  6
Continuous
 62
               1
100
AcDbVertex
100
AcDb3dPolylineVertex
 10
304.61212700142823
 20
-272.73841562588086
 30
0.0
 70
              32
  0
VERTEX
  5
405
100
AcDbEntity
  8
一般
370
               0
390
0
  6
Continuous
 62
               1
100
AcDbVertex
100
AcDb3dPolylineVertex
 10
304.61212700142823
 20
-272.75941562588093
 30
0.0
 70
              32
  0
VERTEX
  5
406
100
AcDbEntity
  8
一般
370
               0
390
0
  6
Continuous
 62
               1
100
AcDbVertex
100
AcDb3dPolylineVertex
 10
304.61212700142823
 20
-272.78041562588089
 30
0.0
 70
              32
  0
VERTEX
  5
407
100
AcDbEntity
  8
一般
370
               0
390
0
  6
Continuous
 62
               1
100
AcDbVertex
100
AcDb3dPolylineVertex
 10
304.61212700142823
 20
-272.80141562588096
 30
0.0
 70
              32
  0
VERTEX
  5
408
100
AcDbEntity
  8
一般
370
               0
390
0
  6
Continuous
 62
               1
100
AcDbVertex
100
AcDb3dPolylineVertex
 10
304.61212700142823
 20
-272.8234156258809
 30
0.0
 70
              32
  0
VERTEX
  5
409
100
AcDbEntity
  8
一般
370
               0
390
0
  6
Continuous
 62
               1
100
AcDbVertex
100
AcDb3dPolylineVertex
 10
304.61212700142823
 20
-272.84441562588086
 30
0.0
 70
              32
  0
VERTEX
  5
40A
100
AcDbEntity
  8
一般
370
               0
390
0
  6
Continuous
 62
               1
100
AcDbVertex
100
AcDb3dPolylineVertex
 10
304.61212700142823
 20
-272.8664156258809
 30
0.0
 70
              32
  0
VERTEX
  5
40B
100
AcDbEntity
  8
一般
370
               0
390
0
  6
Continuous
 62
               1
100
AcDbVertex
100
AcDb3dPolylineVertex
 10
304.61212700142823
 20
-272.88941562588093
 30
0.0
 70
              32
  0
VERTEX
  5
40C
100
AcDbEntity
  8
一般
370
               0
390
0
  6
Continuous
 62
               1
100
AcDbVertex
100
AcDb3dPolylineVertex
 10
304.61212700142823
 20
-272.91141562588086
 30
0.0
 70
              32
  0
VERTEX
  5
40D
100
AcDbEntity
  8
一般
370
               0
390
0
  6
Continuous
 62
               1
100
AcDbVertex
100
AcDb3dPolylineVertex
 10
304.61212700142823
 20
-272.93341562588091
 30
0.0
 70
              32
  0
VERTEX
  5
40E
100
AcDbEntity
  8
一般
370
               0
390
0
  6
Continuous
 62
               1
100
AcDbVertex
100
AcDb3dPolylineVertex
 10
304.61212700142823
 20
-272.95641562588094
 30
0.0
 70
              32
  0
VERTEX
  5
40F
100
AcDbEntity
  8
一般
370
               0
390
0
  6
Continuous
 62
               1
100
AcDbVertex
100
AcDb3dPolylineVertex
 10
304.61212700142823
 20
-272.97941562588096
 30
0.0
 70
              32
  0
VERTEX
  5
410
100
AcDbEntity
  8
一般
370
               0
390
0
  6
Continuous
 62
               1
100
AcDbVertex
100
AcDb3dPolylineVertex
 10
304.61212700142823
 20
-273.00241562588087
 30
0.0
 70
              32
  0
VERTEX
  5
411
100
AcDbEntity
  8
一般
370
               0
390
0
  6
Continuous
 62
               1
100
AcDbVertex
100
AcDb3dPolylineVertex
 10
304.61212700142823
 20
-273.0254156258809
 30
0.0
 70
              32
  0
VERTEX
  5
412
100
AcDbEntity
  8
一般
370
               0
390
0
  6
Continuous
 62
               1
100
AcDbVertex
100
AcDb3dPolylineVertex
 10
304.61212700142823
 20
-273.0494156258809
 30
0.0
 70
              32
  0
VERTEX
  5
413
100
AcDbEntity
  8
一般
370
               0
390
0
  6
Continuous
 62
               1
100
AcDbVertex
100
AcDb3dPolylineVertex
 10
304.61212700142823
 20
-273.0734156258809
 30
0.0
 70
              32
  0
VERTEX
  5
414
100
AcDbEntity
  8
一般
370
               0
390
0
  6
Continuous
 62
               1
100
AcDbVertex
100
AcDb3dPolylineVertex
 10
304.61212700142823
 20
-273.09641562588092
 30
0.0
 70
              32
  0
VERTEX
  5
415
100
AcDbEntity
  8
一般
370
               0
390
0
  6
Continuous
 62
               1
100
AcDbVertex
100
AcDb3dPolylineVertex
 10
304.61212700142823
 20
-273.12041562588092
 30
0.0
 70
              32
  0
VERTEX
  5
416
100
AcDbEntity
  8
一般
370
               0
390
0
  6
Continuous
 62
               1
100
AcDbVertex
100
AcDb3dPolylineVertex
 10
304.61212700142823
 20
-273.1454156258809
 30
0.0
 70
              32
  0
VERTEX
  5
417
100
AcDbEntity
  8
一般
370
               0
390
0
  6
Continuous
 62
               1
100
AcDbVertex
100
AcDb3dPolylineVertex
 10
304.61212700142823
 20
-273.1694156258809
 30
0.0
 70
              32
  0
VERTEX
  5
418
100
AcDbEntity
  8
一般
370
               0
390
0
  6
Continuous
 62
               1
100
AcDbVertex
100
AcDb3dPolylineVertex
 10
304.61212700142823
 20
-273.19441562588088
 30
0.0
 70
              32
  0
VERTEX
  5
419
100
AcDbEntity
  8
一般
370
               0
390
0
  6
Continuous
 62
               1
100
AcDbVertex
100
AcDb3dPolylineVertex
 10
304.61212700142823
 20
-273.21941562588086
 30
0.0
 70
              32
  0
VERTEX
  5
41A
100
AcDbEntity
  8
一般
370
               0
390
0
  6
Continuous
 62
               1
100
AcDbVertex
100
AcDb3dPolylineVertex
 10
304.61212700142823
 20
-273.24441562588095
 30
0.0
 70
              32
  0
VERTEX
  5
41B
100
AcDbEntity
  8
一般
370
               0
390
0
  6
Continuous
 62
               1
100
AcDbVertex
100
AcDb3dPolylineVertex
 10
304.61212700142823
 20
-273.26941562588092
 30
0.0
 70
              32
  0
VERTEX
  5
41C
100
AcDbEntity
  8
一般
370
               0
390
0
  6
Continuous
 62
               1
100
AcDbVertex
100
AcDb3dPolylineVertex
 10
304.61212700142823
 20
-273.2944156258809
 30
0.0
 70
              32
  0
VERTEX
  5
41D
100
AcDbEntity
  8
一般
370
               0
390
0
  6
Continuous
 62
               1
100
AcDbVertex
100
AcDb3dPolylineVertex
 10
304.61212700142823
 20
-273.32041562588086
 30
0.0
 70
              32
  0
VERTEX
  5
41E
100
AcDbEntity
  8
一般
370
               0
390
0
  6
Continuous
 62
               1
100
AcDbVertex
100
AcDb3dPolylineVertex
 10
304.61212700142823
 20
-273.34641562588092
 30
0.0
 70
              32
  0
VERTEX
  5
41F
100
AcDbEntity
  8
一般
370
               0
390
0
  6
Continuous
 62
               1
100
AcDbVertex
100
AcDb3dPolylineVertex
 10
304.61212700142823
 20
-273.37241562588088
 30
0.0
 70
              32
  0
VERTEX
  5
420
100
AcDbEntity
  8
一般
370
               0
390
0
  6
Continuous
 62
               1
100
AcDbVertex
100
AcDb3dPolylineVertex
 10
304.61212700142823
 20
-273.39841562588094
 30
0.0
 70
              32
  0
VERTEX
  5
421
100
AcDbEntity
  8
一般
370
               0
390
0
  6
Continuous
 62
               1
100
AcDbVertex
100
AcDb3dPolylineVertex
 10
304.61212700142823
 20
-273.4244156258809
 30
0.0
 70
              32
  0
VERTEX
  5
422
100
AcDbEntity
  8
一般
370
               0
390
0
  6
Continuous
 62
               1
100
AcDbVertex
100
AcDb3dPolylineVertex
 10
304.61212700142823
 20
-273.45141562588094
 30
0.0
 70
              32
  0
VERTEX
  5
423
100
AcDbEntity
  8
一般
370
               0
390
0
  6
Continuous
 62
               1
100
AcDbVertex
100
AcDb3dPolylineVertex
 10
304.61212700142823
 20
-273.47741562588089
 30
0.0
 70
              32
  0
VERTEX
  5
424
100
AcDbEntity
  8
一般
370
               0
390
0
  6
Continuous
 62
               1
100
AcDbVertex
100
AcDb3dPolylineVertex
 10
304.61212700142823
 20
-273.50441562588094
 30
0.0
 70
              32
  0
VERTEX
  5
425
100
AcDbEntity
  8
一般
370
               0
390
0
  6
Continuous
 62
               1
100
AcDbVertex
100
AcDb3dPolylineVertex
 10
304.61212700142823
 20
-273.53141562588087
 30
0.0
 70
              32
  0
VERTEX
  5
426
100
AcDbEntity
  8
一般
370
               0
390
0
  6
Continuous
 62
               1
100
AcDbVertex
100
AcDb3dPolylineVertex
 10
304.61212700142823
 20
-273.55941562588089
 30
0.0
 70
              32
  0
VERTEX
  5
427
100
AcDbEntity
  8
一般
370
               0
390
0
  6
Continuous
 62
               1
100
AcDbVertex
100
AcDb3dPolylineVertex
 10
304.61212700142823
 20
-273.58641562588093
 30
0.0
 70
              32
  0
VERTEX
  5
428
100
AcDbEntity
  8
一般
370
               0
390
0
  6
Continuous
 62
               1
100
AcDbVertex
100
AcDb3dPolylineVertex
 10
304.61212700142823
 20
-273.61441562588095
 30
0.0
 70
              32
  0
VERTEX
  5
429
100
AcDbEntity
  8
一般
370
               0
390
0
  6
Continuous
 62
               1
100
AcDbVertex
100
AcDb3dPolylineVertex
 10
304.61212700142823
 20
-273.64241562588086
 30
0.0
 70
              32
  0
VERTEX
  5
42A
100
AcDbEntity
  8
一般
370
               0
390
0
  6
Continuous
 62
               1
100
AcDbVertex
100
AcDb3dPolylineVertex
 10
304.61212700142823
 20
-273.67041562588088
 30
0.0
 70
              32
  0
VERTEX
  5
42B
100
AcDbEntity
  8
一般
370
               0
390
0
  6
Continuous
 62
               1
100
AcDbVertex
100
AcDb3dPolylineVertex
 10
304.61212700142823
 20
-273.6984156258809
 30
0.0
 70
              32
  0
VERTEX
  5
42C
100
AcDbEntity
  8
一般
370
               0
390
0
  6
Continuous
 62
               1
100
AcDbVertex
100
AcDb3dPolylineVertex
 10
304.61212700142823
 20
-273.72641562588092
 30
0.0
 70
              32
  0
VERTEX
  5
42D
100
AcDbEntity
  8
一般
370
               0
390
0
  6
Continuous
 62
               1
100
AcDbVertex
100
AcDb3dPolylineVertex
 10
304.61212700142823
 20
-273.75541562588091
 30
0.0
 70
              32
  0
VERTEX
  5
42E
100
AcDbEntity
  8
一般
370
               0
390
0
  6
Continuous
 62
               1
100
AcDbVertex
100
AcDb3dPolylineVertex
 10
304.61212700142823
 20
-273.78441562588091
 30
0.0
 70
              32
  0
VERTEX
  5
42F
100
AcDbEntity
  8
一般
370
               0
390
0
  6
Continuous
 62
               1
100
AcDbVertex
100
AcDb3dPolylineVertex
 10
304.61212700142823
 20
-273.81341562588091
 30
0.0
 70
              32
  0
VERTEX
  5
430
100
AcDbEntity
  8
一般
370
               0
390
0
  6
Continuous
 62
               1
100
AcDbVertex
100
AcDb3dPolylineVertex
 10
304.61212700142823
 20
-273.8424156258809
 30
0.0
 70
              32
  0
VERTEX
  5
431
100
AcDbEntity
  8
一般
370
               0
390
0
  6
Continuous
 62
               1
100
AcDbVertex
100
AcDb3dPolylineVertex
 10
304.61212700142823
 20
-273.8714156258809
 30
0.0
 70
              32
  0
VERTEX
  5
432
100
AcDbEntity
  8
一般
370
               0
390
0
  6
Continuous
 62
               1
100
AcDbVertex
100
AcDb3dPolylineVertex
 10
304.61212700142823
 20
-273.90141562588087
 30
0.0
 70
              32
  0
VERTEX
  5
433
100
AcDbEntity
  8
一般
370
               0
390
0
  6
Continuous
 62
               1
100
AcDbVertex
100
AcDb3dPolylineVertex
 10
304.61212700142823
 20
-273.93041562588087
 30
0.0
 70
              32
  0
VERTEX
  5
434
100
AcDbEntity
  8
一般
370
               0
390
0
  6
Continuous
 62
               1
100
AcDbVertex
100
AcDb3dPolylineVertex
 10
304.61212700142823
 20
-273.96041562588096
 30
0.0
 70
              32
  0
VERTEX
  5
435
100
AcDbEntity
  8
一般
370
               0
390
0
  6
Continuous
 62
               1
100
AcDbVertex
100
AcDb3dPolylineVertex
 10
304.61212700142823
 20
-273.99041562588093
 30
0.0
 70
              32
  0
VERTEX
  5
436
100
AcDbEntity
  8
一般
370
               0
390
0
  6
Continuous
 62
               1
100
AcDbVertex
100
AcDb3dPolylineVertex
 10
304.61212700142823
 20
-274.0204156258809
 30
0.0
 70
              32
  0
VERTEX
  5
437
100
AcDbEntity
  8
一般
370
               0
390
0
  6
Continuous
 62
               1
100
AcDbVertex
100
AcDb3dPolylineVertex
 10
304.61212700142823
 20
-274.05141562588096
 30
0.0
 70
              32
  0
VERTEX
  5
438
100
AcDbEntity
  8
一般
370
               0
390
0
  6
Continuous
 62
               1
100
AcDbVertex
100
AcDb3dPolylineVertex
 10
304.61212700142823
 20
-274.08141562588094
 30
0.0
 70
              32
  0
VERTEX
  5
439
100
AcDbEntity
  8
一般
370
               0
390
0
  6
Continuous
 62
               1
100
AcDbVertex
100
AcDb3dPolylineVertex
 10
304.61212700142823
 20
-274.11241562588089
 30
0.0
 70
              32
  0
VERTEX
  5
43A
100
AcDbEntity
  8
一般
370
               0
390
0
  6
Continuous
 62
               1
100
AcDbVertex
100
AcDb3dPolylineVertex
 10
304.61212700142823
 20
-274.14341562588095
 30
0.0
 70
              32
  0
VERTEX
  5
43B
100
AcDbEntity
  8
一般
370
               0
390
0
  6
Continuous
 62
               1
100
AcDbVertex
100
AcDb3dPolylineVertex
 10
304.61212700142823
 20
-274.1744156258809
 30
0.0
 70
              32
  0
VERTEX
  5
43C
100
AcDbEntity
  8
一般
370
               0
390
0
  6
Continuous
 62
               1
100
AcDbVertex
100
AcDb3dPolylineVertex
 10
304.61212700142823
 20
-274.20541562588096
 30
0.0
 70
              32
  0
VERTEX
  5
43D
100
AcDbEntity
  8
一般
370
               0
390
0
  6
Continuous
 62
               1
100
AcDbVertex
100
AcDb3dPolylineVertex
 10
304.61212700142823
 20
-274.23641562588091
 30
0.0
 70
              32
  0
VERTEX
  5
43E
100
AcDbEntity
  8
一般
370
               0
390
0
  6
Continuous
 62
               1
100
AcDbVertex
100
AcDb3dPolylineVertex
 10
304.61212700142823
 20
-274.26741562588086
 30
0.0
 70
              32
  0
VERTEX
  5
43F
100
AcDbEntity
  8
一般
370
               0
390
0
  6
Continuous
 62
               1
100
AcDbVertex
100
AcDb3dPolylineVertex
 10
304.61212700142823
 20
-274.2994156258809
 30
0.0
 70
              32
  0
VERTEX
  5
440
100
AcDbEntity
  8
一般
370
               0
390
0
  6
Continuous
 62
               1
100
AcDbVertex
100
AcDb3dPolylineVertex
 10
304.61212700142823
 20
-274.33141562588094
 30
0.0
 70
              32
  0
VERTEX
  5
441
100
AcDbEntity
  8
一般
370
               0
390
0
  6
Continuous
 62
               1
100
AcDbVertex
100
AcDb3dPolylineVertex
 10
304.61212700142823
 20
-274.36341562588086
 30
0.0
 70
              32
  0
VERTEX
  5
442
100
AcDbEntity
  8
一般
370
               0
390
0
  6
Continuous
 62
               1
100
AcDbVertex
100
AcDb3dPolylineVertex
 10
304.61212700142823
 20
-274.3954156258809
 30
0.0
 70
              32
  0
VERTEX
  5
443
100
AcDbEntity
  8
一般
370
               0
390
0
  6
Continuous
 62
               1
100
AcDbVertex
100
AcDb3dPolylineVertex
 10
304.61212700142823
 20
-274.42741562588094
 30
0.0
 70
              32
  0
VERTEX
  5
444
100
AcDbEntity
  8
一般
370
               0
390
0
  6
Continuous
 62
               1
100
AcDbVertex
100
AcDb3dPolylineVertex
 10
304.61212700142823
 20
-274.45941562588087
 30
0.0
 70
              32
  0
VERTEX
  5
445
100
AcDbEntity
  8
一般
370
               0
390
0
  6
Continuous
 62
               1
100
AcDbVertex
100
AcDb3dPolylineVertex
 10
304.61212700142823
 20
-274.49241562588088
 30
0.0
 70
              32
  0
VERTEX
  5
446
100
AcDbEntity
  8
一般
370
               0
390
0
  6
Continuous
 62
               1
100
AcDbVertex
100
AcDb3dPolylineVertex
 10
304.61212700142823
 20
-274.52441562588092
 30
0.0
 70
              32
  0
VERTEX
  5
447
100
AcDbEntity
  8
一般
370
               0
390
0
  6
Continuous
 62
               1
100
AcDbVertex
100
AcDb3dPolylineVertex
 10
304.61212700142823
 20
-274.55741562588094
 30
0.0
 70
              32
  0
VERTEX
  5
448
100
AcDbEntity
  8
一般
370
               0
390
0
  6
Continuous
 62
               1
100
AcDbVertex
100
AcDb3dPolylineVertex
 10
304.61212700142823
 20
-274.59041562588095
 30
0.0
 70
              32
  0
VERTEX
  5
449
100
AcDbEntity
  8
一般
370
               0
390
0
  6
Continuous
 62
               1
100
AcDbVertex
100
AcDb3dPolylineVertex
 10
304.61212700142823
 20
-274.62341562588097
 30
0.0
 70
              32
  0
VERTEX
  5
44A
100
AcDbEntity
  8
一般
370
               0
390
0
  6
Continuous
 62
               1
100
AcDbVertex
100
AcDb3dPolylineVertex
 10
304.61212700142823
 20
-274.65641562588087
 30
0.0
 70
              32
  0
VERTEX
  5
44B
100
AcDbEntity
  8
一般
370
               0
390
0
  6
Continuous
 62
               1
100
AcDbVertex
100
AcDb3dPolylineVertex
 10
304.61212700142823
 20
-274.69041562588086
 30
0.0
 70
              32
  0
VERTEX
  5
44C
100
AcDbEntity
  8
一般
370
               0
390
0
  6
Continuous
 62
               1
100
AcDbVertex
100
AcDb3dPolylineVertex
 10
304.61212700142823
 20
-274.72341562588088
 30
0.0
 70
              32
  0
VERTEX
  5
44D
100
AcDbEntity
  8
一般
370
               0
390
0
  6
Continuous
 62
               1
100
AcDbVertex
100
AcDb3dPolylineVertex
 10
304.61212700142823
 20
-274.75741562588087
 30
0.0
 70
              32
  0
VERTEX
  5
44E
100
AcDbEntity
  8
一般
370
               0
390
0
  6
Continuous
 62
               1
100
AcDbVertex
100
AcDb3dPolylineVertex
 10
304.61212700142823
 20
-274.79041562588088
 30
0.0
 70
              32
  0
VERTEX
  5
44F
100
AcDbEntity
  8
一般
370
               0
390
0
  6
Continuous
 62
               1
100
AcDbVertex
100
AcDb3dPolylineVertex
 10
304.61212700142823
 20
-274.82441562588087
 30
0.0
 70
              32
  0
VERTEX
  5
450
100
AcDbEntity
  8
一般
370
               0
390
0
  6
Continuous
 62
               1
100
AcDbVertex
100
AcDb3dPolylineVertex
 10
304.61212700142823
 20
-274.85841562588087
 30
0.0
 70
              32
  0
VERTEX
  5
451
100
AcDbEntity
  8
一般
370
               0
390
0
  6
Continuous
 62
               1
100
AcDbVertex
100
AcDb3dPolylineVertex
 10
304.61212700142823
 20
-274.89241562588086
 30
0.0
 70
              32
  0
VERTEX
  5
452
100
AcDbEntity
  8
一般
370
               0
390
0
  6
Continuous
 62
               1
100
AcDbVertex
100
AcDb3dPolylineVertex
 10
304.61212700142823
 20
-274.92641562588096
 30
0.0
 70
              32
  0
VERTEX
  5
453
100
AcDbEntity
  8
一般
370
               0
390
0
  6
Continuous
 62
               1
100
AcDbVertex
100
AcDb3dPolylineVertex
 10
304.61212700142823
 20
-274.96141562588093
 30
0.0
 70
              32
  0
VERTEX
  5
454
100
AcDbEntity
  8
一般
370
               0
390
0
  6
Continuous
 62
               1
100
AcDbVertex
100
AcDb3dPolylineVertex
 10
304.61212700142823
 20
-274.99541562588092
 30
0.0
 70
              32
  0
VERTEX
  5
455
100
AcDbEntity
  8
一般
370
               0
390
0
  6
Continuous
 62
               1
100
AcDbVertex
100
AcDb3dPolylineVertex
 10
304.61212700142823
 20
-275.03041562588089
 30
0.0
 70
              32
  0
VERTEX
  5
456
100
AcDbEntity
  8
一般
370
               0
390
0
  6
Continuous
 62
               1
100
AcDbVertex
100
AcDb3dPolylineVertex
 10
304.61212700142823
 20
-275.06541562588086
 30
0.0
 70
              32
  0
VERTEX
  5
457
100
AcDbEntity
  8
一般
370
               0
390
0
  6
Continuous
 62
               1
100
AcDbVertex
100
AcDb3dPolylineVertex
 10
304.61212700142823
 20
-275.09941562588097
 30
0.0
 70
              32
  0
VERTEX
  5
458
100
AcDbEntity
  8
一般
370
               0
390
0
  6
Continuous
 62
               1
100
AcDbVertex
100
AcDb3dPolylineVertex
 10
304.61212700142823
 20
-275.13441562588093
 30
0.0
 70
              32
  0
VERTEX
  5
459
100
AcDbEntity
  8
一般
370
               0
390
0
  6
Continuous
 62
               1
100
AcDbVertex
100
AcDb3dPolylineVertex
 10
304.61212700142823
 20
-275.1694156258809
 30
0.0
 70
              32
  0
VERTEX
  5
45A
100
AcDbEntity
  8
一般
370
               0
390
0
  6
Continuous
 62
               1
100
AcDbVertex
100
AcDb3dPolylineVertex
 10
304.61212700142823
 20
-275.20541562588096
 30
0.0
 70
              32
  0
VERTEX
  5
45B
100
AcDbEntity
  8
一般
370
               0
390
0
  6
Continuous
 62
               1
100
AcDbVertex
100
AcDb3dPolylineVertex
 10
304.61212700142823
 20
-275.24041562588093
 30
0.0
 70
              32
  0
VERTEX
  5
45C
100
AcDbEntity
  8
一般
370
               0
390
0
  6
Continuous
 62
               1
100
AcDbVertex
100
AcDb3dPolylineVertex
 10
304.61212700142823
 20
-275.2754156258809
 30
0.0
 70
              32
  0
VERTEX
  5
45D
100
AcDbEntity
  8
一般
370
               0
390
0
  6
Continuous
 62
               1
100
AcDbVertex
100
AcDb3dPolylineVertex
 10
304.61212700142823
 20
-275.31141562588095
 30
0.0
 70
              32
  0
VERTEX
  5
45E
100
AcDbEntity
  8
一般
370
               0
390
0
  6
Continuous
 62
               1
100
AcDbVertex
100
AcDb3dPolylineVertex
 10
304.61212700142823
 20
-275.34641562588092
 30
0.0
 70
              32
  0
VERTEX
  5
45F
100
AcDbEntity
  8
一般
370
               0
390
0
  6
Continuous
 62
               1
100
AcDbVertex
100
AcDb3dPolylineVertex
 10
304.61212700142823
 20
-275.38241562588087
 30
0.0
 70
              32
  0
VERTEX
  5
460
100
AcDbEntity
  8
一般
370
               0
390
0
  6
Continuous
 62
               1
100
AcDbVertex
100
AcDb3dPolylineVertex
 10
304.61212700142823
 20
-275.41841562588093
 30
0.0
 70
              32
  0
VERTEX
  5
461
100
AcDbEntity
  8
一般
370
               0
390
0
  6
Continuous
 62
               1
100
AcDbVertex
100
AcDb3dPolylineVertex
 10
304.61212700142823
 20
-275.45441562588087
 30
0.0
 70
              32
  0
VERTEX
  5
462
100
AcDbEntity
  8
一般
370
               0
390
0
  6
Continuous
 62
               1
100
AcDbVertex
100
AcDb3dPolylineVertex
 10
304.61212700142823
 20
-275.49041562588093
 30
0.0
 70
              32
  0
VERTEX
  5
463
100
AcDbEntity
  8
一般
370
               0
390
0
  6
Continuous
 62
               1
100
AcDbVertex
100
AcDb3dPolylineVertex
 10
304.61212700142823
 20
-275.52641562588087
 30
0.0
 70
              32
  0
VERTEX
  5
464
100
AcDbEntity
  8
一般
370
               0
390
0
  6
Continuous
 62
               1
100
AcDbVertex
100
AcDb3dPolylineVertex
 10
304.61212700142823
 20
-275.56341562588091
 30
0.0
 70
              32
  0
VERTEX
  5
465
100
AcDbEntity
  8
一般
370
               0
390
0
  6
Continuous
 62
               1
100
AcDbVertex
100
AcDb3dPolylineVertex
 10
304.61212700142823
 20
-275.59941562588097
 30
0.0
 70
              32
  0
VERTEX
  5
466
100
AcDbEntity
  8
一般
370
               0
390
0
  6
Continuous
 62
               1
100
AcDbVertex
100
AcDb3dPolylineVertex
 10
304.61212700142823
 20
-275.63541562588091
 30
0.0
 70
              32
  0
VERTEX
  5
467
100
AcDbEntity
  8
一般
370
               0
390
0
  6
Continuous
 62
               1
100
AcDbVertex
100
AcDb3dPolylineVertex
 10
304.61212700142823
 20
-275.67241562588094
 30
0.0
 70
              32
  0
VERTEX
  5
468
100
AcDbEntity
  8
一般
370
               0
390
0
  6
Continuous
 62
               1
100
AcDbVertex
100
AcDb3dPolylineVertex
 10
304.61212700142823
 20
-275.70941562588087
 30
0.0
 70
              32
  0
VERTEX
  5
469
100
AcDbEntity
  8
一般
370
               0
390
0
  6
Continuous
 62
               1
100
AcDbVertex
100
AcDb3dPolylineVertex
 10
304.61212700142823
 20
-275.7464156258809
 30
0.0
 70
              32
  0
VERTEX
  5
46A
100
AcDbEntity
  8
一般
370
               0
390
0
  6
Continuous
 62
               1
100
AcDbVertex
100
AcDb3dPolylineVertex
 10
304.61212700142823
 20
-275.78241562588096
 30
0.0
 70
              32
  0
VERTEX
  5
46B
100
AcDbEntity
  8
一般
370
               0
390
0
  6
Continuous
 62
               1
100
AcDbVertex
100
AcDb3dPolylineVertex
 10
304.61212700142823
 20
-275.81941562588088
 30
0.0
 70
              32
  0
VERTEX
  5
46C
100
AcDbEntity
  8
一般
370
               0
390
0
  6
Continuous
 62
               1
100
AcDbVertex
100
AcDb3dPolylineVertex
 10
304.61212700142823
 20
-275.85741562588089
 30
0.0
 70
              32
  0
VERTEX
  5
46D
100
AcDbEntity
  8
一般
370
               0
390
0
  6
Continuous
 62
               1
100
AcDbVertex
100
AcDb3dPolylineVertex
 10
304.61212700142823
 20
-275.89441562588092
 30
0.0
 70
              32
  0
VERTEX
  5
46E
100
AcDbEntity
  8
一般
370
               0
390
0
  6
Continuous
 62
               1
100
AcDbVertex
100
AcDb3dPolylineVertex
 10
304.61212700142823
 20
-275.93141562588096
 30
0.0
 70
              32
  0
VERTEX
  5
46F
100
AcDbEntity
  8
一般
370
               0
390
0
  6
Continuous
 62
               1
100
AcDbVertex
100
AcDb3dPolylineVertex
 10
304.61212700142823
 20
-275.96841562588088
 30
0.0
 70
              32
  0
VERTEX
  5
470
100
AcDbEntity
  8
一般
370
               0
390
0
  6
Continuous
 62
               1
100
AcDbVertex
100
AcDb3dPolylineVertex
 10
304.61212700142823
 20
-276.00641562588089
 30
0.0
 70
              32
  0
VERTEX
  5
471
100
AcDbEntity
  8
一般
370
               0
390
0
  6
Continuous
 62
               1
100
AcDbVertex
100
AcDb3dPolylineVertex
 10
304.61212700142823
 20
-276.04341562588093
 30
0.0
 70
              32
  0
VERTEX
  5
472
100
AcDbEntity
  8
一般
370
               0
390
0
  6
Continuous
 62
               1
100
AcDbVertex
100
AcDb3dPolylineVertex
 10
304.61212700142823
 20
-276.08141562588094
 30
0.0
 70
              32
  0
VERTEX
  5
473
100
AcDbEntity
  8
一般
370
               0
390
0
  6
Continuous
 62
               1
100
AcDbVertex
100
AcDb3dPolylineVertex
 10
304.61212700142823
 20
-276.11941562588095
 30
0.0
 70
              32
  0
VERTEX
  5
474
100
AcDbEntity
  8
一般
370
               0
390
0
  6
Continuous
 62
               1
100
AcDbVertex
100
AcDb3dPolylineVertex
 10
304.61212700142823
 20
-276.15641562588087
 30
0.0
 70
              32
  0
VERTEX
  5
475
100
AcDbEntity
  8
一般
370
               0
390
0
  6
Continuous
 62
               1
100
AcDbVertex
100
AcDb3dPolylineVertex
 10
304.61212700142823
 20
-276.19441562588088
 30
0.0
 70
              32
  0
VERTEX
  5
476
100
AcDbEntity
  8
一般
370
               0
390
0
  6
Continuous
 62
               1
100
AcDbVertex
100
AcDb3dPolylineVertex
 10
304.61212700142823
 20
-276.23241562588089
 30
0.0
 70
              32
  0
VERTEX
  5
477
100
AcDbEntity
  8
一般
370
               0
390
0
  6
Continuous
 62
               1
100
AcDbVertex
100
AcDb3dPolylineVertex
 10
304.61212700142823
 20
-276.2704156258809
 30
0.0
 70
              32
  0
VERTEX
  5
478
100
AcDbEntity
  8
一般
370
               0
390
0
  6
Continuous
 62
               1
100
AcDbVertex
100
AcDb3dPolylineVertex
 10
304.61212700142823
 20
-276.30841562588091
 30
0.0
 70
              32
  0
VERTEX
  5
479
100
AcDbEntity
  8
一般
370
               0
390
0
  6
Continuous
 62
               1
100
AcDbVertex
100
AcDb3dPolylineVertex
 10
304.61212700142823
 20
-276.34641562588092
 30
0.0
 70
              32
  0
VERTEX
  5
47A
100
AcDbEntity
  8
一般
370
               0
390
0
  6
Continuous
 62
               1
100
AcDbVertex
100
AcDb3dPolylineVertex
 10
304.61212700142823
 20
-276.38441562588093
 30
0.0
 70
              32
  0
VERTEX
  5
47B
100
AcDbEntity
  8
一般
370
               0
390
0
  6
Continuous
 62
               1
100
AcDbVertex
100
AcDb3dPolylineVertex
 10
304.61212700142823
 20
-276.42341562588092
 30
0.0
 70
              32
  0
VERTEX
  5
47C
100
AcDbEntity
  8
一般
370
               0
390
0
  6
Continuous
 62
               1
100
AcDbVertex
100
AcDb3dPolylineVertex
 10
304.61212700142823
 20
-276.46141562588093
 30
0.0
 70
              32
  0
VERTEX
  5
47D
100
AcDbEntity
  8
一般
370
               0
390
0
  6
Continuous
 62
               1
100
AcDbVertex
100
AcDb3dPolylineVertex
 10
304.61212700142823
 20
-276.49941562588094
 30
0.0
 70
              32
  0
VERTEX
  5
47E
100
AcDbEntity
  8
一般
370
               0
390
0
  6
Continuous
 62
               1
100
AcDbVertex
100
AcDb3dPolylineVertex
 10
304.61212700142823
 20
-276.53841562588093
 30
0.0
 70
              32
  0
VERTEX
  5
47F
100
AcDbEntity
  8
一般
370
               0
390
0
  6
Continuous
 62
               1
100
AcDbVertex
100
AcDb3dPolylineVertex
 10
304.61212700142823
 20
-276.57641562588094
 30
0.0
 70
              32
  0
VERTEX
  5
480
100
AcDbEntity
  8
一般
370
               0
390
0
  6
Continuous
 62
               1
100
AcDbVertex
100
AcDb3dPolylineVertex
 10
304.61212700142823
 20
-276.61541562588093
 30
0.0
 70
              32
  0
VERTEX
  5
481
100
AcDbEntity
  8
一般
370
               0
390
0
  6
Continuous
 62
               1
100
AcDbVertex
100
AcDb3dPolylineVertex
 10
304.61212700142823
 20
-276.65441562588092
 30
0.0
 70
              32
  0
VERTEX
  5
482
100
AcDbEntity
  8
一般
370
               0
390
0
  6
Continuous
 62
               1
100
AcDbVertex
100
AcDb3dPolylineVertex
 10
304.61212700142823
 20
-276.69241562588093
 30
0.0
 70
              32
  0
VERTEX
  5
483
100
AcDbEntity
  8
一般
370
               0
390
0
  6
Continuous
 62
               1
100
AcDbVertex
100
AcDb3dPolylineVertex
 10
304.61212700142823
 20
-276.73141562588091
 30
0.0
 70
              32
  0
VERTEX
  5
484
100
AcDbEntity
  8
一般
370
               0
390
0
  6
Continuous
 62
               1
100
AcDbVertex
100
AcDb3dPolylineVertex
 10
304.61212700142823
 20
-276.7704156258809
 30
0.0
 70
              32
  0
VERTEX
  5
485
100
AcDbEntity
  8
一般
370
               0
390
0
  6
Continuous
 62
               1
100
AcDbVertex
100
AcDb3dPolylineVertex
 10
304.61212700142823
 20
-276.80941562588089
 30
0.0
 70
              32
  0
VERTEX
  5
486
100
AcDbEntity
  8
一般
370
               0
390
0
  6
Continuous
 62
               1
100
AcDbVertex
100
AcDb3dPolylineVertex
 10
304.61212700142823
 20
-276.84841562588088
 30
0.0
 70
              32
  0
VERTEX
  5
487
100
AcDbEntity
  8
一般
370
               0
390
0
  6
Continuous
 62
               1
100
AcDbVertex
100
AcDb3dPolylineVertex
 10
304.61212700142823
 20
-276.88741562588086
 30
0.0
 70
              32
  0
VERTEX
  5
488
100
AcDbEntity
  8
一般
370
               0
390
0
  6
Continuous
 62
               1
100
AcDbVertex
100
AcDb3dPolylineVertex
 10
304.61212700142823
 20
-276.92641562588096
 30
0.0
 70
              32
  0
VERTEX
  5
489
100
AcDbEntity
  8
一般
370
               0
390
0
  6
Continuous
 62
               1
100
AcDbVertex
100
AcDb3dPolylineVertex
 10
304.61212700142823
 20
-276.96541562588095
 30
0.0
 70
              32
  0
VERTEX
  5
48A
100
AcDbEntity
  8
一般
370
               0
390
0
  6
Continuous
 62
               1
100
AcDbVertex
100
AcDb3dPolylineVertex
 10
304.61212700142823
 20
-277.00441562588094
 30
0.0
 70
              32
  0
VERTEX
  5
48B
100
AcDbEntity
  8
一般
370
               0
390
0
  6
Continuous
 62
               1
100
AcDbVertex
100
AcDb3dPolylineVertex
 10
304.61212700142823
 20
-277.04341562588093
 30
0.0
 70
              32
  0
VERTEX
  5
48C
100
AcDbEntity
  8
一般
370
               0
390
0
  6
Continuous
 62
               1
100
AcDbVertex
100
AcDb3dPolylineVertex
 10
304.61212700142823
 20
-277.08241562588091
 30
0.0
 70
              32
  0
VERTEX
  5
48D
100
AcDbEntity
  8
一般
370
               0
390
0
  6
Continuous
 62
               1
100
AcDbVertex
100
AcDb3dPolylineVertex
 10
304.61212700142823
 20
-277.1214156258809
 30
0.0
 70
              32
  0
VERTEX
  5
48E
100
AcDbEntity
  8
一般
370
               0
390
0
  6
Continuous
 62
               1
100
AcDbVertex
100
AcDb3dPolylineVertex
 10
304.61212700142823
 20
-277.16041562588089
 30
0.0
 70
              32
  0
VERTEX
  5
48F
100
AcDbEntity
  8
一般
370
               0
390
0
  6
Continuous
 62
               1
100
AcDbVertex
100
AcDb3dPolylineVertex
 10
304.61212700142823
 20
-277.19941562588087
 30
0.0
 70
              32
  0
VERTEX
  5
490
100
AcDbEntity
  8
一般
370
               0
390
0
  6
Continuous
 62
               1
100
AcDbVertex
100
AcDb3dPolylineVertex
 10
304.61212700142823
 20
-277.23941562588095
 30
0.0
 70
              32
  0
VERTEX
  5
491
100
AcDbEntity
  8
一般
370
               0
390
0
  6
Continuous
 62
               1
100
AcDbVertex
100
AcDb3dPolylineVertex
 10
304.61212700142823
 20
-277.27841562588094
 30
0.0
 70
              32
  0
VERTEX
  5
492
100
AcDbEntity
  8
一般
370
               0
390
0
  6
Continuous
 62
               1
100
AcDbVertex
100
AcDb3dPolylineVertex
 10
304.61212700142823
 20
-277.31741562588093
 30
0.0
 70
              32
  0
VERTEX
  5
493
100
AcDbEntity
  8
一般
370
               0
390
0
  6
Continuous
 62
               1
100
AcDbVertex
100
AcDb3dPolylineVertex
 10
304.61212700142823
 20
-277.35741562588089
 30
0.0
 70
              32
  0
VERTEX
  5
494
100
AcDbEntity
  8
一般
370
               0
390
0
  6
Continuous
 62
               1
100
AcDbVertex
100
AcDb3dPolylineVertex
 10
304.61212700142823
 20
-277.39641562588088
 30
0.0
 70
              32
  0
VERTEX
  5
495
100
AcDbEntity
  8
一般
370
               0
390
0
  6
Continuous
 62
               1
100
AcDbVertex
100
AcDb3dPolylineVertex
 10
304.61212700142823
 20
-277.43541562588086
 30
0.0
 70
              32
  0
VERTEX
  5
496
100
AcDbEntity
  8
一般
370
               0
390
0
  6
Continuous
 62
               1
100
AcDbVertex
100
AcDb3dPolylineVertex
 10
304.61212700142823
 20
-277.47541562588094
 30
0.0
 70
              32
  0
VERTEX
  5
497
100
AcDbEntity
  8
一般
370
               0
390
0
  6
Continuous
 62
               1
100
AcDbVertex
100
AcDb3dPolylineVertex
 10
304.61212700142823
 20
-277.51441562588093
 30
0.0
 70
              32
  0
VERTEX
  5
498
100
AcDbEntity
  8
一般
370
               0
390
0
  6
Continuous
 62
               1
100
AcDbVertex
100
AcDb3dPolylineVertex
 10
304.61212700142823
 20
-277.55441562588089
 30
0.0
 70
              32
  0
VERTEX
  5
499
100
AcDbEntity
  8
一般
370
               0
390
0
  6
Continuous
 62
               1
100
AcDbVertex
100
AcDb3dPolylineVertex
 10
304.61212700142823
 20
-277.59341562588088
 30
0.0
 70
              32
  0
VERTEX
  5
49A
100
AcDbEntity
  8
一般
370
               0
390
0
  6
Continuous
 62
               1
100
AcDbVertex
100
AcDb3dPolylineVertex
 10
304.61212700142823
 20
-277.63241562588087
 30
0.0
 70
              32
  0
VERTEX
  5
49B
100
AcDbEntity
  8
一般
370
               0
390
0
  6
Continuous
 62
               1
100
AcDbVertex
100
AcDb3dPolylineVertex
 10
304.61212700142823
 20
-277.67241562588094
 30
0.0
 70
              32
  0
VERTEX
  5
49C
100
AcDbEntity
  8
一般
370
               0
390
0
  6
Continuous
 62
               1
100
AcDbVertex
100
AcDb3dPolylineVertex
 10
304.61212700142823
 20
-277.71141562588093
 30
0.0
 70
              32
  0
VERTEX
  5
49D
100
AcDbEntity
  8
一般
370
               0
390
0
  6
Continuous
 62
               1
100
AcDbVertex
100
AcDb3dPolylineVertex
 10
304.61212700142823
 20
-277.7514156258809
 30
0.0
 70
              32
  0
VERTEX
  5
49E
100
AcDbEntity
  8
一般
370
               0
390
0
  6
Continuous
 62
               1
100
AcDbVertex
100
AcDb3dPolylineVertex
 10
304.61212700142823
 20
-277.79041562588088
 30
0.0
 70
              32
  0
VERTEX
  5
49F
100
AcDbEntity
  8
一般
370
               0
390
0
  6
Continuous
 62
               1
100
AcDbVertex
100
AcDb3dPolylineVertex
 10
304.61212700142823
 20
-277.83041562588096
 30
0.0
 70
              32
  0
VERTEX
  5
4A0
100
AcDbEntity
  8
一般
370
               0
390
0
  6
Continuous
 62
               1
100
AcDbVertex
100
AcDb3dPolylineVertex
 10
304.61212700142823
 20
-277.86941562588095
 30
0.0
 70
              32
  0
VERTEX
  5
4A1
100
AcDbEntity
  8
一般
370
               0
390
0
  6
Continuous
 62
               1
100
AcDbVertex
100
AcDb3dPolylineVertex
 10
304.61212700142823
 20
-277.90941562588091
 30
0.0
 70
              32
  0
VERTEX
  5
4A2
100
AcDbEntity
  8
一般
370
               0
390
0
  6
Continuous
 62
               1
100
AcDbVertex
100
AcDb3dPolylineVertex
 10
304.61212700142823
 20
-277.9484156258809
 30
0.0
 70
              32
  0
VERTEX
  5
4A3
100
AcDbEntity
  8
一般
370
               0
390
0
  6
Continuous
 62
               1
100
AcDbVertex
100
AcDb3dPolylineVertex
 10
304.61212700142823
 20
-277.98841562588086
 30
0.0
 70
              32
  0
VERTEX
  5
4A4
100
AcDbEntity
  8
一般
370
               0
390
0
  6
Continuous
 62
               1
100
AcDbVertex
100
AcDb3dPolylineVertex
 10
304.61212700142823
 20
-278.02741562588096
 30
0.0
 70
              32
  0
VERTEX
  5
4A5
100
AcDbEntity
  8
一般
370
               0
390
0
  6
Continuous
 62
               1
100
AcDbVertex
100
AcDb3dPolylineVertex
 10
304.61212700142823
 20
-278.06741562588093
 30
0.0
 70
              32
  0
VERTEX
  5
4A6
100
AcDbEntity
  8
一般
370
               0
390
0
  6
Continuous
 62
               1
100
AcDbVertex
100
AcDb3dPolylineVertex
 10
304.61212700142823
 20
-278.10641562588091
 30
0.0
 70
              32
  0
VERTEX
  5
4A7
100
AcDbEntity
  8
一般
370
               0
390
0
  6
Continuous
 62
               1
100
AcDbVertex
100
AcDb3dPolylineVertex
 10
304.61212700142823
 20
-278.14641562588088
 30
0.0
 70
              32
  0
VERTEX
  5
4A8
100
AcDbEntity
  8
一般
370
               0
390
0
  6
Continuous
 62
               1
100
AcDbVertex
100
AcDb3dPolylineVertex
 10
304.61212700142823
 20
-278.18541562588086
 30
0.0
 70
              32
  0
VERTEX
  5
4A9
100
AcDbEntity
  8
一般
370
               0
390
0
  6
Continuous
 62
               1
100
AcDbVertex
100
AcDb3dPolylineVertex
 10
304.61212700142823
 20
-278.22441562588097
 30
0.0
 70
              32
  0
VERTEX
  5
4AA
100
AcDbEntity
  8
一般
370
               0
390
0
  6
Continuous
 62
               1
100
AcDbVertex
100
AcDb3dPolylineVertex
 10
304.61212700142823
 20
-278.26441562588093
 30
0.0
 70
              32
  0
VERTEX
  5
4AB
100
AcDbEntity
  8
一般
370
               0
390
0
  6
Continuous
 62
               1
100
AcDbVertex
100
AcDb3dPolylineVertex
 10
304.61212700142823
 20
-278.30341562588092
 30
0.0
 70
              32
  0
VERTEX
  5
4AC
100
AcDbEntity
  8
一般
370
               0
390
0
  6
Continuous
 62
               1
100
AcDbVertex
100
AcDb3dPolylineVertex
 10
304.61212700142823
 20
-278.34341562588088
 30
0.0
 70
              32
  0
VERTEX
  5
4AD
100
AcDbEntity
  8
一般
370
               0
390
0
  6
Continuous
 62
               1
100
AcDbVertex
100
AcDb3dPolylineVertex
 10
304.61212700142823
 20
-278.38241562588087
 30
0.0
 70
              32
  0
VERTEX
  5
4AE
100
AcDbEntity
  8
一般
370
               0
390
0
  6
Continuous
 62
               1
100
AcDbVertex
100
AcDb3dPolylineVertex
 10
304.61212700142823
 20
-278.42141562588085
 30
0.0
 70
              32
  0
VERTEX
  5
4AF
100
AcDbEntity
  8
一般
370
               0
390
0
  6
Continuous
 62
               1
100
AcDbVertex
100
AcDb3dPolylineVertex
 10
304.61212700142823
 20
-278.46141562588093
 30
0.0
 70
              32
  0
VERTEX
  5
4B0
100
AcDbEntity
  8
一般
370
               0
390
0
  6
Continuous
 62
               1
100
AcDbVertex
100
AcDb3dPolylineVertex
 10
304.61212700142823
 20
-278.50041562588092
 30
0.0
 70
              32
  0
VERTEX
  5
4B1
100
AcDbEntity
  8
一般
370
               0
390
0
  6
Continuous
 62
               1
100
AcDbVertex
100
AcDb3dPolylineVertex
 10
304.61212700142823
 20
-278.53941562588091
 30
0.0
 70
              32
  0
VERTEX
  5
4B2
100
AcDbEntity
  8
一般
370
               0
390
0
  6
Continuous
 62
               1
100
AcDbVertex
100
AcDb3dPolylineVertex
 10
304.61212700142823
 20
-278.57841562588089
 30
0.0
 70
              32
  0
VERTEX
  5
4B3
100
AcDbEntity
  8
一般
370
               0
390
0
  6
Continuous
 62
               1
100
AcDbVertex
100
AcDb3dPolylineVertex
 10
304.61212700142823
 20
-278.61741562588088
 30
0.0
 70
              32
  0
VERTEX
  5
4B4
100
AcDbEntity
  8
一般
370
               0
390
0
  6
Continuous
 62
               1
100
AcDbVertex
100
AcDb3dPolylineVertex
 10
304.61212700142823
 20
-278.65641562588087
 30
0.0
 70
              32
  0
VERTEX
  5
4B5
100
AcDbEntity
  8
一般
370
               0
390
0
  6
Continuous
 62
               1
100
AcDbVertex
100
AcDb3dPolylineVertex
 10
304.61212700142823
 20
-278.69641562588095
 30
0.0
 70
              32
  0
VERTEX
  5
4B6
100
AcDbEntity
  8
一般
370
               0
390
0
  6
Continuous
 62
               1
100
AcDbVertex
100
AcDb3dPolylineVertex
 10
304.61212700142823
 20
-278.73541562588093
 30
0.0
 70
              32
  0
VERTEX
  5
4B7
100
AcDbEntity
  8
一般
370
               0
390
0
  6
Continuous
 62
               1
100
AcDbVertex
100
AcDb3dPolylineVertex
 10
304.61212700142823
 20
-278.77441562588092
 30
0.0
 70
              32
  0
VERTEX
  5
4B8
100
AcDbEntity
  8
一般
370
               0
390
0
  6
Continuous
 62
               1
100
AcDbVertex
100
AcDb3dPolylineVertex
 10
304.61212700142823
 20
-278.81341562588091
 30
0.0
 70
              32
  0
VERTEX
  5
4B9
100
AcDbEntity
  8
一般
370
               0
390
0
  6
Continuous
 62
               1
100
AcDbVertex
100
AcDb3dPolylineVertex
 10
304.61212700142823
 20
-278.85241562588089
 30
0.0
 70
              32
  0
VERTEX
  5
4BA
100
AcDbEntity
  8
一般
370
               0
390
0
  6
Continuous
 62
               1
100
AcDbVertex
100
AcDb3dPolylineVertex
 10
304.61212700142823
 20
-278.89041562588091
 30
0.0
 70
              32
  0
VERTEX
  5
4BB
100
AcDbEntity
  8
一般
370
               0
390
0
  6
Continuous
 62
               1
100
AcDbVertex
100
AcDb3dPolylineVertex
 10
304.61212700142823
 20
-278.92941562588089
 30
0.0
 70
              32
  0
VERTEX
  5
4BC
100
AcDbEntity
  8
一般
370
               0
390
0
  6
Continuous
 62
               1
100
AcDbVertex
100
AcDb3dPolylineVertex
 10
304.61212700142823
 20
-278.96841562588088
 30
0.0
 70
              32
  0
VERTEX
  5
4BD
100
AcDbEntity
  8
一般
370
               0
390
0
  6
Continuous
 62
               1
100
AcDbVertex
100
AcDb3dPolylineVertex
 10
304.61212700142823
 20
-279.00741562588087
 30
0.0
 70
              32
  0
VERTEX
  5
4BE
100
AcDbEntity
  8
一般
370
               0
390
0
  6
Continuous
 62
               1
100
AcDbVertex
100
AcDb3dPolylineVertex
 10
304.61212700142823
 20
-279.04541562588088
 30
0.0
 70
              32
  0
VERTEX
  5
4BF
100
AcDbEntity
  8
一般
370
               0
390
0
  6
Continuous
 62
               1
100
AcDbVertex
100
AcDb3dPolylineVertex
 10
304.61212700142823
 20
-279.08441562588087
 30
0.0
 70
              32
  0
VERTEX
  5
4C0
100
AcDbEntity
  8
一般
370
               0
390
0
  6
Continuous
 62
               1
100
AcDbVertex
100
AcDb3dPolylineVertex
 10
304.61212700142823
 20
-279.12341562588097
 30
0.0
 70
              32
  0
VERTEX
  5
4C1
100
AcDbEntity
  8
一般
370
               0
390
0
  6
Continuous
 62
               1
100
AcDbVertex
100
AcDb3dPolylineVertex
 10
304.61212700142823
 20
-279.16141562588086
 30
0.0
 70
              32
  0
VERTEX
  5
4C2
100
AcDbEntity
  8
一般
370
               0
390
0
  6
Continuous
 62
               1
100
AcDbVertex
100
AcDb3dPolylineVertex
 10
304.61212700142823
 20
-279.20041562588096
 30
0.0
 70
              32
  0
VERTEX
  5
4C3
100
AcDbEntity
  8
一般
370
               0
390
0
  6
Continuous
 62
               1
100
AcDbVertex
100
AcDb3dPolylineVertex
 10
304.61212700142823
 20
-279.23841562588086
 30
0.0
 70
              32
  0
VERTEX
  5
4C4
100
AcDbEntity
  8
一般
370
               0
390
0
  6
Continuous
 62
               1
100
AcDbVertex
100
AcDb3dPolylineVertex
 10
304.61212700142823
 20
-279.27641562588087
 30
0.0
 70
              32
  0
VERTEX
  5
4C5
100
AcDbEntity
  8
一般
370
               0
390
0
  6
Continuous
 62
               1
100
AcDbVertex
100
AcDb3dPolylineVertex
 10
304.61212700142823
 20
-279.31541562588086
 30
0.0
 70
              32
  0
VERTEX
  5
4C6
100
AcDbEntity
  8
一般
370
               0
390
0
  6
Continuous
 62
               1
100
AcDbVertex
100
AcDb3dPolylineVertex
 10
304.61212700142823
 20
-279.35341562588087
 30
0.0
 70
              32
  0
VERTEX
  5
4C7
100
AcDbEntity
  8
一般
370
               0
390
0
  6
Continuous
 62
               1
100
AcDbVertex
100
AcDb3dPolylineVertex
 10
304.61212700142823
 20
-279.39141562588088
 30
0.0
 70
              32
  0
VERTEX
  5
4C8
100
AcDbEntity
  8
一般
370
               0
390
0
  6
Continuous
 62
               1
100
AcDbVertex
100
AcDb3dPolylineVertex
 10
304.61212700142823
 20
-279.42941562588089
 30
0.0
 70
              32
  0
VERTEX
  5
4C9
100
AcDbEntity
  8
一般
370
               0
390
0
  6
Continuous
 62
               1
100
AcDbVertex
100
AcDb3dPolylineVertex
 10
304.61212700142823
 20
-279.4674156258809
 30
0.0
 70
              32
  0
VERTEX
  5
4CA
100
AcDbEntity
  8
一般
370
               0
390
0
  6
Continuous
 62
               1
100
AcDbVertex
100
AcDb3dPolylineVertex
 10
304.61212700142823
 20
-279.50541562588091
 30
0.0
 70
              32
  0
VERTEX
  5
4CB
100
AcDbEntity
  8
一般
370
               0
390
0
  6
Continuous
 62
               1
100
AcDbVertex
100
AcDb3dPolylineVertex
 10
304.61212700142823
 20
-279.54341562588093
 30
0.0
 70
              32
  0
VERTEX
  5
4CC
100
AcDbEntity
  8
一般
370
               0
390
0
  6
Continuous
 62
               1
100
AcDbVertex
100
AcDb3dPolylineVertex
 10
304.61212700142823
 20
-279.58141562588094
 30
0.0
 70
              32
  0
VERTEX
  5
4CD
100
AcDbEntity
  8
一般
370
               0
390
0
  6
Continuous
 62
               1
100
AcDbVertex
100
AcDb3dPolylineVertex
 10
304.61212700142823
 20
-279.61841562588086
 30
0.0
 70
              32
  0
VERTEX
  5
4CE
100
AcDbEntity
  8
一般
370
               0
390
0
  6
Continuous
 62
               1
100
AcDbVertex
100
AcDb3dPolylineVertex
 10
304.61212700142823
 20
-279.65641562588087
 30
0.0
 70
              32
  0
VERTEX
  5
4CF
100
AcDbEntity
  8
一般
370
               0
390
0
  6
Continuous
 62
               1
100
AcDbVertex
100
AcDb3dPolylineVertex
 10
304.61212700142823
 20
-279.6934156258809
 30
0.0
 70
              32
  0
VERTEX
  5
4D0
100
AcDbEntity
  8
一般
370
               0
390
0
  6
Continuous
 62
               1
100
AcDbVertex
100
AcDb3dPolylineVertex
 10
304.61212700142823
 20
-279.73141562588091
 30
0.0
 70
              32
  0
VERTEX
  5
4D1
100
AcDbEntity
  8
一般
370
               0
390
0
  6
Continuous
 62
               1
100
AcDbVertex
100
AcDb3dPolylineVertex
 10
304.61212700142823
 20
-279.76841562588095
 30
0.0
 70
              32
  0
VERTEX
  5
4D2
100
AcDbEntity
  8
一般
370
               0
390
0
  6
Continuous
 62
               1
100
AcDbVertex
100
AcDb3dPolylineVertex
 10
304.61212700142823
 20
-279.80541562588087
 30
0.0
 70
              32
  0
VERTEX
  5
4D3
100
AcDbEntity
  8
一般
370
               0
390
0
  6
Continuous
 62
               1
100
AcDbVertex
100
AcDb3dPolylineVertex
 10
304.61212700142823
 20
-279.84341562588088
 30
0.0
 70
              32
  0
VERTEX
  5
4D4
100
AcDbEntity
  8
一般
370
               0
390
0
  6
Continuous
 62
               1
100
AcDbVertex
100
AcDb3dPolylineVertex
 10
304.61212700142823
 20
-279.88041562588091
 30
0.0
 70
              32
  0
VERTEX
  5
4D5
100
AcDbEntity
  8
一般
370
               0
390
0
  6
Continuous
 62
               1
100
AcDbVertex
100
AcDb3dPolylineVertex
 10
304.61212700142823
 20
-279.91741562588095
 30
0.0
 70
              32
  0
VERTEX
  5
4D6
100
AcDbEntity
  8
一般
370
               0
390
0
  6
Continuous
 62
               1
100
AcDbVertex
100
AcDb3dPolylineVertex
 10
304.61212700142823
 20
-279.95441562588087
 30
0.0
 70
              32
  0
VERTEX
  5
4D7
100
AcDbEntity
  8
一般
370
               0
390
0
  6
Continuous
 62
               1
100
AcDbVertex
100
AcDb3dPolylineVertex
 10
304.61212700142823
 20
-279.99041562588093
 30
0.0
 70
              32
  0
VERTEX
  5
4D8
100
AcDbEntity
  8
一般
370
               0
390
0
  6
Continuous
 62
               1
100
AcDbVertex
100
AcDb3dPolylineVertex
 10
304.61212700142823
 20
-280.02741562588096
 30
0.0
 70
              32
  0
VERTEX
  5
4D9
100
AcDbEntity
  8
一般
370
               0
390
0
  6
Continuous
 62
               1
100
AcDbVertex
100
AcDb3dPolylineVertex
 10
304.61212700142823
 20
-280.06441562588088
 30
0.0
 70
              32
  0
VERTEX
  5
4DA
100
AcDbEntity
  8
一般
370
               0
390
0
  6
Continuous
 62
               1
100
AcDbVertex
100
AcDb3dPolylineVertex
 10
304.61212700142823
 20
-280.10041562588094
 30
0.0
 70
              32
  0
VERTEX
  5
4DB
100
AcDbEntity
  8
一般
370
               0
390
0
  6
Continuous
 62
               1
100
AcDbVertex
100
AcDb3dPolylineVertex
 10
304.61212700142823
 20
-280.13741562588086
 30
0.0
 70
              32
  0
VERTEX
  5
4DC
100
AcDbEntity
  8
一般
370
               0
390
0
  6
Continuous
 62
               1
100
AcDbVertex
100
AcDb3dPolylineVertex
 10
304.61212700142823
 20
-280.17341562588092
 30
0.0
 70
              32
  0
VERTEX
  5
4DD
100
AcDbEntity
  8
一般
370
               0
390
0
  6
Continuous
 62
               1
100
AcDbVertex
100
AcDb3dPolylineVertex
 10
304.61212700142823
 20
-280.20941562588087
 30
0.0
 70
              32
  0
VERTEX
  5
4DE
100
AcDbEntity
  8
一般
370
               0
390
0
  6
Continuous
 62
               1
100
AcDbVertex
100
AcDb3dPolylineVertex
 10
304.61212700142823
 20
-280.24541562588092
 30
0.0
 70
              32
  0
VERTEX
  5
4DF
100
AcDbEntity
  8
一般
370
               0
390
0
  6
Continuous
 62
               1
100
AcDbVertex
100
AcDb3dPolylineVertex
 10
304.61212700142823
 20
-280.28141562588087
 30
0.0
 70
              32
  0
VERTEX
  5
4E0
100
AcDbEntity
  8
一般
370
               0
390
0
  6
Continuous
 62
               1
100
AcDbVertex
100
AcDb3dPolylineVertex
 10
304.61212700142823
 20
-280.31741562588093
 30
0.0
 70
              32
  0
VERTEX
  5
4E1
100
AcDbEntity
  8
一般
370
               0
390
0
  6
Continuous
 62
               1
100
AcDbVertex
100
AcDb3dPolylineVertex
 10
304.61212700142823
 20
-280.35341562588087
 30
0.0
 70
              32
  0
VERTEX
  5
4E2
100
AcDbEntity
  8
一般
370
               0
390
0
  6
Continuous
 62
               1
100
AcDbVertex
100
AcDb3dPolylineVertex
 10
304.61212700142823
 20
-280.38841562588095
 30
0.0
 70
              32
  0
VERTEX
  5
4E3
100
AcDbEntity
  8
一般
370
               0
390
0
  6
Continuous
 62
               1
100
AcDbVertex
100
AcDb3dPolylineVertex
 10
304.61212700142823
 20
-280.4244156258809
 30
0.0
 70
              32
  0
VERTEX
  5
4E4
100
AcDbEntity
  8
一般
370
               0
390
0
  6
Continuous
 62
               1
100
AcDbVertex
100
AcDb3dPolylineVertex
 10
304.61212700142823
 20
-280.45941562588087
 30
0.0
 70
              32
  0
VERTEX
  5
4E5
100
AcDbEntity
  8
一般
370
               0
390
0
  6
Continuous
 62
               1
100
AcDbVertex
100
AcDb3dPolylineVertex
 10
304.61212700142823
 20
-280.49541562588092
 30
0.0
 70
              32
  0
VERTEX
  5
4E6
100
AcDbEntity
  8
一般
370
               0
390
0
  6
Continuous
 62
               1
100
AcDbVertex
100
AcDb3dPolylineVertex
 10
304.61212700142823
 20
-280.53041562588089
 30
0.0
 70
              32
  0
VERTEX
  5
4E7
100
AcDbEntity
  8
一般
370
               0
390
0
  6
Continuous
 62
               1
100
AcDbVertex
100
AcDb3dPolylineVertex
 10
304.61212700142823
 20
-280.56541562588086
 30
0.0
 70
              32
  0
VERTEX
  5
4E8
100
AcDbEntity
  8
一般
370
               0
390
0
  6
Continuous
 62
               1
100
AcDbVertex
100
AcDb3dPolylineVertex
 10
304.61212700142823
 20
-280.60041562588094
 30
0.0
 70
              32
  0
VERTEX
  5
4E9
100
AcDbEntity
  8
一般
370
               0
390
0
  6
Continuous
 62
               1
100
AcDbVertex
100
AcDb3dPolylineVertex
 10
304.61212700142823
 20
-280.63541562588091
 30
0.0
 70
              32
  0
VERTEX
  5
4EA
100
AcDbEntity
  8
一般
370
               0
390
0
  6
Continuous
 62
               1
100
AcDbVertex
100
AcDb3dPolylineVertex
 10
304.61212700142823
 20
-280.6694156258809
 30
0.0
 70
              32
  0
VERTEX
  5
4EB
100
AcDbEntity
  8
一般
370
               0
390
0
  6
Continuous
 62
               1
100
AcDbVertex
100
AcDb3dPolylineVertex
 10
304.61212700142823
 20
-280.70441562588087
 30
0.0
 70
              32
  0
VERTEX
  5
4EC
100
AcDbEntity
  8
一般
370
               0
390
0
  6
Continuous
 62
               1
100
AcDbVertex
100
AcDb3dPolylineVertex
 10
304.61212700142823
 20
-280.73841562588086
 30
0.0
 70
              32
  0
VERTEX
  5
4ED
100
AcDbEntity
  8
一般
370
               0
390
0
  6
Continuous
 62
               1
100
AcDbVertex
100
AcDb3dPolylineVertex
 10
304.61212700142823
 20
-280.77341562588094
 30
0.0
 70
              32
  0
VERTEX
  5
4EE
100
AcDbEntity
  8
一般
370
               0
390
0
  6
Continuous
 62
               1
100
AcDbVertex
100
AcDb3dPolylineVertex
 10
304.61212700142823
 20
-280.80741562588094
 30
0.0
 70
              32
  0
VERTEX
  5
4EF
100
AcDbEntity
  8
一般
370
               0
390
0
  6
Continuous
 62
               1
100
AcDbVertex
100
AcDb3dPolylineVertex
 10
304.61212700142823
 20
-280.84141562588093
 30
0.0
 70
              32
  0
VERTEX
  5
4F0
100
AcDbEntity
  8
一般
370
               0
390
0
  6
Continuous
 62
               1
100
AcDbVertex
100
AcDb3dPolylineVertex
 10
304.61212700142823
 20
-280.87541562588092
 30
0.0
 70
              32
  0
VERTEX
  5
4F1
100
AcDbEntity
  8
一般
370
               0
390
0
  6
Continuous
 62
               1
100
AcDbVertex
100
AcDb3dPolylineVertex
 10
304.61212700142823
 20
-280.90941562588091
 30
0.0
 70
              32
  0
VERTEX
  5
4F2
100
AcDbEntity
  8
一般
370
               0
390
0
  6
Continuous
 62
               1
100
AcDbVertex
100
AcDb3dPolylineVertex
 10
304.61212700142823
 20
-280.9434156258809
 30
0.0
 70
              32
  0
VERTEX
  5
4F3
100
AcDbEntity
  8
一般
370
               0
390
0
  6
Continuous
 62
               1
100
AcDbVertex
100
AcDb3dPolylineVertex
 10
304.61212700142823
 20
-280.97641562588092
 30
0.0
 70
              32
  0
VERTEX
  5
4F4
100
AcDbEntity
  8
一般
370
               0
390
0
  6
Continuous
 62
               1
100
AcDbVertex
100
AcDb3dPolylineVertex
 10
304.61212700142823
 20
-281.01041562588091
 30
0.0
 70
              32
  0
VERTEX
  5
4F5
100
AcDbEntity
  8
一般
370
               0
390
0
  6
Continuous
 62
               1
100
AcDbVertex
100
AcDb3dPolylineVertex
 10
304.61212700142823
 20
-281.04341562588093
 30
0.0
 70
              32
  0
VERTEX
  5
4F6
100
AcDbEntity
  8
一般
370
               0
390
0
  6
Continuous
 62
               1
100
AcDbVertex
100
AcDb3dPolylineVertex
 10
304.61212700142823
 20
-281.07641562588094
 30
0.0
 70
              32
  0
VERTEX
  5
4F7
100
AcDbEntity
  8
一般
370
               0
390
0
  6
Continuous
 62
               1
100
AcDbVertex
100
AcDb3dPolylineVertex
 10
304.61212700142823
 20
-281.10941562588096
 30
0.0
 70
              32
  0
VERTEX
  5
4F8
100
AcDbEntity
  8
一般
370
               0
390
0
  6
Continuous
 62
               1
100
AcDbVertex
100
AcDb3dPolylineVertex
 10
304.61212700142823
 20
-281.14241562588086
 30
0.0
 70
              32
  0
VERTEX
  5
4F9
100
AcDbEntity
  8
一般
370
               0
390
0
  6
Continuous
 62
               1
100
AcDbVertex
100
AcDb3dPolylineVertex
 10
304.61212700142823
 20
-281.17541562588087
 30
0.0
 70
              32
  0
VERTEX
  5
4FA
100
AcDbEntity
  8
一般
370
               0
390
0
  6
Continuous
 62
               1
100
AcDbVertex
100
AcDb3dPolylineVertex
 10
304.61212700142823
 20
-281.20741562588091
 30
0.0
 70
              32
  0
VERTEX
  5
4FB
100
AcDbEntity
  8
一般
370
               0
390
0
  6
Continuous
 62
               1
100
AcDbVertex
100
AcDb3dPolylineVertex
 10
304.61212700142823
 20
-281.24041562588093
 30
0.0
 70
              32
  0
VERTEX
  5
4FC
100
AcDbEntity
  8
一般
370
               0
390
0
  6
Continuous
 62
               1
100
AcDbVertex
100
AcDb3dPolylineVertex
 10
304.61212700142823
 20
-281.27241562588085
 30
0.0
 70
              32
  0
VERTEX
  5
4FD
100
AcDbEntity
  8
一般
370
               0
390
0
  6
Continuous
 62
               1
100
AcDbVertex
100
AcDb3dPolylineVertex
 10
304.61212700142823
 20
-281.30441562588089
 30
0.0
 70
              32
  0
VERTEX
  5
4FE
100
AcDbEntity
  8
一般
370
               0
390
0
  6
Continuous
 62
               1
100
AcDbVertex
100
AcDb3dPolylineVertex
 10
304.61212700142823
 20
-281.33641562588093
 30
0.0
 70
              32
  0
VERTEX
  5
4FF
100
AcDbEntity
  8
一般
370
               0
390
0
  6
Continuous
 62
               1
100
AcDbVertex
100
AcDb3dPolylineVertex
 10
304.61212700142823
 20
-281.36841562588086
 30
0.0
 70
              32
  0
VERTEX
  5
500
100
AcDbEntity
  8
一般
370
               0
390
0
  6
Continuous
 62
               1
100
AcDbVertex
100
AcDb3dPolylineVertex
 10
304.61212700142823
 20
-281.4004156258809
 30
0.0
 70
              32
  0
VERTEX
  5
501
100
AcDbEntity
  8
一般
370
               0
390
0
  6
Continuous
 62
               1
100
AcDbVertex
100
AcDb3dPolylineVertex
 10
304.61212700142823
 20
-281.43241562588094
 30
0.0
 70
              32
  0
VERTEX
  5
502
100
AcDbEntity
  8
一般
370
               0
390
0
  6
Continuous
 62
               1
100
AcDbVertex
100
AcDb3dPolylineVertex
 10
304.61212700142823
 20
-281.46341562588088
 30
0.0
 70
              32
  0
VERTEX
  5
503
100
AcDbEntity
  8
一般
370
               0
390
0
  6
Continuous
 62
               1
100
AcDbVertex
100
AcDb3dPolylineVertex
 10
304.61212700142823
 20
-281.49441562588095
 30
0.0
 70
              32
  0
VERTEX
  5
504
100
AcDbEntity
  8
一般
370
               0
390
0
  6
Continuous
 62
               1
100
AcDbVertex
100
AcDb3dPolylineVertex
 10
304.61212700142823
 20
-281.52641562588087
 30
0.0
 70
              32
  0
VERTEX
  5
505
100
AcDbEntity
  8
一般
370
               0
390
0
  6
Continuous
 62
               1
100
AcDbVertex
100
AcDb3dPolylineVertex
 10
304.61212700142823
 20
-281.55741562588094
 30
0.0
 70
              32
  0
VERTEX
  5
506
100
AcDbEntity
  8
一般
370
               0
390
0
  6
Continuous
 62
               1
100
AcDbVertex
100
AcDb3dPolylineVertex
 10
304.61212700142823
 20
-281.58741562588091
 30
0.0
 70
              32
  0
VERTEX
  5
507
100
AcDbEntity
  8
一般
370
               0
390
0
  6
Continuous
 62
               1
100
AcDbVertex
100
AcDb3dPolylineVertex
 10
304.61212700142823
 20
-281.61841562588086
 30
0.0
 70
              32
  0
VERTEX
  5
508
100
AcDbEntity
  8
一般
370
               0
390
0
  6
Continuous
 62
               1
100
AcDbVertex
100
AcDb3dPolylineVertex
 10
304.61212700142823
 20
-281.64941562588092
 30
0.0
 70
              32
  0
VERTEX
  5
509
100
AcDbEntity
  8
一般
370
               0
390
0
  6
Continuous
 62
               1
100
AcDbVertex
100
AcDb3dPolylineVertex
 10
304.61212700142823
 20
-281.67941562588089
 30
0.0
 70
              32
  0
VERTEX
  5
50A
100
AcDbEntity
  8
一般
370
               0
390
0
  6
Continuous
 62
               1
100
AcDbVertex
100
AcDb3dPolylineVertex
 10
304.61212700142823
 20
-281.70941562588087
 30
0.0
 70
              32
  0
VERTEX
  5
50B
100
AcDbEntity
  8
一般
370
               0
390
0
  6
Continuous
 62
               1
100
AcDbVertex
100
AcDb3dPolylineVertex
 10
304.61212700142823
 20
-281.73941562588095
 30
0.0
 70
              32
  0
VERTEX
  5
50C
100
AcDbEntity
  8
一般
370
               0
390
0
  6
Continuous
 62
               1
100
AcDbVertex
100
AcDb3dPolylineVertex
 10
304.61212700142823
 20
-281.76941562588092
 30
0.0
 70
              32
  0
VERTEX
  5
50D
100
AcDbEntity
  8
一般
370
               0
390
0
  6
Continuous
 62
               1
100
AcDbVertex
100
AcDb3dPolylineVertex
 10
304.61212700142823
 20
-281.7994156258809
 30
0.0
 70
              32
  0
VERTEX
  5
50E
100
AcDbEntity
  8
一般
370
               0
390
0
  6
Continuous
 62
               1
100
AcDbVertex
100
AcDb3dPolylineVertex
 10
304.61212700142823
 20
-281.82841562588089
 30
0.0
 70
              32
  0
VERTEX
  5
50F
100
AcDbEntity
  8
一般
370
               0
390
0
  6
Continuous
 62
               1
100
AcDbVertex
100
AcDb3dPolylineVertex
 10
304.61212700142823
 20
-281.85741562588089
 30
0.0
 70
              32
  0
VERTEX
  5
510
100
AcDbEntity
  8
一般
370
               0
390
0
  6
Continuous
 62
               1
100
AcDbVertex
100
AcDb3dPolylineVertex
 10
304.61212700142823
 20
-281.88641562588089
 30
0.0
 70
              32
  0
VERTEX
  5
511
100
AcDbEntity
  8
一般
370
               0
390
0
  6
Continuous
 62
               1
100
AcDbVertex
100
AcDb3dPolylineVertex
 10
304.61212700142823
 20
-281.91541562588088
 30
0.0
 70
              32
  0
VERTEX
  5
512
100
AcDbEntity
  8
一般
370
               0
390
0
  6
Continuous
 62
               1
100
AcDbVertex
100
AcDb3dPolylineVertex
 10
304.61212700142823
 20
-281.94441562588088
 30
0.0
 70
              32
  0
VERTEX
  5
513
100
AcDbEntity
  8
一般
370
               0
390
0
  6
Continuous
 62
               1
100
AcDbVertex
100
AcDb3dPolylineVertex
 10
304.61212700142823
 20
-281.97341562588088
 30
0.0
 70
              32
  0
VERTEX
  5
514
100
AcDbEntity
  8
一般
370
               0
390
0
  6
Continuous
 62
               1
100
AcDbVertex
100
AcDb3dPolylineVertex
 10
304.61212700142823
 20
-282.0014156258809
 30
0.0
 70
              32
  0
VERTEX
  5
515
100
AcDbEntity
  8
一般
370
               0
390
0
  6
Continuous
 62
               1
100
AcDbVertex
100
AcDb3dPolylineVertex
 10
304.61212700142823
 20
-282.02941562588092
 30
0.0
 70
              32
  0
VERTEX
  5
516
100
AcDbEntity
  8
一般
370
               0
390
0
  6
Continuous
 62
               1
100
AcDbVertex
100
AcDb3dPolylineVertex
 10
304.61212700142823
 20
-282.05841562588091
 30
0.0
 70
              32
  0
VERTEX
  5
517
100
AcDbEntity
  8
一般
370
               0
390
0
  6
Continuous
 62
               1
100
AcDbVertex
100
AcDb3dPolylineVertex
 10
304.61212700142823
 20
-282.08541562588096
 30
0.0
 70
              32
  0
VERTEX
  5
518
100
AcDbEntity
  8
一般
370
               0
390
0
  6
Continuous
 62
               1
100
AcDbVertex
100
AcDb3dPolylineVertex
 10
304.61212700142823
 20
-282.11341562588086
 30
0.0
 70
              32
  0
VERTEX
  5
519
100
AcDbEntity
  8
一般
370
               0
390
0
  6
Continuous
 62
               1
100
AcDbVertex
100
AcDb3dPolylineVertex
 10
304.61212700142823
 20
-282.14141562588088
 30
0.0
 70
              32
  0
VERTEX
  5
51A
100
AcDbEntity
  8
一般
370
               0
390
0
  6
Continuous
 62
               1
100
AcDbVertex
100
AcDb3dPolylineVertex
 10
304.61212700142823
 20
-282.16841562588093
 30
0.0
 70
              32
  0
VERTEX
  5
51B
100
AcDbEntity
  8
一般
370
               0
390
0
  6
Continuous
 62
               1
100
AcDbVertex
100
AcDb3dPolylineVertex
 10
304.61212700142823
 20
-282.19541562588086
 30
0.0
 70
              32
  0
VERTEX
  5
51C
100
AcDbEntity
  8
一般
370
               0
390
0
  6
Continuous
 62
               1
100
AcDbVertex
100
AcDb3dPolylineVertex
 10
304.61212700142823
 20
-282.2224156258809
 30
0.0
 70
              32
  0
VERTEX
  5
51D
100
AcDbEntity
  8
一般
370
               0
390
0
  6
Continuous
 62
               1
100
AcDbVertex
100
AcDb3dPolylineVertex
 10
304.61212700142823
 20
-282.24941562588094
 30
0.0
 70
              32
  0
VERTEX
  5
51E
100
AcDbEntity
  8
一般
370
               0
390
0
  6
Continuous
 62
               1
100
AcDbVertex
100
AcDb3dPolylineVertex
 10
304.61212700142823
 20
-282.2754156258809
 30
0.0
 70
              32
  0
VERTEX
  5
51F
100
AcDbEntity
  8
一般
370
               0
390
0
  6
Continuous
 62
               1
100
AcDbVertex
100
AcDb3dPolylineVertex
 10
304.61212700142823
 20
-282.30141562588096
 30
0.0
 70
              32
  0
VERTEX
  5
520
100
AcDbEntity
  8
一般
370
               0
390
0
  6
Continuous
 62
               1
100
AcDbVertex
100
AcDb3dPolylineVertex
 10
304.61212700142823
 20
-282.32841562588089
 30
0.0
 70
              32
  0
VERTEX
  5
521
100
AcDbEntity
  8
一般
370
               0
390
0
  6
Continuous
 62
               1
100
AcDbVertex
100
AcDb3dPolylineVertex
 10
304.61212700142823
 20
-282.35441562588096
 30
0.0
 70
              32
  0
VERTEX
  5
522
100
AcDbEntity
  8
一般
370
               0
390
0
  6
Continuous
 62
               1
100
AcDbVertex
100
AcDb3dPolylineVertex
 10
304.61212700142823
 20
-282.37941562588094
 30
0.0
 70
              32
  0
VERTEX
  5
523
100
AcDbEntity
  8
一般
370
               0
390
0
  6
Continuous
 62
               1
100
AcDbVertex
100
AcDb3dPolylineVertex
 10
304.61212700142823
 20
-282.40541562588089
 30
0.0
 70
              32
  0
VERTEX
  5
524
100
AcDbEntity
  8
一般
370
               0
390
0
  6
Continuous
 62
               1
100
AcDbVertex
100
AcDb3dPolylineVertex
 10
304.61212700142823
 20
-282.43041562588087
 30
0.0
 70
              32
  0
VERTEX
  5
525
100
AcDbEntity
  8
一般
370
               0
390
0
  6
Continuous
 62
               1
100
AcDbVertex
100
AcDb3dPolylineVertex
 10
304.61212700142823
 20
-282.45641562588094
 30
0.0
 70
              32
  0
VERTEX
  5
526
100
AcDbEntity
  8
一般
370
               0
390
0
  6
Continuous
 62
               1
100
AcDbVertex
100
AcDb3dPolylineVertex
 10
304.61212700142823
 20
-282.48141562588091
 30
0.0
 70
              32
  0
VERTEX
  5
527
100
AcDbEntity
  8
一般
370
               0
390
0
  6
Continuous
 62
               1
100
AcDbVertex
100
AcDb3dPolylineVertex
 10
304.61212700142823
 20
-282.50541562588091
 30
0.0
 70
              32
  0
VERTEX
  5
528
100
AcDbEntity
  8
一般
370
               0
390
0
  6
Continuous
 62
               1
100
AcDbVertex
100
AcDb3dPolylineVertex
 10
304.61212700142823
 20
-282.53041562588089
 30
0.0
 70
              32
  0
VERTEX
  5
529
100
AcDbEntity
  8
一般
370
               0
390
0
  6
Continuous
 62
               1
100
AcDbVertex
100
AcDb3dPolylineVertex
 10
304.61212700142823
 20
-282.55441562588089
 30
0.0
 70
              32
  0
VERTEX
  5
52A
100
AcDbEntity
  8
一般
370
               0
390
0
  6
Continuous
 62
               1
100
AcDbVertex
100
AcDb3dPolylineVertex
 10
304.61212700142823
 20
-282.57941562588087
 30
0.0
 70
              32
  0
VERTEX
  5
52B
100
AcDbEntity
  8
一般
370
               0
390
0
  6
Continuous
 62
               1
100
AcDbVertex
100
AcDb3dPolylineVertex
 10
304.61212700142823
 20
-282.60341562588087
 30
0.0
 70
              32
  0
VERTEX
  5
52C
100
AcDbEntity
  8
一般
370
               0
390
0
  6
Continuous
 62
               1
100
AcDbVertex
100
AcDb3dPolylineVertex
 10
304.61212700142823
 20
-282.62741562588087
 30
0.0
 70
              32
  0
VERTEX
  5
52D
100
AcDbEntity
  8
一般
370
               0
390
0
  6
Continuous
 62
               1
100
AcDbVertex
100
AcDb3dPolylineVertex
 10
304.61212700142823
 20
-282.6504156258809
 30
0.0
 70
              32
  0
VERTEX
  5
52E
100
AcDbEntity
  8
一般
370
               0
390
0
  6
Continuous
 62
               1
100
AcDbVertex
100
AcDb3dPolylineVertex
 10
304.61212700142823
 20
-282.6744156258809
 30
0.0
 70
              32
  0
VERTEX
  5
52F
100
AcDbEntity
  8
一般
370
               0
390
0
  6
Continuous
 62
               1
100
AcDbVertex
100
AcDb3dPolylineVertex
 10
304.61212700142823
 20
-282.69741562588092
 30
0.0
 70
              32
  0
VERTEX
  5
530
100
AcDbEntity
  8
一般
370
               0
390
0
  6
Continuous
 62
               1
100
AcDbVertex
100
AcDb3dPolylineVertex
 10
304.61212700142823
 20
-282.72041562588095
 30
0.0
 70
              32
  0
VERTEX
  5
531
100
AcDbEntity
  8
一般
370
               0
390
0
  6
Continuous
 62
               1
100
AcDbVertex
100
AcDb3dPolylineVertex
 10
304.61212700142823
 20
-282.74341562588086
 30
0.0
 70
              32
  0
VERTEX
  5
532
100
AcDbEntity
  8
一般
370
               0
390
0
  6
Continuous
 62
               1
100
AcDbVertex
100
AcDb3dPolylineVertex
 10
304.61212700142823
 20
-282.76641562588088
 30
0.0
 70
              32
  0
VERTEX
  5
533
100
AcDbEntity
  8
一般
370
               0
390
0
  6
Continuous
 62
               1
100
AcDbVertex
100
AcDb3dPolylineVertex
 10
304.61212700142823
 20
-282.78841562588093
 30
0.0
 70
              32
  0
VERTEX
  5
534
100
AcDbEntity
  8
一般
370
               0
390
0
  6
Continuous
 62
               1
100
AcDbVertex
100
AcDb3dPolylineVertex
 10
304.61212700142823
 20
-282.81141562588095
 30
0.0
 70
              32
  0
VERTEX
  5
535
100
AcDbEntity
  8
一般
370
               0
390
0
  6
Continuous
 62
               1
100
AcDbVertex
100
AcDb3dPolylineVertex
 10
304.61212700142823
 20
-282.83341562588089
 30
0.0
 70
              32
  0
VERTEX
  5
536
100
AcDbEntity
  8
一般
370
               0
390
0
  6
Continuous
 62
               1
100
AcDbVertex
100
AcDb3dPolylineVertex
 10
304.61212700142823
 20
-282.85541562588094
 30
0.0
 70
              32
  0
VERTEX
  5
537
100
AcDbEntity
  8
一般
370
               0
390
0
  6
Continuous
 62
               1
100
AcDbVertex
100
AcDb3dPolylineVertex
 10
304.61212700142823
 20
-282.8764156258809
 30
0.0
 70
              32
  0
VERTEX
  5
538
100
AcDbEntity
  8
一般
370
               0
390
0
  6
Continuous
 62
               1
100
AcDbVertex
100
AcDb3dPolylineVertex
 10
304.61212700142823
 20
-282.89841562588094
 30
0.0
 70
              32
  0
VERTEX
  5
539
100
AcDbEntity
  8
一般
370
               0
390
0
  6
Continuous
 62
               1
100
AcDbVertex
100
AcDb3dPolylineVertex
 10
304.61212700142823
 20
-282.9194156258809
 30
0.0
 70
              32
  0
VERTEX
  5
53A
100
AcDbEntity
  8
一般
370
               0
390
0
  6
Continuous
 62
               1
100
AcDbVertex
100
AcDb3dPolylineVertex
 10
304.61212700142823
 20
-282.94141562588095
 30
0.0
 70
              32
  0
VERTEX
  5
53B
100
AcDbEntity
  8
一般
370
               0
390
0
  6
Continuous
 62
               1
100
AcDbVertex
100
AcDb3dPolylineVertex
 10
304.61212700142823
 20
-282.96241562588091
 30
0.0
 70
              32
  0
VERTEX
  5
53C
100
AcDbEntity
  8
一般
370
               0
390
0
  6
Continuous
 62
               1
100
AcDbVertex
100
AcDb3dPolylineVertex
 10
304.61212700142823
 20
-282.98241562588089
 30
0.0
 70
              32
  0
VERTEX
  5
53D
100
AcDbEntity
  8
一般
370
               0
390
0
  6
Continuous
 62
               1
100
AcDbVertex
100
AcDb3dPolylineVertex
 10
304.61212700142823
 20
-283.00341562588096
 30
0.0
 70
              32
  0
VERTEX
  5
53E
100
AcDbEntity
  8
一般
370
               0
390
0
  6
Continuous
 62
               1
100
AcDbVertex
100
AcDb3dPolylineVertex
 10
304.61212700142823
 20
-283.02341562588094
 30
0.0
 70
              32
  0
VERTEX
  5
53F
100
AcDbEntity
  8
一般
370
               0
390
0
  6
Continuous
 62
               1
100
AcDbVertex
100
AcDb3dPolylineVertex
 10
304.61212700142823
 20
-283.04341562588093
 30
0.0
 70
              32
  0
VERTEX
  5
540
100
AcDbEntity
  8
一般
370
               0
390
0
  6
Continuous
 62
               1
100
AcDbVertex
100
AcDb3dPolylineVertex
 10
304.61212700142823
 20
-283.06341562588091
 30
0.0
 70
              32
  0
VERTEX
  5
541
100
AcDbEntity
  8
一般
370
               0
390
0
  6
Continuous
 62
               1
100
AcDbVertex
100
AcDb3dPolylineVertex
 10
304.61212700142823
 20
-283.08341562588089
 30
0.0
 70
              32
  0
VERTEX
  5
542
100
AcDbEntity
  8
一般
370
               0
390
0
  6
Continuous
 62
               1
100
AcDbVertex
100
AcDb3dPolylineVertex
 10
304.61212700142823
 20
-283.10241562588089
 30
0.0
 70
              32
  0
VERTEX
  5
543
100
AcDbEntity
  8
一般
370
               0
390
0
  6
Continuous
 62
               1
100
AcDbVertex
100
AcDb3dPolylineVertex
 10
304.61212700142823
 20
-283.1214156258809
 30
0.0
 70
              32
  0
VERTEX
  5
544
100
AcDbEntity
  8
一般
370
               0
390
0
  6
Continuous
 62
               1
100
AcDbVertex
100
AcDb3dPolylineVertex
 10
304.61212700142823
 20
-283.14041562588091
 30
0.0
 70
              32
  0
VERTEX
  5
545
100
AcDbEntity
  8
一般
370
               0
390
0
  6
Continuous
 62
               1
100
AcDbVertex
100
AcDb3dPolylineVertex
 10
304.61212700142823
 20
-283.15941562588091
 30
0.0
 70
              32
  0
VERTEX
  5
546
100
AcDbEntity
  8
一般
370
               0
390
0
  6
Continuous
 62
               1
100
AcDbVertex
100
AcDb3dPolylineVertex
 10
304.61212700142823
 20
-283.17741562588094
 30
0.0
 70
              32
  0
VERTEX
  5
547
100
AcDbEntity
  8
一般
370
               0
390
0
  6
Continuous
 62
               1
100
AcDbVertex
100
AcDb3dPolylineVertex
 10
304.61212700142823
 20
-283.19541562588086
 30
0.0
 70
              32
  0
VERTEX
  5
548
100
AcDbEntity
  8
一般
370
               0
390
0
  6
Continuous
 62
               1
100
AcDbVertex
100
AcDb3dPolylineVertex
 10
304.61212700142823
 20
-283.21341562588088
 30
0.0
 70
              32
  0
VERTEX
  5
549
100
AcDbEntity
  8
一般
370
               0
390
0
  6
Continuous
 62
               1
100
AcDbVertex
100
AcDb3dPolylineVertex
 10
304.61212700142823
 20
-283.23141562588091
 30
0.0
 70
              32
  0
VERTEX
  5
54A
100
AcDbEntity
  8
一般
370
               0
390
0
  6
Continuous
 62
               1
100
AcDbVertex
100
AcDb3dPolylineVertex
 10
304.61212700142823
 20
-283.24841562588097
 30
0.0
 70
              32
  0
VERTEX
  5
54B
100
AcDbEntity
  8
一般
370
               0
390
0
  6
Continuous
 62
               1
100
AcDbVertex
100
AcDb3dPolylineVertex
 10
304.61212700142823
 20
-283.26541562588091
 30
0.0
 70
              32
  0
VERTEX
  5
54C
100
AcDbEntity
  8
一般
370
               0
390
0
  6
Continuous
 62
               1
100
AcDbVertex
100
AcDb3dPolylineVertex
 10
304.61212700142823
 20
-283.28241562588096
 30
0.0
 70
              32
  0
VERTEX
  5
54D
100
AcDbEntity
  8
一般
370
               0
390
0
  6
Continuous
 62
               1
100
AcDbVertex
100
AcDb3dPolylineVertex
 10
304.61212700142823
 20
-283.29841562588092
 30
0.0
 70
              32
  0
VERTEX
  5
54E
100
AcDbEntity
  8
一般
370
               0
390
0
  6
Continuous
 62
               1
100
AcDbVertex
100
AcDb3dPolylineVertex
 10
304.61212700142823
 20
-283.31541562588086
 30
0.0
 70
              32
  0
VERTEX
  5
54F
100
AcDbEntity
  8
一般
370
               0
390
0
  6
Continuous
 62
               1
100
AcDbVertex
100
AcDb3dPolylineVertex
 10
304.61212700142823
 20
-283.33141562588094
 30
0.0
 70
              32
  0
VERTEX
  5
550
100
AcDbEntity
  8
一般
370
               0
390
0
  6
Continuous
 62
               1
100
AcDbVertex
100
AcDb3dPolylineVertex
 10
304.61212700142823
 20
-283.34641562588092
 30
0.0
 70
              32
  0
VERTEX
  5
551
100
AcDbEntity
  8
一般
370
               0
390
0
  6
Continuous
 62
               1
100
AcDbVertex
100
AcDb3dPolylineVertex
 10
304.61212700142823
 20
-283.36141562588091
 30
0.0
 70
              32
  0
VERTEX
  5
552
100
AcDbEntity
  8
一般
370
               0
390
0
  6
Continuous
 62
               1
100
AcDbVertex
100
AcDb3dPolylineVertex
 10
304.61212700142823
 20
-283.3764156258809
 30
0.0
 70
              32
  0
VERTEX
  5
553
100
AcDbEntity
  8
一般
370
               0
390
0
  6
Continuous
 62
               1
100
AcDbVertex
100
AcDb3dPolylineVertex
 10
304.61212700142823
 20
-283.39141562588088
 30
0.0
 70
              32
  0
VERTEX
  5
554
100
AcDbEntity
  8
一般
370
               0
390
0
  6
Continuous
 62
               1
100
AcDbVertex
100
AcDb3dPolylineVertex
 10
304.61212700142823
 20
-283.40541562588089
 30
0.0
 70
              32
  0
VERTEX
  5
555
100
AcDbEntity
  8
一般
370
               0
390
0
  6
Continuous
 62
               1
100
AcDbVertex
100
AcDb3dPolylineVertex
 10
304.61212700142823
 20
-283.4194156258809
 30
0.0
 70
              32
  0
VERTEX
  5
556
100
AcDbEntity
  8
一般
370
               0
390
0
  6
Continuous
 62
               1
100
AcDbVertex
100
AcDb3dPolylineVertex
 10
304.61212700142823
 20
-283.43341562588091
 30
0.0
 70
              32
  0
VERTEX
  5
557
100
AcDbEntity
  8
一般
370
               0
390
0
  6
Continuous
 62
               1
100
AcDbVertex
100
AcDb3dPolylineVertex
 10
304.61212700142823
 20
-283.44641562588095
 30
0.0
 70
              32
  0
VERTEX
  5
558
100
AcDbEntity
  8
一般
370
               0
390
0
  6
Continuous
 62
               1
100
AcDbVertex
100
AcDb3dPolylineVertex
 10
304.61212700142823
 20
-283.46041562588096
 30
0.0
 70
              32
  0
VERTEX
  5
559
100
AcDbEntity
  8
一般
370
               0
390
0
  6
Continuous
 62
               1
100
AcDbVertex
100
AcDb3dPolylineVertex
 10
304.61212700142823
 20
-283.4724156258809
 30
0.0
 70
              32
  0
VERTEX
  5
55A
100
AcDbEntity
  8
一般
370
               0
390
0
  6
Continuous
 62
               1
100
AcDbVertex
100
AcDb3dPolylineVertex
 10
304.61212700142823
 20
-283.48541562588093
 30
0.0
 70
              32
  0
VERTEX
  5
55B
100
AcDbEntity
  8
一般
370
               0
390
0
  6
Continuous
 62
               1
100
AcDbVertex
100
AcDb3dPolylineVertex
 10
304.61212700142823
 20
-283.49741562588088
 30
0.0
 70
              32
  0
VERTEX
  5
55C
100
AcDbEntity
  8
一般
370
               0
390
0
  6
Continuous
 62
               1
100
AcDbVertex
100
AcDb3dPolylineVertex
 10
304.61212700142823
 20
-283.50941562588093
 30
0.0
 70
              32
  0
VERTEX
  5
55D
100
AcDbEntity
  8
一般
370
               0
390
0
  6
Continuous
 62
               1
100
AcDbVertex
100
AcDb3dPolylineVertex
 10
304.61212700142823
 20
-283.5204156258809
 30
0.0
 70
              32
  0
VERTEX
  5
55E
100
AcDbEntity
  8
一般
370
               0
390
0
  6
Continuous
 62
               1
100
AcDbVertex
100
AcDb3dPolylineVertex
 10
304.61212700142823
 20
-283.53141562588087
 30
0.0
 70
              32
  0
VERTEX
  5
55F
100
AcDbEntity
  8
一般
370
               0
390
0
  6
Continuous
 62
               1
100
AcDbVertex
100
AcDb3dPolylineVertex
 10
304.61212700142823
 20
-283.54241562588095
 30
0.0
 70
              32
  0
VERTEX
  5
560
100
AcDbEntity
  8
一般
370
               0
390
0
  6
Continuous
 62
               1
100
AcDbVertex
100
AcDb3dPolylineVertex
 10
304.61212700142823
 20
-283.55341562588092
 30
0.0
 70
              32
  0
VERTEX
  5
561
100
AcDbEntity
  8
一般
370
               0
390
0
  6
Continuous
 62
               1
100
AcDbVertex
100
AcDb3dPolylineVertex
 10
304.61212700142823
 20
-283.56341562588091
 30
0.0
 70
              32
  0
VERTEX
  5
562
100
AcDbEntity
  8
一般
370
               0
390
0
  6
Continuous
 62
               1
100
AcDbVertex
100
AcDb3dPolylineVertex
 10
304.61212700142823
 20
-283.57441562588087
 30
0.0
 70
              32
  0
VERTEX
  5
563
100
AcDbEntity
  8
一般
370
               0
390
0
  6
Continuous
 62
               1
100
AcDbVertex
100
AcDb3dPolylineVertex
 10
304.61212700142823
 20
-283.58341562588089
 30
0.0
 70
              32
  0
VERTEX
  5
564
100
AcDbEntity
  8
一般
370
               0
390
0
  6
Continuous
 62
               1
100
AcDbVertex
100
AcDb3dPolylineVertex
 10
304.61212700142823
 20
-283.59341562588088
 30
0.0
 70
              32
  0
VERTEX
  5
565
100
AcDbEntity
  8
一般
370
               0
390
0
  6
Continuous
 62
               1
100
AcDbVertex
100
AcDb3dPolylineVertex
 10
304.61212700142823
 20
-283.60241562588089
 30
0.0
 70
              32
  0
VERTEX
  5
566
100
AcDbEntity
  8
一般
370
               0
390
0
  6
Continuous
 62
               1
100
AcDbVertex
100
AcDb3dPolylineVertex
 10
304.61212700142823
 20
-283.61241562588089
 30
0.0
 70
              32
  0
VERTEX
  5
567
100
AcDbEntity
  8
一般
370
               0
390
0
  6
Continuous
 62
               1
100
AcDbVertex
100
AcDb3dPolylineVertex
 10
304.61212700142823
 20
-283.6214156258809
 30
0.0
 70
              32
  0
VERTEX
  5
568
100
AcDbEntity
  8
一般
370
               0
390
0
  6
Continuous
 62
               1
100
AcDbVertex
100
AcDb3dPolylineVertex
 10
304.61212700142823
 20
-283.62941562588094
 30
0.0
 70
              32
  0
VERTEX
  5
569
100
AcDbEntity
  8
一般
370
               0
390
0
  6
Continuous
 62
               1
100
AcDbVertex
100
AcDb3dPolylineVertex
 10
304.61212700142823
 20
-283.63841562588095
 30
0.0
 70
              32
  0
VERTEX
  5
56A
100
AcDbEntity
  8
一般
370
               0
390
0
  6
Continuous
 62
               1
100
AcDbVertex
100
AcDb3dPolylineVertex
 10
304.61212700142823
 20
-283.64641562588088
 30
0.0
 70
              32
  0
VERTEX
  5
56B
100
AcDbEntity
  8
一般
370
               0
390
0
  6
Continuous
 62
               1
100
AcDbVertex
100
AcDb3dPolylineVertex
 10
304.61212700142823
 20
-283.65441562588092
 30
0.0
 70
              32
  0
VERTEX
  5
56C
100
AcDbEntity
  8
一般
370
               0
390
0
  6
Continuous
 62
               1
100
AcDbVertex
100
AcDb3dPolylineVertex
 10
304.61212700142823
 20
-283.66241562588095
 30
0.0
 70
              32
  0
VERTEX
  5
56D
100
AcDbEntity
  8
一般
370
               0
390
0
  6
Continuous
 62
               1
100
AcDbVertex
100
AcDb3dPolylineVertex
 10
304.61212700142823
 20
-283.6694156258809
 30
0.0
 70
              32
  0
VERTEX
  5
56E
100
AcDbEntity
  8
一般
370
               0
390
0
  6
Continuous
 62
               1
100
AcDbVertex
100
AcDb3dPolylineVertex
 10
304.61212700142823
 20
-283.67741562588094
 30
0.0
 70
              32
  0
VERTEX
  5
56F
100
AcDbEntity
  8
一般
370
               0
390
0
  6
Continuous
 62
               1
100
AcDbVertex
100
AcDb3dPolylineVertex
 10
304.61212700142823
 20
-283.68441562588089
 30
0.0
 70
              32
  0
VERTEX
  5
570
100
AcDbEntity
  8
一般
370
               0
390
0
  6
Continuous
 62
               1
100
AcDbVertex
100
AcDb3dPolylineVertex
 10
304.61212700142823
 20
-283.69141562588095
 30
0.0
 70
              32
  0
VERTEX
  5
571
100
AcDbEntity
  8
一般
370
               0
390
0
  6
Continuous
 62
               1
100
AcDbVertex
100
AcDb3dPolylineVertex
 10
304.61212700142823
 20
-283.6984156258809
 30
0.0
 70
              32
  0
VERTEX
  5
572
100
AcDbEntity
  8
一般
370
               0
390
0
  6
Continuous
 62
               1
100
AcDbVertex
100
AcDb3dPolylineVertex
 10
304.61212700142823
 20
-283.70541562588085
 30
0.0
 70
              32
  0
VERTEX
  5
573
100
AcDbEntity
  8
一般
370
               0
390
0
  6
Continuous
 62
               1
100
AcDbVertex
100
AcDb3dPolylineVertex
 10
304.61212700142823
 20
-283.71141562588093
 30
0.0
 70
              32
  0
VERTEX
  5
574
100
AcDbEntity
  8
一般
370
               0
390
0
  6
Continuous
 62
               1
100
AcDbVertex
100
AcDb3dPolylineVertex
 10
304.61212700142823
 20
-283.71841562588088
 30
0.0
 70
              32
  0
VERTEX
  5
575
100
AcDbEntity
  8
一般
370
               0
390
0
  6
Continuous
 62
               1
100
AcDbVertex
100
AcDb3dPolylineVertex
 10
304.61212700142823
 20
-283.72441562588085
 30
0.0
 70
              32
  0
VERTEX
  5
576
100
AcDbEntity
  8
一般
370
               0
390
0
  6
Continuous
 62
               1
100
AcDbVertex
100
AcDb3dPolylineVertex
 10
304.61212700142823
 20
-283.73041562588094
 30
0.0
 70
              32
  0
VERTEX
  5
577
100
AcDbEntity
  8
一般
370
               0
390
0
  6
Continuous
 62
               1
100
AcDbVertex
100
AcDb3dPolylineVertex
 10
304.61212700142823
 20
-283.73641562588091
 30
0.0
 70
              32
  0
VERTEX
  5
578
100
AcDbEntity
  8
一般
370
               0
390
0
  6
Continuous
 62
               1
100
AcDbVertex
100
AcDb3dPolylineVertex
 10
304.61212700142823
 20
-283.7414156258809
 30
0.0
 70
              32
  0
VERTEX
  5
579
100
AcDbEntity
  8
一般
370
               0
390
0
  6
Continuous
 62
               1
100
AcDbVertex
100
AcDb3dPolylineVertex
 10
304.61212700142823
 20
-283.74741562588088
 30
0.0
 70
              32
  0
VERTEX
  5
57A
100
AcDbEntity
  8
一般
370
               0
390
0
  6
Continuous
 62
               1
100
AcDbVertex
100
AcDb3dPolylineVertex
 10
304.61212700142823
 20
-283.75341562588085
 30
0.0
 70
              32
  0
VERTEX
  5
57B
100
AcDbEntity
  8
一般
370
               0
390
0
  6
Continuous
 62
               1
100
AcDbVertex
100
AcDb3dPolylineVertex
 10
304.61212700142823
 20
-283.75841562588096
 30
0.0
 70
              32
  0
VERTEX
  5
57C
100
AcDbEntity
  8
一般
370
               0
390
0
  6
Continuous
 62
               1
100
AcDbVertex
100
AcDb3dPolylineVertex
 10
304.61212700142823
 20
-283.76341562588095
 30
0.0
 70
              32
  0
VERTEX
  5
57D
100
AcDbEntity
  8
一般
370
               0
390
0
  6
Continuous
 62
               1
100
AcDbVertex
100
AcDb3dPolylineVertex
 10
304.61212700142823
 20
-283.76941562588092
 30
0.0
 70
              32
  0
VERTEX
  5
57E
100
AcDbEntity
  8
一般
370
               0
390
0
  6
Continuous
 62
               1
100
AcDbVertex
100
AcDb3dPolylineVertex
 10
304.61212700142823
 20
-283.77441562588092
 30
0.0
 70
              32
  0
VERTEX
  5
57F
100
AcDbEntity
  8
一般
370
               0
390
0
  6
Continuous
 62
               1
100
AcDbVertex
100
AcDb3dPolylineVertex
 10
304.61212700142823
 20
-283.77941562588092
 30
0.0
 70
              32
  0
VERTEX
  5
580
100
AcDbEntity
  8
一般
370
               0
390
0
  6
Continuous
 62
               1
100
AcDbVertex
100
AcDb3dPolylineVertex
 10
304.61212700142823
 20
-283.78341562588093
 30
0.0
 70
              32
  0
VERTEX
  5
581
100
AcDbEntity
  8
一般
370
               0
390
0
  6
Continuous
 62
               1
100
AcDbVertex
100
AcDb3dPolylineVertex
 10
304.61212700142823
 20
-283.78841562588093
 30
0.0
 70
              32
  0
VERTEX
  5
582
100
AcDbEntity
  8
一般
370
               0
390
0
  6
Continuous
 62
               1
100
AcDbVertex
100
AcDb3dPolylineVertex
 10
304.61212700142823
 20
-283.79341562588093
 30
0.0
 70
              32
  0
VERTEX
  5
583
100
AcDbEntity
  8
一般
370
               0
390
0
  6
Continuous
 62
               1
100
AcDbVertex
100
AcDb3dPolylineVertex
 10
304.61212700142823
 20
-283.79841562588092
 30
0.0
 70
              32
  0
VERTEX
  5
584
100
AcDbEntity
  8
一般
370
               0
390
0
  6
Continuous
 62
               1
100
AcDbVertex
100
AcDb3dPolylineVertex
 10
304.61212700142823
 20
-283.80241562588094
 30
0.0
 70
              32
  0
VERTEX
  5
585
100
AcDbEntity
  8
一般
370
               0
390
0
  6
Continuous
 62
               1
100
AcDbVertex
100
AcDb3dPolylineVertex
 10
304.61212700142823
 20
-283.80741562588094
 30
0.0
 70
              32
  0
VERTEX
  5
586
100
AcDbEntity
  8
一般
370
               0
390
0
  6
Continuous
 62
               1
100
AcDbVertex
100
AcDb3dPolylineVertex
 10
304.61212700142823
 20
-283.81141562588095
 30
0.0
 70
              32
  0
VERTEX
  5
587
100
AcDbEntity
  8
一般
370
               0
390
0
  6
Continuous
 62
               1
100
AcDbVertex
100
AcDb3dPolylineVertex
 10
304.61212700142823
 20
-283.81641562588095
 30
0.0
 70
              32
  0
VERTEX
  5
588
100
AcDbEntity
  8
一般
370
               0
390
0
  6
Continuous
 62
               1
100
AcDbVertex
100
AcDb3dPolylineVertex
 10
304.61212700142823
 20
-283.82041562588086
 30
0.0
 70
              32
  0
VERTEX
  5
589
100
AcDbEntity
  8
一般
370
               0
390
0
  6
Continuous
 62
               1
100
AcDbVertex
100
AcDb3dPolylineVertex
 10
304.61212700142823
 20
-283.82441562588087
 30
0.0
 70
              32
  0
VERTEX
  5
58A
100
AcDbEntity
  8
一般
370
               0
390
0
  6
Continuous
 62
               1
100
AcDbVertex
100
AcDb3dPolylineVertex
 10
304.61212700142823
 20
-283.82841562588089
 30
0.0
 70
              32
  0
VERTEX
  5
58B
100
AcDbEntity
  8
一般
370
               0
390
0
  6
Continuous
 62
               1
100
AcDbVertex
100
AcDb3dPolylineVertex
 10
304.61212700142823
 20
-283.83341562588089
 30
0.0
 70
              32
  0
VERTEX
  5
58C
100
AcDbEntity
  8
一般
370
               0
390
0
  6
Continuous
 62
               1
100
AcDbVertex
100
AcDb3dPolylineVertex
 10
304.61212700142823
 20
-283.83741562588091
 30
0.0
 70
              32
  0
VERTEX
  5
58D
100
AcDbEntity
  8
一般
370
               0
390
0
  6
Continuous
 62
               1
100
AcDbVertex
100
AcDb3dPolylineVertex
 10
304.61212700142823
 20
-283.84141562588093
 30
0.0
 70
              32
  0
VERTEX
  5
58E
100
AcDbEntity
  8
一般
370
               0
390
0
  6
Continuous
 62
               1
100
AcDbVertex
100
AcDb3dPolylineVertex
 10
304.61212700142823
 20
-283.84541562588095
 30
0.0
 70
              32
  0
VERTEX
  5
58F
100
AcDbEntity
  8
一般
370
               0
390
0
  6
Continuous
 62
               1
100
AcDbVertex
100
AcDb3dPolylineVertex
 10
304.61212700142823
 20
-283.85041562588094
 30
0.0
 70
              32
  0
SEQEND
  5
590
100
AcDbEntity
  8
一般
370
               0
390
0
  6
Continuous
 62
               1
  0
LINE
  5
591
100
AcDbEntity
  8
一般
370
               0
390
0
  6
Continuous
 62
               1
100
AcDbLine
 10
309.61228027275956
 20
-277.85000884499266
 30
0.0
 11
309.61228027275956
 21
-274.34999430145933
 31
0.0
  0
LINE
  5
592
100
AcDbEntity
  8
一般
370
               0
390
0
  6
Continuous
 62
               1
100
AcDbLine
 10
332.41227879456346
 20
-277.85000884499266
 30
0.0
 11
332.41227879456346
 21
-270.8500095602484
 31
0.0
  0
LINE
  5
593
100
AcDbEntity
  8
一般
370
               0
390
0
  6
Continuous
 62
               1
100
AcDbLine
 10
340.66786895200312
 20
-572.99999999999761
 30
0.0
 11
319.09584390814143
 21
-572.99999999999784
 31
0.0
  0
LINE
  5
594
100
AcDbEntity
  8
一般
370
               0
390
0
  6
Continuous
 62
               1
100
AcDbLine
 10
340.66786895201312
 20
-584.99999999999875
 30
0.0
 11
315.17365753653485
 21
-584.99999999999898
 31
0.0
  0
LINE
  5
595
100
AcDbEntity
  8
一般
370
               0
390
0
  6
Continuous
 62
               1
100
AcDbLine
 10
315.17365753653485
 20
-599.99999999999875
 30
0.0
 11
340.66786895199311
 21
-599.99999999999875
 31
0.0
  0
LINE
  5
596
100
AcDbEntity
  8
一般
370
               0
390
0
  6
Continuous
 62
               1
100
AcDbLine
 10
319.09584390814143
 20
-572.99999999999784
 30
0.0
 11
304.03157280724554
 21
-572.99999999999875
 31
0.0
  0
LINE
  5
597
100
AcDbEntity
  8
一般
370
               0
390
0
  6
Continuous
 62
               1
100
AcDbLine
 10
315.17365753653485
 20
-584.99999999999898
 30
0.0
 11
300.0
 21
-584.99999999999989
 31
0.0
  0
LINE
  5
598
100
AcDbEntity
  8
一般
370
               0
390
0
  6
Continuous
 62
               1
100
AcDbLine
 10
300.0
 20
-600.0
 30
0.0
 11
315.17365753653485
 21
-599.99999999999875
 31
0.0
  0
LINE
  5
599
100
AcDbEntity
  8
一般
370
               0
390
0
  6
Continuous
 62
               1
100
AcDbLine
 10
304.03157280724554
 20
-572.99999999999875
 30
0.0
 11
304.03157280724554
 21
-583.49999999999841
 31
0.0
  0
LINE
  5
59A
100
AcDbEntity
  8
一般
370
               0
390
0
  6
Continuous
 62
               1
100
AcDbLine
 10
304.03157280724554
 20
-583.49999999999841
 30
0.0
 11
304.00000000000182
 21
-583.49999999999841
 31
0.0
  0
LINE
  5
59B
100
AcDbEntity
  8
一般
370
               0
390
0
  6
Continuous
 62
               1
100
AcDbLine
 10
304.00000000000182
 20
-583.49999999999841
 30
0.0
 11
303.99999632767503
 21
-585.00000023808195
 31
0.0
  0
LINE
  5
59C
100
AcDbEntity
  8
一般
370
               0
390
0
  6
Continuous
 62
               1
100
AcDbLine
 10
300.0
 20
-584.99999999999989
 30
0.0
 11
300.0
 21
-600.0
 31
0.0
  0
LINE
  5
59D
100
AcDbEntity
  8
一般
370
               0
390
0
  6
Continuous
 62
               1
100
AcDbLine
 10
319.0958560936815
 20
-585.00000023808104
 30
0.0
 11
319.09584390814143
 21
-572.99999999999784
 31
0.0
  0
LINE
  5
59E
100
AcDbEntity
  8
一般
370
               0
390
0
  6
Continuous
 62
               1
100
AcDbLine
 10
315.17365753653485
 20
-584.99999999999898
 30
0.0
 11
315.17365753653485
 21
-599.99999999999875
 31
0.0
  0
CIRCLE
  5
59F
100
AcDbEntity
  8
一般
370
               0
390
0
  6
Continuous
 62
               1
100
AcDbCircle
 10
370.91227564677502
 20
-563.99999999999966
 30
0.0
 40
4.0
  0
LINE
  5
5A0
100
AcDbEntity
  8
一般
370
               0
390
0
  6
Continuous
 62
               1
100
AcDbLine
 10
341.91227569512102
 20
-573.00000572170813
 30
0.0
 11
341.91227569512102
 21
-585.00000023808082
 31
0.0
  0
LINE
  5
5A1
100
AcDbEntity
  8
一般
370
               0
390
0
  6
Continuous
 62
               1
100
AcDbLine
 10
341.91227569512102
 20
-573.00000572170813
 30
0.0
 11
340.66786895200312
 21
-572.99999999999761
 31
0.0
  0
LINE
  5
5A2
100
AcDbEntity
  8
一般
370
               0
390
0
  6
Continuous
 62
               1
100
AcDbLine
 10
340.66786895201312
 20
-584.99999999999875
 30
0.0
 11
340.66786895200312
 21
-572.99999999999761
 31
0.0
  0
LINE
  5
5A3
100
AcDbEntity
  8
一般
370
               0
390
0
  6
Continuous
 62
               1
100
AcDbLine
 10
340.66786895201312
 20
-584.99999999999875
 30
0.0
 11
340.66786895199311
 21
-599.99999999999875
 31
0.0
  0
LINE
  5
5A4
100
AcDbEntity
  8
一般
370
               0
390
0
  6
Continuous
 62
               1
100
AcDbLine
 10
332.41227879456346
 20
-282.85000407662096
 30
0.0
 11
339.41227564677502
 21
-282.8500000000007
 31
0.0
  0
LINE
  5
5A5
100
AcDbEntity
  8
一般
370
               0
390
0
  6
Continuous
 62
               1
100
AcDbLine
 10
332.41227879456346
 20
-277.85000884499266
 30
0.0
 11
309.61228027275956
 21
-277.85000884499266
 31
0.0
  0
LINE
  5
5A6
100
AcDbEntity
  8
一般
370
               0
390
0
  6
Continuous
 62
               1
100
AcDbLine
 10
332.41227879456346
 20
-284.85000812973692
 30
0.0
 11
309.61228027275956
 21
-284.85000812973692
 31
0.0
  0
LINE
  5
5A7
100
AcDbEntity
  8
一般
370
               0
390
0
  6
Continuous
 62
               1
100
AcDbLine
 10
309.61228027275956
 20
-281.3499935862036
 30
0.0
 11
309.61228027275956
 21
-277.85000884499266
 31
0.0
  0
LINE
  5
5A8
100
AcDbEntity
  8
一般
370
               0
390
0
  6
Continuous
 62
               1
100
AcDbLine
 10
309.61228027275956
 20
-284.85000812973692
 30
0.0
 11
309.61228027275956
 21
-281.3499935862036
 31
0.0
  0
LINE
  5
5A9
100
AcDbEntity
  8
一般
370
               0
390
0
  6
Continuous
 62
               1
100
AcDbLine
 10
305.61227564677483
 20
-284.8500000000007
 30
0.0
 11
309.61228027275956
 21
-284.85000812973692
 31
0.0
  0
ARC
  5
5AA
100
AcDbEntity
  8
一般
370
               0
390
0
  6
Continuous
 62
               1
100
AcDbCircle
 10
305.61227564677483
 20
-283.8500000000007
 30
0.0
 40
1.0
100
AcDbArc
 50
180.00000000002606
 51
270.0
  0
LINE
  5
5AB
100
AcDbEntity
  8
一般
370
               0
390
0
  6
Continuous
 62
               1
100
AcDbLine
 10
332.41227879456346
 20
-284.85000812973692
 30
0.0
 11
332.41227879456346
 21
-277.85000884499266
 31
0.0
  0
CIRCLE
  5
5AC
100
AcDbEntity
  8
一般
370
               0
390
0
  6
Continuous
 62
               1
100
AcDbCircle
 10
370.91227564677502
 20
-284.99999999999852
 30
0.0
 40
4.0
  0
LINE
  5
5AD
100
AcDbEntity
  8
一般
370
               0
390
0
  6
Continuous
 62
               1
100
AcDbLine
 10
339.41227807930863
 20
-280.85000002350523
 30
0.0
 11
341.91227569512284
 21
-280.85000002350523
 31
0.0
  0
LINE
  5
5AE
100
AcDbEntity
  8
一般
370
               0
390
0
  6
Continuous
 62
               1
100
AcDbLine
 10
339.41227564677502
 20
-272.8500000000007
 30
0.0
 11
332.41227879456346
 21
-272.85001361336424
 31
0.0
  0
LINE
  5
5AF
100
AcDbEntity
  8
一般
370
               0
390
0
  6
Continuous
 62
               1
100
AcDbLine
 10
332.41227879456346
 20
-270.8500095602484
 30
0.0
 11
309.61228027275956
 21
-270.8500095602484
 31
0.0
  0
LINE
  5
5B0
100
AcDbEntity
  8
一般
370
               0
390
0
  6
Continuous
 62
               1
100
AcDbLine
 10
309.61228027275956
 20
-274.34999430145933
 30
0.0
 11
309.61228027275956
 21
-270.8500095602484
 31
0.0
  0
LINE
  5
5B1
100
AcDbEntity
  8
一般
370
               0
390
0
  6
Continuous
 62
               1
100
AcDbLine
 10
309.61228027275956
 20
-270.8500095602484
 30
0.0
 11
305.61227564677483
 21
-270.85000000000036
 31
0.0
  0
ARC
  5
5B2
100
AcDbEntity
  8
一般
370
               0
390
0
  6
Continuous
 62
               1
100
AcDbCircle
 10
305.61227564677483
 20
-271.85000000000025
 30
0.0
 40
1.0
100
AcDbArc
 50
90.0
 51
180.00000000002603
  0
LINE
  5
5B3
100
AcDbEntity
  8
一般
370
               0
390
0
  6
Continuous
 62
               1
100
AcDbLine
 10
341.91227569512284
 20
-274.8499878641577
 30
0.0
 11
339.41227807930863
 21
-274.8499878641577
 31
0.0
  0
LINE
  5
5B4
100
AcDbEntity
  8
一般
370
               0
390
0
  6
Continuous
 62
               1
100
AcDbLine
 10
323.39177905602901
 20
3.0000000000003126
 30
0.0
 11
341.91227569512102
 21
2.9999843839204061
 31
0.0
  0
LINE
  5
5B5
100
AcDbEntity
  8
一般
370
               0
390
0
  6
Continuous
 62
               1
100
AcDbLine
 10
340.66786895199311
 20
30.000000000001222
 30
0.0
 11
315.17365753653485
 21
30.000000000001222
 31
0.0
  0
LINE
  5
5B6
100
AcDbEntity
  8
一般
370
               0
390
0
  6
Continuous
 62
               1
100
AcDbLine
 10
315.17365753653485
 20
15.000000000001222
 30
0.0
 11
340.66786895201312
 21
15.000000000001506
 31
0.0
  0
LINE
  5
5B7
100
AcDbEntity
  8
一般
370
               0
390
0
  6
Continuous
 62
               1
100
AcDbLine
 10
312.51243367127154
 20
15.000008702615418
 30
0.0
 11
312.51244516010411
 21
3.0000000000003126
 31
0.0
  0
LINE
  5
5B8
100
AcDbEntity
  8
一般
370
               0
390
0
  6
Continuous
 62
               1
100
AcDbLine
 10
323.39177905602901
 20
3.0000000000003126
 30
0.0
 11
323.39177145890062
 21
15.000008702615418
 31
0.0
  0
LINE
  5
5B9
100
AcDbEntity
  8
一般
370
               0
390
0
  6
Continuous
 62
               1
100
AcDbLine
 10
303.99999632767503
 20
15.000008702614508
 30
0.0
 11
304.00000000000182
 21
2.9999999999994031
 31
0.0
  0
LINE
  5
5BA
100
AcDbEntity
  8
一般
370
               0
390
0
  6
Continuous
 62
               1
100
AcDbLine
 10
312.51244516010411
 20
3.0000000000003126
 30
0.0
 11
323.39177905602901
 21
3.0000000000003126
 31
0.0
  0
LINE
  5
5BB
100
AcDbEntity
  8
一般
370
               0
390
0
  6
Continuous
 62
               1
100
AcDbLine
 10
304.00000000000182
 20
2.9999999999994031
 30
0.0
 11
312.51244516010411
 21
3.0000000000003126
 31
0.0
  0
LINE
  5
5BC
100
AcDbEntity
  8
一般
370
               0
390
0
  6
Continuous
 62
               1
100
AcDbLine
 10
315.17365753653485
 20
30.000000000001222
 30
0.0
 11
300.00000000000182
 21
30.000000000000085
 31
0.0
  0
LINE
  5
5BD
100
AcDbEntity
  8
一般
370
               0
390
0
  6
Continuous
 62
               1
100
AcDbLine
 10
300.00000000000182
 20
15.000000000000114
 30
0.0
 11
315.17365753653485
 21
15.000000000001222
 31
0.0
  0
LINE
  5
5BE
100
AcDbEntity
  8
一般
370
               0
390
0
  6
Continuous
 62
               1
100
AcDbLine
 10
300.00000000000182
 20
30.000000000000085
 30
0.0
 11
300.00000000000182
 21
15.000000000000114
 31
0.0
  0
LINE
  5
5BF
100
AcDbEntity
  8
一般
370
               0
390
0
  6
Continuous
 62
               1
100
AcDbLine
 10
315.17365753653485
 20
15.000000000001222
 30
0.0
 11
315.17365753653485
 21
30.000000000001222
 31
0.0
  0
CIRCLE
  5
5C0
100
AcDbEntity
  8
一般
370
               0
390
0
  6
Continuous
 62
               1
100
AcDbCircle
 10
370.91227564677502
 20
-5.9999999999978968
 30
0.0
 40
4.0
  0
LINE
  5
5C1
100
AcDbEntity
  8
一般
370
               0
390
0
  6
Continuous
 62
               1
100
AcDbLine
 10
340.66786895201312
 20
15.000000000001506
 30
0.0
 11
340.66786895199311
 21
30.000000000001222
 31
0.0
  0
LINE
  5
5C2
100
AcDbEntity
  8
一般
370
               0
390
0
  6
Continuous
 62
               1
100
AcDbLine
 10
480.60881211689775
 20
-585.00000023808082
 30
0.0
 11
480.60881211689775
 21
15.000008702615901
 31
0.0
  0
LINE
  5
5C3
100
AcDbEntity
  8
一般
370
               0
390
0
  6
Continuous
 62
               1
100
AcDbLine
 10
604.97322001763121
 20
2.9999999999994031
 30
0.0
 11
604.97322001763121
 21
-572.99999999999909
 31
0.0
  0
LINE
  5
5C4
100
AcDbEntity
  8
一般
370
               0
390
0
  6
Continuous
 62
               1
100
AcDbLine
 10
604.97321984998041
 20
-585.00000023808195
 30
0.0
 11
604.97321984998041
 21
15.000008702614508
 31
0.0
  0
LINE
  5
5C5
100
AcDbEntity
  8
一般
370
               0
390
0
  6
Continuous
 62
               1
100
AcDbLine
 10
480.60881211689775
 20
15.000008702615901
 30
0.0
 11
480.60881211689775
 21
-585.00000023808082
 31
0.0
  0
LINE
  5
5C6
100
AcDbEntity
  8
一般
370
               0
390
0
  6
Continuous
 62
               1
100
AcDbLine
 10
480.60881211689775
 20
-585.00000023808082
 30
0.0
 11
604.97321984998041
 21
-585.00000023808195
 31
0.0
  0
LINE
  5
5C7
100
AcDbEntity
  8
一般
370
               0
390
0
  6
Continuous
 62
               1
100
AcDbLine
 10
480.60881211689775
 20
-585.00000023808082
 30
0.0
 11
604.97321984998041
 21
-585.00000023808195
 31
0.0
  0
LINE
  5
5C8
100
AcDbEntity
  8
一般
370
               0
390
0
  6
Continuous
 62
               1
100
AcDbLine
 10
480.60881211689775
 20
-600.00000083412726
 30
0.0
 11
604.97322001759755
 21
-600.0
 31
0.0
  0
LINE
  5
5C9
100
AcDbEntity
  8
一般
370
               0
390
0
  6
Continuous
 62
               1
100
AcDbLine
 10
480.60881211689775
 20
-600.00000083412726
 30
0.0
 11
480.60881211689775
 21
-585.00000023808082
 31
0.0
  0
CIRCLE
  5
5CA
100
AcDbEntity
  8
一般
370
               0
390
0
  6
Continuous
 62
               1
100
AcDbCircle
 10
454.91227564677683
 20
-284.99999999999852
 30
0.0
 40
4.1999999999999886
  0
CIRCLE
  5
5CB
100
AcDbEntity
  8
一般
370
               0
390
0
  6
Continuous
 62
               1
100
AcDbCircle
 10
454.91227564677683
 20
-284.99999999999852
 30
0.0
 40
6.4999999999781721
  0
LINE
  5
5CC
100
AcDbEntity
  8
一般
370
               0
390
0
  6
Continuous
 62
               1
100
AcDbLine
 10
604.97322001759755
 20
-600.0
 30
0.0
 11
620.0
 21
-600.00000000000034
 31
0.0
  0
LINE
  5
5CD
100
AcDbEntity
  8
一般
370
               0
390
0
  6
Continuous
 62
               1
100
AcDbLine
 10
620.0
 20
-572.99999999999943
 30
0.0
 11
604.97322001763121
 21
-572.99999999999909
 31
0.0
  0
LINE
  5
5CE
100
AcDbEntity
  8
一般
370
               0
390
0
  6
Continuous
 62
               1
100
AcDbLine
 10
604.97322001763121
 20
-572.99999999999909
 30
0.0
 11
604.97321984998041
 21
-585.00000023808195
 31
0.0
  0
LINE
  5
5CF
100
AcDbEntity
  8
一般
370
               0
390
0
  6
Continuous
 62
               1
100
AcDbLine
 10
604.97321984998041
 20
-585.00000023808195
 30
0.0
 11
604.97322001759755
 21
-600.0
 31
0.0
  0
LINE
  5
5D0
100
AcDbEntity
  8
一般
370
               0
390
0
  6
Continuous
 62
               1
100
AcDbLine
 10
620.0
 20
-600.00000000000034
 30
0.0
 11
620.0
 21
-572.99999999999943
 31
0.0
  0
LINE
  5
5D1
100
AcDbEntity
  8
一般
370
               0
390
0
  6
Continuous
 62
               1
100
AcDbLine
 10
604.97321984998041
 20
15.000008702614508
 30
0.0
 11
480.60881211689775
 21
15.000008702615901
 31
0.0
  0
LINE
  5
5D2
100
AcDbEntity
  8
一般
370
               0
390
0
  6
Continuous
 62
               1
100
AcDbLine
 10
604.97322001760574
 20
30.000000000000085
 30
0.0
 11
480.60881211689775
 21
29.999994397501183
 31
0.0
  0
LINE
  5
5D3
100
AcDbEntity
  8
一般
370
               0
390
0
  6
Continuous
 62
               1
100
AcDbLine
 10
604.97321984998041
 20
15.000008702614508
 30
0.0
 11
480.60881211689775
 21
15.000008702615901
 31
0.0
  0
LINE
  5
5D4
100
AcDbEntity
  8
一般
370
               0
390
0
  6
Continuous
 62
               1
100
AcDbLine
 10
480.60881211689775
 20
15.000008702615901
 30
0.0
 11
480.60881211689775
 21
29.999994397501183
 31
0.0
  0
LINE
  5
5D5
100
AcDbEntity
  8
一般
370
               0
390
0
  6
Continuous
 62
               1
100
AcDbLine
 10
604.97321984998041
 20
15.000008702614508
 30
0.0
 11
604.97322001763121
 21
2.9999999999994031
 31
0.0
  0
LINE
  5
5D6
100
AcDbEntity
  8
一般
370
               0
390
0
  6
Continuous
 62
               1
100
AcDbLine
 10
620.0
 20
2.9999999999992042
 30
0.0
 11
620.0
 21
29.999999999999915
 31
0.0
  0
LINE
  5
5D7
100
AcDbEntity
  8
一般
370
               0
390
0
  6
Continuous
 62
               1
100
AcDbLine
 10
604.97322001763121
 20
2.9999999999994031
 30
0.0
 11
620.0
 21
2.9999999999992042
 31
0.0
  0
LINE
  5
5D8
100
AcDbEntity
  8
一般
370
               0
390
0
  6
Continuous
 62
               1
100
AcDbLine
 10
620.0
 20
29.999999999999915
 30
0.0
 11
604.97322001760574
 21
30.000000000000085
 31
0.0
  0
LINE
  5
5D9
100
AcDbEntity
  8
一般
370
               0
390
0
  6
Continuous
 62
               1
100
AcDbLine
 10
604.97322001760574
 20
30.000000000000085
 30
0.0
 11
604.97321984998041
 21
15.000008702614508
 31
0.0
  0
ARC
  5
5DA
100
AcDbEntity
  8
一般
370
               0
390
0
  6
Continuous
 62
               1
100
AcDbCircle
 10
-43.465162896372007
 20
-125.46694409555175
 30
0.0
 40
132.4503037134223
100
AcDbArc
 50
104.08738514904091
 51
75.912614850970115
  0
ARC
  5
5DB
100
AcDbEntity
  8
一般
370
               0
390
0
  6
Continuous
 62
               1
100
AcDbCircle
 10
-43.465162896371979
 20
-125.46694409567556
 30
0.0
 40
137.3295107023809
100
AcDbArc
 50
110.69660860946416
 51
69.303391390535609
  0
LINE
  5
5DC
100
AcDbEntity
  8
一般
370
               0
390
0
  6
Continuous
 62
               1
100
AcDbLine
 10
-132.95640996797647
 20
-325.98741413072923
 30
0.0
 11
-133.83378413095033
 21
-325.36240994676336
 31
0.0
  0
LINE
  5
5DD
100
AcDbEntity
  8
一般
370
               0
390
0
  6
Continuous
 62
               1
100
AcDbLine
 10
-128.61258583156268
 20
-321.6435904493095
 30
0.0
 11
-129.23759005323791
 21
-320.7662158690498
 31
0.0
  0
LINE
  5
5DE
100
AcDbEntity
  8
一般
370
               0
390
0
  6
Continuous
 62
               1
100
AcDbLine
 10
300.0
 20
-584.99999999999989
 30
0.0
 11
300.00000000000182
 21
15.000000000000114
 31
0.0
  0
LINE
  5
5DF
100
AcDbEntity
  8
一般
370
               0
390
0
  6
Continuous
 62
               1
100
AcDbLine
 10
-580.0
 20
15.000000000000455
 30
0.0
 11
-580.0
 21
-584.99999999999955
 31
0.0
  0
MTEXT
  5
5E0
100
AcDbEntity
  8
一般
390
0
 62
               1
100
AcDbMText
 10
344.32489881697518
 20
-1189.1490255079786
 30
0.0
 40
40.721028645833343
 41
0.0
 71
               1
 72
               1
  1
{\fＭＳ ゴシック|b0|i0|c128|p0;\l寸法図はG712Pro-R(右側仕様）}
 73
               1
 44
0.7828267384257843
  0
LINE
  5
5E1
100
AcDbEntity
  8
一般
370
               0
390
0
  6
Continuous
 62
               1
100
AcDbLine
 10
300.0
 20
-1250.0
 30
0.0
 11
1100.0
 21
-1250.0
 31
0.0
  0
INSERT
  5
5E2
100
AcDbEntity
  8
Layer1
390
0
 62
               1
100
AcDbBlockReference
  2
Callout
 10
558.81151726029884
 20
-844.00839056672362
 30
0.0
 50
100.17795783343418
  0
INSERT
  5
5E3
100
AcDbEntity
  8
一般
390
0
 62
               1
100
AcDbBlockReference
  2
Callout-1
 10
195.0
 20
325.0
 30
0.0
 50
161.94758851941452
  0
ENDSEC
  0
SECTION
  2
OBJECTS
  0
DICTIONARY
  5
19
100
AcDbDictionary
280
               0
281
               1
  3
ACAD_GROUP
350
1A
  3
ACAD_MLINESTYLE
350
1B
  3
ACAD_LAYOUT
350
1E
  3
ACAD_PLOTSETTINGS
350
22
  3
ACAD_PLOTSTYLENAME
350
1F
  3
ACAD_WIPEOUT_VARS
350
23
  0
DICTIONARY
  5
1A
102
{ACAD_REACTORS
330
19
102
}
100
AcDbDictionary
280
               0
281
               1
  0
DICTIONARY
  5
1B
102
{ACAD_REACTORS
330
19
102
}
100
AcDbDictionary
280
               0
281
               1
  3
Standard
350
1C
  0
MLINESTYLE
  5
1C
102
{ACAD_REACTORS
330
1B
102
}
100
AcDbMlineStyle
  2
Standard
 70
               0
  3

 62
               0
 51
90.0
 52
90.0
 71
               2
 49
0.5
 62
             256
  6
ByLayer
 49
-0.5
 62
             256
  6
ByLayer
  0
ACDBDICTIONARYWDFLT
  5
1F
102
{ACAD_REACTORS
330
19
102
}
100
AcDbDictionary
281
               1
  3
Normal
350
1D
100
AcDbDictionaryWithDefault
340
1D
  0
ACDBPLACEHOLDER
  5
1D
102
{ACAD_REACTORS
330
1F
102
}
  0
LAYOUT
  5
20
102
{ACAD_REACTORS
330
1E
102
}
100
AcDbPlotSettings
  1

  2

  4

  6

 40
0.0
 41
0.0
 42
0.0
 43
0.0
 44
0.0
 45
0.0
 46
0.0
 47
0.0
 48
0.0
 49
0.0
140
0.0
141
0.0
142
1.0
143
1.0
 70
            1024
 72
               0
 73
               0
 74
               0
  7
G712Pro_LR.ctb
 75
               0
147
1.0
148
0.0
149
0.0
100
AcDbLayout
  1
Model
 70
               0
 71
               0
 10
0.0
 20
0.0
 11
0.0
 21
0.0
 12
0.0
 22
0.0
 32
0.0
 14
0.0
 24
0.0
 34
0.0
 15
0.0
 25
0.0
 35
0.0
146
0.0
 13
0.0
 23
0.0
 33
0.0
 16
0.0
 26
0.0
 36
0.0
 17
0.0
 27
0.0
 37
0.0
 76
               0
330
A
331
0
345
0
346
0
  0
LAYOUT
  5
21
102
{ACAD_REACTORS
330
1E
102
}
100
AcDbPlotSettings
  1

  2

  4

  6

 40
0.0
 41
0.0
 42
0.0
 43
0.0
 44
0.0
 45
0.0
 46
0.0
 47
0.0
 48
0.0
 49
0.0
140
0.0
141
0.0
142
1.0
143
1.0
 70
               0
 72
               0
 73
               0
 74
               0
  7

 75
               0
147
1.0
148
0.0
149
0.0
100
AcDbLayout
  1
Layout1
 70
               0
 71
               0
 10
0.0
 20
0.0
 11
0.0
 21
0.0
 12
0.0
 22
0.0
 32
0.0
 14
0.0
 24
0.0
 34
0.0
 15
0.0
 25
0.0
 35
0.0
146
0.0
 13
0.0
 23
0.0
 33
0.0
 16
0.0
 26
0.0
 36
0.0
 17
0.0
 27
0.0
 37
0.0
 76
               0
330
B
331
0
345
0
346
0
  0
DICTIONARY
  5
1E
102
{ACAD_REACTORS
330
19
102
}
100
AcDbDictionary
280
               0
281
               1
  3
Layout1
350
21
  3
Model
350
20
  0
DICTIONARY
  5
22
102
{ACAD_REACTORS
330
19
102
}
100
AcDbDictionary
280
               0
281
               1
  0
WIPEOUTVARIABLES
  5
23
100
AcDbWipeoutVariables
 70
               0
  0
ENDSEC
  0
EOF
