  0
SECTION
  2
HEADER
  9
$ACADVER
  1
AC1015
  9
$ACADMAINTVER
 70
               6
  9
$DWGCODEPAGE
  3
ANSI_932
  9
$INSBASE
 10
0.0
 20
0.0
 30
0.0
  9
$EXTMIN
 10
-1249.9999999999998
 20
-1866.5383663178545
 30
0.0
  9
$EXTMAX
 10
1449.9999999999998
 20
2139.4710705281227
 30
0.0
  9
$LIMMIN
 10
0.0
 20
0.0
  9
$LIMMAX
 10
0.0
 20
0.0
  9
$ORTHOMODE
 70
               0
  9
$REGENMODE
 70
               1
  9
$FILLMODE
 70
               1
  9
$QTEXTMODE
 70
               0
  9
$MIRRTEXT
 70
               1
  9
$LTSCALE
 40
76.199999999999989
  9
$ATTMODE
 70
               1
  9
$TEXTSIZE
 40
0.2
  9
$TRACEWID
 40
1.0
  9
$TEXTSTYLE
  7
Standard
  9
$CLAYER
  8
一般
  9
$CELTYPE
  6
Continuous
  9
$CECOLOR
 62
             256
  9
$CELTSCALE
 40
1.0
  9
$DISPSILH
 70
               0
  9
$DIMSCALE
 40
1.0
  9
$DIMASZ
 40
37.50933837890625
  9
$DIMEXO
 40
29.999999999999996
  9
$DIMDLI
 40
4.9999999999999991
  9
$DIMRND
 40
0.0
  9
$DIMDLE
 40
0.0
  9
$DIMEXE
 40
29.999999999999996
  9
$DIMTP
 40
0.0
  9
$DIMTM
 40
0.0
  9
$DIMTXT
 40
40.721028645833343
  9
$DIMCEN
 40
0.0
  9
$DIMTSZ
 40
0.0
  9
$DIMTOL
 70
               0
  9
$DIMLIM
 70
               0
  9
$DIMTIH
 70
               0
  9
$DIMTOH
 70
               0
  9
$DIMSE1
 70
               0
  9
$DIMSE2
 70
               0
  9
$DIMTAD
 70
               1
  9
$DIMZIN
 70
              11
  9
$DIMBLK
  1
VW_EMPTYARROW
  9
$DIMASO
 70
               1
  9
$DIMSHO
 70
               1
  9
$DIMPOST
  1
<>
  9
$DIMAPOST
  1
[]
  9
$DIMALT
 70
               0
  9
$DIMALTD
 70
               2
  9
$DIMALTF
 40
1.0
  9
$DIMLFAC
 40
1.0
  9
$DIMTOFL
 70
               1
  9
$DIMTVP
 40
0.0
  9
$DIMTIX
 70
               1
  9
$DIMSOXD
 70
               0
  9
$DIMSAH
 70
               0
  9
$DIMBLK1
  1

  9
$DIMBLK2
  1

  9
$DIMSTYLE
  2
HIBINO
  9
$DIMCLRD
 70
               0
  9
$DIMCLRE
 70
               0
  9
$DIMCLRT
 70
               0
  9
$DIMTFAC
 40
1.0
  9
$DIMGAP
 40
0.4999999999999999
  9
$DIMJUST
 70
               0
  9
$DIMSD1
 70
               0
  9
$DIMSD2
 70
               0
  9
$DIMTOLJ
 70
               1
  9
$DIMTZIN
 70
              11
  9
$DIMALTZ
 70
              11
  9
$DIMALTTZ
 70
              11
  9
$DIMUPT
 70
               0
  9
$DIMDEC
 70
               2
  9
$DIMTDEC
 70
               2
  9
$DIMALTU
 70
               2
  9
$DIMALTTD
 70
               2
  9
$DIMTXSTY
  7
ＭＳ ゴシック
  9
$DIMAUNIT
 70
               0
  9
$DIMADEC
 70
               0
  9
$DIMALTRND
 40
0.0
  9
$DIMAZIN
 70
               0
  9
$DIMDSEP
 70
              46
  9
$DIMATFIT
 70
               0
  9
$DIMFRAC
 70
               2
  9
$DIMLDRBLK
  1

  9
$DIMLUNIT
 70
               2
  9
$DIMLWD
 70
              -2
  9
$DIMLWE
 70
              -2
  9
$DIMTMOVE
 70
               0
  9
$LUNITS
 70
               2
  9
$LUPREC
 70
               4
  9
$SKETCHINC
 40
0.1
  9
$FILLETRAD
 40
0.0
  9
$AUNITS
 70
               0
  9
$AUPREC
 70
               0
  9
$MENU
  1
acad
  9
$ELEVATION
 40
0.0
  9
$PELEVATION
 40
0.0
  9
$THICKNESS
 40
0.0
  9
$LIMCHECK
 70
               0
  9
$CHAMFERA
 40
0.0
  9
$CHAMFERB
 40
0.0
  9
$CHAMFERC
 40
0.0
  9
$CHAMFERD
 40
0.0
  9
$SKPOLY
 70
               0
  9
$TDCREATE
 40
2458499.698854167
  9
$TDUCREATE
 40
0.000000000
  9
$TDUPDATE
 40
2458499.698854167
  9
$TDUUPDATE
 40
0.000000000
  9
$TDINDWG
 40
0.0000000000
  9
$TDUSRTIMER
 40
0.0000000000
  9
$USRTIMER
 70
               1
  9
$ANGBASE
 50
0.0
  9
$ANGDIR
 70
               0
  9
$PDMODE
 70
               1
  9
$PDSIZE
 40
-2.0
  9
$PLINEWID
 40
0.0
  9
$SPLFRAME
 70
               0
  9
$SPLINETYPE
 70
               6
  9
$SPLINESEGS
 70
               8
  9
$HANDSEED
  5
452
  9
$SURFTAB1
 70
               6
  9
$SURFTAB2
 70
               6
  9
$SURFTYPE
 70
               6
  9
$SURFU
 70
               6
  9
$SURFV
 70
               6
  9
$UCSBASE
  2

  9
$UCSNAME
  2

  9
$UCSORG
 10
0.0
 20
0.0
 30
0.0
  9
$UCSXDIR
 10
1.0
 20
0.0
 30
0.0
  9
$UCSYDIR
 10
0.0
 20
1.0
 30
0.0
  9
$UCSORTHOREF
  2

  9
$UCSORTHOVIEW
 70
               0
  9
$UCSORGTOP
 10
0.0
 20
0.0
 30
0.0
  9
$UCSORGBOTTOM
 10
0.0
 20
0.0
 30
0.0
  9
$UCSORGLEFT
 10
0.0
 20
0.0
 30
0.0
  9
$UCSORGRIGHT
 10
0.0
 20
0.0
 30
0.0
  9
$UCSORGFRONT
 10
0.0
 20
0.0
 30
0.0
  9
$UCSORGBACK
 10
0.0
 20
0.0
 30
0.0
  9
$PUCSBASE
  2

  9
$PUCSNAME
  2

  9
$PUCSORG
 10
0.0
 20
0.0
 30
0.0
  9
$PUCSXDIR
 10
1.0
 20
0.0
 30
0.0
  9
$PUCSYDIR
 10
0.0
 20
1.0
 30
0.0
  9
$PUCSORTHOREF
  2

  9
$PUCSORTHOVIEW
 70
               0
  9
$PUCSORGTOP
 10
0.0
 20
0.0
 30
0.0
  9
$PUCSORGBOTTOM
 10
0.0
 20
0.0
 30
0.0
  9
$PUCSORGLEFT
 10
0.0
 20
0.0
 30
0.0
  9
$PUCSORGRIGHT
 10
0.0
 20
0.0
 30
0.0
  9
$PUCSORGFRONT
 10
0.0
 20
0.0
 30
0.0
  9
$PUCSORGBACK
 10
0.0
 20
0.0
 30
0.0
  9
$USERI1
 70
               0
  9
$USERI2
 70
               0
  9
$USERI3
 70
               0
  9
$USERI4
 70
               0
  9
$USERI5
 70
               0
  9
$USERR1
 40
0.0
  9
$USERR2
 40
0.0
  9
$USERR3
 40
0.0
  9
$USERR4
 40
0.0
  9
$USERR5
 40
0.0
  9
$WORLDVIEW
 70
               1
  9
$SHADEDGE
 70
               3
  9
$SHADEDIF
 70
              70
  9
$TILEMODE
 70
               1
  9
$MAXACTVP
 70
              64
  9
$PINSBASE
 10
0.0
 20
0.0
 30
0.0
  9
$PLIMCHECK
 70
               0
  9
$PEXTMIN
 10
1.0000000000000000E+20
 20
1.0000000000000000E+20
 30
1.0000000000000000E+20
  9
$PEXTMAX
 10
-1.0000000000000000E+20
 20
-1.0000000000000000E+20
 30
-1.0000000000000000E+20
  9
$PLIMMIN
 10
0.0
 20
0.0
  9
$PLIMMAX
 10
12.0
 20
9.0
  9
$UNITMODE
 70
               0
  9
$VISRETAIN
 70
               0
  9
$PLINEGEN
 70
               1
  9
$PSLTSCALE
 70
               0
  9
$TREEDEPTH
 70
            3020
  9
$CMLSTYLE
  2
Standard
  9
$CMLJUST
 70
               0
  9
$CMLSCALE
 40
1.0
  9
$PROXYGRAPHICS
 70
               0
  9
$MEASUREMENT
 70
               1
  9
$CELWEIGHT
370
               0
  9
$ENDCAPS
280
               0
  9
$JOINSTYLE
280
               0
  9
$LWDISPLAY
290
               0
  9
$INSUNITS
 70
               4
  9
$HYPERLINKBASE
  1

  9
$STYLESHEET
  1

  9
$XEDIT
290
               1
  9
$CEPSNTYPE
380
               0
  9
$PSTYLEMODE
290
               1
  9
$FINGERPRINTGUID
  2

  9
$VERSIONGUID
  2

  9
$EXTNAMES
290
               1
  9
$PSVPSCALE
 40
0.0
  0
ENDSEC
  0
SECTION
  2
CLASSES
  0
CLASS
  1
LWPOLYLINE
  2
AcDbPolyline
  3
AutoCAD 2000
 90
        0
280
               0
281
               1
  0
CLASS
  1
IMAGE
  2
AcDbRasterImage
  3
ISM
 90
      127
280
               0
281
               1
  0
CLASS
  1
OLE2FRAME
  2
AcDbOle2Frame
  3
AutoCAD 2000
 90
        0
280
               0
281
               1
  0
CLASS
  1
HATCH
  2
AcDbHatch
  3
AutoCAD 2000
 90
        0
280
               0
281
               1
  0
CLASS
  1
DICTIONARYVAR
  2
AcDbDictionaryVar
  3
AutoCAD 2000
 90
        0
280
               0
281
               0
  0
CLASS
  1
RASTERVARIABLES
  2
AcDbRasterVariables
  3
ISM
 90
        0
280
               0
281
               0
  0
CLASS
  1
IMAGEDEF
  2
AcDbRasterImageDef
  3
ISM
 90
        0
280
               0
281
               0
  0
CLASS
  1
IMAGEDEF_REACTOR
  2
AcDbRasterImageDefReactor
  3
ISM
 90
        1
280
               0
281
               0
  0
CLASS
  1
IDBUFFER
  2
AcDbIdBuffer
  3
AutoCAD 2000
 90
        0
280
               0
281
               0
  0
CLASS
  1
SPATIAL_FILTER
  2
AcDbSpatialFilter
  3
AutoCAD 2000
 90
        0
280
               0
281
               0
  0
CLASS
  1
XRECORD
  2
AcDbXrecord
  3
AutoCAD 2000
 90
        0
280
               0
281
               0
  0
CLASS
  1
SORTENTSTABLE
  2
AcDbSortentsTable
  3
AutoCAD 2000
 90
        0
280
               0
281
               0
  0
CLASS
  1
LAYER_INDEX
  2
AcDbLayerIndex
  3
AutoCAD 2000
 90
        0
280
               0
281
               0
  0
CLASS
  1
SPATIAL_INDEX
  2
AcDbSpatialIndex
  3
AutoCAD 2000
 90
        0
280
               0
281
               0
  0
CLASS
  1
OBJECT_PTR
  2
CAseDLPNTableRecord
  3
"ASE-LPNTableRecord"
 90
        1
280
               0
281
               0
  0
CLASS
  1
LAYOUT
  2
AcDbLayout
  3
AutoCAD 2000
 90
        0
280
               0
281
               0
  0
CLASS
  1
PLOTSETTINGS
  2
AcDbPlotSettings
  3
AutoCAD 2000
 90
        0
280
               0
281
               0
  0
CLASS
  1
ACDBDICTIONARYWDFLT
  2
AcDbDictionaryWithDefault
  3
AutoCAD 2000
 90
        0
280
               0
281
               0
  0
CLASS
  1
ACDBPLACEHOLDER
  2
AcDbPlaceHolder
  3
AutoCAD 2000
 90
        0
280
               0
281
               0
  0
CLASS
  1
VBA_PROJECT
  2
AcDbVbaProject
  3
acadvba
 90
        0
280
               0
281
               0
  0
CLASS
  1
WIPEOUT
  2
AcDbWipeout
  3
WipeOut|AutoCAD Express Tool|expresstools@autodesk.com
 90
      127
280
               0
281
               1
  0
CLASS
  1
WIPEOUTVARIABLES
  2
AcDbWipeoutVariables
  3
WipeOut|AutoCAD Express Tool|expresstools@autodesk.com
 90
        0
280
               0
281
               0
  0
CLASS
  1
RTEXT
  2
RText
  3
RText|AutoCAD Express Tool|expresstools@autodesk.com
 90
        0
280
               0
281
               1
  0
CLASS
  1
ARCALIGNEDTEXT
  2
AcDbArcAlignedText
  3
ATEXT|AutoCAD Express Tool|expresstools@autodesk.com
 90
        0
280
               0
281
               1
  0
ENDSEC
  0
SECTION
  2
TABLES
  0
TABLE
  2
VPORT
  5
7
100
AcDbSymbolTable
 70
               1
  0
VPORT
  5
15
100
AcDbSymbolTableRecord
100
AcDbViewportTableRecord
  2
*ACTIVE
 70
               0
 10
0.0
 20
0.0
 11
1.0
 21
1.0
 12
100.0
 22
136.46635210513409
 13
0.0
 23
0.0
 14
1.0
 24
1.0
 15
0.0
 25
0.0
 16
0.0
 26
0.0
 36
1.0
 17
0.0
 27
0.0
 37
0.0
 40
4006.0094368459772
 41
0.688564
 42
50.0
 43
0.0
 44
0.0
 50
0.0
 51
0.0
 71
               0
 72
            2000
 73
               1
 74
               1
 75
               0
 76
               0
 77
               0
 78
               0
281
               0
 65
               0
110
0.0
120
0.0
130
0.0
111
1.0
121
0.0
131
0.0
112
0.0
122
1.0
132
0.0
345
0
346
0
 79
               0
146
0.0
  0
ENDTAB
  0
TABLE
  2
LTYPE
  5
4
100
AcDbSymbolTable
 70
              13
  0
LTYPE
  5
11
100
AcDbSymbolTableRecord
100
AcDbLinetypeTableRecord
  2
ByBlock
 70
              64
  3

 72
              65
 73
               0
 40
0.0
  0
LTYPE
  5
12
100
AcDbSymbolTableRecord
100
AcDbLinetypeTableRecord
  2
ByLayer
 70
              64
  3

 72
              65
 73
               0
 40
0.0
  0
LTYPE
  5
13
100
AcDbSymbolTableRecord
100
AcDbLinetypeTableRecord
  2
Continuous
 70
              64
  3
Solid line
 72
              65
 73
               0
 40
0.0
  0
LTYPE
  5
2C
100
AcDbSymbolTableRecord
100
AcDbLinetypeTableRecord
  2
STYLE_01
 70
               0
  3

 72
              65
 73
               2
 40
0.4166412353515625
 49
0.208282470703125
 74
               0
 49
-0.2083587646484375
 74
               0
  0
LTYPE
  5
2D
100
AcDbSymbolTableRecord
100
AcDbLinetypeTableRecord
  2
STYLE_02
 70
               0
  3

 72
              65
 73
               2
 40
0.694427490234375
 49
0.4860687255859375
 74
               0
 49
-0.2083587646484375
 74
               0
  0
LTYPE
  5
2E
100
AcDbSymbolTableRecord
100
AcDbLinetypeTableRecord
  2
STYLE_03
 70
               0
  3

 72
              65
 73
               2
 40
1.25
 49
1.0416412353515625
 74
               0
 49
-0.2083587646484375
 74
               0
  0
LTYPE
  5
2F
100
AcDbSymbolTableRecord
100
AcDbLinetypeTableRecord
  2
STYLE_04
 70
               0
  3

 72
              65
 73
               2
 40
1.5277099609375
 49
1.319427490234375
 74
               0
 49
-0.208282470703125
 74
               0
  0
LTYPE
  5
30
100
AcDbSymbolTableRecord
100
AcDbLinetypeTableRecord
  2
STYLE_05
 70
               0
  3

 72
              65
 73
               2
 40
0.208282470703125
 49
0.069427490234375
 74
               0
 49
-0.13885498046875
 74
               0
  0
LTYPE
  5
31
100
AcDbSymbolTableRecord
100
AcDbLinetypeTableRecord
  2
STYLE_06
 70
               0
  3

 72
              65
 73
               4
 40
1.0416412353515625
 49
0.625
 74
               0
 49
-0.208282470703125
 74
               0
 49
0.069427490234375
 74
               0
 49
-0.1389312744140625
 74
               0
  0
LTYPE
  5
32
100
AcDbSymbolTableRecord
100
AcDbLinetypeTableRecord
  2
STYLE_07
 70
               0
  3

 72
              65
 73
               6
 40
1.875
 49
0.625
 74
               0
 49
-0.208282470703125
 74
               0
 49
0.625
 74
               0
 49
-0.2083587646484375
 74
               0
 49
0.069427490234375
 74
               0
 49
-0.1389312744140625
 74
               0
  0
LTYPE
  5
33
100
AcDbSymbolTableRecord
100
AcDbLinetypeTableRecord
  2
STYLE_08
 70
               0
  3

 72
              65
 73
               6
 40
1.25
 49
0.625
 74
               0
 49
-0.208282470703125
 74
               0
 49
0.069427490234375
 74
               0
 49
-0.1389312744140625
 74
               0
 49
0.069427490234375
 74
               0
 49
-0.1389312744140625
 74
               0
  0
LTYPE
  5
34
100
AcDbSymbolTableRecord
100
AcDbLinetypeTableRecord
  2
STYLE_09
 70
               0
  3

 72
              65
 73
               4
 40
5.0
 49
3.75
 74
               0
 49
-0.2777862548828125
 74
               0
 49
0.694427490234375
 74
               0
 49
-0.2777862548828125
 74
               0
  0
LTYPE
  5
35
100
AcDbSymbolTableRecord
100
AcDbLinetypeTableRecord
  2
STYLE_10
 70
               0
  3

 72
              65
 73
               6
 40
5.9375
 49
3.75
 74
               0
 49
-0.2777862548828125
 74
               0
 49
0.694427490234375
 74
               0
 49
-0.2777862548828125
 74
               0
 49
0.625
 74
               0
 49
-0.3125
 74
               0
  0
ENDTAB
  0
TABLE
  2
LAYER
  5
2
100
AcDbSymbolTable
 70
               5
  0
LAYER
  5
14
100
AcDbSymbolTableRecord
100
AcDbLayerTableRecord
  2
0
 70
               0
 62
               7
  6
Continuous
290
               1
370
              -3
390
1D
  0
LAYER
  5
36
100
AcDbSymbolTableRecord
100
AcDbLayerTableRecord
  2
一般
 70
               0
 62
               7
  6
Continuous
290
               1
370
               0
390
1D
  0
LAYER
  5
37
100
AcDbSymbolTableRecord
100
AcDbLayerTableRecord
  2
寸法
 70
               0
 62
               7
  6
Continuous
290
               1
370
               0
390
1D
  0
LAYER
  5
38
100
AcDbSymbolTableRecord
100
AcDbLayerTableRecord
  2
Layer1
 70
               0
 62
               3
  6
Continuous
290
               1
370
               0
390
1D
  0
LAYER
  5
39
100
AcDbSymbolTableRecord
100
AcDbLayerTableRecord
  2
Defpoints
 70
               0
 62
               7
  6
Continuous
290
               0
370
              -3
390
1D
  0
ENDTAB
  0
TABLE
  2
STYLE
  5
3
100
AcDbSymbolTable
 70
               2
  0
STYLE
  5
17
100
AcDbSymbolTableRecord
100
AcDbTextStyleTableRecord
  2
Standard
 70
               0
 40
0.0
 41
1.0
 50
0.0
 71
               0
 42
0.0
  3
txt
  4
BIGFONT.SHX
  0
STYLE
  5
2B
100
AcDbSymbolTableRecord
100
AcDbTextStyleTableRecord
  2
ＭＳ ゴシック
 70
               0
 40
0.0
 41
1.0
 50
0.0
 71
               0
 42
0.0
  3

  4
ＭＳ ゴシック
1001
ACAD
1000
ＭＳ ゴシック
1071
        0
  0
ENDTAB
  0
TABLE
  2
VIEW
  5
5
100
AcDbSymbolTable
 70
               0
  0
ENDTAB
  0
TABLE
  2
UCS
  5
6
100
AcDbSymbolTable
 70
               0
  0
ENDTAB
  0
TABLE
  2
APPID
  5
8
100
AcDbSymbolTable
 70
               1
  0
APPID
  5
16
100
AcDbSymbolTableRecord
100
AcDbRegAppTableRecord
  2
ACAD
 70
               0
  0
ENDTAB
  0
TABLE
  2
DIMSTYLE
  5
9
100
AcDbSymbolTable
 70
               2
100
AcDbDimStyleTable
 71
               0
  0
DIMSTYLE
105
18
100
AcDbSymbolTableRecord
100
AcDbDimStyleTableRecord
  2
Standard
 70
               0
  3

  4

 40
1.0
 41
0.18
 42
0.0625
 43
0.38
 44
0.18
 45
0.0
 46
0.0
 47
0.0
 48
0.0
 71
               0
 72
               0
 73
               1
 74
               1
 75
               0
 76
               0
 77
               0
 78
               0
 79
               0
140
0.18
141
0.09
142
0.0
143
25.399999999999999
144
1.0
145
0.0
146
1.0
147
0.09
148
0.0
170
               0
171
               2
172
               0
173
               0
174
               0
175
               0
176
               0
177
               0
178
               0
179
               0
271
               4
272
               4
273
               2
274
               2
275
               0
276
               0
277
               2
278
              46
279
               0
280
               0
281
               0
282
               0
283
               1
284
               0
285
               0
286
               0
288
               0
289
               3
340
17
341
0
342
0
343
0
344
0
371
              -2
372
              -2
  0
DIMSTYLE
105
43
100
AcDbSymbolTableRecord
100
AcDbDimStyleTableRecord
  2
HIBINO
 70
               0
  3
<>
  4
[]
 40
1.0
 41
37.50933837890625
 42
29.999999999999996
 43
4.9999999999999991
 44
29.999999999999996
 45
0.0
 46
0.0
 47
0.0
 48
0.0
 71
               0
 72
               0
 73
               0
 74
               0
 75
               0
 76
               0
 77
               1
 78
              11
 79
               0
140
40.721028645833343
141
0.0
142
0.0
143
1.0
144
1.0
145
0.0
146
1.0
147
0.4999999999999999
148
0.0
170
               0
171
               2
172
               1
173
               0
174
               1
175
               0
176
               0
177
               0
178
               0
179
               0
271
               2
272
               2
273
               2
274
               2
275
               0
276
               2
277
               2
278
              46
279
               0
280
               0
281
               0
282
               0
283
               1
284
              11
285
              11
286
              11
288
               0
289
               0
340
2B
341
3A
342
3A
343
0
344
0
371
              -2
372
              -2
  0
ENDTAB
  0
TABLE
  2
BLOCK_RECORD
  5
1
100
AcDbSymbolTable
 70
               8
  0
BLOCK_RECORD
  5
A
100
AcDbSymbolTableRecord
100
AcDbBlockTableRecord
  2
*MODEL_SPACE
340
20
  0
BLOCK_RECORD
  5
B
100
AcDbSymbolTableRecord
100
AcDbBlockTableRecord
  2
*PAPER_SPACE
340
21
  0
BLOCK_RECORD
  5
3A
100
AcDbSymbolTableRecord
100
AcDbBlockTableRecord
  2
VW_EMPTYARROW
340
0
  0
BLOCK_RECORD
  5
24
100
AcDbSymbolTableRecord
100
AcDbBlockTableRecord
  2
Callout
340
0
102
{BLKREFS
331
10F
102
}
  0
BLOCK_RECORD
  5
25
100
AcDbSymbolTableRecord
100
AcDbBlockTableRecord
  2
Callout-1
340
0
102
{BLKREFS
331
110
102
}
  0
BLOCK_RECORD
  5
26
100
AcDbSymbolTableRecord
100
AcDbBlockTableRecord
  2
*D3
340
0
  0
BLOCK_RECORD
  5
27
100
AcDbSymbolTableRecord
100
AcDbBlockTableRecord
  2
*D4
340
0
  0
BLOCK_RECORD
  5
28
100
AcDbSymbolTableRecord
100
AcDbBlockTableRecord
  2
*D5
340
0
  0
BLOCK_RECORD
  5
29
100
AcDbSymbolTableRecord
100
AcDbBlockTableRecord
  2
*D6
340
0
  0
BLOCK_RECORD
  5
2A
100
AcDbSymbolTableRecord
100
AcDbBlockTableRecord
  2
*D7
340
0
  0
ENDTAB
  0
ENDSEC
  0
SECTION
  2
BLOCKS
  0
BLOCK
  5
D
100
AcDbEntity
  8
0
390
0
100
AcDbBlockBegin
  2
*MODEL_SPACE
 70
               0
 10
0.0
 20
0.0
 30
0.0
  3
*MODEL_SPACE
  1

  0
ENDBLK
  5
E
100
AcDbEntity
  8
0
390
0
100
AcDbBlockEnd
  0
BLOCK
  5
F
100
AcDbEntity
 67
               1
  8
0
390
0
100
AcDbBlockBegin
  2
*PAPER_SPACE
 70
               0
 10
0.0
 20
0.0
 30
0.0
  3
*PAPER_SPACE
  1

  0
ENDBLK
  5
10
100
AcDbEntity
 67
               1
  8
0
390
0
100
AcDbBlockEnd
  0
BLOCK
  5
3B
100
AcDbEntity
  8
0
370
              -2
390
0
  6
ByBlock
 62
               0
100
AcDbBlockBegin
  2
VW_EMPTYARROW
 70
               0
 10
0.0
 20
0.0
 30
0.0
  3
VW_EMPTYARROW
  1

  0
LINE
  5
3C
100
AcDbEntity
  8
0
370
              -2
390
0
  6
ByBlock
 62
               0
100
AcDbLine
 10
0.0
 20
0.0
 30
0.0
 11
-1.0
 21
0.0
 31
0.0
  0
POLYLINE
  5
3D
100
AcDbEntity
  8
一般
370
              -2
390
0
  6
Continuous
 62
               0
100
AcDb2dPolyline
 66
               1
 10
0.0
 20
0.0
 30
0.0
 75
               5
  0
VERTEX
  5
3E
100
AcDbEntity
  8
一般
370
              -2
390
0
  6
Continuous
 62
               0
100
AcDbVertex
100
AcDb2dVertex
 10
-0.99993896484375
 20
0.2679328381102957
 30
0.0
  0
VERTEX
  5
3F
100
AcDbEntity
  8
一般
370
              -2
390
0
  6
Continuous
 62
               0
100
AcDbVertex
100
AcDb2dVertex
 10
0.0
 20
0.0
 30
0.0
  0
VERTEX
  5
40
100
AcDbEntity
  8
一般
370
              -2
390
0
  6
Continuous
 62
               0
100
AcDbVertex
100
AcDb2dVertex
 10
-0.9999389648437499
 20
-0.2679328381102959
 30
0.0
  0
SEQEND
  5
41
100
AcDbEntity
  8
一般
370
              -2
390
0
  6
Continuous
 62
               0
  0
ENDBLK
  5
42
100
AcDbEntity
  8
0
390
0
100
AcDbBlockEnd
  0
BLOCK
  5
44
100
AcDbEntity
  8
Layer1
390
0
100
AcDbBlockBegin
  2
Callout
 70
               2
 10
0.0
 20
0.0
 30
0.0
  3
Callout
  1

  0
MTEXT
  5
45
100
AcDbEntity
  8
Layer1
390
0
 62
               1
100
AcDbMText
 10
9.7802435981042137
 20
-51.649338631218136
 30
0.0
 40
36.64892578125
 41
675.24900000000002
 71
               1
 72
               1
  1
{\fＭＳ ゴシック|b0|i0|c128|p0;\lG515Proのこの位置のネジ径は左右ともに8mmです。}
 11
-0.1917782605190461
 21
-0.9814382806841645
 31
0.0
 73
               1
 44
0.7828267384257843
  0
LINE
  5
46
100
AcDbEntity
  8
Layer1
370
               0
390
0
  6
Continuous
 62
               1
100
AcDbLine
 10
-9.1334396572195864
 20
-46.740998117583331
 30
0.0
 11
0.0
 21
0.0
 31
0.0
  0
LINE
  5
47
100
AcDbEntity
  8
Layer1
370
               0
390
0
  6
Continuous
 62
               1
100
AcDbLine
 10
0.0
 20
0.0
 30
0.0
 11
567.3819178764129
 21
0.0
 31
0.0
  0
POLYLINE
  5
48
100
AcDbEntity
  8
一般
370
               0
390
0
  6
Continuous
 62
               1
100
AcDb2dPolyline
 66
               1
 10
0.0
 20
0.0
 30
0.0
 75
               5
  0
VERTEX
  5
49
100
AcDbEntity
  8
一般
370
               0
390
0
  6
Continuous
 62
               1
100
AcDbVertex
100
AcDb2dVertex
 10
519.7569178764129
 20
12.76108028953222
 30
0.0
  0
VERTEX
  5
4A
100
AcDbEntity
  8
一般
370
               0
390
0
  6
Continuous
 62
               1
100
AcDbVertex
100
AcDb2dVertex
 10
567.3819178764129
 20
0.0
 30
0.0
  0
VERTEX
  5
4B
100
AcDbEntity
  8
一般
370
               0
390
0
  6
Continuous
 62
               1
100
AcDbVertex
100
AcDb2dVertex
 10
519.7569178764129
 20
-12.761080289532231
 30
0.0
  0
SEQEND
  5
4C
100
AcDbEntity
  8
一般
370
               0
390
0
  6
Continuous
 62
               1
  0
ENDBLK
  5
4D
100
AcDbEntity
  8
Layer1
390
0
100
AcDbBlockEnd
  0
BLOCK
  5
4E
100
AcDbEntity
  8
一般
390
0
100
AcDbBlockBegin
  2
Callout-1
 70
               2
 10
0.0
 20
0.0
 30
0.0
  3
Callout-1
  1

  0
MTEXT
  5
4F
100
AcDbEntity
  8
一般
390
0
 62
               1
100
AcDbMText
 10
-100.35605664883471
 20
-14.257911268506916
 30
0.0
 40
58.63828125000029
 41
152.65399596277868
 71
               1
 72
               1
  1
{\fＭＳ ゴシック|b0|i0|c128|p0;\lΦM6}
 11
-0.9852754812726037
 21
0.170974343113343
 31
0.0
 73
               1
 44
0.7828267384257842
  0
LINE
  5
50
100
AcDbEntity
  8
一般
370
               0
390
0
  6
Continuous
 62
               1
100
AcDbLine
 10
-93.847489591215506
 20
16.285306181545909
 30
0.0
 11
0.0
 21
0.0
 31
0.0
  0
LINE
  5
51
100
AcDbEntity
  8
一般
370
               0
390
0
  6
Continuous
 62
               1
100
AcDbLine
 10
0.0
 20
0.0
 30
0.0
 11
341.08101581585072
 21
0.0
 31
0.0
  0
POLYLINE
  5
52
100
AcDbEntity
  8
一般
370
               0
390
0
  6
Continuous
 62
               1
100
AcDb2dPolyline
 66
               1
 10
0.0
 20
0.0
 30
0.0
 75
               5
  0
VERTEX
  5
53
100
AcDbEntity
  8
一般
370
               0
390
0
  6
Continuous
 62
               1
100
AcDbVertex
100
AcDb2dVertex
 10
293.45601581585072
 20
12.76108028953222
 30
0.0
  0
VERTEX
  5
54
100
AcDbEntity
  8
一般
370
               0
390
0
  6
Continuous
 62
               1
100
AcDbVertex
100
AcDb2dVertex
 10
341.08101581585072
 20
0.0
 30
0.0
  0
VERTEX
  5
55
100
AcDbEntity
  8
一般
370
               0
390
0
  6
Continuous
 62
               1
100
AcDbVertex
100
AcDb2dVertex
 10
293.45601581585072
 20
-12.761080289532231
 30
0.0
  0
SEQEND
  5
56
100
AcDbEntity
  8
一般
370
               0
390
0
  6
Continuous
 62
               1
  0
ENDBLK
  5
57
100
AcDbEntity
  8
一般
390
0
100
AcDbBlockEnd
  0
BLOCK
  5
58
100
AcDbEntity
  8
寸法
390
0
100
AcDbBlockBegin
  2
*D3
 70
               1
 10
0.0
 20
0.0
 30
0.0
  3
*D3
  1

  0
LINE
  5
59
100
AcDbEntity
  8
寸法
370
              -2
390
0
  6
Continuous
 62
               0
100
AcDbLine
 10
-200.0
 20
-630.0
 30
0.0
 11
-200.0
 21
-780.0
 31
0.0
  0
LINE
  5
5A
100
AcDbEntity
  8
寸法
370
              -2
390
0
  6
Continuous
 62
               0
100
AcDbLine
 10
219.99999999999631
 20
-629.99999999999818
 30
0.0
 11
219.99999999999631
 21
-780.0
 31
0.0
  0
LINE
  5
5B
100
AcDbEntity
  8
寸法
370
              -2
390
0
  6
Continuous
 62
               0
100
AcDbLine
 10
-200.0
 20
-750.0
 30
0.0
 11
219.99999999999631
 21
-750.0
 31
0.0
  0
POLYLINE
  5
5C
100
AcDbEntity
  8
一般
370
              -2
390
0
  6
Continuous
 62
               0
100
AcDb2dPolyline
 66
               1
 10
0.0
 20
0.0
 30
0.0
 75
               5
  0
VERTEX
  5
5D
100
AcDbEntity
  8
一般
370
              -2
390
0
  6
Continuous
 62
               0
100
AcDbVertex
100
AcDb2dVertex
 10
-162.49066162109375
 20
-760.05059692725365
 30
0.0
  0
VERTEX
  5
5E
100
AcDbEntity
  8
一般
370
              -2
390
0
  6
Continuous
 62
               0
100
AcDbVertex
100
AcDb2dVertex
 10
-200.0
 20
-750.0
 30
0.0
  0
VERTEX
  5
5F
100
AcDbEntity
  8
一般
370
              -2
390
0
  6
Continuous
 62
               0
100
AcDbVertex
100
AcDb2dVertex
 10
-162.49066162109375
 20
-739.94940307274635
 30
0.0
  0
SEQEND
  5
60
100
AcDbEntity
  8
一般
370
              -2
390
0
  6
Continuous
 62
               0
  0
POLYLINE
  5
61
100
AcDbEntity
  8
一般
370
              -2
390
0
  6
Continuous
 62
               0
100
AcDb2dPolyline
 66
               1
 10
0.0
 20
0.0
 30
0.0
 75
               5
  0
VERTEX
  5
62
100
AcDbEntity
  8
一般
370
              -2
390
0
  6
Continuous
 62
               0
100
AcDbVertex
100
AcDb2dVertex
 10
182.49066162109006
 20
-739.94940307274635
 30
0.0
  0
VERTEX
  5
63
100
AcDbEntity
  8
一般
370
              -2
390
0
  6
Continuous
 62
               0
100
AcDbVertex
100
AcDb2dVertex
 10
219.99999999999631
 20
-750.0
 30
0.0
  0
VERTEX
  5
64
100
AcDbEntity
  8
一般
370
              -2
390
0
  6
Continuous
 62
               0
100
AcDbVertex
100
AcDb2dVertex
 10
182.49066162109006
 20
-760.05059692725365
 30
0.0
  0
SEQEND
  5
65
100
AcDbEntity
  8
一般
370
              -2
390
0
  6
Continuous
 62
               0
  0
MTEXT
  5
66
100
AcDbEntity
  8
寸法
390
0
 62
               0
100
AcDbMText
 10
-29.687500000001833
 20
-694.37063802083333
 30
0.0
 40
40.721028645833343
 41
0.0
 71
               1
 72
               1
  1
{\fＭＳ ゴシック|b0|i0|c128|p0;\l420}
 73
               1
 44
0.7828267384257843
  0
POINT
  5
67
100
AcDbEntity
  8
Defpoints
370
               0
390
0
 62
               0
100
AcDbPoint
 10
219.99999999999631
 20
-599.99999999999818
 30
0.0
  0
POINT
  5
68
100
AcDbEntity
  8
Defpoints
370
               0
390
0
 62
               0
100
AcDbPoint
 10
-200.0
 20
-600.0
 30
0.0
  0
POINT
  5
69
100
AcDbEntity
  8
Defpoints
370
               0
390
0
 62
               0
100
AcDbPoint
 10
-200.0
 20
-750.0
 30
0.0
  0
ENDBLK
  5
6A
100
AcDbEntity
  8
寸法
390
0
100
AcDbBlockEnd
  0
BLOCK
  5
6B
100
AcDbEntity
  8
寸法
390
0
100
AcDbBlockBegin
  2
*D4
 70
               1
 10
0.0
 20
0.0
 30
0.0
  3
*D4
  1

  0
LINE
  5
6C
100
AcDbEntity
  8
寸法
370
              -2
390
0
  6
Continuous
 62
               0
100
AcDbLine
 10
-230.0
 20
-600.0
 30
0.0
 11
-380.0
 21
-600.0
 31
0.0
  0
LINE
  5
6D
100
AcDbEntity
  8
寸法
370
              -2
390
0
  6
Continuous
 62
               0
100
AcDbLine
 10
-230.0
 20
99.999971389769826
 30
0.0
 11
-380.0
 21
99.999971389769826
 31
0.0
  0
LINE
  5
6E
100
AcDbEntity
  8
寸法
370
              -2
390
0
  6
Continuous
 62
               0
100
AcDbLine
 10
-350.0
 20
-600.0
 30
0.0
 11
-350.0
 21
99.999971389769826
 31
0.0
  0
POLYLINE
  5
6F
100
AcDbEntity
  8
一般
370
              -2
390
0
  6
Continuous
 62
               0
100
AcDb2dPolyline
 66
               1
 10
0.0
 20
0.0
 30
0.0
 75
               5
  0
VERTEX
  5
70
100
AcDbEntity
  8
一般
370
              -2
390
0
  6
Continuous
 62
               0
100
AcDbVertex
100
AcDb2dVertex
 10
-339.94940307274635
 20
-562.49066162109375
 30
0.0
  0
VERTEX
  5
71
100
AcDbEntity
  8
一般
370
              -2
390
0
  6
Continuous
 62
               0
100
AcDbVertex
100
AcDb2dVertex
 10
-350.0
 20
-600.0
 30
0.0
  0
VERTEX
  5
72
100
AcDbEntity
  8
一般
370
              -2
390
0
  6
Continuous
 62
               0
100
AcDbVertex
100
AcDb2dVertex
 10
-360.05059692725365
 20
-562.49066162109375
 30
0.0
  0
SEQEND
  5
73
100
AcDbEntity
  8
一般
370
              -2
390
0
  6
Continuous
 62
               0
  0
POLYLINE
  5
74
100
AcDbEntity
  8
一般
370
              -2
390
0
  6
Continuous
 62
               0
100
AcDb2dPolyline
 66
               1
 10
0.0
 20
0.0
 30
0.0
 75
               5
  0
VERTEX
  5
75
100
AcDbEntity
  8
一般
370
              -2
390
0
  6
Continuous
 62
               0
100
AcDbVertex
100
AcDb2dVertex
 10
-360.05059692725365
 20
62.490633010863576
 30
0.0
  0
VERTEX
  5
76
100
AcDbEntity
  8
一般
370
              -2
390
0
  6
Continuous
 62
               0
100
AcDbVertex
100
AcDb2dVertex
 10
-350.0
 20
99.999971389769826
 30
0.0
  0
VERTEX
  5
77
100
AcDbEntity
  8
一般
370
              -2
390
0
  6
Continuous
 62
               0
100
AcDbVertex
100
AcDb2dVertex
 10
-339.94940307274635
 20
62.490633010863576
 30
0.0
  0
SEQEND
  5
78
100
AcDbEntity
  8
一般
370
              -2
390
0
  6
Continuous
 62
               0
  0
MTEXT
  5
79
100
AcDbEntity
  8
寸法
390
0
 62
               0
100
AcDbMText
 10
-405.62936197916656
 20
-289.68751430511509
 30
0.0
 40
40.721028645833343
 41
0.0
 71
               1
 72
               1
  1
{\fＭＳ ゴシック|b0|i0|c128|p0;\l700}
 11
0.0
 21
1.0
 31
0.0
 73
               1
 44
0.7828267384257843
  0
POINT
  5
7A
100
AcDbEntity
  8
Defpoints
370
               0
390
0
 62
               0
100
AcDbPoint
 10
-200.0
 20
99.999971389769826
 30
0.0
  0
POINT
  5
7B
100
AcDbEntity
  8
Defpoints
370
               0
390
0
 62
               0
100
AcDbPoint
 10
-200.0
 20
-600.0
 30
0.0
  0
POINT
  5
7C
100
AcDbEntity
  8
Defpoints
370
               0
390
0
 62
               0
100
AcDbPoint
 10
-350.0
 20
-600.0
 30
0.0
  0
ENDBLK
  5
7D
100
AcDbEntity
  8
寸法
390
0
100
AcDbBlockEnd
  0
BLOCK
  5
7E
100
AcDbEntity
  8
寸法
390
0
100
AcDbBlockBegin
  2
*D5
 70
               1
 10
0.0
 20
0.0
 30
0.0
  3
*D5
  1

  0
LINE
  5
7F
100
AcDbEntity
  8
寸法
370
              -2
390
0
  6
Continuous
 62
               0
100
AcDbLine
 10
-55.999800000252449
 20
400.00400621571441
 30
0.0
 11
-379.99980000025243
 21
400.00400621571441
 31
0.0
  0
LINE
  5
80
100
AcDbEntity
  8
寸法
370
              -2
390
0
  6
Continuous
 62
               0
100
AcDbLine
 10
-68.999800000252449
 20
769.99507500270033
 30
0.0
 11
-379.99980000025243
 21
769.99507500270033
 31
0.0
  0
LINE
  5
81
100
AcDbEntity
  8
寸法
370
              -2
390
0
  6
Continuous
 62
               0
100
AcDbLine
 10
-349.99980000025243
 20
400.00400621571441
 30
0.0
 11
-349.99980000025243
 21
769.99507500270033
 31
0.0
  0
POLYLINE
  5
82
100
AcDbEntity
  8
一般
370
              -2
390
0
  6
Continuous
 62
               0
100
AcDb2dPolyline
 66
               1
 10
0.0
 20
0.0
 30
0.0
 75
               5
  0
VERTEX
  5
83
100
AcDbEntity
  8
一般
370
              -2
390
0
  6
Continuous
 62
               0
100
AcDbVertex
100
AcDb2dVertex
 10
-339.94920307299878
 20
437.51334459462066
 30
0.0
  0
VERTEX
  5
84
100
AcDbEntity
  8
一般
370
              -2
390
0
  6
Continuous
 62
               0
100
AcDbVertex
100
AcDb2dVertex
 10
-349.99980000025243
 20
400.00400621571441
 30
0.0
  0
VERTEX
  5
85
100
AcDbEntity
  8
一般
370
              -2
390
0
  6
Continuous
 62
               0
100
AcDbVertex
100
AcDb2dVertex
 10
-360.05039692750609
 20
437.51334459462066
 30
0.0
  0
SEQEND
  5
86
100
AcDbEntity
  8
一般
370
              -2
390
0
  6
Continuous
 62
               0
  0
POLYLINE
  5
87
100
AcDbEntity
  8
一般
370
              -2
390
0
  6
Continuous
 62
               0
100
AcDb2dPolyline
 66
               1
 10
0.0
 20
0.0
 30
0.0
 75
               5
  0
VERTEX
  5
88
100
AcDbEntity
  8
一般
370
              -2
390
0
  6
Continuous
 62
               0
100
AcDbVertex
100
AcDb2dVertex
 10
-360.05039692750609
 20
732.48573662379408
 30
0.0
  0
VERTEX
  5
89
100
AcDbEntity
  8
一般
370
              -2
390
0
  6
Continuous
 62
               0
100
AcDbVertex
100
AcDb2dVertex
 10
-349.99980000025243
 20
769.99507500270033
 30
0.0
  0
VERTEX
  5
8A
100
AcDbEntity
  8
一般
370
              -2
390
0
  6
Continuous
 62
               0
100
AcDbVertex
100
AcDb2dVertex
 10
-339.94920307299878
 20
732.48573662379408
 30
0.0
  0
SEQEND
  5
8B
100
AcDbEntity
  8
一般
370
              -2
390
0
  6
Continuous
 62
               0
  0
MTEXT
  5
8C
100
AcDbEntity
  8
寸法
390
0
 62
               0
100
AcDbMText
 10
-405.629161979419
 20
545.31204060920732
 30
0.0
 40
40.721028645833343
 41
0.0
 71
               1
 72
               1
  1
{\fＭＳ ゴシック|b0|i0|c128|p0;\l370}
 11
0.0
 21
1.0
 31
0.0
 73
               1
 44
0.7828267384257843
  0
POINT
  5
8D
100
AcDbEntity
  8
Defpoints
370
               0
390
0
 62
               0
100
AcDbPoint
 10
-38.999800000252449
 20
769.99507500270033
 30
0.0
  0
POINT
  5
8E
100
AcDbEntity
  8
Defpoints
370
               0
390
0
 62
               0
100
AcDbPoint
 10
-25.999800000252449
 20
400.00400621571441
 30
0.0
  0
POINT
  5
8F
100
AcDbEntity
  8
Defpoints
370
               0
390
0
 62
               0
100
AcDbPoint
 10
-349.99980000025243
 20
400.00400621571441
 30
0.0
  0
ENDBLK
  5
90
100
AcDbEntity
  8
寸法
390
0
100
AcDbBlockEnd
  0
BLOCK
  5
91
100
AcDbEntity
  8
寸法
390
0
100
AcDbBlockBegin
  2
*D6
 70
               1
 10
0.0
 20
0.0
 30
0.0
  3
*D6
  1

  0
LINE
  5
92
100
AcDbEntity
  8
寸法
370
              -2
390
0
  6
Continuous
 62
               0
100
AcDbLine
 10
220.00008706400337
 20
656.39380132382303
 30
0.0
 11
220.00008706400337
 21
859.43326537890027
 31
0.0
  0
ARC
  5
93
100
AcDbEntity
  8
寸法
370
              -2
390
0
  6
Continuous
 62
               0
100
AcDbCircle
 10
220.00008706400337
 20
606.39380132382303
 30
0.0
 40
223.0394640550773
100
AcDbArc
 50
90.0
 51
144.99998746913175
  0
POLYLINE
  5
94
100
AcDbEntity
  8
一般
370
              -2
390
0
  6
Continuous
 62
               0
100
AcDb2dPolyline
 66
               1
 10
0.0
 20
0.0
 30
0.0
 75
               5
  0
VERTEX
  5
95
100
AcDbEntity
  8
一般
370
              -2
390
0
  6
Continuous
 62
               0
100
AcDbVertex
100
AcDb2dVertex
 10
67.475421745258643
 20
758.76212178599224
 30
0.0
  0
VERTEX
  5
96
100
AcDbEntity
  8
一般
370
              -2
390
0
  6
Continuous
 62
               0
100
AcDbVertex
100
AcDb2dVertex
 10
37.29688210512866
 20
734.32402224027237
 30
0.0
  0
VERTEX
  5
97
100
AcDbEntity
  8
一般
370
              -2
390
0
  6
Continuous
 62
               0
100
AcDbVertex
100
AcDb2dVertex
 10
51.213214309736991
 20
770.57730708714371
 30
0.0
  0
SEQEND
  5
98
100
AcDbEntity
  8
一般
370
              -2
390
0
  6
Continuous
 62
               0
  0
POLYLINE
  5
99
100
AcDbEntity
  8
一般
370
              -2
390
0
  6
Continuous
 62
               0
100
AcDb2dPolyline
 66
               1
 10
0.0
 20
0.0
 30
0.0
 75
               5
  0
VERTEX
  5
9A
100
AcDbEntity
  8
一般
370
              -2
390
0
  6
Continuous
 62
               0
100
AcDbVertex
100
AcDb2dVertex
 10
182.49074868509717
 20
839.48386230615392
 30
0.0
  0
VERTEX
  5
9B
100
AcDbEntity
  8
一般
370
              -2
390
0
  6
Continuous
 62
               0
100
AcDbVertex
100
AcDb2dVertex
 10
220.0000870640034
 20
829.43326537890027
 30
0.0
  0
VERTEX
  5
9C
100
AcDbEntity
  8
一般
370
              -2
390
0
  6
Continuous
 62
               0
100
AcDbVertex
100
AcDb2dVertex
 10
182.49074868509715
 20
819.38266845164662
 30
0.0
  0
SEQEND
  5
9D
100
AcDbEntity
  8
一般
370
              -2
390
0
  6
Continuous
 62
               0
  0
MTEXT
  5
9E
100
AcDbEntity
  8
寸法
390
0
 62
               0
100
AcDbMText
 10
65.587459234664891
 20
844.3291775147319
 30
0.0
 40
40.72104684955552
 41
0.0
 71
               1
 72
               1
  1
{\fＭＳ ゴシック|b0|i0|c128|p0;\l55°}
 11
0.9256701430482905
 21
0.3783315824365675
 31
0.0
 73
               1
 44
0.7828267384257843
  0
POINT
  5
9F
100
AcDbEntity
  8
Defpoints
370
               0
390
0
 62
               0
100
AcDbPoint
 10
220.00008706400337
 20
626.39380132382303
 30
0.0
  0
POINT
  5
A0
100
AcDbEntity
  8
Defpoints
370
               0
390
0
 62
               0
100
AcDbPoint
 10
7.8067851860588036
 20
754.97322001736291
 30
0.0
  0
POINT
  5
A1
100
AcDbEntity
  8
Defpoints
370
               0
390
0
 62
               0
100
AcDbPoint
 10
220.00008706400337
 20
606.39380132382303
 30
0.0
  0
ENDBLK
  5
A2
100
AcDbEntity
  8
寸法
390
0
100
AcDbBlockEnd
  0
BLOCK
  5
A3
100
AcDbEntity
  8
寸法
390
0
100
AcDbBlockBegin
  2
*D7
 70
               1
 10
0.0
 20
0.0
 30
0.0
  3
*D7
  1

  0
LINE
  5
A4
100
AcDbEntity
  8
寸法
370
              -2
390
0
  6
Continuous
 62
               0
100
AcDbLine
 10
-199.99975081136279
 20
644.47740232174806
 30
0.0
 11
-199.99975081136279
 21
880.00000000012142
 31
0.0
  0
LINE
  5
A5
100
AcDbEntity
  8
寸法
370
              -2
390
0
  6
Continuous
 62
               0
100
AcDbLine
 10
-70.410076637756603
 20
779.54765089006696
 30
0.0
 11
-36.228943553450208
 21
828.36258029397004
 31
0.0
  0
ARC
  5
A6
100
AcDbEntity
  8
寸法
370
              -2
390
0
  6
Continuous
 62
               0
100
AcDbCircle
 10
-199.99975081136279
 20
594.47740232174806
 30
0.0
 40
255.52259767837347
100
AcDbArc
 50
54.999565617271855
 51
90.0
  0
POLYLINE
  5
A7
100
AcDbEntity
  8
一般
370
              -2
390
0
  6
Continuous
 62
               0
100
AcDb2dPolyline
 66
               1
 10
0.0
 20
0.0
 30
0.0
 75
               5
  0
VERTEX
  5
A8
100
AcDbEntity
  8
一般
370
              -2
390
0
  6
Continuous
 62
               0
100
AcDbVertex
100
AcDb2dVertex
 10
-162.49041243245654
 20
839.94940307286788
 30
0.0
  0
VERTEX
  5
A9
100
AcDbEntity
  8
一般
370
              -2
390
0
  6
Continuous
 62
               0
100
AcDbVertex
100
AcDb2dVertex
 10
-199.99975081136279
 20
850.00000000012153
 30
0.0
  0
VERTEX
  5
AA
100
AcDbEntity
  8
一般
370
              -2
390
0
  6
Continuous
 62
               0
100
AcDbVertex
100
AcDb2dVertex
 10
-162.49041243245654
 20
860.05059692737518
 30
0.0
  0
SEQEND
  5
AB
100
AcDbEntity
  8
一般
370
              -2
390
0
  6
Continuous
 62
               0
  0
POLYLINE
  5
AC
100
AcDbEntity
  8
一般
370
              -2
390
0
  6
Continuous
 62
               0
100
AcDb2dPolyline
 66
               1
 10
0.0
 20
0.0
 30
0.0
 75
               5
  0
VERTEX
  5
AD
100
AcDbEntity
  8
一般
370
              -2
390
0
  6
Continuous
 62
               0
100
AcDbVertex
100
AcDb2dVertex
 10
-77.874522499002879
 20
833.96668906166008
 30
0.0
  0
VERTEX
  5
AE
100
AcDbEntity
  8
一般
370
              -2
390
0
  6
Continuous
 62
               0
100
AcDbVertex
100
AcDb2dVertex
 10
-53.436422953283042
 20
803.78814942153008
 30
0.0
  0
VERTEX
  5
AF
100
AcDbEntity
  8
一般
370
              -2
390
0
  6
Continuous
 62
               0
100
AcDbVertex
100
AcDb2dVertex
 10
-89.68970780015438
 20
817.70448162613843
 30
0.0
  0
SEQEND
  5
B0
100
AcDbEntity
  8
一般
370
              -2
390
0
  6
Continuous
 62
               0
  0
MTEXT
  5
B1
100
AcDbEntity
  8
寸法
390
0
 62
               0
100
AcDbMText
 10
-127.80034408989273
 20
901.72807740407347
 30
0.0
 40
40.72104684955552
 41
0.0
 71
               1
 72
               1
  1
{\fＭＳ ゴシック|b0|i0|c128|p0;\l35°}
 11
0.9213514870558504
 21
-0.3887305458797562
 31
0.0
 73
               1
 44
0.7828267384257843
  0
POINT
  5
B2
100
AcDbEntity
  8
Defpoints
370
               0
390
0
 62
               0
100
AcDbPoint
 10
-199.99975081136279
 20
614.47740232174806
 30
0.0
  0
POINT
  5
B3
100
AcDbEntity
  8
Defpoints
370
               0
390
0
 62
               0
100
AcDbPoint
 10
-87.617556037589466
 20
754.97322001762711
 30
0.0
  0
POINT
  5
B4
100
AcDbEntity
  8
Defpoints
370
               0
390
0
 62
               0
100
AcDbPoint
 10
-199.99975081136279
 20
594.47740232174806
 30
0.0
  0
ENDBLK
  5
B5
100
AcDbEntity
  8
寸法
390
0
100
AcDbBlockEnd
  0
ENDSEC
  0
SECTION
  2
ENTITIES
  0
LINE
  5
B6
100
AcDbEntity
  8
一般
370
               0
390
0
  6
Continuous
 62
               2
100
AcDbLine
 10
-1249.9999999999998
 20
2139.4710705281227
 30
0.0
 11
1449.9999999999998
 21
2139.4710705281227
 31
0.0
  0
LINE
  5
B7
100
AcDbEntity
  8
一般
370
               0
390
0
  6
Continuous
 62
               2
100
AcDbLine
 10
1449.9999999999998
 20
-1760.5289294718773
 30
0.0
 11
-1249.9999999999998
 21
-1760.5289294718773
 31
0.0
  0
LINE
  5
B8
100
AcDbEntity
  8
一般
370
               0
390
0
  6
Continuous
 62
               2
100
AcDbLine
 10
-1249.9999999999998
 20
-1760.5289294718773
 30
0.0
 11
-1249.9999999999998
 21
2139.4710705281227
 31
0.0
  0
LINE
  5
B9
100
AcDbEntity
  8
一般
370
               0
390
0
  6
Continuous
 62
               2
100
AcDbLine
 10
1449.9999999999998
 20
2139.4710705281227
 30
0.0
 11
1449.9999999999998
 21
-1760.5289294718773
 31
0.0
  0
LINE
  5
BA
100
AcDbEntity
  8
一般
370
               0
390
0
  6
Continuous
 62
               2
100
AcDbLine
 10
99.999999999999986
 20
-1423.0289294718771
 30
0.0
 11
1449.9999999999998
 21
-1423.0289294718771
 31
0.0
  0
LINE
  5
BB
100
AcDbEntity
  8
一般
370
               0
390
0
  6
Continuous
 62
               2
100
AcDbLine
 10
99.999999999999986
 20
-1760.5289294718773
 30
0.0
 11
99.999999999999986
 21
-1423.0289294718771
 31
0.0
  0
MTEXT
  5
BC
100
AcDbEntity
  8
一般
390
0
 62
               1
100
AcDbMText
 10
113.49999999999999
 20
-1436.2267122843773
 30
0.0
 40
24.432617187499996
 41
0.0
 71
               1
 72
               1
  1
{\fＭＳ ゴシック|b0|i0|c128|p0;\lNOTE}
 73
               1
 44
0.7828267384257843
  0
LINE
  5
BD
100
AcDbEntity
  8
一般
370
               0
390
0
  6
Continuous
 62
               1
100
AcDbLine
 10
625.0
 20
-1760.5289294718773
 30
0.0
 11
625.0
 21
-1423.0289294718771
 31
0.0
  0
MTEXT
  5
BE
100
AcDbEntity
  8
一般
390
0
 62
               1
100
AcDbMText
 10
638.5
 20
-1436.2267122843773
 30
0.0
 40
24.432617187499996
 41
0.0
 71
               1
 72
               1
  1
{\fＭＳ ゴシック|b0|i0|c128|p0;\lTITLE}
 73
               1
 44
0.7828267384257843
  0
LINE
  5
BF
100
AcDbEntity
  8
一般
370
               0
390
0
  6
Continuous
 62
               1
100
AcDbLine
 10
99.999999999999986
 20
-1610.5289294718771
 30
0.0
 11
1449.9999999999998
 21
-1610.5289294718771
 31
0.0
  0
MTEXT
  5
C0
100
AcDbEntity
  8
一般
390
0
 62
               1
100
AcDbMText
 10
826.0
 20
-1622.8819122843772
 30
0.0
 40
24.432617187499996
 41
0.0
 71
               1
 72
               1
  1
{\fＭＳ ゴシック|b0|i0|c128|p0;\lDRAWN}
 73
               1
 44
0.7828267384257843
  0
MTEXT
  5
C1
100
AcDbEntity
  8
一般
390
0
 62
               1
100
AcDbMText
 10
451.0
 20
-1622.8819122843772
 30
0.0
 40
24.432617187499996
 41
0.0
 71
               1
 72
               1
  1
{\fＭＳ ゴシック|b0|i0|c128|p0;\lDATE}
 73
               1
 44
0.7828267384257843
  0
MTEXT
  5
C2
100
AcDbEntity
  8
一般
390
0
 62
               1
100
AcDbMText
 10
300.99999999999994
 20
-1622.8819122843772
 30
0.0
 40
24.432617187499996
 41
0.0
 71
               1
 72
               1
  1
{\fＭＳ ゴシック|b0|i0|c128|p0;\lSCALE}
 73
               1
 44
0.7828267384257843
  0
MTEXT
  5
C3
100
AcDbEntity
  8
一般
390
0
 62
               1
100
AcDbMText
 10
638.5
 20
-1622.8819122843772
 30
0.0
 40
24.432617187499996
 41
0.0
 71
               1
 72
               1
  1
{\fＭＳ ゴシック|b0|i0|c128|p0;\lDESIGN}
 73
               1
 44
0.7828267384257843
  0
MTEXT
  5
C4
100
AcDbEntity
  8
一般
390
0
 62
               1
100
AcDbMText
 10
1200.9999999999998
 20
-1622.8819122843772
 30
0.0
 40
24.432617187499996
 41
0.0
 71
               1
 72
               1
  1
{\fＭＳ ゴシック|b0|i0|c128|p0;\lDRAWING NO.}
 73
               1
 44
0.7828267384257843
  0
MTEXT
  5
C5
100
AcDbEntity
  8
一般
390
0
 62
               1
100
AcDbMText
 10
1013.4999999999999
 20
-1622.8819122843772
 30
0.0
 40
24.432617187499996
 41
0.0
 71
               1
 72
               1
  1
{\fＭＳ ゴシック|b0|i0|c128|p0;\lCHECK}
 73
               1
 44
0.7828267384257843
  0
LINE
  5
C6
100
AcDbEntity
  8
一般
370
               0
390
0
  6
Continuous
 62
               1
100
AcDbLine
 10
315.62499999999994
 20
-1741.7789294718773
 30
0.0
 11
371.875
 21
-1685.5289294718771
 31
0.0
  0
MTEXT
  5
C7
100
AcDbEntity
  8
一般
390
0
 62
               1
100
AcDbMText
 10
306.24999999999994
 20
-1677.7304622843772
 30
0.0
 40
24.432617187499996
 41
0.0
 71
               1
 72
               1
  1
{\fＭＳ ゴシック|b0|i0|c128|p0;\l1}
 73
               1
 44
0.7828267384257843
  0
LINE
  5
C8
100
AcDbEntity
  8
一般
370
               0
390
0
  6
Continuous
 62
               1
100
AcDbLine
 10
287.49999999999994
 20
-1760.5289294718773
 30
0.0
 11
287.49999999999994
 21
-1610.5289294718771
 31
0.0
  0
LINE
  5
C9
100
AcDbEntity
  8
一般
370
               0
390
0
  6
Continuous
 62
               1
100
AcDbLine
 10
437.49999999999994
 20
-1760.5289294718773
 30
0.0
 11
437.49999999999994
 21
-1610.5289294718771
 31
0.0
  0
LINE
  5
CA
100
AcDbEntity
  8
一般
370
               0
390
0
  6
Continuous
 62
               1
100
AcDbLine
 10
812.49999999999989
 20
-1610.5289294718771
 30
0.0
 11
812.49999999999989
 21
-1760.5289294718773
 31
0.0
  0
LINE
  5
CB
100
AcDbEntity
  8
一般
370
               0
390
0
  6
Continuous
 62
               1
100
AcDbLine
 10
1187.5
 20
-1610.5289294718771
 30
0.0
 11
1187.5
 21
-1760.5289294718773
 31
0.0
  0
LINE
  5
CC
100
AcDbEntity
  8
一般
370
               0
390
0
  6
Continuous
 62
               1
100
AcDbLine
 10
999.99999999999989
 20
-1760.5289294718773
 30
0.0
 11
999.99999999999989
 21
-1610.5289294718771
 31
0.0
  0
MTEXT
  5
CD
100
AcDbEntity
  8
一般
390
0
 62
               1
100
AcDbMText
 10
450.34809999999999
 20
-1693.1416122843773
 30
0.0
 40
24.432617187499996
 41
0.0
 71
               1
 72
               1
  1
{\fＭＳ ゴシック|b0|i0|c128|p0;\l2019.01}
 73
               1
 44
0.7828267384257843
  0
MTEXT
  5
CE
100
AcDbEntity
  8
一般
390
0
 62
               1
100
AcDbMText
 10
362.5
 20
-1705.8554622843772
 30
0.0
 40
24.432617187499996
 41
0.0
 71
               1
 72
               1
  1
{\fＭＳ ゴシック|b0|i0|c128|p0;\l15}
 73
               1
 44
0.7828267384257843
  0
MTEXT
  5
CF
100
AcDbEntity
  8
一般
390
0
 62
               1
100
AcDbMText
 10
835.08715016551935
 20
-1673.1416122843773
 30
0.0
 40
24.432617187499996
 41
0.0
 71
               1
 72
               1
  1
{\fＭＳ ゴシック|b0|i0|c128|p0;\lshohei\P kojima}
 73
               1
 44
0.7828267384257843
  0
MTEXT
  5
D0
100
AcDbEntity
  8
一般
390
0
 62
               1
100
AcDbMText
 10
158.25000000000023
 20
-1682.023695096877
 30
0.0
 40
48.865234374999993
 41
0.0
 71
               1
 72
               1
  1
{\fＭＳ ゴシック|b0|i0|c128|p0;\lA4}
 73
               1
 44
0.7828267384257843
  0
MTEXT
  5
D1
100
AcDbEntity
  8
一般
390
0
 62
               1
100
AcDbMText
 10
114.37499999999997
 20
-1625.3881372843771
 30
0.0
 40
24.432617187499996
 41
0.0
 71
               1
 72
               1
  1
{\fＭＳ ゴシック|b0|i0|c128|p0;\lPAPER SIZE}
 73
               1
 44
0.7828267384257843
  0
MTEXT
  5
D2
100
AcDbEntity
  8
一般
390
0
 62
               1
100
AcDbMText
 10
-1208.6054711466472
 20
-1803.9701957449379
 30
0.0
 40
52.937337239583329
 41
0.0
 71
               1
 72
               1
  1
{\fＭＳ ゴシック|b0|i0|c128|p0;\lHibino-Intersound Corporation}
 73
               1
 44
0.7828267384257843
  0
MTEXT
  5
D3
100
AcDbEntity
  8
一般
390
0
 62
               1
100
AcDbMText
 10
402.70914520320849
 20
-1798.7038719455968
 30
0.0
 40
52.937337239583329
 41
0.0
 71
               1
 72
               1
  1
{\fＭＳ ゴシック|b0|i0|c128|p0;\lヒビノインタ ーサウンド株式会社}
 73
               1
 44
0.7828267384257843
  0
MTEXT
  5
D4
100
AcDbEntity
  8
一般
390
0
 62
               1
100
AcDbMText
 10
-1018.7499999999998
 20
2047.0190463093727
 30
0.0
 40
36.64892578125
 41
0.0
 71
               1
 72
               1
  1
{\fＭＳ ゴシック|b0|i0|c128|p0;\l仕様}
 73
               1
 44
0.7828267384257843
  0
LINE
  5
D5
100
AcDbEntity
  8
一般
370
               0
390
0
  6
Continuous
 62
               1
100
AcDbLine
 10
-1037.4999999999998
 20
1989.4710705281225
 30
0.0
 11
1175.0
 21
1989.4710705281225
 31
0.0
  0
LINE
  5
D6
100
AcDbEntity
  8
一般
370
               0
390
0
  6
Continuous
 62
               1
100
AcDbLine
 10
-1037.4999999999998
 20
1933.2210705281225
 30
0.0
 11
1175.0
 21
1933.2210705281225
 31
0.0
  0
LINE
  5
D7
100
AcDbEntity
  8
一般
370
               0
390
0
  6
Continuous
 62
               1
100
AcDbLine
 10
-1037.4999999999998
 20
1989.4710705281225
 30
0.0
 11
-1037.4999999999998
 21
1033.2210705281225
 31
0.0
  0
LINE
  5
D8
100
AcDbEntity
  8
一般
370
               0
390
0
  6
Continuous
 62
               1
100
AcDbLine
 10
-549.99999999999989
 20
1989.4710705281225
 30
0.0
 11
-549.99999999999989
 21
1033.2210705281225
 31
0.0
  0
LINE
  5
D9
100
AcDbEntity
  8
一般
370
               0
390
0
  6
Continuous
 62
               1
100
AcDbLine
 10
1175.0
 20
1989.4710705281225
 30
0.0
 11
1175.0
 21
1033.2210705281225
 31
0.0
  0
MTEXT
  5
DA
100
AcDbEntity
  8
一般
390
0
 62
               1
100
AcDbMText
 10
-1024.8074419570676
 20
1917.920606835665
 30
0.0
 40
28.504720052083332
 41
0.0
 71
               1
 72
               1
  1
{\fＭＳ ゴシック|b0|i0|c128|p0;\l形式}
 73
               1
 44
0.7828267384257843
  0
MTEXT
  5
DB
100
AcDbEntity
  8
一般
390
0
 62
               1
100
AcDbMText
 10
-536.4821648183148
 20
1918.0188830630129
 30
0.0
 40
28.504720052083332
 41
0.0
 71
               1
 72
               1
  1
{\fＭＳ ゴシック|b0|i0|c128|p0;\l2-Way フルレンジ・スピーカーシステム}
 73
               1
 44
0.7828267384257843
  0
LINE
  5
DC
100
AcDbEntity
  8
一般
370
               0
390
0
  6
Continuous
 62
               1
100
AcDbLine
 10
-549.99999999999989
 20
1876.9710705281225
 30
0.0
 11
1175.0
 21
1876.9710705281225
 31
0.0
  0
LINE
  5
DD
100
AcDbEntity
  8
一般
370
               0
390
0
  6
Continuous
 62
               1
100
AcDbLine
 10
-1037.4999999999998
 20
1820.7210705281225
 30
0.0
 11
1175.0
 21
1820.7210705281225
 31
0.0
  0
LINE
  5
DE
100
AcDbEntity
  8
一般
370
               0
390
0
  6
Continuous
 62
               1
100
AcDbLine
 10
-1037.4999999999998
 20
1708.2210705281225
 30
0.0
 11
1175.0
 21
1708.2210705281225
 31
0.0
  0
LINE
  5
DF
100
AcDbEntity
  8
一般
370
               0
390
0
  6
Continuous
 62
               1
100
AcDbLine
 10
-1037.4999999999998
 20
1764.4710705281225
 30
0.0
 11
1175.0
 21
1764.4710705281225
 31
0.0
  0
LINE
  5
E0
100
AcDbEntity
  8
一般
370
               0
390
0
  6
Continuous
 62
               1
100
AcDbLine
 10
-1037.4999999999998
 20
1651.9710705281225
 30
0.0
 11
1175.0
 21
1651.9710705281225
 31
0.0
  0
LINE
  5
E1
100
AcDbEntity
  8
一般
370
               0
390
0
  6
Continuous
 62
               1
100
AcDbLine
 10
-1037.4999999999998
 20
1595.7210705281225
 30
0.0
 11
1175.0
 21
1595.7210705281225
 31
0.0
  0
LINE
  5
E2
100
AcDbEntity
  8
一般
370
               0
390
0
  6
Continuous
 62
               1
100
AcDbLine
 10
-1037.4999999999998
 20
1539.4710705281225
 30
0.0
 11
1175.0
 21
1539.4710705281225
 31
0.0
  0
LINE
  5
E3
100
AcDbEntity
  8
一般
370
               0
390
0
  6
Continuous
 62
               1
100
AcDbLine
 10
-549.99999999999989
 20
1483.2210705281225
 30
0.0
 11
1175.0
 21
1483.2210705281225
 31
0.0
  0
LINE
  5
E4
100
AcDbEntity
  8
一般
370
               0
390
0
  6
Continuous
 62
               1
100
AcDbLine
 10
-1037.4999999999998
 20
1426.9710705281225
 30
0.0
 11
1175.0
 21
1426.9710705281225
 31
0.0
  0
LINE
  5
E5
100
AcDbEntity
  8
一般
370
               0
390
0
  6
Continuous
 62
               1
100
AcDbLine
 10
-1037.4999999999998
 20
1370.7210705281225
 30
0.0
 11
1175.0
 21
1370.7210705281225
 31
0.0
  0
LINE
  5
E6
100
AcDbEntity
  8
一般
370
               0
390
0
  6
Continuous
 62
               1
100
AcDbLine
 10
-1037.4999999999998
 20
1314.4710705281225
 30
0.0
 11
1175.0
 21
1314.4710705281225
 31
0.0
  0
LINE
  5
E7
100
AcDbEntity
  8
一般
370
               0
390
0
  6
Continuous
 62
               1
100
AcDbLine
 10
-1037.4999999999998
 20
1258.2210705281225
 30
0.0
 11
1175.0
 21
1258.2210705281225
 31
0.0
  0
LINE
  5
E8
100
AcDbEntity
  8
一般
370
               0
390
0
  6
Continuous
 62
               1
100
AcDbLine
 10
-1037.4999999999998
 20
1201.9710705281225
 30
0.0
 11
1175.0
 21
1201.9710705281225
 31
0.0
  0
LINE
  5
E9
100
AcDbEntity
  8
一般
370
               0
390
0
  6
Continuous
 62
               1
100
AcDbLine
 10
-1037.4999999999998
 20
1145.7210705281225
 30
0.0
 11
1175.0
 21
1145.7210705281225
 31
0.0
  0
MTEXT
  5
EA
100
AcDbEntity
  8
一般
390
0
 62
               1
100
AcDbMText
 10
-1026.253402260606
 20
1244.6779088671058
 30
0.0
 40
28.504720052083332
 41
0.0
 71
               1
 72
               1
  1
{\fＭＳ ゴシック|b0|i0|c128|p0;\lエンクロージャー}
 73
               1
 44
0.7828267384257843
  0
MTEXT
  5
EB
100
AcDbEntity
  8
一般
390
0
 62
               1
100
AcDbMText
 10
-536.04846723336721
 20
1131.4162179512912
 30
0.0
 40
28.504720052083332
 41
0.0
 71
               1
 72
               1
  1
{\fＭＳ ゴシック|b0|i0|c128|p0;\l420(W)×700(H)×370(D)mm(突起部含まず）}
 73
               1
 44
0.7828267384257843
  0
MTEXT
  5
EC
100
AcDbEntity
  8
一般
390
0
 62
               1
100
AcDbMText
 10
-537.44314491433158
 20
1189.1862706170189
 30
0.0
 40
28.504720052083332
 41
0.0
 71
               1
 72
               1
  1
{\fＭＳ ゴシック|b0|i0|c128|p0;\lポリウレア樹脂塗装　黒}
 73
               1
 44
0.7828267384257843
  0
MTEXT
  5
ED
100
AcDbEntity
  8
一般
390
0
 62
               1
100
AcDbMText
 10
-1024.226043314866
 20
1188.6311486809827
 30
0.0
 40
28.504720052083332
 41
0.0
 71
               1
 72
               1
  1
{\fＭＳ ゴシック|b0|i0|c128|p0;\l仕上げ}
 73
               1
 44
0.7828267384257843
  0
MTEXT
  5
EE
100
AcDbEntity
  8
一般
390
0
 62
               1
100
AcDbMText
 10
-1024.5739666945406
 20
1357.0716161443395
 30
0.0
 40
28.504720052083332
 41
0.0
 71
               1
 72
               1
  1
{\fＭＳ ゴシック|b0|i0|c128|p0;\l入力コネクタ ー}
 73
               1
 44
0.7828267384257843
  0
MTEXT
  5
EF
100
AcDbEntity
  8
一般
390
0
 62
               1
100
AcDbMText
 10
-536.38980852022371
 20
1355.3045872885818
 30
0.0
 40
28.504720052083332
 41
0.0
 71
               1
 72
               1
  1
{\fＭＳ ゴシック|b0|i0|c128|p0;\l2×Neutrik NL4MP}
 73
               1
 44
0.7828267384257843
  0
MTEXT
  5
F0
100
AcDbEntity
  8
一般
390
0
 62
               1
100
AcDbMText
 10
-1024.2387238909109
 20
1299.9883266394227
 30
0.0
 40
28.504720052083332
 41
0.0
 71
               1
 72
               1
  1
{\fＭＳ ゴシック|b0|i0|c128|p0;\l公称インピーダンス}
 73
               1
 44
0.7828267384257843
  0
MTEXT
  5
F1
100
AcDbEntity
  8
一般
390
0
 62
               1
100
AcDbMText
 10
-536.69649561882227
 20
1299.0826333306668
 30
0.0
 40
28.504720052083332
 41
0.0
 71
               1
 72
               1
  1
{\fＭＳ ゴシック|b0|i0|c128|p0;\l8Ω}
 73
               1
 44
0.7828267384257843
  0
MTEXT
  5
F2
100
AcDbEntity
  8
一般
390
0
 62
               1
100
AcDbMText
 10
-1024.3470622377317
 20
1805.3236101782975
 30
0.0
 40
28.504720052083332
 41
0.0
 71
               1
 72
               1
  1
{\fＭＳ ゴシック|b0|i0|c128|p0;\l周波数特性}
 73
               1
 44
0.7828267384257843
  0
MTEXT
  5
F3
100
AcDbEntity
  8
一般
390
0
 62
               1
100
AcDbMText
 10
-1024.9865430874981
 20
1750.3675435226996
 30
0.0
 40
28.504720052083332
 41
0.0
 71
               1
 72
               1
  1
{\fＭＳ ゴシック|b0|i0|c128|p0;\l許容入力(AES/ピーク）}
 73
               1
 44
0.7828267384257843
  0
MTEXT
  5
F4
100
AcDbEntity
  8
一般
390
0
 62
               1
100
AcDbMText
 10
-1024.6973601098932
 20
1695.08435556889
 30
0.0
 40
28.504720052083332
 41
0.0
 71
               1
 72
               1
  1
{\fＭＳ ゴシック|b0|i0|c128|p0;\l感度}
 73
               1
 44
0.7828267384257843
  0
MTEXT
  5
F5
100
AcDbEntity
  8
一般
390
0
 62
               1
100
AcDbMText
 10
-1027.3924903718553
 20
1637.0758406208131
 30
0.0
 40
28.504720052083332
 41
0.0
 71
               1
 72
               1
  1
{\fＭＳ ゴシック|b0|i0|c128|p0;\l最大音圧}
 73
               1
 44
0.7828267384257843
  0
MTEXT
  5
F6
100
AcDbEntity
  8
一般
390
0
 62
               1
100
AcDbMText
 10
-1026.8609062369183
 20
1581.903577758535
 30
0.0
 40
28.504720052083332
 41
0.0
 71
               1
 72
               1
  1
{\fＭＳ ゴシック|b0|i0|c128|p0;\lカバレージ角}
 73
               1
 44
0.7828267384257843
  0
MTEXT
  5
F7
100
AcDbEntity
  8
一般
390
0
 62
               1
100
AcDbMText
 10
-1036.1862831005192
 20
1529.4556554022256
 30
0.0
 40
28.504720052083332
 41
0.0
 71
               1
 72
               1
  1
{\fＭＳ ゴシック|b0|i0|c128|p0;\lドライバー構成}
 73
               1
 44
0.7828267384257843
  0
MTEXT
  5
F8
100
AcDbEntity
  8
一般
390
0
 62
               1
100
AcDbMText
 10
-1026.1682398732198
 20
1412.9638415333934
 30
0.0
 40
28.504720052083332
 41
0.0
 71
               1
 72
               1
  1
{\fＭＳ ゴシック|b0|i0|c128|p0;\lクロスオーバー}
 73
               1
 44
0.7828267384257843
  0
MTEXT
  5
F9
100
AcDbEntity
  8
一般
390
0
 62
               1
100
AcDbMText
 10
-1025.4849709920627
 20
1132.0612751377471
 30
0.0
 40
28.504720052083332
 41
0.0
 71
               1
 72
               1
  1
{\fＭＳ ゴシック|b0|i0|c128|p0;\l寸法}
 73
               1
 44
0.7828267384257843
  0
MTEXT
  5
FA
100
AcDbEntity
  8
一般
390
0
 62
               1
100
AcDbMText
 10
-537.77911246073086
 20
1076.6544934787494
 30
0.0
 40
28.504720052083332
 41
0.0
 71
               1
 72
               1
  1
{\fＭＳ ゴシック|b0|i0|c128|p0;\l約17.5kg}
 73
               1
 44
0.7828267384257843
  0
MTEXT
  5
FB
100
AcDbEntity
  8
一般
390
0
 62
               1
100
AcDbMText
 10
-1024.8403468895051
 20
1076.104100301108
 30
0.0
 40
28.504720052083332
 41
0.0
 71
               1
 72
               1
  1
{\fＭＳ ゴシック|b0|i0|c128|p0;\l重量}
 73
               1
 44
0.7828267384257843
  0
MTEXT
  5
FC
100
AcDbEntity
  8
一般
390
0
 62
               1
100
AcDbMText
 10
-536.36333765384722
 20
1804.9126886356582
 30
0.0
 40
28.504720052083332
 41
0.0
 71
               1
 72
               1
  1
{\fＭＳ ゴシック|b0|i0|c128|p0;\l50Hz～21kHz(-3dB)}
 73
               1
 44
0.7828267384257843
  0
MTEXT
  5
FD
100
AcDbEntity
  8
一般
390
0
 62
               1
100
AcDbMText
 10
-536.97112038138459
 20
1749.2131750164222
 30
0.0
 40
28.504720052083332
 41
0.0
 71
               1
 72
               1
  1
{\fＭＳ ゴシック|b0|i0|c128|p0;\l600W/2400W}
 73
               1
 44
0.7828267384257843
  0
MTEXT
  5
FE
100
AcDbEntity
  8
一般
390
0
 62
               1
100
AcDbMText
 10
-536.5415257608845
 20
1693.3953086883528
 30
0.0
 40
28.504720052083332
 41
0.0
 71
               1
 72
               1
  1
{\fＭＳ ゴシック|b0|i0|c128|p0;\l98dB}
 73
               1
 44
0.7828267384257843
  0
MTEXT
  5
FF
100
AcDbEntity
  8
一般
390
0
 62
               1
100
AcDbMText
 10
-538.34569917557019
 20
1637.3853393221057
 30
0.0
 40
28.504720052083332
 41
0.0
 71
               1
 72
               1
  1
{\fＭＳ ゴシック|b0|i0|c128|p0;\l132dB}
 73
               1
 44
0.7828267384257843
  0
MTEXT
  5
100
100
AcDbEntity
  8
一般
390
0
 62
               1
100
AcDbMText
 10
-536.27740625294939
 20
1579.8035128416855
 30
0.0
 40
28.504720052083332
 41
0.0
 71
               1
 72
               1
  1
{\fＭＳ ゴシック|b0|i0|c128|p0;\l90°×60°}
 73
               1
 44
0.7828267384257843
  0
MTEXT
  5
101
100
AcDbEntity
  8
一般
390
0
 62
               1
100
AcDbMText
 10
-536.66305963321417
 20
1526.4412122221588
 30
0.0
 40
28.504720052083332
 41
0.0
 71
               1
 72
               1
  1
{\fＭＳ ゴシック|b0|i0|c128|p0;\l低域：1×15インチネオジム磁石採用、3インチボイスコイル}
 73
               1
 44
0.7828267384257843
  0
MTEXT
  5
102
100
AcDbEntity
  8
一般
390
0
 62
               1
100
AcDbMText
 10
-537.11887511511338
 20
1470.3167991536877
 30
0.0
 40
28.504720052083332
 41
0.0
 71
               1
 72
               1
  1
{\fＭＳ ゴシック|b0|i0|c128|p0;\l高域：1インチネオジム磁石採用コンプレッションドライバー、1.75インチボイスコイル }
 73
               1
 44
0.7828267384257843
  0
MTEXT
  5
103
100
AcDbEntity
  8
一般
390
0
 62
               1
100
AcDbMText
 10
-538.52880506674239
 20
1411.0032062734133
 30
0.0
 40
28.504720052083332
 41
0.0
 71
               1
 72
               1
  1
{\fＭＳ ゴシック|b0|i0|c128|p0;\l1.2kHz}
 73
               1
 44
0.7828267384257843
  0
MTEXT
  5
104
100
AcDbEntity
  8
一般
390
0
 62
               1
100
AcDbMText
 10
-537.10886076215422
 20
1242.7360672678967
 30
0.0
 40
28.504720052083332
 41
0.0
 71
               1
 72
               1
  1
{\fＭＳ ゴシック|b0|i0|c128|p0;\l合板}
 73
               1
 44
0.7828267384257843
  0
LINE
  5
105
100
AcDbEntity
  8
一般
370
               0
390
0
  6
Continuous
 62
               1
100
AcDbLine
 10
-1037.4999999999998
 20
1089.4710705281225
 30
0.0
 11
1175.0
 21
1089.4710705281225
 31
0.0
  0
LINE
  5
106
100
AcDbEntity
  8
一般
370
               0
390
0
  6
Continuous
 62
               1
100
AcDbLine
 10
-1037.4999999999998
 20
1033.2210705281225
 30
0.0
 11
1175.0
 21
1033.2210705281225
 31
0.0
  0
LINE
  5
107
100
AcDbEntity
  8
一般
370
               0
390
0
  6
Continuous
 62
               1
100
AcDbLine
 10
400.0
 20
1989.4710705281225
 30
0.0
 11
400.0
 21
1933.2210705281225
 31
0.0
  0
LINE
  5
108
100
AcDbEntity
  8
一般
370
               0
390
0
  6
Continuous
 62
               1
100
AcDbLine
 10
400.0
 20
1876.9710705281225
 30
0.0
 11
400.0
 21
1820.7210705281225
 31
0.0
  0
MTEXT
  5
109
100
AcDbEntity
  8
一般
390
0
 62
               1
100
AcDbMText
 10
-183.34375
 20
1974.2688830630129
 30
0.0
 40
28.504720052083332
 41
0.0
 71
               1
 72
               1
  1
{\fＭＳ ゴシック|b0|i0|c128|p0;\lG515Pro-L}
 73
               1
 44
0.7828267384257843
  0
MTEXT
  5
10A
100
AcDbEntity
  8
一般
390
0
 62
               1
100
AcDbMText
 10
344.32489881697518
 20
-1189.1490255079786
 30
0.0
 40
40.721028645833343
 41
0.0
 71
               1
 72
               1
  1
{\fＭＳ ゴシック|b0|i0|c128|p0;\l寸法図はG515Pro-R(右側仕様）}
 73
               1
 44
0.7828267384257843
  0
LINE
  5
10B
100
AcDbEntity
  8
一般
370
               0
390
0
  6
Continuous
 62
               1
100
AcDbLine
 10
300.0
 20
-1250.0
 30
0.0
 11
1100.0
 21
-1250.0
 31
0.0
  0
MTEXT
  5
10C
100
AcDbEntity
  8
一般
390
0
 62
               1
100
AcDbMText
 10
-536.4821648183148
 20
1861.7688830630129
 30
0.0
 40
28.504720052083332
 41
0.0
 71
               1
 72
               1
  1
{\fＭＳ ゴシック|b0|i0|c128|p0;\lL仕様}
 73
               1
 44
0.7828267384257843
  0
MTEXT
  5
10D
100
AcDbEntity
  8
一般
390
0
 62
               1
100
AcDbMText
 10
413.51783518168509
 20
1861.7688830630129
 30
0.0
 40
28.504720052083332
 41
0.0
 71
               1
 72
               1
  1
{\fＭＳ ゴシック|b0|i0|c128|p0;\lR仕様\P}
 73
               1
 44
0.7828267384257843
  0
MTEXT
  5
10E
100
AcDbEntity
  8
一般
390
0
 62
               1
100
AcDbMText
 10
616.65625
 20
1974.2688830630129
 30
0.0
 40
28.504720052083332
 41
0.0
 71
               1
 72
               1
  1
{\fＭＳ ゴシック|b0|i0|c128|p0;\lG515Pro-R}
 73
               1
 44
0.7828267384257843
  0
INSERT
  5
10F
100
AcDbEntity
  8
Layer1
390
0
 62
               1
100
AcDbBlockReference
  2
Callout
 10
689.81171726027787
 20
-813.85033397195002
 30
0.0
 50
101.05657966929404
  0
INSERT
  5
110
100
AcDbEntity
  8
一般
390
0
 62
               1
100
AcDbBlockReference
  2
Callout-1
 10
350.0
 20
600.0
 30
0.0
 50
-170.15552575475408
  0
MTEXT
  5
111
100
AcDbEntity
  8
一般
390
0
 62
               1
100
AcDbMText
 10
-200.0
 20
-1539.8376536906271
 30
0.0
 40
36.64892578125
 41
0.0
 71
               1
 72
               1
  1
{\fＭＳ ゴシック|b0|i0|c128|p0;\l(単位：mm)}
 73
               1
 44
0.7828267384257843
  0
DIMENSION
  5
112
100
AcDbEntity
  8
寸法
370
               0
390
0
  6
Continuous
 62
               1
100
AcDbDimension
  2
*D3
 10
-200.0
 20
-750.0
 30
0.0
 11
9.9999999999981668
 21
-750.0
 31
0.0
 71
               5
 72
               1
 41
1.0
 42
0.0
  3
HIBINO
100
AcDbAlignedDimension
 13
219.99999999999631
 23
-599.99999999999818
 33
0.0
 14
-200.0
 24
-600.0
 34
0.0
100
AcDbRotatedDimension
1001
ACAD
1000
DSTYLE
1002
{
1070
             279
1070
               2
1070
             340
1005
2B
1070
             147
1040
7.5
1002
}
  0
DIMENSION
  5
113
100
AcDbEntity
  8
寸法
370
               0
390
0
  6
Continuous
 62
               1
100
AcDbDimension
  2
*D4
 10
-350.0
 20
-600.0
 30
0.0
 11
-350.0
 21
-250.00001430511509
 31
0.0
 71
               5
 72
               1
 41
1.0
 42
0.0
  3
HIBINO
100
AcDbAlignedDimension
 13
-200.0
 23
99.999971389769826
 33
0.0
 14
-200.0
 24
-600.0
 34
0.0
 50
-90.0
100
AcDbRotatedDimension
1001
ACAD
1000
DSTYLE
1002
{
1070
             279
1070
               2
1070
             340
1005
2B
1070
             147
1040
7.5
1002
}
  0
DIMENSION
  5
114
100
AcDbEntity
  8
寸法
370
               0
390
0
  6
Continuous
 62
               1
100
AcDbDimension
  2
*D5
 10
-349.99980000025243
 20
400.00400621571441
 30
0.0
 11
-357.49980000025243
 21
584.99954060920732
 31
0.0
 70
             128
 71
               5
 72
               1
 41
1.0
 42
0.0
  3
HIBINO
100
AcDbAlignedDimension
 13
-38.999800000252449
 23
769.99507500270033
 33
0.0
 14
-25.999800000252449
 24
400.00400621571441
 34
0.0
 50
-90.0
100
AcDbRotatedDimension
1001
ACAD
1000
DSTYLE
1002
{
1070
             271
1070
               0
1070
             279
1070
               2
1070
             340
1005
2B
1070
             147
1040
7.5
1002
}
  0
DIMENSION
  5
115
100
AcDbEntity
  8
寸法
370
               0
390
0
  6
Continuous
 62
               1
100
AcDbDimension
  2
*D6
 10
117.01194547400378
 20
804.23223342894835
 30
0.0
 11
132.77972681396778
 21
819.79729999396261
 31
0.0
 70
             133
 71
               5
 72
               1
 41
1.0
 42
0.0
  3
HIBINO
100
AcDb3PointAngularDimension
 13
220.00008706400337
 23
626.39380132382303
 33
0.0
 14
7.8067851860588036
 24
754.97322001736291
 34
0.0
 15
220.00008706400337
 25
606.39380132382303
 35
0.0
1001
ACAD
1000
DSTYLE
1002
{
1070
             279
1070
               2
1070
             342
1005
3A
1070
             340
1005
2B
1070
             140
1040
40.72104684955552
1070
               3
1000
<> 
1070
             147
1040
7.5
1002
}
  0
DIMENSION
  5
116
100
AcDbEntity
  8
寸法
370
               0
390
0
  6
Continuous
 62
               1
100
AcDbDimension
  2
*D7
 10
-123.16170000524683
 20
838.17334375824521
 30
0.0
 11
-97.754832837137016
 21
836.81366382200997
 31
0.0
 70
             133
 71
               5
 72
               1
 41
1.0
 42
0.0
  3
HIBINO
100
AcDb3PointAngularDimension
 13
-199.99975081136279
 23
614.47740232174806
 33
0.0
 14
-87.617556037589466
 24
754.97322001762711
 34
0.0
 15
-199.99975081136279
 25
594.47740232174806
 35
0.0
1001
ACAD
1000
DSTYLE
1002
{
1070
             279
1070
               2
1070
             342
1005
3A
1070
             340
1005
2B
1070
             140
1040
40.72104684955552
1070
               3
1000
<> 
1070
             147
1040
7.5
1002
}
  0
MTEXT
  5
117
100
AcDbEntity
  8
一般
390
0
 62
               1
100
AcDbMText
 10
849.99999999999989
 20
-1559.2929760137774
 30
0.0
 40
36.64892578125
 41
0.0
 71
               1
 72
               1
  1
{\fＭＳ ゴシック|b0|i0|c128|p0;\lG515Pro-(L/R)}
 73
               1
 44
0.7828267384257843
  0
MTEXT
  5
118
100
AcDbEntity
  8
一般
390
0
 62
               1
100
AcDbMText
 10
849.99999999999989
 20
-1444.0724372251852
 30
0.0
 40
36.64892578125
 41
0.0
 71
               1
 72
               1
  1
{\fＭＳ ゴシック|b0|i0|c128|p0;\lCODA AUDIO}
 73
               1
 44
0.7828267384257843
  0
MTEXT
  5
119
100
AcDbEntity
  8
一般
390
0
 62
               1
100
AcDbMText
 10
-1099.9999999999998
 20
-1672.5263122843774
 30
0.0
 40
24.432617187499996
 41
0.0
 71
               1
 72
               1
  1
{\fＭＳ ゴシック|b0|i0|c128|p0;\l仕様および外観は予告なく変更されることがありますので、ご了承ください。}
 73
               1
 44
0.7828267384257843
  0
MTEXT
  5
11A
100
AcDbEntity
  8
一般
390
0
 62
               1
100
AcDbMText
 10
818.08273681255582
 20
-1508.3714465495261
 30
0.0
 40
24.432617187500004
 41
0.0
 71
               1
 72
               1
  1
{\fＭＳ ゴシック|b0|i0|c128|p0;\l2Way-フルレンジ・スピーカー}
 73
               1
 44
0.7828267384257843
  0
ARC
  5
11B
100
AcDbEntity
  8
一般
370
               0
390
0
  6
Continuous
 62
               1
100
AcDbCircle
 10
10.000136063999051
 20
1180.0000000000059
 30
0.0
 40
780.0000000000058
100
AcDbArc
 50
256.02390976926256
 51
283.9760902307375
  0
LINE
  5
11C
100
AcDbEntity
  8
一般
370
               0
390
0
  6
Continuous
 62
               1
100
AcDbLine
 10
220.00008706400337
 20
606.39380132382303
 30
0.0
 11
7.8067851860588036
 21
754.97322001736291
 31
0.0
  0
LINE
  5
11D
100
AcDbEntity
  8
一般
370
               0
390
0
  6
Continuous
 62
               1
100
AcDbLine
 10
220.00015100000337
 20
-1106.3938013238226
 30
0.0
 11
7.8068491220587788
 21
-1254.9732200173626
 31
0.0
  0
ARC
  5
11E
100
AcDbEntity
  8
一般
370
               0
390
0
  6
Continuous
 62
               1
100
AcDbCircle
 10
10.000199999999026
 20
-1680.0000000000055
 30
0.0
 40
780.00000000000557
100
AcDbArc
 50
76.023909769262588
 51
103.97609023073744
  0
CIRCLE
  5
11F
100
AcDbEntity
  8
一般
370
               0
390
0
  6
Continuous
 62
               1
100
AcDbCircle
 10
10.000199999999026
 20
-1080.9999999999977
 30
0.0
 40
53.5
  0
LINE
  5
120
100
AcDbEntity
  8
一般
370
               0
390
0
  6
Continuous
 62
               1
100
AcDbLine
 10
17.001920785270116
 20
-572.99999999999818
 30
0.0
 11
197.41716566866302
 21
-572.99999999999818
 31
0.0
  0
LINE
  5
121
100
AcDbEntity
  8
一般
370
               0
390
0
  6
Continuous
 62
               1
100
AcDbLine
 10
-178.38323353293526
 20
-600.0
 30
0.0
 11
198.38323353292884
 21
-599.99999999999818
 31
0.0
  0
LINE
  5
122
100
AcDbEntity
  8
一般
370
               0
390
0
  6
Continuous
 62
               1
100
AcDbLine
 10
198.38323353292884
 20
-584.99999999999818
 30
0.0
 11
-178.38323353293526
 21
-585.00000000000136
 31
0.0
  0
LINE
  5
123
100
AcDbEntity
  8
一般
370
               0
390
0
  6
Continuous
 62
               1
100
AcDbLine
 10
-175.99805009863576
 20
91.000006198884194
 30
0.0
 11
140.00193464257512
 21
91.000006198885103
 31
0.0
  0
ARC
  5
124
100
AcDbEntity
  8
一般
370
               0
390
0
  6
Continuous
 62
               1
100
AcDbCircle
 10
10.001920785267387
 20
-388.99999999999955
 30
0.0
 40
180.00000000000023
100
AcDbArc
 50
91.369010163072744
 51
88.630989836926972
  0
LINE
  5
125
100
AcDbEntity
  8
一般
370
               0
390
0
  6
Continuous
 62
               1
100
AcDbLine
 10
24.203615670084176
 20
85.000000000001137
 30
0.0
 11
146.00192078526646
 21
85.000000000001137
 31
0.0
  0
ARC
  5
126
100
AcDbEntity
  8
一般
370
               0
390
0
  6
Continuous
 62
               1
100
AcDbCircle
 10
-22.998079214732613
 20
-193.50000000000784
 30
0.0
 40
278.50000000000756
100
AcDbArc
 50
67.406468325681629
 51
80.312345464509178
  0
ARC
  5
127
100
AcDbEntity
  8
一般
370
               0
390
0
  6
Continuous
 62
               1
100
AcDbCircle
 10
-22.99807921473716
 20
82.50000000000388
 30
0.0
 40
278.50000000000375
100
AcDbArc
 50
280.47456253705371
 51
292.59353167431834
  0
ARC
  5
128
100
AcDbEntity
  8
一般
370
               0
390
0
  6
Continuous
 62
               1
100
AcDbCircle
 10
10.001920785269206
 20
-388.99999999999955
 30
0.0
 40
194.50000000000017
100
AcDbArc
 50
10.830215979970651
 51
84.745741288835433
  0
LINE
  5
129
100
AcDbEntity
  8
一般
370
               0
390
0
  6
Continuous
 62
               1
100
AcDbLine
 10
-87.617556037589466
 20
754.97322001762711
 30
0.0
 11
-199.99975081136279
 21
594.47740232174806
 31
0.0
  0
LINE
  5
12A
100
AcDbEntity
  8
一般
370
               0
390
0
  6
Continuous
 62
               1
100
AcDbLine
 10
-199.99975081136279
 20
594.47740232174806
 30
0.0
 11
-199.999863936
 21
450.74695749692086
 31
0.0
  0
ARC
  5
12B
100
AcDbEntity
  8
一般
370
               0
390
0
  6
Continuous
 62
               1
100
AcDbCircle
 10
-171.499863936
 20
450.74695749692086
 30
0.0
 40
28.500000000001819
100
AcDbArc
 50
180.0
 51
256.02390976926216
  0
CIRCLE
  5
12C
100
AcDbEntity
  8
一般
370
               0
390
0
  6
Continuous
 62
               1
100
AcDbCircle
 10
10.000136063999051
 20
540.99999999999795
 30
0.0
 40
4.0
  0
CIRCLE
  5
12D
100
AcDbEntity
  8
一般
370
               0
390
0
  6
Continuous
 62
               1
100
AcDbCircle
 10
10.000136063998141
 20
620.99999999999909
 30
0.0
 40
4.0
  0
CIRCLE
  5
12E
100
AcDbEntity
  8
一般
370
               0
390
0
  6
Continuous
 62
               1
100
AcDbCircle
 10
-128.35698961152957
 20
49.858910396794968
 30
0.0
 40
3.25
  0
LINE
  5
12F
100
AcDbEntity
  8
一般
370
               0
390
0
  6
Continuous
 62
               1
100
AcDbLine
 10
-200.0
 20
-585.00000000000136
 30
0.0
 11
-199.99988687536916
 21
85.000023841858138
 31
0.0
  0
LINE
  5
130
100
AcDbEntity
  8
一般
370
               0
390
0
  6
Continuous
 62
               1
100
AcDbLine
 10
-185.00002038976709
 20
-572.9999685287471
 30
0.0
 11
-185.00002038977254
 21
85.000023841858138
 31
0.0
  0
LINE
  5
131
100
AcDbEntity
  8
一般
370
               0
390
0
  6
Continuous
 62
               1
100
AcDbLine
 10
-196.00184572241506
 20
85.000023841858138
 30
0.0
 11
-196.00184572240869
 21
-585.0000524520874
 31
0.0
  0
LINE
  5
132
100
AcDbEntity
  8
一般
370
               0
390
0
  6
Continuous
 62
               1
100
AcDbLine
 10
-184.99811304113973
 20
85.000023841858138
 30
0.0
 11
-184.99807921473348
 21
-352.07778446518387
 31
0.0
  0
ARC
  5
133
100
AcDbEntity
  8
一般
370
               0
390
0
  6
Continuous
 62
               1
100
AcDbCircle
 10
115.00192078524374
 20
-55.499999999998892
 30
0.0
 40
278.4999999999805
100
AcDbArc
 50
157.4064683256646
 51
202.59353167433537
  0
LINE
  5
134
100
AcDbEntity
  8
一般
370
               0
390
0
  6
Continuous
 62
               1
100
AcDbLine
 10
-184.99807921473348
 20
-352.07778446518387
 30
0.0
 11
-184.99807921473348
 21
-425.92221553481795
 31
0.0
  0
LINE
  5
135
100
AcDbEntity
  8
一般
370
               0
390
0
  6
Continuous
 62
               1
100
AcDbLine
 10
-177.4171656686658
 20
-573.0
 30
0.0
 11
3.0019207852710252
 21
-572.99999999999909
 31
0.0
  0
ARC
  5
136
100
AcDbEntity
  8
一般
370
               0
390
0
  6
Continuous
 62
               1
100
AcDbCircle
 10
10.001920785268297
 20
-388.99999999999955
 30
0.0
 40
194.50000000000102
100
AcDbArc
 50
190.8302159799706
 51
251.08763358116224
  0
LINE
  5
137
100
AcDbEntity
  8
一般
370
               0
390
0
  6
Continuous
 62
               1
100
AcDbLine
 10
-184.99811304113427
 20
-572.9999685287471
 30
0.0
 11
-184.99807921473348
 21
-425.92221553481795
 31
0.0
  0
LINE
  5
138
100
AcDbEntity
  8
一般
370
               0
390
0
  6
Continuous
 62
               1
100
AcDbLine
 10
-196.00000000000091
 20
-573.00000000000136
 30
0.0
 11
-177.4171656686658
 21
-573.0
 31
0.0
  0
LINE
  5
139
100
AcDbEntity
  8
一般
370
               0
390
0
  6
Continuous
 62
               1
100
AcDbLine
 10
-200.0
 20
-600.0
 30
0.0
 11
-178.38323353293526
 21
-600.0
 31
0.0
  0
LINE
  5
13A
100
AcDbEntity
  8
一般
370
               0
390
0
  6
Continuous
 62
               1
100
AcDbLine
 10
-178.38323353293526
 20
-585.00000000000136
 30
0.0
 11
-200.0
 21
-585.00000000000136
 31
0.0
  0
LINE
  5
13B
100
AcDbEntity
  8
一般
370
               0
390
0
  6
Continuous
 62
               1
100
AcDbLine
 10
-195.99993837377588
 20
-585.0000524520874
 30
0.0
 11
-196.00000000000091
 21
-573.00000000000136
 31
0.0
  0
LINE
  5
13C
100
AcDbEntity
  8
一般
370
               0
390
0
  6
Continuous
 62
               1
100
AcDbLine
 10
-200.0
 20
-600.0
 30
0.0
 11
-200.0
 21
-585.00000000000136
 31
0.0
  0
LINE
  5
13D
100
AcDbEntity
  8
一般
370
               0
390
0
  6
Continuous
 62
               1
100
AcDbLine
 10
-177.4171656686658
 20
-573.0
 30
0.0
 11
-177.41711748144189
 21
-585.0000524520874
 31
0.0
  0
LINE
  5
13E
100
AcDbEntity
  8
一般
370
               0
390
0
  6
Continuous
 62
               1
100
AcDbLine
 10
-178.38323353293526
 20
-585.00000000000136
 30
0.0
 11
-178.38323353293526
 21
-600.0
 31
0.0
  0
ARC
  5
13F
100
AcDbEntity
  8
一般
370
               0
390
0
  6
Continuous
 62
               1
100
AcDbCircle
 10
-182.99807921473348
 20
-425.92221553481795
 30
0.0
 40
2.0000000000003628
100
AcDbArc
 50
10.830215979983434
 51
180.0
  0
ARC
  5
140
100
AcDbEntity
  8
一般
370
               0
390
0
  6
Continuous
 62
               1
100
AcDbCircle
 10
-40.385644231854641
 20
663.5740804190973
 30
0.0
 40
86.366864687267224
100
AcDbArc
 50
66.86863833532675
 51
113.13136166467321
  0
LINE
  5
141
100
AcDbEntity
  8
一般
370
               0
390
0
  6
Continuous
 62
               1
100
AcDbLine
 10
-10.385644231853732
 20
724.94094510636421
 30
0.0
 11
-70.385644231856432
 21
724.94094510636421
 31
0.0
  0
ARC
  5
142
100
AcDbEntity
  8
一般
370
               0
390
0
  6
Continuous
 62
               1
100
AcDbCircle
 10
-39.90538542595452
 20
686.74013514378112
 30
0.0
 40
83.259864856216922
100
AcDbArc
 50
55.036725217666636
 51
124.96327478201509
  0
ARC
  5
143
100
AcDbEntity
  8
一般
370
               0
390
0
  6
Continuous
 62
               1
100
AcDbCircle
 10
-70.385644231854613
 20
733.80155383345607
 30
0.0
 40
9.999999999992772
100
AcDbArc
 50
113.13136166467608
 51
176.73411622762811
  0
ARC
  5
144
100
AcDbEntity
  8
一般
370
               0
390
0
  6
Continuous
 62
               1
100
AcDbCircle
 10
-70.385644231856432
 20
734.94094510636194
 30
0.0
 40
9.999999999997538
100
AcDbArc
 50
183.26588377307255
 51
270.0
  0
ARC
  5
145
100
AcDbEntity
  8
一般
370
               0
390
0
  6
Continuous
 62
               1
100
AcDbCircle
 10
-10.385644231855551
 20
734.94094510636512
 30
0.0
 40
10.000000000001819
100
AcDbArc
 50
270.0
 51
356.73411622682198
  0
ARC
  5
146
100
AcDbEntity
  8
一般
370
               0
390
0
  6
Continuous
 62
               1
100
AcDbCircle
 10
-10.385644231852822
 20
733.80155383346016
 30
0.0
 40
9.9999999999887024
100
AcDbArc
 50
3.2658837722768328
 51
66.868638335320526
  0
CIRCLE
  5
147
100
AcDbEntity
  8
一般
370
               0
390
0
  6
Continuous
 62
               1
100
AcDbCircle
 10
-121.87349390602414
 20
-520.8754146912911
 30
0.0
 40
4.0
  0
LINE
  5
148
100
AcDbEntity
  8
一般
370
               0
390
0
  6
Continuous
 62
               1
100
AcDbLine
 10
3.0019207852710252
 20
-583.5
 30
0.0
 11
17.001920785270116
 21
-583.5
 31
0.0
  0
LINE
  5
149
100
AcDbEntity
  8
一般
370
               0
390
0
  6
Continuous
 62
               1
100
AcDbLine
 10
17.001920785270116
 20
-583.5
 30
0.0
 11
17.001920785270116
 21
-572.99999999999818
 31
0.0
  0
LINE
  5
14A
100
AcDbEntity
  8
一般
370
               0
390
0
  6
Continuous
 62
               1
100
AcDbLine
 10
3.0019207852710252
 20
-572.99999999999909
 30
0.0
 11
3.0019207852710252
 21
-583.5
 31
0.0
  0
CIRCLE
  5
14B
100
AcDbEntity
  8
一般
370
               0
390
0
  6
Continuous
 62
               1
100
AcDbCircle
 10
10.001920785271025
 20
-575.49999999999909
 30
0.0
 40
4.0
  0
ARC
  5
14C
100
AcDbEntity
  8
一般
370
               0
390
0
  6
Continuous
 62
               1
100
AcDbCircle
 10
10.001920785267387
 20
-388.99999999999955
 30
0.0
 40
194.50000000000043
100
AcDbArc
 50
103.26139533613373
 51
169.16978402002937
  0
CIRCLE
  5
14D
100
AcDbEntity
  8
一般
370
               0
390
0
  6
Continuous
 62
               1
100
AcDbCircle
 10
-176.49807921473075
 20
-389.00000000000091
 30
0.0
 40
4.0
  0
ARC
  5
14E
100
AcDbEntity
  8
一般
370
               0
390
0
  6
Continuous
 62
               1
100
AcDbCircle
 10
-182.99807921473348
 20
-352.07778446518387
 30
0.0
 40
2.0
100
AcDbArc
 50
180.0
 51
349.16978402004213
  0
ARC
  5
14F
100
AcDbEntity
  8
一般
370
               0
390
0
  6
Continuous
 62
               1
100
AcDbCircle
 10
-121.35099971509045
 20
-153.85292050035582
 30
0.0
 40
22.500000000005791
100
AcDbArc
 50
202.59353167433596
 51
247.40646832568061
  0
ARC
  5
150
100
AcDbEntity
  8
一般
370
               0
390
0
  6
Continuous
 62
               1
100
AcDbCircle
 10
-22.99807921473716
 20
82.50000000000388
 30
0.0
 40
278.50000000000392
100
AcDbArc
 50
247.40646832568152
 51
267.53257408794099
  0
CIRCLE
  5
151
100
AcDbEntity
  8
一般
370
               0
390
0
  6
Continuous
 62
               1
100
AcDbCircle
 10
-121.87349390602414
 20
-257.1245853087089
 30
0.0
 40
4.0
  0
ARC
  5
152
100
AcDbEntity
  8
一般
370
               0
390
0
  6
Continuous
 62
               1
100
AcDbCircle
 10
-22.99807921473716
 20
82.50000000000388
 30
0.0
 40
278.50000000000364
100
AcDbArc
 50
267.53257408794099
 51
280.47456253705371
  0
ARC
  5
153
100
AcDbEntity
  8
一般
370
               0
390
0
  6
Continuous
 62
               1
100
AcDbCircle
 10
-35.073995896897983
 20
-197.73993690458394
 30
0.0
 40
1.9999999999996223
100
AcDbArc
 50
283.26139533608301
 51
87.532574087941043
  0
LINE
  5
154
100
AcDbEntity
  8
一般
370
               0
390
0
  6
Continuous
 62
               1
100
AcDbLine
 10
14.043253536012301
 20
-209.50002908706483
 30
0.0
 11
16.064089412476235
 21
-205.99998474120866
 31
0.0
  0
LINE
  5
155
100
AcDbEntity
  8
一般
370
               0
390
0
  6
Continuous
 62
               1
100
AcDbLine
 10
10.001820201660806
 20
-209.50002908706483
 30
0.0
 11
14.043253536012301
 21
-209.50002908706483
 31
0.0
  0
LINE
  5
156
100
AcDbEntity
  8
一般
370
               0
390
0
  6
Continuous
 62
               1
100
AcDbLine
 10
5.9603868673102198
 20
-195.49997091293164
 30
0.0
 11
3.9397894094253871
 21
-199.00001525878781
 31
0.0
  0
LINE
  5
157
100
AcDbEntity
  8
一般
370
               0
390
0
  6
Continuous
 62
               1
100
AcDbLine
 10
10.001820201660806
 20
-195.49997091293164
 30
0.0
 11
5.9603868673102198
 21
-195.49997091293164
 31
0.0
  0
LINE
  5
158
100
AcDbEntity
  8
一般
370
               0
390
0
  6
Continuous
 62
               1
100
AcDbLine
 10
3.9397894094253871
 20
-199.00001525878781
 30
0.0
 11
1.9189535329605434
 21
-202.49999999999875
 31
0.0
  0
LINE
  5
159
100
AcDbEntity
  8
一般
370
               0
390
0
  6
Continuous
 62
               1
100
AcDbLine
 10
1.9189535329605434
 20
-202.49999999999875
 30
0.0
 11
3.9397894094253871
 21
-205.99998474120866
 31
0.0
  0
LINE
  5
15A
100
AcDbEntity
  8
一般
370
               0
390
0
  6
Continuous
 62
               1
100
AcDbLine
 10
16.064089412476235
 20
-199.00001525878781
 30
0.0
 11
14.043253536012301
 21
-195.49997091293164
 31
0.0
  0
LINE
  5
15B
100
AcDbEntity
  8
一般
370
               0
390
0
  6
Continuous
 62
               1
100
AcDbLine
 10
14.043253536012301
 20
-195.49997091293164
 30
0.0
 11
10.001820201660806
 21
-195.49997091293164
 31
0.0
  0
LINE
  5
15C
100
AcDbEntity
  8
一般
370
               0
390
0
  6
Continuous
 62
               1
100
AcDbLine
 10
18.084925288941079
 20
-202.49999999999875
 30
0.0
 11
16.064089412476235
 21
-199.00001525878781
 31
0.0
  0
LINE
  5
15D
100
AcDbEntity
  8
一般
370
               0
390
0
  6
Continuous
 62
               1
100
AcDbLine
 10
16.064089412476235
 20
-205.99998474120866
 30
0.0
 11
18.084925288941079
 21
-202.49999999999875
 31
0.0
  0
LINE
  5
15E
100
AcDbEntity
  8
一般
370
               0
390
0
  6
Continuous
 62
               1
100
AcDbLine
 10
3.9397894094253871
 20
-205.99998474120866
 30
0.0
 11
5.9603868673102198
 21
-209.50002908706483
 31
0.0
  0
LINE
  5
15F
100
AcDbEntity
  8
一般
370
               0
390
0
  6
Continuous
 62
               1
100
AcDbLine
 10
5.9603868673102198
 20
-209.50002908706483
 30
0.0
 11
10.001820201660806
 21
-209.50002908706483
 31
0.0
  0
CIRCLE
  5
160
100
AcDbEntity
  8
一般
370
               0
390
0
  6
Continuous
 62
               1
100
AcDbCircle
 10
10.001920785267387
 20
-202.49999999999875
 30
0.0
 40
1.6000000000258296
  0
CIRCLE
  5
161
100
AcDbEntity
  8
一般
370
               0
390
0
  6
Continuous
 62
               1
100
AcDbCircle
 10
10.001920785267387
 20
-202.49999999999875
 30
0.0
 40
7.0
  0
CIRCLE
  5
162
100
AcDbEntity
  8
一般
370
               0
390
0
  6
Continuous
 62
               1
100
AcDbCircle
 10
10.001920785267387
 20
-202.49999999999875
 30
0.0
 40
4.6000000000121872
  0
ARC
  5
163
100
AcDbEntity
  8
一般
370
               0
390
0
  6
Continuous
 62
               1
100
AcDbCircle
 10
27.99653308798402
 20
-193.32566870415678
 30
0.0
 40
2.0000000000005342
100
AcDbArc
 50
100.4745625370514
 51
264.74574128888844
  0
CIRCLE
  5
164
100
AcDbEntity
  8
一般
370
               0
390
0
  6
Continuous
 62
               1
100
AcDbCircle
 10
-128.35698961152866
 20
-160.85891039679677
 30
0.0
 40
3.25
  0
LINE
  5
165
100
AcDbEntity
  8
一般
370
               0
390
0
  6
Continuous
 62
               1
100
AcDbLine
 10
-199.99968687536284
 20
-1094.4774023217474
 30
0.0
 11
-199.99980000000005
 21
-950.74695749692046
 31
0.0
  0
LINE
  5
166
100
AcDbEntity
  8
一般
370
               0
390
0
  6
Continuous
 62
               1
100
AcDbLine
 10
-87.617492101589519
 20
-1254.9732200176268
 30
0.0
 11
-199.99968687536284
 21
-1094.4774023217474
 31
0.0
  0
LINE
  5
167
100
AcDbEntity
  8
一般
370
               0
390
0
  6
Continuous
 62
               1
100
AcDbLine
 10
-184.99811304113973
 20
85.000023841858138
 30
0.0
 11
-70.199774099555739
 21
85.000000000000227
 31
0.0
  0
LINE
  5
168
100
AcDbEntity
  8
一般
370
               0
390
0
  6
Continuous
 62
               1
100
AcDbLine
 10
-196.00184572241506
 20
85.000023841858138
 30
0.0
 11
-185.00002038977254
 21
85.000023841858138
 31
0.0
  0
LINE
  5
169
100
AcDbEntity
  8
一般
370
               0
390
0
  6
Continuous
 62
               1
100
AcDbLine
 10
-199.99988687536916
 20
85.000023841858138
 30
0.0
 11
-196.00184572241506
 21
85.000023841858138
 31
0.0
  0
LINE
  5
16A
100
AcDbEntity
  8
一般
370
               0
390
0
  6
Continuous
 62
               1
100
AcDbLine
 10
-184.99811304113973
 20
91.000006198884194
 30
0.0
 11
-185.00002038977254
 21
91.000006198884194
 31
0.0
  0
LINE
  5
16B
100
AcDbEntity
  8
一般
370
               0
390
0
  6
Continuous
 62
               1
100
AcDbLine
 10
-175.99805009863576
 20
91.000006198884194
 30
0.0
 11
-184.99811304113973
 21
91.000006198884194
 31
0.0
  0
LINE
  5
16C
100
AcDbEntity
  8
一般
370
               0
390
0
  6
Continuous
 62
               1
100
AcDbLine
 10
-184.99811304113973
 20
91.000006198884194
 30
0.0
 11
-184.99811304113973
 21
85.000023841858138
 31
0.0
  0
LINE
  5
16D
100
AcDbEntity
  8
一般
370
               0
390
0
  6
Continuous
 62
               1
100
AcDbLine
 10
-191.00006235144247
 20
91.000006198882829
 30
0.0
 11
-191.00006235144247
 21
85.000023841858138
 31
0.0
  0
LINE
  5
16E
100
AcDbEntity
  8
一般
370
               0
390
0
  6
Continuous
 62
               1
100
AcDbLine
 10
-185.00002038977254
 20
91.000006198884194
 30
0.0
 11
-185.00002038977254
 21
85.000023841858138
 31
0.0
  0
LINE
  5
16F
100
AcDbEntity
  8
一般
370
               0
390
0
  6
Continuous
 62
               1
100
AcDbLine
 10
-185.00002038977254
 20
91.000006198884194
 30
0.0
 11
-191.00006235144247
 21
91.000006198882829
 31
0.0
  0
LINE
  5
170
100
AcDbEntity
  8
一般
370
               0
390
0
  6
Continuous
 62
               1
100
AcDbLine
 10
-175.99805009863576
 20
91.000006198884194
 30
0.0
 11
-175.99805009863576
 21
85.000023841858138
 31
0.0
  0
LINE
  5
171
100
AcDbEntity
  8
一般
370
               0
390
0
  6
Continuous
 62
               1
100
AcDbLine
 10
-185.00002038977254
 20
85.000023841858138
 30
0.0
 11
-184.99811304113973
 21
85.000023841858138
 31
0.0
  0
ARC
  5
172
100
AcDbEntity
  8
一般
370
               0
390
0
  6
Continuous
 62
               1
100
AcDbCircle
 10
-39.905321489954545
 20
-1186.7401351437807
 30
0.0
 40
83.259864856216581
100
AcDbArc
 50
235.03672521798492
 51
304.9632747823328
  0
LINE
  5
173
100
AcDbEntity
  8
一般
370
               0
390
0
  6
Continuous
 62
               1
100
AcDbLine
 10
-10.385580295853757
 20
-1224.9409451063625
 30
0.0
 11
-70.385580295856485
 21
-1224.9409451063648
 31
0.0
  0
ARC
  5
174
100
AcDbEntity
  8
一般
370
               0
390
0
  6
Continuous
 62
               1
100
AcDbCircle
 10
-40.385580295854666
 20
-1163.5740804190978
 30
0.0
 40
86.366864687267324
100
AcDbArc
 50
246.86863833532675
 51
293.13136166467319
  0
LINE
  5
175
100
AcDbEntity
  8
一般
370
               0
390
0
  6
Continuous
 62
               1
100
AcDbLine
 10
-70.199774099555739
 20
85.000000000000227
 30
0.0
 11
24.203615670084176
 21
85.000000000001137
 31
0.0
  0
ARC
  5
176
100
AcDbEntity
  8
一般
370
               0
390
0
  6
Continuous
 62
               1
100
AcDbCircle
 10
-22.998079214733522
 20
-193.50000000000784
 30
0.0
 40
278.50000000000739
100
AcDbArc
 50
99.687654535490836
 51
112.5935316743184
  0
ARC
  5
177
100
AcDbEntity
  8
一般
370
               0
390
0
  6
Continuous
 62
               1
100
AcDbCircle
 10
-121.35099971509409
 20
42.8529205003572
 30
0.0
 40
22.500000000003869
100
AcDbArc
 50
112.59353167432423
 51
157.40646832566441
  0
ARC
  5
178
100
AcDbEntity
  8
一般
370
               0
390
0
  6
Continuous
 62
               1
100
AcDbCircle
 10
-70.199774099555739
 20
83.000000000000242
 30
0.0
 40
2.0000000000003531
100
AcDbArc
 50
279.6876545354886
 51
90.0
  0
ARC
  5
179
100
AcDbEntity
  8
一般
370
               0
390
0
  6
Continuous
 62
               1
100
AcDbCircle
 10
-70.385580295856485
 20
-1234.9409451063616
 30
0.0
 40
9.9999999999972715
100
AcDbArc
 50
90.0
 51
176.73411622692748
  0
ARC
  5
17A
100
AcDbEntity
  8
一般
370
               0
390
0
  6
Continuous
 62
               1
100
AcDbCircle
 10
-70.385580295854666
 20
-1233.8015538334566
 30
0.0
 40
9.9999999999932943
100
AcDbArc
 50
183.26588377237189
 51
246.86863833531913
  0
POLYLINE
  5
17B
100
AcDbEntity
  8
一般
370
               0
390
0
  6
Continuous
 62
               1
100
AcDb2dPolyline
 66
               1
 10
0.0
 20
0.0
 30
0.0
 75
               5
  0
VERTEX
  5
17C
100
AcDbEntity
  8
一般
370
               0
390
0
  6
Continuous
 62
               1
100
AcDbVertex
100
AcDb2dVertex
 10
-60.088712101199249
 20
76.968417167664256
 30
0.0
  0
VERTEX
  5
17D
100
AcDbEntity
  8
一般
370
               0
390
0
  6
Continuous
 62
               1
100
AcDbVertex
100
AcDb2dVertex
 10
-59.91490495703421
 20
76.357648372650829
 30
0.0
  0
VERTEX
  5
17E
100
AcDbEntity
  8
一般
370
               0
390
0
  6
Continuous
 62
               1
100
AcDbVertex
100
AcDb2dVertex
 10
-59.742051487184668
 20
75.749323368073192
 30
0.0
  0
VERTEX
  5
17F
100
AcDbEntity
  8
一般
370
               0
390
0
  6
Continuous
 62
               1
100
AcDbVertex
100
AcDb2dVertex
 10
-59.570390110231543
 20
75.145945549011913
 30
0.0
  0
VERTEX
  5
180
100
AcDbEntity
  8
一般
370
               0
390
0
  6
Continuous
 62
               1
100
AcDbVertex
100
AcDb2dVertex
 10
-59.400874500491241
 20
74.549899101258006
 30
0.0
  0
VERTEX
  5
181
100
AcDbEntity
  8
一般
370
               0
390
0
  6
Continuous
 62
               1
100
AcDbVertex
100
AcDb2dVertex
 10
-59.234219913699249
 20
73.963627815247264
 30
0.0
  0
VERTEX
  5
182
100
AcDbEntity
  8
一般
370
               0
390
0
  6
Continuous
 62
               1
100
AcDbVertex
100
AcDb2dVertex
 10
-59.070903187013769
 20
73.38945627212594
 30
0.0
  0
VERTEX
  5
183
100
AcDbEntity
  8
一般
370
               0
390
0
  6
Continuous
 62
               1
100
AcDbVertex
100
AcDb2dVertex
 10
-58.911877994753937
 20
72.829768657685023
 30
0.0
  0
VERTEX
  5
184
100
AcDbEntity
  8
一般
370
               0
390
0
  6
Continuous
 62
               1
100
AcDbVertex
100
AcDb2dVertex
 10
-58.757382755496124
 20
72.286770343781214
 30
0.0
  0
SEQEND
  5
185
100
AcDbEntity
  8
一般
370
               0
390
0
  6
Continuous
 62
               1
  0
POLYLINE
  5
187
100
AcDbEntity
  8
一般
370
               0
390
0
  6
Continuous
 62
               1
100
AcDb2dPolyline
 66
               1
 10
0.0
 20
0.0
 30
0.0
 75
               5
  0
VERTEX
  5
188
100
AcDbEntity
  8
一般
370
               0
390
0
  6
Continuous
 62
               1
100
AcDbVertex
100
AcDb2dVertex
 10
14.092844600460879
 20
76.96752309799308
 30
0.0
  0
VERTEX
  5
189
100
AcDbEntity
  8
一般
370
               0
390
0
  6
Continuous
 62
               1
100
AcDbVertex
100
AcDb2dVertex
 10
13.919275874874941
 20
76.356933116913979
 30
0.0
  0
VERTEX
  5
18A
100
AcDbEntity
  8
一般
370
               0
390
0
  6
Continuous
 62
               1
100
AcDbVertex
100
AcDb2dVertex
 10
13.746183986447207
 20
75.748786926271123
 30
0.0
  0
VERTEX
  5
18B
100
AcDbEntity
  8
一般
370
               0
390
0
  6
Continuous
 62
               1
100
AcDbVertex
100
AcDb2dVertex
 10
13.574761028073183
 20
75.14558792114417
 30
0.0
  0
VERTEX
  5
18C
100
AcDbEntity
  8
一般
370
               0
390
0
  6
Continuous
 62
               1
100
AcDbVertex
100
AcDb2dVertex
 10
13.405245418331972
 20
74.549720287324135
 30
0.0
  0
VERTEX
  5
18D
100
AcDbEntity
  8
一般
370
               0
390
0
  6
Continuous
 62
               1
100
AcDbVertex
100
AcDb2dVertex
 10
13.238352412960879
 20
73.963568210602944
 30
0.0
  0
VERTEX
  5
18E
100
AcDbEntity
  8
一般
370
               0
390
0
  6
Continuous
 62
               1
100
AcDbVertex
100
AcDb2dVertex
 10
13.075274104856319
 20
73.389575481415946
 30
0.0
  0
VERTEX
  5
18F
100
AcDbEntity
  8
一般
370
               0
390
0
  6
Continuous
 62
               1
100
AcDbVertex
100
AcDb2dVertex
 10
12.916010494016476
 20
72.830007076265034
 30
0.0
  0
VERTEX
  5
190
100
AcDbEntity
  8
一般
370
               0
390
0
  6
Continuous
 62
               1
100
AcDbVertex
100
AcDb2dVertex
 10
12.761515254757754
 20
72.28712797165123
 30
0.0
  0
SEQEND
  5
191
100
AcDbEntity
  8
一般
370
               0
390
0
  6
Continuous
 62
               1
  0
ARC
  5
193
100
AcDbEntity
  8
一般
370
               0
390
0
  6
Continuous
 62
               1
100
AcDbCircle
 10
24.203615670084176
 20
83.000000000001151
 30
0.0
 40
1.9999999999999929
100
AcDbArc
 50
90.0
 51
260.31234546450924
  0
ARC
  5
194
100
AcDbEntity
  8
一般
370
               0
390
0
  6
Continuous
 62
               1
100
AcDbCircle
 10
-10.385580295855576
 20
-1234.9409451063657
 30
0.0
 40
10.000000000002233
100
AcDbArc
 50
3.2658837731779924
 51
90.0
  0
ARC
  5
195
100
AcDbEntity
  8
一般
370
               0
390
0
  6
Continuous
 62
               1
100
AcDbCircle
 10
-10.385580295852847
 20
-1233.8015538334594
 30
0.0
 40
9.9999999999890701
100
AcDbArc
 50
293.13136166467945
 51
356.73411622772318
  0
CIRCLE
  5
196
100
AcDbEntity
  8
一般
370
               0
390
0
  6
Continuous
 62
               1
100
AcDbCircle
 10
10.000199999999026
 20
-1080.9999999999977
 30
0.0
 40
25.495097567963967
  0
CIRCLE
  5
197
100
AcDbEntity
  8
一般
370
               0
390
0
  6
Continuous
 62
               1
100
AcDbCircle
 10
10.000199999998117
 20
-1120.9999999999986
 30
0.0
 40
4.0
  0
CIRCLE
  5
198
100
AcDbEntity
  8
一般
370
               0
390
0
  6
Continuous
 62
               1
100
AcDbCircle
 10
-29.999800000000974
 20
-1080.9999999999986
 30
0.0
 40
4.0
  0
CIRCLE
  5
199
100
AcDbEntity
  8
一般
370
               0
390
0
  6
Continuous
 62
               1
100
AcDbCircle
 10
10.000199999999026
 20
-1040.9999999999977
 30
0.0
 40
4.0
  0
LINE
  5
19A
100
AcDbEntity
  8
一般
370
               0
390
0
  6
Continuous
 62
               1
100
AcDbLine
 10
9.7299846029049917
 20
-1044.9451080483727
 30
0.0
 11
13.369444212891253
 21
-1038.9922729653645
 31
0.0
  0
ARC
  5
19B
100
AcDbEntity
  8
一般
370
               0
390
0
  6
Continuous
 62
               1
100
AcDbCircle
 10
-171.49980000000005
 20
-950.74695749692046
 30
0.0
 40
28.500000000001521
100
AcDbArc
 50
103.97609023073777
 51
180.0
  0
LINE
  5
19C
100
AcDbEntity
  8
一般
370
               0
390
0
  6
Continuous
 62
               1
100
AcDbLine
 10
220.00013606399631
 20
450.74695749691972
 30
0.0
 11
220.00008706400337
 21
606.39380132382303
 31
0.0
  0
ARC
  5
19D
100
AcDbEntity
  8
一般
370
               0
390
0
  6
Continuous
 62
               1
100
AcDbCircle
 10
191.50013606399722
 20
450.74695749692086
 30
0.0
 40
28.500000000000416
100
AcDbArc
 50
283.97609023073829
 51
0.0
  0
LINE
  5
19E
100
AcDbEntity
  8
一般
370
               0
390
0
  6
Continuous
 62
               1
100
AcDbLine
 10
-724.47740232174965
 20
-585.0000524520874
 30
0.0
 11
-724.47740232174965
 21
85.000023841858138
 31
0.0
  0
LINE
  5
19F
100
AcDbEntity
  8
一般
370
               0
390
0
  6
Continuous
 62
               1
100
AcDbLine
 10
-884.97327958768165
 20
85.000023841858138
 30
0.0
 11
-884.97327958768165
 21
-585.0000524520874
 31
0.0
  0
LINE
  5
1A0
100
AcDbEntity
  8
一般
370
               0
390
0
  6
Continuous
 62
               1
100
AcDbLine
 10
-581.00055848782631
 20
85.000023841858138
 30
0.0
 11
-581.00055848782631
 21
-585.0000524520874
 31
0.0
  0
LINE
  5
1A1
100
AcDbEntity
  8
一般
370
               0
390
0
  6
Continuous
 62
               1
100
AcDbLine
 10
-724.47740232174965
 20
-585.0000524520874
 30
0.0
 11
-724.47740232174965
 21
85.000023841858138
 31
0.0
  0
LINE
  5
1A2
100
AcDbEntity
  8
一般
370
               0
390
0
  6
Continuous
 62
               1
100
AcDbLine
 10
-622.00056707089516
 20
-585.0000524520874
 30
0.0
 11
-622.00056707089516
 21
85.000023841858138
 31
0.0
  0
LINE
  5
1A3
100
AcDbEntity
  8
一般
370
               0
390
0
  6
Continuous
 62
               1
100
AcDbLine
 10
-884.97322001763132
 20
-573.0
 30
0.0
 11
-884.97327958768165
 21
72.999999523163083
 31
0.0
  0
LINE
  5
1A4
100
AcDbEntity
  8
一般
370
               0
390
0
  6
Continuous
 62
               1
100
AcDbLine
 10
-580.99996244137856
 20
85.000023841858138
 30
0.0
 11
-581.00000000000182
 21
-352.07778446518387
 31
0.0
  0
CIRCLE
  5
1A5
100
AcDbEntity
  8
一般
370
               0
390
0
  6
Continuous
 62
               1
100
AcDbCircle
 10
82.36083118206075
 20
49.858910396795878
 30
0.0
 40
3.25
  0
LINE
  5
1A6
100
AcDbEntity
  8
一般
370
               0
390
0
  6
Continuous
 62
               1
100
AcDbLine
 10
219.999950999997
 20
85.000023841860866
 30
0.0
 11
219.99999999999631
 21
-584.99999999999818
 31
0.0
  0
LINE
  5
1A7
100
AcDbEntity
  8
一般
370
               0
390
0
  6
Continuous
 62
               1
100
AcDbLine
 10
215.99999999999903
 20
-572.99999999999818
 30
0.0
 11
216.00000249841008
 21
85.000023841860866
 31
0.0
  0
LINE
  5
1A8
100
AcDbEntity
  8
一般
370
               0
390
0
  6
Continuous
 62
               1
100
AcDbLine
 10
205.00008451440493
 20
-214.00000095367068
 30
0.0
 11
205.0000845144022
 21
85.000023841860866
 31
0.0
  0
LINE
  5
1A9
100
AcDbEntity
  8
一般
370
               0
390
0
  6
Continuous
 62
               1
100
AcDbLine
 10
155.00203954675447
 20
-204.99999761581194
 30
0.0
 11
155.00192078526646
 21
85.000000000002046
 31
0.0
  0
ARC
  5
1AA
100
AcDbEntity
  8
一般
370
               0
390
0
  6
Continuous
 62
               1
100
AcDbCircle
 10
-160.99807921477895
 20
-55.500000000001165
 30
0.0
 40
278.50000000004286
100
AcDbArc
 50
337.4064683256766
 51
22.593531674323348
  0
LINE
  5
1AB
100
AcDbEntity
  8
一般
370
               0
390
0
  6
Continuous
 62
               1
100
AcDbLine
 10
-884.97322001763132
 20
-600.0
 30
0.0
 11
-724.47740232174965
 21
-600.00003814697311
 31
0.0
  0
LINE
  5
1AC
100
AcDbEntity
  8
一般
370
               0
390
0
  6
Continuous
 62
               1
100
AcDbLine
 10
-724.47740232174965
 20
-585.0000524520874
 30
0.0
 11
-884.97327958768165
 21
-585.0000524520874
 31
0.0
  0
LINE
  5
1AD
100
AcDbEntity
  8
一般
370
               0
390
0
  6
Continuous
 62
               1
100
AcDbLine
 10
-884.97327958768165
 20
-585.0000524520874
 30
0.0
 11
-724.47740232174965
 21
-585.0000524520874
 31
0.0
  0
LINE
  5
1AE
100
AcDbEntity
  8
一般
370
               0
390
0
  6
Continuous
 62
               1
100
AcDbLine
 10
205.00199186303774
 20
-214.00000095367068
 30
0.0
 11
205.00199186304138
 21
-572.99996852874438
 31
0.0
  0
ARC
  5
1AF
100
AcDbEntity
  8
一般
370
               0
390
0
  6
Continuous
 62
               1
100
AcDbCircle
 10
10.001920785269206
 20
-388.99999999999955
 30
0.0
 40
194.50000000000077
100
AcDbArc
 50
288.91236641883756
 51
349.16978402002934
  0
CIRCLE
  5
1B0
100
AcDbEntity
  8
一般
370
               0
390
0
  6
Continuous
 62
               1
100
AcDbCircle
 10
141.87733547656165
 20
-520.87541469128928
 30
0.0
 40
4.0
  0
LINE
  5
1B1
100
AcDbEntity
  8
一般
370
               0
390
0
  6
Continuous
 62
               1
100
AcDbLine
 10
205.00192078526919
 20
-425.92221553481568
 30
0.0
 11
205.00199186304138
 21
-572.99996852874438
 31
0.0
  0
LINE
  5
1B2
100
AcDbEntity
  8
一般
370
               0
390
0
  6
Continuous
 62
               1
100
AcDbLine
 10
197.41716566866302
 20
-572.99999999999818
 30
0.0
 11
215.99999999999903
 21
-572.99999999999818
 31
0.0
  0
LINE
  5
1B3
100
AcDbEntity
  8
一般
370
               0
390
0
  6
Continuous
 62
               1
100
AcDbLine
 10
198.38323353292884
 20
-599.99999999999818
 30
0.0
 11
219.99999999999631
 21
-599.99999999999818
 31
0.0
  0
LINE
  5
1B4
100
AcDbEntity
  8
一般
370
               0
390
0
  6
Continuous
 62
               1
100
AcDbLine
 10
219.99999999999631
 20
-584.99999999999818
 30
0.0
 11
198.38323353292884
 21
-584.99999999999818
 31
0.0
  0
LINE
  5
1B5
100
AcDbEntity
  8
一般
370
               0
390
0
  6
Continuous
 62
               1
100
AcDbLine
 10
197.41716566866302
 20
-572.99999999999818
 30
0.0
 11
197.41718160608337
 21
-585.00005245208422
 31
0.0
  0
LINE
  5
1B6
100
AcDbEntity
  8
一般
370
               0
390
0
  6
Continuous
 62
               1
100
AcDbLine
 10
198.38323353292884
 20
-584.99999999999818
 30
0.0
 11
198.38323353292884
 21
-599.99999999999818
 31
0.0
  0
LINE
  5
1B7
100
AcDbEntity
  8
一般
370
               0
390
0
  6
Continuous
 62
               1
100
AcDbLine
 10
215.99999999999903
 20
-572.99999999999818
 30
0.0
 11
216.00000249841736
 21
-585.00005245208422
 31
0.0
  0
LINE
  5
1B8
100
AcDbEntity
  8
一般
370
               0
390
0
  6
Continuous
 62
               1
100
AcDbLine
 10
219.99999999999631
 20
-584.99999999999818
 30
0.0
 11
219.99999999999631
 21
-599.99999999999818
 31
0.0
  0
ARC
  5
1B9
100
AcDbEntity
  8
一般
370
               0
390
0
  6
Continuous
 62
               1
100
AcDbCircle
 10
203.00192078527101
 20
-425.92221553481568
 30
0.0
 40
2.0
100
AcDbArc
 50
0.0
 51
169.16978402001166
  0
LINE
  5
1BA
100
AcDbEntity
  8
一般
370
               0
390
0
  6
Continuous
 62
               1
100
AcDbLine
 10
-900.0
 20
-600.0
 30
0.0
 11
-884.97322001763132
 21
-600.0
 31
0.0
  0
LINE
  5
1BB
100
AcDbEntity
  8
一般
370
               0
390
0
  6
Continuous
 62
               1
100
AcDbLine
 10
-884.97322001763132
 20
-573.0
 30
0.0
 11
-900.0
 21
-572.99999999999909
 31
0.0
  0
LINE
  5
1BC
100
AcDbEntity
  8
一般
370
               0
390
0
  6
Continuous
 62
               1
100
AcDbLine
 10
-900.0
 20
-572.99999999999909
 30
0.0
 11
-900.0
 21
-600.0
 31
0.0
  0
LINE
  5
1BD
100
AcDbEntity
  8
一般
370
               0
390
0
  6
Continuous
 62
               1
100
AcDbLine
 10
-884.97327958768165
 20
-585.0000524520874
 30
0.0
 11
-884.97322001763132
 21
-573.0
 31
0.0
  0
LINE
  5
1BE
100
AcDbEntity
  8
一般
370
               0
390
0
  6
Continuous
 62
               1
100
AcDbLine
 10
-884.97327958768165
 20
-585.0000524520874
 30
0.0
 11
-884.97322001763132
 21
-600.0
 31
0.0
  0
ARC
  5
1BF
100
AcDbEntity
  8
一般
370
               0
390
0
  6
Continuous
 62
               1
100
AcDbCircle
 10
75.354841285632531
 20
-153.85292050036401
 30
0.0
 40
22.499999999995055
100
AcDbArc
 50
292.59353167431851
 51
337.40646832567631
  0
CIRCLE
  5
1C0
100
AcDbEntity
  8
一般
370
               0
390
0
  6
Continuous
 62
               1
100
AcDbCircle
 10
141.87733547655984
 20
-257.12458530870663
 30
0.0
 40
4.0
  0
LINE
  5
1C1
100
AcDbEntity
  8
一般
370
               0
390
0
  6
Continuous
 62
               1
100
AcDbLine
 10
205.00199186303774
 20
-214.00000095367068
 30
0.0
 11
205.00192078526828
 21
-352.07778446518068
 31
0.0
  0
ARC
  5
1C2
100
AcDbEntity
  8
一般
370
               0
390
0
  6
Continuous
 62
               1
100
AcDbCircle
 10
203.0019207852701
 20
-352.07778446518068
 30
0.0
 40
2.0000000000002776
100
AcDbArc
 50
190.8302159799706
 51
0.0
  0
CIRCLE
  5
1C3
100
AcDbEntity
  8
一般
370
               0
390
0
  6
Continuous
 62
               1
100
AcDbCircle
 10
196.50192078526919
 20
-388.99999999999773
 30
0.0
 40
4.0
  0
ARC
  5
1C4
100
AcDbEntity
  8
一般
370
               0
390
0
  6
Continuous
 62
               1
100
AcDbCircle
 10
10.001920785269206
 20
-389.99999999999955
 30
0.0
 40
195.00000000000063
100
AcDbArc
 50
359.74569196056711
 51
0.2543080394459025
  0
LINE
  5
1C5
100
AcDbEntity
  8
一般
370
               0
390
0
  6
Continuous
 62
               1
100
AcDbLine
 10
204.9999999999954
 20
-390.86550711566588
 30
0.0
 11
204.9999999999954
 21
-389.13449288427773
 31
0.0
  0
LINE
  5
1C6
100
AcDbEntity
  8
一般
370
               0
390
0
  6
Continuous
 62
               1
100
AcDbLine
 10
205.00008451440493
 20
-204.99999761581057
 30
0.0
 11
155.00203954675447
 21
-204.99999761581194
 31
0.0
  0
LINE
  5
1C7
100
AcDbEntity
  8
一般
370
               0
390
0
  6
Continuous
 62
               1
100
AcDbLine
 10
205.00008451440493
 20
-214.00000095367068
 30
0.0
 11
205.00199186303774
 21
-214.00000095367068
 31
0.0
  0
CIRCLE
  5
1C8
100
AcDbEntity
  8
一般
370
               0
390
0
  6
Continuous
 62
               1
100
AcDbCircle
 10
82.360831182063478
 20
-160.85891039679495
 30
0.0
 40
3.25
  0
LINE
  5
1C9
100
AcDbEntity
  8
一般
370
               0
390
0
  6
Continuous
 62
               1
100
AcDbLine
 10
-580.99996244138129
 20
-390.86545944213594
 30
0.0
 11
-581.00000000000182
 21
-423.92221553481795
 31
0.0
  0
LINE
  5
1CA
100
AcDbEntity
  8
一般
370
               0
390
0
  6
Continuous
 62
               1
100
AcDbLine
 10
-724.47740232174965
 20
-600.00003814697311
 30
0.0
 11
-580.74695749692455
 21
-600.0
 31
0.0
  0
LINE
  5
1CB
100
AcDbEntity
  8
一般
370
               0
390
0
  6
Continuous
 62
               1
100
AcDbLine
 10
-580.74695749692455
 20
-585.00000000000136
 30
0.0
 11
-724.47740232174965
 21
-585.0000524520874
 31
0.0
  0
LINE
  5
1CC
100
AcDbEntity
  8
一般
370
               0
390
0
  6
Continuous
 62
               1
100
AcDbLine
 10
-724.47740232174965
 20
-585.0000524520874
 30
0.0
 11
-622.00056707089516
 21
-585.0000524520874
 31
0.0
  0
LINE
  5
1CD
100
AcDbEntity
  8
一般
370
               0
390
0
  6
Continuous
 62
               1
100
AcDbLine
 10
-724.47740232174965
 20
-585.0000524520874
 30
0.0
 11
-724.47740232174965
 21
-600.00003814697311
 31
0.0
  0
CIRCLE
  5
1CE
100
AcDbEntity
  8
一般
370
               0
390
0
  6
Continuous
 62
               1
100
AcDbCircle
 10
-609.00060554372885
 20
-564.00000000000136
 30
0.0
 40
4.25
  0
LINE
  5
1CF
100
AcDbEntity
  8
一般
370
               0
390
0
  6
Continuous
 62
               1
100
AcDbLine
 10
-580.99996244137856
 20
-572.9999685287471
 30
0.0
 11
-581.00000000000182
 21
-425.92221553481795
 31
0.0
  0
LINE
  5
1D0
100
AcDbEntity
  8
一般
370
               0
390
0
  6
Continuous
 62
               1
100
AcDbLine
 10
-556.97224087506765
 20
-573.0
 30
0.0
 11
-534.03155548224822
 21
-572.99999999999909
 31
0.0
  0
LINE
  5
1D1
100
AcDbEntity
  8
一般
370
               0
390
0
  6
Continuous
 62
               1
100
AcDbLine
 10
-553.09065448782439
 20
-600.0
 30
0.0
 11
-530.00000000000546
 21
-599.99999999999909
 31
0.0
  0
LINE
  5
1D2
100
AcDbEntity
  8
一般
370
               0
390
0
  6
Continuous
 62
               1
100
AcDbLine
 10
-530.00000000000546
 20
-584.99999999999909
 30
0.0
 11
-553.09065448782439
 21
-585.00000000000136
 31
0.0
  0
LINE
  5
1D3
100
AcDbEntity
  8
一般
370
               0
390
0
  6
Continuous
 62
               1
100
AcDbLine
 10
-580.74695749692
 20
-573.00000000000136
 30
0.0
 11
-556.97224087506765
 21
-573.0
 31
0.0
  0
LINE
  5
1D4
100
AcDbEntity
  8
一般
370
               0
390
0
  6
Continuous
 62
               1
100
AcDbLine
 10
-580.74695749692455
 20
-600.0
 30
0.0
 11
-553.09065448782439
 21
-600.0
 31
0.0
  0
LINE
  5
1D5
100
AcDbEntity
  8
一般
370
               0
390
0
  6
Continuous
 62
               1
100
AcDbLine
 10
-553.09065448782439
 20
-585.00000000000136
 30
0.0
 11
-580.74695749692455
 21
-585.00000000000136
 31
0.0
  0
LINE
  5
1D6
100
AcDbEntity
  8
一般
370
               0
390
0
  6
Continuous
 62
               1
100
AcDbLine
 10
-580.99996244137856
 20
-585.0000524520874
 30
0.0
 11
-580.99996244137856
 21
-572.99996852874801
 31
0.0
  0
LINE
  5
1D7
100
AcDbEntity
  8
一般
370
               0
390
0
  6
Continuous
 62
               1
100
AcDbLine
 10
-580.74695749692455
 20
-585.00000000000136
 30
0.0
 11
-580.74695749692
 21
-573.00000000000136
 31
0.0
  0
LINE
  5
1D8
100
AcDbEntity
  8
一般
370
               0
390
0
  6
Continuous
 62
               1
100
AcDbLine
 10
-580.74695749692
 20
-573.00000000000136
 30
0.0
 11
-580.99996244137856
 21
-572.99996852874801
 31
0.0
  0
LINE
  5
1D9
100
AcDbEntity
  8
一般
370
               0
390
0
  6
Continuous
 62
               1
100
AcDbLine
 10
-580.74695749692455
 20
-600.0
 30
0.0
 11
-580.74695749692455
 21
-585.00000000000136
 31
0.0
  0
LINE
  5
1DA
100
AcDbEntity
  8
一般
370
               0
390
0
  6
Continuous
 62
               1
100
AcDbLine
 10
-556.97224087506765
 20
-573.0
 30
0.0
 11
-556.97225724881264
 21
-585.0000524520874
 31
0.0
  0
LINE
  5
1DB
100
AcDbEntity
  8
一般
370
               0
390
0
  6
Continuous
 62
               1
100
AcDbLine
 10
-553.09065448782439
 20
-585.00000000000136
 30
0.0
 11
-553.09065448782439
 21
-600.0
 31
0.0
  0
LINE
  5
1DC
100
AcDbEntity
  8
一般
370
               0
390
0
  6
Continuous
 62
               1
100
AcDbLine
 10
-534.03155548224822
 20
-583.5
 30
0.0
 11
-534.00000000000364
 21
-583.5
 31
0.0
  0
LINE
  5
1DD
100
AcDbEntity
  8
一般
370
               0
390
0
  6
Continuous
 62
               1
100
AcDbLine
 10
-534.03155548224822
 20
-572.99999999999909
 30
0.0
 11
-534.03155548224822
 21
-583.5
 31
0.0
  0
LINE
  5
1DE
100
AcDbEntity
  8
一般
370
               0
390
0
  6
Continuous
 62
               1
100
AcDbLine
 10
-534.00003110593207
 20
-585.00005245208604
 30
0.0
 11
-534.00000000000364
 21
-583.5
 31
0.0
  0
LINE
  5
1DF
100
AcDbEntity
  8
一般
370
               0
390
0
  6
Continuous
 62
               1
100
AcDbLine
 10
-530.00000000000546
 20
-599.99999999999909
 30
0.0
 11
-530.00000000000546
 21
-584.99999999999909
 31
0.0
  0
LINE
  5
1E0
100
AcDbEntity
  8
一般
370
               0
390
0
  6
Continuous
 62
               1
100
AcDbLine
 10
-581.00000000000182
 20
-423.92221553481795
 30
0.0
 11
-581.00000000000182
 21
-425.92221553481795
 31
0.0
  0
CIRCLE
  5
1E1
100
AcDbEntity
  8
一般
370
               0
390
0
  6
Continuous
 62
               1
100
AcDbCircle
 10
-711.00060554373067
 20
-250.00000000000091
 30
0.0
 40
4.2000000000000455
  0
CIRCLE
  5
1E2
100
AcDbEntity
  8
一般
370
               0
390
0
  6
Continuous
 62
               1
100
AcDbCircle
 10
-711.00060554372794
 20
-250.00000000000091
 30
0.0
 40
7.0000000000463842
  0
ARC
  5
1E3
100
AcDbEntity
  8
一般
370
               0
390
0
  6
Continuous
 62
               1
100
AcDbCircle
 10
-711.00000000000364
 20
-249.99999999999773
 30
0.0
 40
4.0
100
AcDbArc
 50
180.0
 51
236.95760706285509
  0
ARC
  5
1E4
100
AcDbEntity
  8
一般
370
               0
390
0
  6
Continuous
 62
               1
100
AcDbCircle
 10
-711.00000000000364
 20
-249.99999999999773
 30
0.0
 40
4.0000000000000391
100
AcDbArc
 50
122.5384400835278
 51
180.0
  0
CIRCLE
  5
1E5
100
AcDbEntity
  8
一般
370
               0
390
0
  6
Continuous
 62
               1
100
AcDbCircle
 10
-609.00060554372885
 20
-250.00000000000091
 30
0.0
 40
4.25
  0
LINE
  5
1E6
100
AcDbEntity
  8
一般
370
               0
390
0
  6
Continuous
 62
               1
100
AcDbLine
 10
-580.99996244138129
 20
-389.13454055785769
 30
0.0
 11
-581.00055848782904
 21
-389.13454055785769
 31
0.0
  0
LINE
  5
1E7
100
AcDbEntity
  8
一般
370
               0
390
0
  6
Continuous
 62
               1
100
AcDbLine
 10
-581.00055848782904
 20
-390.86545944213594
 30
0.0
 11
-580.99996244138129
 21
-390.86545944213594
 31
0.0
  0
LINE
  5
1E8
100
AcDbEntity
  8
一般
370
               0
390
0
  6
Continuous
 62
               1
100
AcDbLine
 10
-580.99996244138129
 20
-390.86545944213594
 30
0.0
 11
-580.99996244138129
 21
-389.13454055785769
 31
0.0
  0
LINE
  5
1E9
100
AcDbEntity
  8
一般
370
               0
390
0
  6
Continuous
 62
               1
100
AcDbLine
 10
-581.00000000000182
 20
-354.07778446518387
 30
0.0
 11
-580.99996244138129
 21
-389.13454055785769
 31
0.0
  0
LINE
  5
1EA
100
AcDbEntity
  8
一般
370
               0
390
0
  6
Continuous
 62
               1
100
AcDbLine
 10
-581.00000000000182
 20
-352.07778446518387
 30
0.0
 11
-581.00000000000182
 21
-354.07778446518387
 31
0.0
  0
LINE
  5
1EB
100
AcDbEntity
  8
一般
370
               0
390
0
  6
Continuous
 62
               1
100
AcDbLine
 10
-539.29995691007025
 20
-195.49997091293164
 30
0.0
 11
-572.00001870816413
 21
-195.49997091293164
 31
0.0
  0
LINE
  5
1EC
100
AcDbEntity
  8
一般
370
               0
390
0
  6
Continuous
 62
               1
100
AcDbLine
 10
-572.00001870816413
 20
-209.50002908706483
 30
0.0
 11
-539.29995691007025
 21
-209.50002908706483
 31
0.0
  0
LINE
  5
1ED
100
AcDbEntity
  8
一般
370
               0
390
0
  6
Continuous
 62
               1
100
AcDbLine
 10
-572.00001870816413
 20
-202.49999999999875
 30
0.0
 11
-539.29995691007025
 21
-202.49999999999875
 31
0.0
  0
LINE
  5
1EE
100
AcDbEntity
  8
一般
370
               0
390
0
  6
Continuous
 62
               1
100
AcDbLine
 10
-572.00001870816413
 20
-197.50000476836988
 30
0.0
 11
-579.00000000000182
 21
-197.49999999999875
 31
0.0
  0
LINE
  5
1EF
100
AcDbEntity
  8
一般
370
               0
390
0
  6
Continuous
 62
               1
100
AcDbLine
 10
-579.00000000000182
 20
-207.49999999999864
 30
0.0
 11
-572.00001870816413
 21
-207.4999952316266
 31
0.0
  0
LINE
  5
1F0
100
AcDbEntity
  8
一般
370
               0
390
0
  6
Continuous
 62
               1
100
AcDbLine
 10
-579.00000000000182
 20
-197.49999999999875
 30
0.0
 11
-579.00000000000182
 21
-202.49999999999966
 31
0.0
  0
LINE
  5
1F1
100
AcDbEntity
  8
一般
370
               0
390
0
  6
Continuous
 62
               1
100
AcDbLine
 10
-579.00000000000182
 20
-202.49999999999966
 30
0.0
 11
-579.00000000000182
 21
-207.49999999999864
 31
0.0
  0
LINE
  5
1F2
100
AcDbEntity
  8
一般
370
               0
390
0
  6
Continuous
 62
               1
100
AcDbLine
 10
-578.99998819058601
 20
-199.49997901916379
 30
0.0
 11
-580.99996244137947
 21
-199.49997901916379
 31
0.0
  0
LINE
  5
1F3
100
AcDbEntity
  8
一般
370
               0
390
0
  6
Continuous
 62
               1
100
AcDbLine
 10
-580.99996244137947
 20
-205.5000209808336
 30
0.0
 11
-578.99998819058601
 21
-205.5000209808336
 31
0.0
  0
LINE
  5
1F4
100
AcDbEntity
  8
一般
370
               0
390
0
  6
Continuous
 62
               1
100
AcDbLine
 10
-572.00001870816413
 20
-195.49997091293164
 30
0.0
 11
-572.00001870816413
 21
-202.49999999999875
 31
0.0
  0
LINE
  5
1F5
100
AcDbEntity
  8
一般
370
               0
390
0
  6
Continuous
 62
               1
100
AcDbLine
 10
-572.00001870816413
 20
-202.49999999999875
 30
0.0
 11
-572.00001870816413
 21
-209.50002908706483
 31
0.0
  0
LINE
  5
1F6
100
AcDbEntity
  8
一般
370
               0
390
0
  6
Continuous
 62
               1
100
AcDbLine
 10
-535.30000000000109
 20
-209.49999999999864
 30
0.0
 11
-535.30000000000109
 21
-202.49999999999966
 31
0.0
  0
LINE
  5
1F7
100
AcDbEntity
  8
一般
370
               0
390
0
  6
Continuous
 62
               1
100
AcDbLine
 10
-535.30000000000109
 20
-202.49999999999966
 30
0.0
 11
-535.30000000000109
 21
-195.49999999999875
 31
0.0
  0
LINE
  5
1F8
100
AcDbEntity
  8
一般
370
               0
390
0
  6
Continuous
 62
               1
100
AcDbLine
 10
-539.29995691007025
 20
-199.00001525878781
 30
0.0
 11
-539.29995691007025
 21
-202.49999999999875
 31
0.0
  0
LINE
  5
1F9
100
AcDbEntity
  8
一般
370
               0
390
0
  6
Continuous
 62
               1
100
AcDbLine
 10
-539.29995691007025
 20
-195.49997091293164
 30
0.0
 11
-539.29995691007025
 21
-199.00001525878781
 31
0.0
  0
LINE
  5
1FA
100
AcDbEntity
  8
一般
370
               0
390
0
  6
Continuous
 62
               1
100
AcDbLine
 10
-539.29995691007025
 20
-205.99998474120866
 30
0.0
 11
-539.29995691007025
 21
-209.50002908706483
 31
0.0
  0
LINE
  5
1FB
100
AcDbEntity
  8
一般
370
               0
390
0
  6
Continuous
 62
               1
100
AcDbLine
 10
-539.29995691007025
 20
-202.49999999999875
 30
0.0
 11
-539.29995691007025
 21
-205.99998474120866
 31
0.0
  0
LINE
  5
1FC
100
AcDbEntity
  8
一般
370
               0
390
0
  6
Continuous
 62
               1
100
AcDbLine
 10
-535.30000000000109
 20
-195.49999999999875
 30
0.0
 11
-539.29995691007025
 21
-195.49997091293164
 31
0.0
  0
LINE
  5
1FD
100
AcDbEntity
  8
一般
370
               0
390
0
  6
Continuous
 62
               1
100
AcDbLine
 10
-539.29995691007025
 20
-209.50002908706483
 30
0.0
 11
-535.30000000000109
 21
-209.49999999999864
 31
0.0
  0
ARC
  5
1FE
100
AcDbEntity
  8
一般
370
               0
390
0
  6
Continuous
 62
               1
100
AcDbCircle
 10
-535.30000000000109
 20
-208.49999999999864
 30
0.0
 40
1.0000000000004547
100
AcDbArc
 50
270.0
 51
0.0
  0
ARC
  5
1FF
100
AcDbEntity
  8
一般
370
               0
390
0
  6
Continuous
 62
               1
100
AcDbCircle
 10
-535.30000000000109
 20
-196.49999999999875
 30
0.0
 40
1.0
100
AcDbArc
 50
0.0
 51
90.0
  0
LINE
  5
200
100
AcDbEntity
  8
一般
370
               0
390
0
  6
Continuous
 62
               1
100
AcDbLine
 10
-721.64034043973061
 20
91.000006198882829
 30
0.0
 11
-872.43866120999519
 21
91.000006198884194
 31
0.0
  0
LINE
  5
201
100
AcDbEntity
  8
一般
370
               0
390
0
  6
Continuous
 62
               1
100
AcDbLine
 10
-724.47740232174965
 20
85.000023841858138
 30
0.0
 11
-884.97327958768165
 21
85.000023841858138
 31
0.0
  0
LINE
  5
202
100
AcDbEntity
  8
一般
370
               0
390
0
  6
Continuous
 62
               1
100
AcDbLine
 10
220.00019999999631
 20
-950.74695749692046
 30
0.0
 11
220.00015100000337
 21
-1106.3938013238226
 31
0.0
  0
LINE
  5
203
100
AcDbEntity
  8
一般
370
               0
390
0
  6
Continuous
 62
               1
100
AcDbLine
 10
205.0000845144022
 20
91.000006198886012
 30
0.0
 11
140.00193464257512
 21
91.000006198885103
 31
0.0
  0
LINE
  5
204
100
AcDbEntity
  8
一般
370
               0
390
0
  6
Continuous
 62
               1
100
AcDbLine
 10
146.00192078526646
 20
85.000000000001137
 30
0.0
 11
155.00192078526646
 21
85.000000000002046
 31
0.0
  0
ARC
  5
205
100
AcDbEntity
  8
一般
370
               0
390
0
  6
Continuous
 62
               1
100
AcDbCircle
 10
75.354841285626165
 20
42.852920500359929
 30
0.0
 40
22.500000000001837
100
AcDbArc
 50
22.593531674323849
 51
67.406468325681317
  0
LINE
  5
206
100
AcDbEntity
  8
一般
370
               0
390
0
  6
Continuous
 62
               1
100
AcDbLine
 10
216.00000249841008
 20
85.000023841860866
 30
0.0
 11
219.999950999997
 21
85.000023841860866
 31
0.0
  0
LINE
  5
207
100
AcDbEntity
  8
一般
370
               0
390
0
  6
Continuous
 62
               1
100
AcDbLine
 10
211.00203382470403
 20
85.000023841860866
 30
0.0
 11
211.00203382470403
 21
91.000006198886012
 31
0.0
  0
LINE
  5
208
100
AcDbEntity
  8
一般
370
               0
390
0
  6
Continuous
 62
               1
100
AcDbLine
 10
205.0000845144022
 20
91.000006198886012
 30
0.0
 11
211.00203382470403
 21
91.000006198886012
 31
0.0
  0
LINE
  5
209
100
AcDbEntity
  8
一般
370
               0
390
0
  6
Continuous
 62
               1
100
AcDbLine
 10
205.0000845144022
 20
85.000023841860866
 30
0.0
 11
216.00000249841008
 21
85.000023841860866
 31
0.0
  0
CIRCLE
  5
20A
100
AcDbEntity
  8
一般
370
               0
390
0
  6
Continuous
 62
               1
100
AcDbCircle
 10
50.000199999999936
 20
-1080.9999999999977
 30
0.0
 40
4.0
  0
LINE
  5
20B
100
AcDbEntity
  8
一般
370
               0
390
0
  6
Continuous
 62
               1
100
AcDbLine
 10
-872.43866120999519
 20
91.000006198884194
 30
0.0
 11
-873.98623620694343
 21
91.000006198884194
 31
0.0
  0
LINE
  5
20C
100
AcDbEntity
  8
一般
370
               0
390
0
  6
Continuous
 62
               1
100
AcDbLine
 10
-873.98623620694343
 20
91.000006198884194
 30
0.0
 11
-873.98623620694343
 21
85.000023841859047
 31
0.0
  0
LINE
  5
20D
100
AcDbEntity
  8
一般
370
               0
390
0
  6
Continuous
 62
               1
100
AcDbLine
 10
-872.43866120999519
 20
85.000023841858138
 30
0.0
 11
-872.43866120999519
 21
91.000006198884194
 31
0.0
  0
ARC
  5
20E
100
AcDbEntity
  8
一般
370
               0
390
0
  6
Continuous
 62
               1
100
AcDbCircle
 10
191.50019999999722
 20
-950.74695749692046
 30
0.0
 40
28.5
100
AcDbArc
 50
0.0
 51
76.023909769263355
  0
LINE
  5
20F
100
AcDbEntity
  8
一般
370
               0
390
0
  6
Continuous
 62
               1
100
AcDbLine
 10
-599.00056516354653
 20
91.000006198882829
 30
0.0
 11
-721.64034043973061
 21
91.000006198882829
 31
0.0
  0
LINE
  5
210
100
AcDbEntity
  8
一般
370
               0
390
0
  6
Continuous
 62
               1
100
AcDbLine
 10
-622.00056707089516
 20
85.000023841858138
 30
0.0
 11
-581.00055848782631
 21
85.000023841858138
 31
0.0
  0
LINE
  5
211
100
AcDbEntity
  8
一般
370
               0
390
0
  6
Continuous
 62
               1
100
AcDbLine
 10
-622.00056707089516
 20
85.000023841858138
 30
0.0
 11
-724.47740232174965
 21
85.000023841858138
 31
0.0
  0
LINE
  5
212
100
AcDbEntity
  8
一般
370
               0
390
0
  6
Continuous
 62
               1
100
AcDbLine
 10
-721.64034043973061
 20
85.000023841858138
 30
0.0
 11
-721.64034043973061
 21
91.000006198882829
 31
0.0
  0
CIRCLE
  5
213
100
AcDbEntity
  8
一般
370
               0
390
0
  6
Continuous
 62
               1
100
AcDbCircle
 10
-609.00060554372885
 20
63.999999999998877
 30
0.0
 40
4.25
  0
LINE
  5
214
100
AcDbEntity
  8
一般
370
               0
390
0
  6
Continuous
 62
               1
100
AcDbLine
 10
-599.00056516354653
 20
91.000006198882829
 30
0.0
 11
-599.00056516354653
 21
85.000023841858138
 31
0.0
  0
LINE
  5
215
100
AcDbEntity
  8
一般
370
               0
390
0
  6
Continuous
 62
               1
100
AcDbLine
 10
-599.00056516354925
 20
86.999998092653868
 30
0.0
 11
-598.9999691171015
 21
86.999998092653868
 31
0.0
  0
LINE
  5
216
100
AcDbEntity
  8
一般
370
               0
390
0
  6
Continuous
 62
               1
100
AcDbLine
 10
-598.9999691171015
 20
91.000006198886012
 30
0.0
 11
-599.00056516354925
 21
91.000006198886012
 31
0.0
  0
LINE
  5
217
100
AcDbEntity
  8
一般
370
               0
390
0
  6
Continuous
 62
               1
100
AcDbLine
 10
-598.99996911709968
 20
91.000006198884194
 30
0.0
 11
-598.99996911709968
 21
85.000023841858138
 31
0.0
  0
LINE
  5
218
100
AcDbEntity
  8
一般
370
               0
390
0
  6
Continuous
 62
               1
100
AcDbLine
 10
-598.99996911709968
 20
91.000006198884194
 30
0.0
 11
-593.99997388547126
 21
91.000006198884194
 31
0.0
  0
LINE
  5
219
100
AcDbEntity
  8
一般
370
               0
390
0
  6
Continuous
 62
               1
100
AcDbLine
 10
-593.99997388547126
 20
91.000006198884194
 30
0.0
 11
-593.99997388547126
 21
85.000023841858138
 31
0.0
  0
LINE
  5
21A
100
AcDbEntity
  8
一般
370
               0
390
0
  6
Continuous
 62
               1
100
AcDbLine
 10
-581.00055848782631
 20
85.000023841858138
 30
0.0
 11
-580.99996244137856
 21
85.000023841858138
 31
0.0
  0
LINE
  5
21B
100
AcDbEntity
  8
一般
370
               0
390
0
  6
Continuous
 62
               1
100
AcDbLine
 10
1112.1935508782515
 20
-585.00000000005309
 30
0.0
 11
1112.193550878256
 21
84.999999999947178
 31
0.0
  0
LINE
  5
21C
100
AcDbEntity
  8
一般
370
               0
390
0
  6
Continuous
 62
               1
100
AcDbLine
 10
900.00019999999017
 20
84.999999999948997
 30
0.0
 11
900.00019999998653
 21
-585.00000000005127
 31
0.0
  0
LINE
  5
21D
100
AcDbEntity
  8
一般
370
               0
390
0
  6
Continuous
 62
               1
100
AcDbLine
 10
1320.0001999999838
 20
-585.000000000054
 30
0.0
 11
1320.0001999999884
 21
84.999999999945359
 31
0.0
  0
LINE
  5
21E
100
AcDbEntity
  8
一般
370
               0
390
0
  6
Continuous
 62
               1
100
AcDbLine
 10
1207.6178921015787
 20
84.999999999946269
 30
0.0
 11
1207.6178921015733
 21
-585.000000000054
 31
0.0
  0
LINE
  5
21F
100
AcDbEntity
  8
一般
370
               0
390
0
  6
Continuous
 62
               1
100
AcDbLine
 10
1320.0001999999838
 20
-585.000000000054
 30
0.0
 11
1320.0001999999884
 21
84.999999999945359
 31
0.0
  0
LINE
  5
220
100
AcDbEntity
  8
一般
370
               0
390
0
  6
Continuous
 62
               1
100
AcDbLine
 10
1207.6178921015742
 20
-573.000000000054
 30
0.0
 11
1207.6178921015742
 21
72.999999999945373
 31
0.0
  0
ARC
  5
221
100
AcDbEntity
  8
一般
370
               0
390
0
  6
Continuous
 62
               1
100
AcDbCircle
 10
1177.9059802958434
 20
52.502809077372149
 30
0.0
 40
22.00000000000097
100
AcDbArc
 50
292.02431283704368
 51
0.0
  0
ARC
  5
222
100
AcDbEntity
  8
一般
370
               0
390
0
  6
Continuous
 62
               1
100
AcDbCircle
 10
1141.9059802958443
 20
52.502809077372149
 30
0.0
 40
22.000000000000909
100
AcDbArc
 50
180.0
 51
247.97568716295632
  0
LINE
  5
223
100
AcDbEntity
  8
一般
370
               0
390
0
  6
Continuous
 62
               1
100
AcDbLine
 10
1112.1935508783051
 20
72.999999999946283
 30
0.0
 11
1112.1935508783024
 21
-573.00000000005309
 31
0.0
  0
LINE
  5
224
100
AcDbEntity
  8
一般
370
               0
390
0
  6
Continuous
 62
               1
100
AcDbLine
 10
900.00019999999017
 20
84.999999999948997
 30
0.0
 11
900.00019999998653
 21
-585.00000000005127
 31
0.0
  0
LINE
  5
225
100
AcDbEntity
  8
一般
370
               0
390
0
  6
Continuous
 62
               1
100
AcDbLine
 10
1207.6178921015733
 20
-600.000000000054
 30
0.0
 11
1320.0001999999838
 21
-600.00000000005491
 31
0.0
  0
LINE
  5
226
100
AcDbEntity
  8
一般
370
               0
390
0
  6
Continuous
 62
               1
100
AcDbLine
 10
1320.0001999999838
 20
-585.000000000054
 30
0.0
 11
1207.6178921015733
 21
-585.000000000054
 31
0.0
  0
LINE
  5
227
100
AcDbEntity
  8
一般
370
               0
390
0
  6
Continuous
 62
               1
100
AcDbLine
 10
1207.6178921015733
 20
-585.000000000054
 30
0.0
 11
1320.0001999999838
 21
-585.000000000054
 31
0.0
  0
LINE
  5
228
100
AcDbEntity
  8
一般
370
               0
390
0
  6
Continuous
 62
               1
100
AcDbLine
 10
900.00019999998653
 20
-600.00000000005218
 30
0.0
 11
1112.1935508779241
 21
-600.000000000054
 31
0.0
  0
LINE
  5
229
100
AcDbEntity
  8
一般
370
               0
390
0
  6
Continuous
 62
               1
100
AcDbLine
 10
1112.1935508783024
 20
-585.00000000005309
 30
0.0
 11
900.00019999998653
 21
-585.00000000005218
 31
0.0
  0
LINE
  5
22A
100
AcDbEntity
  8
一般
370
               0
390
0
  6
Continuous
 62
               1
100
AcDbLine
 10
900.00019999998653
 20
-585.00000000005127
 30
0.0
 11
1112.1935508782515
 21
-585.00000000005309
 31
0.0
  0
LINE
  5
22B
100
AcDbEntity
  8
一般
370
               0
390
0
  6
Continuous
 62
               1
100
AcDbLine
 10
900.00019999998653
 20
-585.00000000005218
 30
0.0
 11
900.00019999998653
 21
-600.00000000005218
 31
0.0
  0
LINE
  5
22C
100
AcDbEntity
  8
一般
370
               0
390
0
  6
Continuous
 62
               1
100
AcDbLine
 10
1112.1935508779241
 20
-600.000000000054
 30
0.0
 11
1207.6178921015733
 21
-600.000000000054
 31
0.0
  0
LINE
  5
22D
100
AcDbEntity
  8
一般
370
               0
390
0
  6
Continuous
 62
               1
100
AcDbLine
 10
1207.6178921015742
 20
-573.000000000054
 30
0.0
 11
1112.1935508783024
 21
-573.00000000005309
 31
0.0
  0
LINE
  5
22E
100
AcDbEntity
  8
一般
370
               0
390
0
  6
Continuous
 62
               1
100
AcDbLine
 10
1199.9022211400031
 20
-552.00000000005491
 30
0.0
 11
1119.9022211400031
 21
-552.000000000054
 31
0.0
  0
ARC
  5
22F
100
AcDbEntity
  8
一般
370
               0
390
0
  6
Continuous
 62
               1
100
AcDbCircle
 10
1177.0671758078231
 20
-450.67911162349776
 30
0.0
 40
52.99999999999951
100
AcDbArc
 50
129.76627983103782
 51
160.0653891967408
  0
LINE
  5
230
100
AcDbEntity
  8
一般
370
               0
390
0
  6
Continuous
 62
               1
100
AcDbLine
 10
1118.902221140004
 20
-573.000000000054
 30
0.0
 11
1118.9022211400049
 21
-471.97384982792698
 31
0.0
  0
LINE
  5
231
100
AcDbEntity
  8
一般
370
               0
390
0
  6
Continuous
 62
               1
100
AcDbLine
 10
1112.1935508783024
 20
-573.00000000005309
 30
0.0
 11
1112.1935508783024
 21
-585.00000000005309
 31
0.0
  0
LINE
  5
232
100
AcDbEntity
  8
一般
370
               0
390
0
  6
Continuous
 62
               1
100
AcDbLine
 10
1112.1935508783024
 20
-585.00000000005309
 30
0.0
 11
1112.1935508779241
 21
-600.000000000054
 31
0.0
  0
CIRCLE
  5
233
100
AcDbEntity
  8
一般
370
               0
390
0
  6
Continuous
 62
               1
100
AcDbCircle
 10
1125.9022211400031
 20
-546.00000000005491
 30
0.0
 40
2.75
  0
ARC
  5
234
100
AcDbEntity
  8
一般
370
               0
390
0
  6
Continuous
 62
               1
100
AcDbCircle
 10
1247.7265972068287
 20
-478.70290109799032
 30
0.0
 40
129.00000000000648
100
AcDbArc
 50
159.06443109664002
 51
177.00991242294072
  0
CIRCLE
  5
235
100
AcDbEntity
  8
一般
370
               0
390
0
  6
Continuous
 62
               1
100
AcDbCircle
 10
1125.9022211400031
 20
-472.00000000005491
 30
0.0
 40
2.75
  0
CIRCLE
  5
236
100
AcDbEntity
  8
一般
370
               0
390
0
  6
Continuous
 62
               1
100
AcDbCircle
 10
1179.6522211400058
 20
-511.50000000005491
 30
0.0
 40
1.75
  0
CIRCLE
  5
237
100
AcDbEntity
  8
一般
370
               0
390
0
  6
Continuous
 62
               1
100
AcDbCircle
 10
1167.6522211400049
 20
-521.000000000054
 30
0.0
 40
12.093386622446815
  0
LINE
  5
238
100
AcDbEntity
  8
一般
370
               0
390
0
  6
Continuous
 62
               1
100
AcDbLine
 10
1200.9022211400031
 20
-471.97384982794108
 30
0.0
 11
1200.9022211400031
 21
-573.000000000054
 31
0.0
  0
CIRCLE
  5
239
100
AcDbEntity
  8
一般
370
               0
390
0
  6
Continuous
 62
               1
100
AcDbCircle
 10
1155.6522211400068
 20
-530.500000000054
 30
0.0
 40
1.75
  0
CIRCLE
  5
23A
100
AcDbEntity
  8
一般
370
               0
390
0
  6
Continuous
 62
               1
100
AcDbCircle
 10
1167.6359802958393
 20
-521.00000000005627
 30
0.0
 40
2.75
  0
CIRCLE
  5
23B
100
AcDbEntity
  8
一般
370
               0
390
0
  6
Continuous
 62
               1
100
AcDbCircle
 10
1167.6359802958393
 20
-521.00000000005627
 30
0.0
 40
6.0
  0
LINE
  5
23C
100
AcDbEntity
  8
一般
370
               0
390
0
  6
Continuous
 62
               1
100
AcDbLine
 10
1177.6359802958402
 20
-522.50000000005627
 30
0.0
 11
1176.5100999704889
 21
-522.50000000005491
 31
0.0
  0
LINE
  5
23D
100
AcDbEntity
  8
一般
370
               0
390
0
  6
Continuous
 62
               1
100
AcDbLine
 10
1177.635980295842
 20
-522.50000000005491
 30
0.0
 11
1177.635980295842
 21
-519.50000000005627
 31
0.0
  0
LINE
  5
23E
100
AcDbEntity
  8
一般
370
               0
390
0
  6
Continuous
 62
               1
100
AcDbLine
 10
1157.6359802958402
 20
-518.50000000005491
 30
0.0
 11
1157.6359802958402
 21
-523.50000000005627
 31
0.0
  0
LINE
  5
23F
100
AcDbEntity
  8
一般
370
               0
390
0
  6
Continuous
 62
               1
100
AcDbLine
 10
1157.6359802958411
 20
-518.50000000005491
 30
0.0
 11
1158.990172062943
 21
-518.50000000005491
 31
0.0
  0
ARC
  5
240
100
AcDbEntity
  8
一般
370
               0
390
0
  6
Continuous
 62
               1
100
AcDbCircle
 10
1167.6359802958393
 20
-521.00000000005627
 30
0.0
 40
9.0000000000002416
100
AcDbArc
 50
9.5940682268631399
 51
163.87237978683396
  0
LINE
  5
241
100
AcDbEntity
  8
一般
370
               0
390
0
  6
Continuous
 62
               1
100
AcDbLine
 10
1176.5100999704889
 20
-519.50000000005627
 30
0.0
 11
1177.635980295842
 21
-519.50000000005627
 31
0.0
  0
ARC
  5
242
100
AcDbEntity
  8
一般
370
               0
390
0
  6
Continuous
 62
               1
100
AcDbCircle
 10
1167.6359802958393
 20
-521.00000000005627
 30
0.0
 40
9.0000000000002629
100
AcDbArc
 50
196.12762021316331
 51
350.4059317731369
  0
LINE
  5
243
100
AcDbEntity
  8
一般
370
               0
390
0
  6
Continuous
 62
               1
100
AcDbLine
 10
1158.990172062943
 20
-523.50000000005627
 30
0.0
 11
1157.6359802958402
 21
-523.50000000005627
 31
0.0
  0
LINE
  5
244
100
AcDbEntity
  8
一般
370
               0
390
0
  6
Continuous
 62
               1
100
AcDbLine
 10
1207.6178921015742
 20
-585.000000000054
 30
0.0
 11
1207.6178921015742
 21
-573.000000000054
 31
0.0
  0
LINE
  5
245
100
AcDbEntity
  8
一般
370
               0
390
0
  6
Continuous
 62
               1
100
AcDbLine
 10
1207.6178921015733
 20
-585.000000000054
 30
0.0
 11
1207.6178921015733
 21
-600.000000000054
 31
0.0
  0
CIRCLE
  5
246
100
AcDbEntity
  8
一般
370
               0
390
0
  6
Continuous
 62
               1
100
AcDbCircle
 10
1193.9022211400077
 20
-546.00000000005627
 30
0.0
 40
2.75
  0
ARC
  5
247
100
AcDbEntity
  8
一般
370
               0
390
0
  6
Continuous
 62
               1
100
AcDbCircle
 10
1142.737266472245
 20
-450.67911162358371
 30
0.0
 40
52.999999999975294
100
AcDbArc
 50
19.934610803820515
 51
50.233720168132017
  0
ARC
  5
248
100
AcDbEntity
  8
一般
370
               0
390
0
  6
Continuous
 62
               1
100
AcDbCircle
 10
1167.6359802958411
 20
-462.00000000005616
 30
0.0
 40
9.0000000000002416
100
AcDbArc
 50
9.5940682268631399
 51
163.87237978683396
  0
CIRCLE
  5
249
100
AcDbEntity
  8
一般
370
               0
390
0
  6
Continuous
 62
               1
100
AcDbCircle
 10
1179.6522211400058
 20
-452.50000000005377
 30
0.0
 40
1.75
  0
CIRCLE
  5
24A
100
AcDbEntity
  8
一般
370
               0
390
0
  6
Continuous
 62
               1
100
AcDbCircle
 10
1167.6522211400058
 20
-462.0000000000548
 30
0.0
 40
12.093386622446815
  0
CIRCLE
  5
24B
100
AcDbEntity
  8
一般
370
               0
390
0
  6
Continuous
 62
               1
100
AcDbCircle
 10
1155.6522211400068
 20
-471.500000000054
 30
0.0
 40
1.75
  0
CIRCLE
  5
24C
100
AcDbEntity
  8
一般
370
               0
390
0
  6
Continuous
 62
               1
100
AcDbCircle
 10
1167.6359802958411
 20
-462.00000000005616
 30
0.0
 40
2.75
  0
CIRCLE
  5
24D
100
AcDbEntity
  8
一般
370
               0
390
0
  6
Continuous
 62
               1
100
AcDbCircle
 10
1167.6359802958411
 20
-462.00000000005616
 30
0.0
 40
6.0
  0
LINE
  5
24E
100
AcDbEntity
  8
一般
370
               0
390
0
  6
Continuous
 62
               1
100
AcDbLine
 10
1177.6359802958402
 20
-463.5000000000548
 30
0.0
 11
1176.5100999704889
 21
-463.5000000000548
 31
0.0
  0
LINE
  5
24F
100
AcDbEntity
  8
一般
370
               0
390
0
  6
Continuous
 62
               1
100
AcDbLine
 10
1177.635980295843
 20
-463.5000000000548
 30
0.0
 11
1177.635980295843
 21
-460.50000000005616
 31
0.0
  0
LINE
  5
250
100
AcDbEntity
  8
一般
370
               0
390
0
  6
Continuous
 62
               1
100
AcDbLine
 10
1157.6359802958402
 20
-459.50000000005616
 30
0.0
 11
1157.6359802958402
 21
-464.50000000005627
 31
0.0
  0
LINE
  5
251
100
AcDbEntity
  8
一般
370
               0
390
0
  6
Continuous
 62
               1
100
AcDbLine
 10
1157.6359802958411
 20
-459.50000000005616
 30
0.0
 11
1158.9901720629448
 21
-459.50000000005616
 31
0.0
  0
LINE
  5
252
100
AcDbEntity
  8
一般
370
               0
390
0
  6
Continuous
 62
               1
100
AcDbLine
 10
1176.5100999704889
 20
-460.50000000005616
 30
0.0
 11
1177.635980295843
 21
-460.50000000005616
 31
0.0
  0
ARC
  5
253
100
AcDbEntity
  8
一般
370
               0
390
0
  6
Continuous
 62
               1
100
AcDbCircle
 10
1167.6359802958411
 20
-462.00000000005616
 30
0.0
 40
9.0000000000002949
100
AcDbArc
 50
196.12762021316399
 51
350.40593177315111
  0
LINE
  5
254
100
AcDbEntity
  8
一般
370
               0
390
0
  6
Continuous
 62
               1
100
AcDbLine
 10
1158.9901720629448
 20
-464.50000000005627
 30
0.0
 11
1157.6359802958402
 21
-464.50000000005627
 31
0.0
  0
ARC
  5
255
100
AcDbEntity
  8
一般
370
               0
390
0
  6
Continuous
 62
               1
100
AcDbCircle
 10
1156.1915175047377
 20
-426.4118738265596
 30
0.0
 40
21.000000000035698
100
AcDbArc
 50
90.873936970740218
 51
128.33764747298889
  0
CIRCLE
  5
256
100
AcDbEntity
  8
一般
370
               0
390
0
  6
Continuous
 62
               1
100
AcDbCircle
 10
1159.902221140004
 20
-412.41431667110953
 30
0.0
 40
2.75
  0
LINE
  5
257
100
AcDbEntity
  8
一般
370
               0
390
0
  6
Continuous
 62
               1
100
AcDbLine
 10
1155.8712152956521
 20
-405.41431667111044
 30
0.0
 11
1163.9332269843596
 21
-405.41431667111044
 31
0.0
  0
ARC
  5
258
100
AcDbEntity
  8
一般
370
               0
390
0
  6
Continuous
 62
               1
100
AcDbCircle
 10
1163.612924775163
 20
-426.41187382652049
 30
0.0
 40
20.999999999998572
100
AcDbArc
 50
51.662352524301625
 51
89.126063028948025
  0
ARC
  5
259
100
AcDbEntity
  8
一般
370
               0
390
0
  6
Continuous
 62
               1
100
AcDbCircle
 10
1072.0778450731702
 20
-478.70290109795712
 30
0.0
 40
129.0000000000133
100
AcDbArc
 50
2.9900875770463964
 51
20.935568903524555
  0
CIRCLE
  5
25A
100
AcDbEntity
  8
一般
370
               0
390
0
  6
Continuous
 62
               1
100
AcDbCircle
 10
1193.9022211400077
 20
-472.00000000005491
 30
0.0
 40
2.75
  0
CIRCLE
  5
25B
100
AcDbEntity
  8
一般
370
               0
390
0
  6
Continuous
 62
               1
100
AcDbCircle
 10
1127.1935508783042
 20
-379.00000000005355
 30
0.0
 40
3.5000000000527507
  0
CIRCLE
  5
25C
100
AcDbEntity
  8
一般
370
               0
390
0
  6
Continuous
 62
               1
100
AcDbCircle
 10
1127.1935508783042
 20
-303.00000000005355
 30
0.0
 40
3.499999999996362
  0
CIRCLE
  5
25D
100
AcDbEntity
  8
一般
370
               0
390
0
  6
Continuous
 62
               1
100
AcDbCircle
 10
1127.1935508783042
 20
-379.00000000005355
 30
0.0
 40
6.4999999999818101
  0
CIRCLE
  5
25E
100
AcDbEntity
  8
一般
370
               0
390
0
  6
Continuous
 62
               1
100
AcDbCircle
 10
1127.1935508783042
 20
-303.00000000005355
 30
0.0
 40
6.5000000000391083
  0
LINE
  5
25F
100
AcDbEntity
  8
一般
370
               0
390
0
  6
Continuous
 62
               1
100
AcDbLine
 10
1193.1935508783033
 20
-381.50000000005355
 30
0.0
 11
1145.1935508783033
 21
-381.50000000005355
 31
0.0
  0
LINE
  5
260
100
AcDbEntity
  8
一般
370
               0
390
0
  6
Continuous
 62
               1
100
AcDbLine
 10
1145.1935508783042
 20
-300.50000000005355
 30
0.0
 11
1193.1935508783051
 21
-300.50000000005446
 31
0.0
  0
LINE
  5
261
100
AcDbEntity
  8
一般
370
               0
390
0
  6
Continuous
 62
               1
100
AcDbLine
 10
1138.6935508783033
 20
-375.00000000005355
 30
0.0
 11
1138.6935508783042
 21
-307.00000000005355
 31
0.0
  0
ARC
  5
262
100
AcDbEntity
  8
一般
370
               0
390
0
  6
Continuous
 62
               1
100
AcDbCircle
 10
1145.1935508783042
 20
-375.00000000005355
 30
0.0
 40
6.5
100
AcDbArc
 50
180.0
 51
270.0
  0
ARC
  5
263
100
AcDbEntity
  8
一般
370
               0
390
0
  6
Continuous
 62
               1
100
AcDbCircle
 10
1145.1935508783042
 20
-307.00000000005355
 30
0.0
 40
6.5000000000004547
100
AcDbArc
 50
90.0
 51
180.0
  0
LINE
  5
264
100
AcDbEntity
  8
一般
370
               0
390
0
  6
Continuous
 62
               1
100
AcDbLine
 10
1199.6935508783033
 20
-307.00000000005355
 30
0.0
 11
1199.6935508783033
 21
-375.00000000005446
 31
0.0
  0
ARC
  5
265
100
AcDbEntity
  8
一般
370
               0
390
0
  6
Continuous
 62
               1
100
AcDbCircle
 10
1193.1935508783033
 20
-375.00000000005446
 30
0.0
 40
6.5000000000004547
100
AcDbArc
 50
270.0
 51
0.0
  0
ARC
  5
266
100
AcDbEntity
  8
一般
370
               0
390
0
  6
Continuous
 62
               1
100
AcDbCircle
 10
1193.1935508783033
 20
-307.00000000005355
 30
0.0
 40
6.5
100
AcDbArc
 50
0.0
 51
90.0
  0
ARC
  5
267
100
AcDbEntity
  8
一般
370
               0
390
0
  6
Continuous
 62
               1
100
AcDbCircle
 10
1159.9059802958443
 20
96.999999999946255
 30
0.0
 40
70.000000000000597
100
AcDbArc
 50
247.97568716295643
 51
292.02431283704357
  0
LINE
  5
268
100
AcDbEntity
  8
一般
370
               0
390
0
  6
Continuous
 62
               1
100
AcDbLine
 10
1320.0001999999838
 20
-585.000000000054
 30
0.0
 11
1320.0001999999838
 21
-600.00000000005491
 31
0.0
  0
LINE
  5
269
100
AcDbEntity
  8
一般
370
               0
390
0
  6
Continuous
 62
               1
100
AcDbLine
 10
1310.9982792147182
 20
90.999999999946269
 30
0.0
 11
1207.6178921015733
 21
90.999999999946269
 31
0.0
  0
LINE
  5
26A
100
AcDbEntity
  8
一般
370
               0
390
0
  6
Continuous
 62
               1
100
AcDbLine
 10
1320.0001999999884
 20
84.999999999945359
 30
0.0
 11
1207.6178921015787
 21
84.999999999946269
 31
0.0
  0
LINE
  5
26B
100
AcDbEntity
  8
一般
370
               0
390
0
  6
Continuous
 62
               1
100
AcDbLine
 10
1112.1935508782997
 20
90.999999999947178
 30
0.0
 11
909.00019999999017
 21
90.999999999948997
 31
0.0
  0
LINE
  5
26C
100
AcDbEntity
  8
一般
370
               0
390
0
  6
Continuous
 62
               1
100
AcDbLine
 10
1112.193550878256
 20
84.999999999947178
 30
0.0
 11
900.00019999999017
 21
84.999999999948997
 31
0.0
  0
LINE
  5
26D
100
AcDbEntity
  8
一般
370
               0
390
0
  6
Continuous
 62
               1
100
AcDbLine
 10
909.00019999999017
 20
84.999999999948997
 30
0.0
 11
909.00019999999017
 21
90.999999999948997
 31
0.0
  0
LINE
  5
26E
100
AcDbEntity
  8
一般
370
               0
390
0
  6
Continuous
 62
               1
100
AcDbLine
 10
908.99827921471638
 20
90.999999999948997
 30
0.0
 11
909.00019999999017
 21
90.999999999948997
 31
0.0
  0
LINE
  5
26F
100
AcDbEntity
  8
一般
370
               0
390
0
  6
Continuous
 62
               1
100
AcDbLine
 10
908.99827921471638
 20
84.999999999948088
 30
0.0
 11
908.99827921471638
 21
90.999999999948997
 31
0.0
  0
LINE
  5
270
100
AcDbEntity
  8
一般
370
               0
390
0
  6
Continuous
 62
               1
100
AcDbLine
 10
909.00019999999017
 20
90.999999999948997
 30
0.0
 11
909.00019999999017
 21
84.999999999948997
 31
0.0
  0
LINE
  5
271
100
AcDbEntity
  8
一般
370
               0
390
0
  6
Continuous
 62
               1
100
AcDbLine
 10
1199.9059802958452
 20
72.999999999946283
 30
0.0
 11
1119.9059802958434
 21
72.999999999946283
 31
0.0
  0
LINE
  5
272
100
AcDbEntity
  8
一般
370
               0
390
0
  6
Continuous
 62
               1
100
AcDbLine
 10
1112.1935508782997
 20
90.999999999947178
 30
0.0
 11
1112.1935508782888
 21
84.999999999947178
 31
0.0
  0
LINE
  5
273
100
AcDbEntity
  8
一般
370
               0
390
0
  6
Continuous
 62
               1
100
AcDbLine
 10
1119.9059802958425
 20
52.502809077373058
 30
0.0
 11
1119.9059802958434
 21
72.999999999946283
 31
0.0
  0
LINE
  5
274
100
AcDbEntity
  8
一般
370
               0
390
0
  6
Continuous
 62
               1
100
AcDbLine
 10
1119.9059802958434
 20
72.999999999946283
 30
0.0
 11
1112.1935508783051
 21
72.999999999946283
 31
0.0
  0
LINE
  5
275
100
AcDbEntity
  8
一般
370
               0
390
0
  6
Continuous
 62
               1
100
AcDbLine
 10
1207.6178921015742
 20
72.999999999945373
 30
0.0
 11
1199.9059802958452
 21
72.999999999945373
 31
0.0
  0
LINE
  5
276
100
AcDbEntity
  8
一般
370
               0
390
0
  6
Continuous
 62
               1
100
AcDbLine
 10
1199.9059802958452
 20
72.999999999945373
 30
0.0
 11
1199.9059802958452
 21
52.502809077372149
 31
0.0
  0
LINE
  5
277
100
AcDbEntity
  8
一般
370
               0
390
0
  6
Continuous
 62
               1
100
AcDbLine
 10
1310.9982792147182
 20
84.999999999945359
 30
0.0
 11
1310.9982792147182
 21
90.999999999946269
 31
0.0
  0
LINE
  5
278
100
AcDbEntity
  8
一般
370
               0
390
0
  6
Continuous
 62
               1
100
AcDbLine
 10
1311.0001999999893
 20
84.999999999945359
 30
0.0
 11
1311.0001999999893
 21
90.999999999946269
 31
0.0
  0
LINE
  5
279
100
AcDbEntity
  8
一般
370
               0
390
0
  6
Continuous
 62
               1
100
AcDbLine
 10
1311.0001999999893
 20
90.999999999946269
 30
0.0
 11
1310.9982792147182
 21
90.999999999946269
 31
0.0
  0
LINE
  5
27A
100
AcDbEntity
  8
一般
370
               0
390
0
  6
Continuous
 62
               1
100
AcDbLine
 10
198.38323353292884
 20
84.999971389767097
 30
0.0
 11
-178.38323353293526
 21
84.999971389769826
 31
0.0
  0
LINE
  5
27B
100
AcDbEntity
  8
一般
370
               0
390
0
  6
Continuous
 62
               1
100
AcDbLine
 10
-178.38323353293526
 20
99.999971389769826
 30
0.0
 11
198.38323353292884
 21
99.999971389767097
 31
0.0
  0
LINE
  5
27C
100
AcDbEntity
  8
一般
370
               0
390
0
  6
Continuous
 62
               1
100
AcDbLine
 10
-178.38323353293526
 20
84.999971389769826
 30
0.0
 11
-178.38323353293526
 21
99.999971389769826
 31
0.0
  0
LINE
  5
27D
100
AcDbEntity
  8
一般
370
               0
390
0
  6
Continuous
 62
               1
100
AcDbLine
 10
-200.0
 20
99.999971389769826
 30
0.0
 11
-200.0
 21
84.999971389769826
 31
0.0
  0
LINE
  5
27E
100
AcDbEntity
  8
一般
370
               0
390
0
  6
Continuous
 62
               1
100
AcDbLine
 10
-200.0
 20
99.999971389769826
 30
0.0
 11
-178.38323353293526
 21
99.999971389769826
 31
0.0
  0
LINE
  5
27F
100
AcDbEntity
  8
一般
370
               0
390
0
  6
Continuous
 62
               1
100
AcDbLine
 10
-178.38323353293526
 20
84.999971389769826
 30
0.0
 11
-200.0
 21
84.999971389769826
 31
0.0
  0
LINE
  5
280
100
AcDbEntity
  8
一般
370
               0
390
0
  6
Continuous
 62
               1
100
AcDbLine
 10
219.99999999999631
 20
84.999971389767097
 30
0.0
 11
198.38323353292884
 21
84.999971389767097
 31
0.0
  0
LINE
  5
281
100
AcDbEntity
  8
一般
370
               0
390
0
  6
Continuous
 62
               1
100
AcDbLine
 10
198.38323353292884
 20
99.999971389767097
 30
0.0
 11
219.99999999999631
 21
99.999971389767097
 31
0.0
  0
LINE
  5
282
100
AcDbEntity
  8
一般
370
               0
390
0
  6
Continuous
 62
               1
100
AcDbLine
 10
198.38323353292884
 20
84.999971389767097
 30
0.0
 11
198.38323353292884
 21
99.999971389767097
 31
0.0
  0
LINE
  5
283
100
AcDbEntity
  8
一般
370
               0
390
0
  6
Continuous
 62
               1
100
AcDbLine
 10
219.99999999999631
 20
84.999971389767097
 30
0.0
 11
219.99999999999631
 21
99.999971389767097
 31
0.0
  0
LINE
  5
284
100
AcDbEntity
  8
一般
370
               0
390
0
  6
Continuous
 62
               1
100
AcDbLine
 10
-884.97327958768165
 20
85.000023841858138
 30
0.0
 11
-724.47740232174965
 21
85.000023841858138
 31
0.0
  0
LINE
  5
285
100
AcDbEntity
  8
一般
370
               0
390
0
  6
Continuous
 62
               1
100
AcDbLine
 10
-724.47740232174965
 20
85.000023841858138
 30
0.0
 11
-884.97327958768165
 21
85.000023841858138
 31
0.0
  0
LINE
  5
286
100
AcDbEntity
  8
一般
370
               0
390
0
  6
Continuous
 62
               1
100
AcDbLine
 10
-884.97322001763132
 20
99.99997138977119
 30
0.0
 11
-724.47740232174965
 21
100.00000953674385
 31
0.0
  0
LINE
  5
287
100
AcDbEntity
  8
一般
370
               0
390
0
  6
Continuous
 62
               1
100
AcDbLine
 10
-884.97327958768165
 20
85.000023841858138
 30
0.0
 11
-884.97322001763132
 21
99.99997138977119
 31
0.0
  0
LINE
  5
288
100
AcDbEntity
  8
一般
370
               0
390
0
  6
Continuous
 62
               1
100
AcDbLine
 10
-900.0
 20
72.999971389771204
 30
0.0
 11
-900.0
 21
99.99997138977119
 31
0.0
  0
LINE
  5
289
100
AcDbEntity
  8
一般
370
               0
390
0
  6
Continuous
 62
               1
100
AcDbLine
 10
-900.0
 20
99.99997138977119
 30
0.0
 11
-884.97322001763132
 21
99.99997138977119
 31
0.0
  0
LINE
  5
28A
100
AcDbEntity
  8
一般
370
               0
390
0
  6
Continuous
 62
               1
100
AcDbLine
 10
-884.97322001763132
 20
72.999971389771204
 30
0.0
 11
-900.0
 21
72.999971389771204
 31
0.0
  0
LINE
  5
28B
100
AcDbEntity
  8
一般
370
               0
390
0
  6
Continuous
 62
               1
100
AcDbLine
 10
-884.97327958768165
 20
85.000023841858138
 30
0.0
 11
-884.97322001763132
 21
72.999971389771204
 31
0.0
  0
LINE
  5
28C
100
AcDbEntity
  8
一般
370
               0
390
0
  6
Continuous
 62
               1
100
AcDbLine
 10
-724.47740232174965
 20
85.000023841858138
 30
0.0
 11
-622.00056707089516
 21
85.000023841858138
 31
0.0
  0
LINE
  5
28D
100
AcDbEntity
  8
一般
370
               0
390
0
  6
Continuous
 62
               1
100
AcDbLine
 10
-580.74695749692455
 20
84.999971389772099
 30
0.0
 11
-724.47740232174965
 21
85.000023841858138
 31
0.0
  0
LINE
  5
28E
100
AcDbEntity
  8
一般
370
               0
390
0
  6
Continuous
 62
               1
100
AcDbLine
 10
-724.47740232174965
 20
100.00000953674385
 30
0.0
 11
-580.74695749692455
 21
99.999971389772099
 31
0.0
  0
LINE
  5
28F
100
AcDbEntity
  8
一般
370
               0
390
0
  6
Continuous
 62
               1
100
AcDbLine
 10
-724.47740232174965
 20
85.000023841858138
 30
0.0
 11
-724.47740232174965
 21
100.00000953674385
 31
0.0
  0
LINE
  5
290
100
AcDbEntity
  8
一般
370
               0
390
0
  6
Continuous
 62
               1
100
AcDbLine
 10
-530.00000000000546
 20
99.99997138977119
 30
0.0
 11
-530.00000000000546
 21
84.999971389769826
 31
0.0
  0
LINE
  5
291
100
AcDbEntity
  8
一般
370
               0
390
0
  6
Continuous
 62
               1
100
AcDbLine
 10
-553.09065448782439
 20
84.999971389772099
 30
0.0
 11
-553.09065448782439
 21
99.999971389772099
 31
0.0
  0
LINE
  5
292
100
AcDbEntity
  8
一般
370
               0
390
0
  6
Continuous
 62
               1
100
AcDbLine
 10
-580.74695749692455
 20
99.999971389772099
 30
0.0
 11
-580.74695749692455
 21
84.999971389772099
 31
0.0
  0
LINE
  5
293
100
AcDbEntity
  8
一般
370
               0
390
0
  6
Continuous
 62
               1
100
AcDbLine
 10
-580.74695749692455
 20
99.999971389772099
 30
0.0
 11
-553.09065448782439
 21
99.999971389772099
 31
0.0
  0
LINE
  5
294
100
AcDbEntity
  8
一般
370
               0
390
0
  6
Continuous
 62
               1
100
AcDbLine
 10
-553.09065448782439
 20
99.999971389772099
 30
0.0
 11
-530.00000000000546
 21
99.99997138977119
 31
0.0
  0
LINE
  5
295
100
AcDbEntity
  8
一般
370
               0
390
0
  6
Continuous
 62
               1
100
AcDbLine
 10
-553.09065448782439
 20
84.999971389772099
 30
0.0
 11
-580.74695749692455
 21
84.999971389772099
 31
0.0
  0
LINE
  5
296
100
AcDbEntity
  8
一般
370
               0
390
0
  6
Continuous
 62
               1
100
AcDbLine
 10
-580.74695749692
 20
72.999971389772114
 30
0.0
 11
-556.97224087506765
 21
72.999971389771204
 31
0.0
  0
LINE
  5
297
100
AcDbEntity
  8
一般
370
               0
390
0
  6
Continuous
 62
               1
100
AcDbLine
 10
-580.74695749692
 20
72.999971389772114
 30
0.0
 11
-580.99996244137856
 21
72.999939918519217
 31
0.0
  0
LINE
  5
298
100
AcDbEntity
  8
一般
370
               0
390
0
  6
Continuous
 62
               1
100
AcDbLine
 10
-580.74695749692455
 20
84.999971389772099
 30
0.0
 11
-580.74695749692
 21
72.999971389772114
 31
0.0
  0
LINE
  5
299
100
AcDbEntity
  8
一般
370
               0
390
0
  6
Continuous
 62
               1
100
AcDbLine
 10
-580.99996244137856
 20
85.000023841858138
 30
0.0
 11
-580.99996244137856
 21
72.999939918519217
 31
0.0
  0
LINE
  5
29A
100
AcDbEntity
  8
一般
370
               0
390
0
  6
Continuous
 62
               1
100
AcDbLine
 10
-530.00000000000546
 20
84.999971389769826
 30
0.0
 11
-553.09065448782439
 21
84.999971389772099
 31
0.0
  0
LINE
  5
29B
100
AcDbEntity
  8
一般
370
               0
390
0
  6
Continuous
 62
               1
100
AcDbLine
 10
-534.00003110593207
 20
85.000023841857228
 30
0.0
 11
-534.00000000000364
 21
83.499971389771204
 31
0.0
  0
LINE
  5
29C
100
AcDbEntity
  8
一般
370
               0
390
0
  6
Continuous
 62
               1
100
AcDbLine
 10
-534.03155548224822
 20
72.99997138976984
 30
0.0
 11
-534.03155548224822
 21
83.499971389771204
 31
0.0
  0
LINE
  5
29D
100
AcDbEntity
  8
一般
370
               0
390
0
  6
Continuous
 62
               1
100
AcDbLine
 10
-534.03155548224822
 20
83.499971389771204
 30
0.0
 11
-534.00000000000364
 21
83.499971389771204
 31
0.0
  0
LINE
  5
29E
100
AcDbEntity
  8
一般
370
               0
390
0
  6
Continuous
 62
               1
100
AcDbLine
 10
-556.97224087506765
 20
72.999971389771204
 30
0.0
 11
-556.97225724881264
 21
85.000023841858138
 31
0.0
  0
LINE
  5
29F
100
AcDbEntity
  8
一般
370
               0
390
0
  6
Continuous
 62
               1
100
AcDbLine
 10
-556.97224087506765
 20
72.999971389771204
 30
0.0
 11
-534.03155548224822
 21
72.99997138976984
 31
0.0
  0
LINE
  5
2A0
100
AcDbEntity
  8
一般
370
               0
390
0
  6
Continuous
 62
               1
100
AcDbLine
 10
1207.6178921015742
 20
72.999999999952195
 30
0.0
 11
1112.1935508783024
 21
72.999999999951285
 31
0.0
  0
LINE
  5
2A1
100
AcDbEntity
  8
一般
370
               0
390
0
  6
Continuous
 62
               1
100
AcDbLine
 10
1112.1935508779241
 20
99.999999999952166
 30
0.0
 11
1207.6178921015733
 21
99.999999999952166
 31
0.0
  0
LINE
  5
2A2
100
AcDbEntity
  8
一般
370
               0
390
0
  6
Continuous
 62
               1
100
AcDbLine
 10
900.00019999998653
 20
84.999999999948997
 30
0.0
 11
1112.1935508782515
 21
84.999999999951271
 31
0.0
  0
LINE
  5
2A3
100
AcDbEntity
  8
一般
370
               0
390
0
  6
Continuous
 62
               1
100
AcDbLine
 10
1112.1935508783024
 20
84.999999999951271
 30
0.0
 11
900.00019999998653
 21
84.999999999950361
 31
0.0
  0
LINE
  5
2A4
100
AcDbEntity
  8
一般
370
               0
390
0
  6
Continuous
 62
               1
100
AcDbLine
 10
900.00019999998653
 20
99.999999999950347
 30
0.0
 11
1112.1935508779241
 21
99.999999999952166
 31
0.0
  0
LINE
  5
2A5
100
AcDbEntity
  8
一般
370
               0
390
0
  6
Continuous
 62
               1
100
AcDbLine
 10
900.00019999998653
 20
84.999999999950361
 30
0.0
 11
900.00019999998653
 21
99.999999999950347
 31
0.0
  0
LINE
  5
2A6
100
AcDbEntity
  8
一般
370
               0
390
0
  6
Continuous
 62
               1
100
AcDbLine
 10
1112.1935508783024
 20
84.999999999951271
 30
0.0
 11
1112.1935508779241
 21
99.999999999952166
 31
0.0
  0
LINE
  5
2A7
100
AcDbEntity
  8
一般
370
               0
390
0
  6
Continuous
 62
               1
100
AcDbLine
 10
1112.1935508783024
 20
72.999999999951285
 30
0.0
 11
1112.1935508783024
 21
84.999999999951271
 31
0.0
  0
LINE
  5
2A8
100
AcDbEntity
  8
一般
370
               0
390
0
  6
Continuous
 62
               1
100
AcDbLine
 10
1320.0001999999838
 20
84.99999999995309
 30
0.0
 11
1320.0001999999838
 21
99.999999999953076
 31
0.0
  0
LINE
  5
2A9
100
AcDbEntity
  8
一般
370
               0
390
0
  6
Continuous
 62
               1
100
AcDbLine
 10
1207.6178921015733
 20
84.99999999995309
 30
0.0
 11
1207.6178921015733
 21
99.999999999952166
 31
0.0
  0
LINE
  5
2AA
100
AcDbEntity
  8
一般
370
               0
390
0
  6
Continuous
 62
               1
100
AcDbLine
 10
1207.6178921015733
 20
99.999999999952166
 30
0.0
 11
1320.0001999999838
 21
99.999999999953076
 31
0.0
  0
LINE
  5
2AB
100
AcDbEntity
  8
一般
370
               0
390
0
  6
Continuous
 62
               1
100
AcDbLine
 10
1207.6178921015733
 20
84.99999999995309
 30
0.0
 11
1320.0001999999838
 21
84.99999999995309
 31
0.0
  0
LINE
  5
2AC
100
AcDbEntity
  8
一般
370
               0
390
0
  6
Continuous
 62
               1
100
AcDbLine
 10
1320.0001999999838
 20
84.99999999995309
 30
0.0
 11
1207.6178921015733
 21
84.99999999995309
 31
0.0
  0
LINE
  5
2AD
100
AcDbEntity
  8
一般
370
               0
390
0
  6
Continuous
 62
               1
100
AcDbLine
 10
1207.6178921015742
 20
84.99999999995309
 30
0.0
 11
1207.6178921015742
 21
72.999999999952195
 31
0.0
  0
CIRCLE
  5
2AE
100
AcDbEntity
  8
一般
370
               0
390
0
  6
Continuous
 62
               1
100
AcDbCircle
 10
-22.894458577467091
 20
-55.764912452399841
 30
0.0
 40
12.699999999999818
  0
LINE
  5
2AF
100
AcDbEntity
  8
一般
370
               0
390
0
  6
Continuous
 62
               1
100
AcDbLine
 10
-534.30000000000109
 20
-208.49999999999864
 30
0.0
 11
-534.30000000000109
 21
-196.50000000033469
 31
0.0
  0
LINE
  5
2B0
100
AcDbEntity
  8
一般
370
               0
390
0
  6
Continuous
 62
               1
100
AcDbLine
 10
426.97244087504305
 20
-572.99999999999818
 30
0.0
 11
450.74715749689813
 21
-572.99999999999818
 31
0.0
  0
LINE
  5
2B1
100
AcDbEntity
  8
一般
370
               0
390
0
  6
Continuous
 62
               1
100
AcDbLine
 10
423.09085448780343
 20
-599.99999999999818
 30
0.0
 11
450.74715749690085
 21
-599.99999999999818
 31
0.0
  0
LINE
  5
2B2
100
AcDbEntity
  8
一般
370
               0
390
0
  6
Continuous
 62
               1
100
AcDbLine
 10
450.74715749690085
 20
-584.99999999999818
 30
0.0
 11
423.09085448780343
 21
-584.99999999999818
 31
0.0
  0
LINE
  5
2B3
100
AcDbEntity
  8
一般
370
               0
390
0
  6
Continuous
 62
               1
100
AcDbLine
 10
442.00019999998085
 20
-207.49999999999864
 30
0.0
 11
449.00019999998085
 21
-207.49999999999864
 31
0.0
  0
LINE
  5
2B4
100
AcDbEntity
  8
一般
370
               0
390
0
  6
Continuous
 62
               1
100
AcDbLine
 10
449.00019999998085
 20
-197.49999999999875
 30
0.0
 11
442.00019999998085
 21
-197.49999999999875
 31
0.0
  0
LINE
  5
2B5
100
AcDbEntity
  8
一般
370
               0
390
0
  6
Continuous
 62
               1
100
AcDbLine
 10
404.03179013697945
 20
-572.99999999999818
 30
0.0
 11
426.97244087504305
 21
-572.99999999999818
 31
0.0
  0
LINE
  5
2B6
100
AcDbEntity
  8
一般
370
               0
390
0
  6
Continuous
 62
               1
100
AcDbLine
 10
400.00019999998358
 20
-599.99999999999909
 30
0.0
 11
423.09085448780343
 21
-599.99999999999818
 31
0.0
  0
LINE
  5
2B7
100
AcDbEntity
  8
一般
370
               0
390
0
  6
Continuous
 62
               1
100
AcDbLine
 10
423.09085448780343
 20
-584.99999999999818
 30
0.0
 11
400.00019999998358
 21
-584.99999999999909
 31
0.0
  0
LINE
  5
2B8
100
AcDbEntity
  8
一般
370
               0
390
0
  6
Continuous
 62
               1
100
AcDbLine
 10
404.03179013697945
 20
-583.5
 30
0.0
 11
404.03179013697945
 21
-572.99999999999818
 31
0.0
  0
LINE
  5
2B9
100
AcDbEntity
  8
一般
370
               0
390
0
  6
Continuous
 62
               1
100
AcDbLine
 10
404.00019999998358
 20
-583.5
 30
0.0
 11
404.03179013697945
 21
-583.5
 31
0.0
  0
LINE
  5
2BA
100
AcDbEntity
  8
一般
370
               0
390
0
  6
Continuous
 62
               1
100
AcDbLine
 10
404.03179013697945
 20
-572.99999999999818
 30
0.0
 11
404.03179013697945
 21
-583.5
 31
0.0
  0
LINE
  5
2BB
100
AcDbEntity
  8
一般
370
               0
390
0
  6
Continuous
 62
               1
100
AcDbLine
 10
404.00019999998358
 20
-583.5
 30
0.0
 11
404.00019999998358
 21
-584.99999999999909
 31
0.0
  0
LINE
  5
2BC
100
AcDbEntity
  8
一般
370
               0
390
0
  6
Continuous
 62
               1
100
AcDbLine
 10
400.00019999998358
 20
-584.99999999999909
 30
0.0
 11
400.00019999998358
 21
-599.99999999999909
 31
0.0
  0
LINE
  5
2BD
100
AcDbEntity
  8
一般
370
               0
390
0
  6
Continuous
 62
               1
100
AcDbLine
 10
426.97244087504305
 20
-572.99999999999818
 30
0.0
 11
426.97244087504305
 21
-584.99999999999818
 31
0.0
  0
LINE
  5
2BE
100
AcDbEntity
  8
一般
370
               0
390
0
  6
Continuous
 62
               1
100
AcDbLine
 10
423.09085448780343
 20
-584.99999999999818
 30
0.0
 11
423.09085448780343
 21
-599.99999999999818
 31
0.0
  0
LINE
  5
2BF
100
AcDbEntity
  8
一般
370
               0
390
0
  6
Continuous
 62
               1
100
AcDbLine
 10
442.00019999998085
 20
-209.49999999999864
 30
0.0
 11
409.30019999998103
 21
-209.49999999999864
 31
0.0
  0
LINE
  5
2C0
100
AcDbEntity
  8
一般
370
               0
390
0
  6
Continuous
 62
               1
100
AcDbLine
 10
409.30019999998103
 20
-195.49999999999875
 30
0.0
 11
442.00019999998085
 21
-195.49999999999875
 31
0.0
  0
LINE
  5
2C1
100
AcDbEntity
  8
一般
370
               0
390
0
  6
Continuous
 62
               1
100
AcDbLine
 10
409.30019999998103
 20
-202.49999999999875
 30
0.0
 11
442.00019999998085
 21
-202.49999999999875
 31
0.0
  0
LINE
  5
2C2
100
AcDbEntity
  8
一般
370
               0
390
0
  6
Continuous
 62
               1
100
AcDbLine
 10
405.30019999998103
 20
-195.49999999999875
 30
0.0
 11
405.30019999998103
 21
-209.49999999999864
 31
0.0
  0
POLYLINE
  5
2C3
100
AcDbEntity
  8
一般
370
               0
390
0
  6
Continuous
 62
               1
100
AcDb3dPolyline
 66
               1
 10
0.0
 20
0.0
 30
0.0
 70
               8
  0
VERTEX
  5
2C4
100
AcDbEntity
  8
一般
370
               0
390
0
  6
Continuous
 62
               1
100
AcDbVertex
100
AcDb3dPolylineVertex
 10
404.30090981441344
 20
-208.49861761282273
 30
0.0
 70
              32
  0
VERTEX
  5
2C5
100
AcDbEntity
  8
一般
370
               0
390
0
  6
Continuous
 62
               1
100
AcDbVertex
100
AcDb3dPolylineVertex
 10
404.30090981441344
 20
-208.49861761282273
 30
0.0
 70
              32
  0
VERTEX
  5
2C6
100
AcDbEntity
  8
一般
370
               0
390
0
  6
Continuous
 62
               1
100
AcDbVertex
100
AcDb3dPolylineVertex
 10
404.30090981441344
 20
-208.49861761282273
 30
0.0
 70
              32
  0
VERTEX
  5
2C7
100
AcDbEntity
  8
一般
370
               0
390
0
  6
Continuous
 62
               1
100
AcDbVertex
100
AcDb3dPolylineVertex
 10
404.30090981441344
 20
-208.49861761282273
 30
0.0
 70
              32
  0
VERTEX
  5
2C8
100
AcDbEntity
  8
一般
370
               0
390
0
  6
Continuous
 62
               1
100
AcDbVertex
100
AcDb3dPolylineVertex
 10
404.30090981441344
 20
-208.49861761282273
 30
0.0
 70
              32
  0
VERTEX
  5
2C9
100
AcDbEntity
  8
一般
370
               0
390
0
  6
Continuous
 62
               1
100
AcDbVertex
100
AcDb3dPolylineVertex
 10
404.30090981441344
 20
-208.48861761282251
 30
0.0
 70
              32
  0
VERTEX
  5
2CA
100
AcDbEntity
  8
一般
370
               0
390
0
  6
Continuous
 62
               1
100
AcDbVertex
100
AcDb3dPolylineVertex
 10
404.30090981441344
 20
-208.48861761282251
 30
0.0
 70
              32
  0
VERTEX
  5
2CB
100
AcDbEntity
  8
一般
370
               0
390
0
  6
Continuous
 62
               1
100
AcDbVertex
100
AcDb3dPolylineVertex
 10
404.30090981441344
 20
-208.48861761282251
 30
0.0
 70
              32
  0
VERTEX
  5
2CC
100
AcDbEntity
  8
一般
370
               0
390
0
  6
Continuous
 62
               1
100
AcDbVertex
100
AcDb3dPolylineVertex
 10
404.30090981441344
 20
-208.47861761282275
 30
0.0
 70
              32
  0
VERTEX
  5
2CD
100
AcDbEntity
  8
一般
370
               0
390
0
  6
Continuous
 62
               1
100
AcDbVertex
100
AcDb3dPolylineVertex
 10
404.30090981441344
 20
-208.47861761282275
 30
0.0
 70
              32
  0
VERTEX
  5
2CE
100
AcDbEntity
  8
一般
370
               0
390
0
  6
Continuous
 62
               1
100
AcDbVertex
100
AcDb3dPolylineVertex
 10
404.30090981441344
 20
-208.46861761282253
 30
0.0
 70
              32
  0
VERTEX
  5
2CF
100
AcDbEntity
  8
一般
370
               0
390
0
  6
Continuous
 62
               1
100
AcDbVertex
100
AcDb3dPolylineVertex
 10
404.30090981441344
 20
-208.46861761282253
 30
0.0
 70
              32
  0
VERTEX
  5
2D0
100
AcDbEntity
  8
一般
370
               0
390
0
  6
Continuous
 62
               1
100
AcDbVertex
100
AcDb3dPolylineVertex
 10
404.30090981441344
 20
-208.45861761282276
 30
0.0
 70
              32
  0
VERTEX
  5
2D1
100
AcDbEntity
  8
一般
370
               0
390
0
  6
Continuous
 62
               1
100
AcDbVertex
100
AcDb3dPolylineVertex
 10
404.30090981441344
 20
-208.44861761282255
 30
0.0
 70
              32
  0
VERTEX
  5
2D2
100
AcDbEntity
  8
一般
370
               0
390
0
  6
Continuous
 62
               1
100
AcDbVertex
100
AcDb3dPolylineVertex
 10
404.30090981441344
 20
-208.43861761282278
 30
0.0
 70
              32
  0
VERTEX
  5
2D3
100
AcDbEntity
  8
一般
370
               0
390
0
  6
Continuous
 62
               1
100
AcDbVertex
100
AcDb3dPolylineVertex
 10
404.30090981441344
 20
-208.43861761282278
 30
0.0
 70
              32
  0
VERTEX
  5
2D4
100
AcDbEntity
  8
一般
370
               0
390
0
  6
Continuous
 62
               1
100
AcDbVertex
100
AcDb3dPolylineVertex
 10
404.30090981441344
 20
-208.42861761282256
 30
0.0
 70
              32
  0
VERTEX
  5
2D5
100
AcDbEntity
  8
一般
370
               0
390
0
  6
Continuous
 62
               1
100
AcDbVertex
100
AcDb3dPolylineVertex
 10
404.30090981441344
 20
-208.4186176128228
 30
0.0
 70
              32
  0
VERTEX
  5
2D6
100
AcDbEntity
  8
一般
370
               0
390
0
  6
Continuous
 62
               1
100
AcDbVertex
100
AcDb3dPolylineVertex
 10
404.30090981441344
 20
-208.40861761282258
 30
0.0
 70
              32
  0
VERTEX
  5
2D7
100
AcDbEntity
  8
一般
370
               0
390
0
  6
Continuous
 62
               1
100
AcDbVertex
100
AcDb3dPolylineVertex
 10
404.30090981441344
 20
-208.39861761282282
 30
0.0
 70
              32
  0
VERTEX
  5
2D8
100
AcDbEntity
  8
一般
370
               0
390
0
  6
Continuous
 62
               1
100
AcDbVertex
100
AcDb3dPolylineVertex
 10
404.30090981441344
 20
-208.37861761282284
 30
0.0
 70
              32
  0
VERTEX
  5
2D9
100
AcDbEntity
  8
一般
370
               0
390
0
  6
Continuous
 62
               1
100
AcDbVertex
100
AcDb3dPolylineVertex
 10
404.30090981441344
 20
-208.36861761282262
 30
0.0
 70
              32
  0
VERTEX
  5
2DA
100
AcDbEntity
  8
一般
370
               0
390
0
  6
Continuous
 62
               1
100
AcDbVertex
100
AcDb3dPolylineVertex
 10
404.30090981441344
 20
-208.35861761282285
 30
0.0
 70
              32
  0
VERTEX
  5
2DB
100
AcDbEntity
  8
一般
370
               0
390
0
  6
Continuous
 62
               1
100
AcDbVertex
100
AcDb3dPolylineVertex
 10
404.30090981441344
 20
-208.34861761282264
 30
0.0
 70
              32
  0
VERTEX
  5
2DC
100
AcDbEntity
  8
一般
370
               0
390
0
  6
Continuous
 62
               1
100
AcDbVertex
100
AcDb3dPolylineVertex
 10
404.30090981441344
 20
-208.32861761282265
 30
0.0
 70
              32
  0
VERTEX
  5
2DD
100
AcDbEntity
  8
一般
370
               0
390
0
  6
Continuous
 62
               1
100
AcDbVertex
100
AcDb3dPolylineVertex
 10
404.30090981441344
 20
-208.31861761282289
 30
0.0
 70
              32
  0
VERTEX
  5
2DE
100
AcDbEntity
  8
一般
370
               0
390
0
  6
Continuous
 62
               1
100
AcDbVertex
100
AcDb3dPolylineVertex
 10
404.30090981441344
 20
-208.29861761282291
 30
0.0
 70
              32
  0
VERTEX
  5
2DF
100
AcDbEntity
  8
一般
370
               0
390
0
  6
Continuous
 62
               1
100
AcDbVertex
100
AcDb3dPolylineVertex
 10
404.30090981441344
 20
-208.28861761282269
 30
0.0
 70
              32
  0
VERTEX
  5
2E0
100
AcDbEntity
  8
一般
370
               0
390
0
  6
Continuous
 62
               1
100
AcDbVertex
100
AcDb3dPolylineVertex
 10
404.30090981441344
 20
-208.26861761282271
 30
0.0
 70
              32
  0
VERTEX
  5
2E1
100
AcDbEntity
  8
一般
370
               0
390
0
  6
Continuous
 62
               1
100
AcDbVertex
100
AcDb3dPolylineVertex
 10
404.30090981441344
 20
-208.25861761282295
 30
0.0
 70
              32
  0
VERTEX
  5
2E2
100
AcDbEntity
  8
一般
370
               0
390
0
  6
Continuous
 62
               1
100
AcDbVertex
100
AcDb3dPolylineVertex
 10
404.30090981441344
 20
-208.23861761282251
 30
0.0
 70
              32
  0
VERTEX
  5
2E3
100
AcDbEntity
  8
一般
370
               0
390
0
  6
Continuous
 62
               1
100
AcDbVertex
100
AcDb3dPolylineVertex
 10
404.30090981441344
 20
-208.21861761282253
 30
0.0
 70
              32
  0
VERTEX
  5
2E4
100
AcDbEntity
  8
一般
370
               0
390
0
  6
Continuous
 62
               1
100
AcDbVertex
100
AcDb3dPolylineVertex
 10
404.30090981441344
 20
-208.20861761282276
 30
0.0
 70
              32
  0
VERTEX
  5
2E5
100
AcDbEntity
  8
一般
370
               0
390
0
  6
Continuous
 62
               1
100
AcDbVertex
100
AcDb3dPolylineVertex
 10
404.30090981441344
 20
-208.18861761282278
 30
0.0
 70
              32
  0
VERTEX
  5
2E6
100
AcDbEntity
  8
一般
370
               0
390
0
  6
Continuous
 62
               1
100
AcDbVertex
100
AcDb3dPolylineVertex
 10
404.30090981441344
 20
-208.1686176128228
 30
0.0
 70
              32
  0
VERTEX
  5
2E7
100
AcDbEntity
  8
一般
370
               0
390
0
  6
Continuous
 62
               1
100
AcDbVertex
100
AcDb3dPolylineVertex
 10
404.30090981441344
 20
-208.14861761282282
 30
0.0
 70
              32
  0
VERTEX
  5
2E8
100
AcDbEntity
  8
一般
370
               0
390
0
  6
Continuous
 62
               1
100
AcDbVertex
100
AcDb3dPolylineVertex
 10
404.30090981441344
 20
-208.12861761282284
 30
0.0
 70
              32
  0
VERTEX
  5
2E9
100
AcDbEntity
  8
一般
370
               0
390
0
  6
Continuous
 62
               1
100
AcDbVertex
100
AcDb3dPolylineVertex
 10
404.30090981441344
 20
-208.10861761282285
 30
0.0
 70
              32
  0
VERTEX
  5
2EA
100
AcDbEntity
  8
一般
370
               0
390
0
  6
Continuous
 62
               1
100
AcDbVertex
100
AcDb3dPolylineVertex
 10
404.30090981441344
 20
-208.08861761282287
 30
0.0
 70
              32
  0
VERTEX
  5
2EB
100
AcDbEntity
  8
一般
370
               0
390
0
  6
Continuous
 62
               1
100
AcDbVertex
100
AcDb3dPolylineVertex
 10
404.30090981441344
 20
-208.05861761282267
 30
0.0
 70
              32
  0
VERTEX
  5
2EC
100
AcDbEntity
  8
一般
370
               0
390
0
  6
Continuous
 62
               1
100
AcDbVertex
100
AcDb3dPolylineVertex
 10
404.30090981441344
 20
-208.03861761282269
 30
0.0
 70
              32
  0
VERTEX
  5
2ED
100
AcDbEntity
  8
一般
370
               0
390
0
  6
Continuous
 62
               1
100
AcDbVertex
100
AcDb3dPolylineVertex
 10
404.30090981441344
 20
-208.01861761282271
 30
0.0
 70
              32
  0
VERTEX
  5
2EE
100
AcDbEntity
  8
一般
370
               0
390
0
  6
Continuous
 62
               1
100
AcDbVertex
100
AcDb3dPolylineVertex
 10
404.30090981441344
 20
-207.99861761282273
 30
0.0
 70
              32
  0
VERTEX
  5
2EF
100
AcDbEntity
  8
一般
370
               0
390
0
  6
Continuous
 62
               1
100
AcDbVertex
100
AcDb3dPolylineVertex
 10
404.30090981441344
 20
-207.96861761282253
 30
0.0
 70
              32
  0
VERTEX
  5
2F0
100
AcDbEntity
  8
一般
370
               0
390
0
  6
Continuous
 62
               1
100
AcDbVertex
100
AcDb3dPolylineVertex
 10
404.30090981441344
 20
-207.94861761282255
 30
0.0
 70
              32
  0
VERTEX
  5
2F1
100
AcDbEntity
  8
一般
370
               0
390
0
  6
Continuous
 62
               1
100
AcDbVertex
100
AcDb3dPolylineVertex
 10
404.30090981441344
 20
-207.9186176128228
 30
0.0
 70
              32
  0
VERTEX
  5
2F2
100
AcDbEntity
  8
一般
370
               0
390
0
  6
Continuous
 62
               1
100
AcDbVertex
100
AcDb3dPolylineVertex
 10
404.30090981441344
 20
-207.89861761282282
 30
0.0
 70
              32
  0
VERTEX
  5
2F3
100
AcDbEntity
  8
一般
370
               0
390
0
  6
Continuous
 62
               1
100
AcDbVertex
100
AcDb3dPolylineVertex
 10
404.30090981441344
 20
-207.86861761282262
 30
0.0
 70
              32
  0
VERTEX
  5
2F4
100
AcDbEntity
  8
一般
370
               0
390
0
  6
Continuous
 62
               1
100
AcDbVertex
100
AcDb3dPolylineVertex
 10
404.30090981441344
 20
-207.83861761282287
 30
0.0
 70
              32
  0
VERTEX
  5
2F5
100
AcDbEntity
  8
一般
370
               0
390
0
  6
Continuous
 62
               1
100
AcDbVertex
100
AcDb3dPolylineVertex
 10
404.30090981441344
 20
-207.81861761282289
 30
0.0
 70
              32
  0
VERTEX
  5
2F6
100
AcDbEntity
  8
一般
370
               0
390
0
  6
Continuous
 62
               1
100
AcDbVertex
100
AcDb3dPolylineVertex
 10
404.30090981441344
 20
-207.78861761282269
 30
0.0
 70
              32
  0
VERTEX
  5
2F7
100
AcDbEntity
  8
一般
370
               0
390
0
  6
Continuous
 62
               1
100
AcDbVertex
100
AcDb3dPolylineVertex
 10
404.30090981441344
 20
-207.75861761282295
 30
0.0
 70
              32
  0
VERTEX
  5
2F8
100
AcDbEntity
  8
一般
370
               0
390
0
  6
Continuous
 62
               1
100
AcDbVertex
100
AcDb3dPolylineVertex
 10
404.30090981441344
 20
-207.72861761282275
 30
0.0
 70
              32
  0
VERTEX
  5
2F9
100
AcDbEntity
  8
一般
370
               0
390
0
  6
Continuous
 62
               1
100
AcDbVertex
100
AcDb3dPolylineVertex
 10
404.30090981441344
 20
-207.69861761282255
 30
0.0
 70
              32
  0
VERTEX
  5
2FA
100
AcDbEntity
  8
一般
370
               0
390
0
  6
Continuous
 62
               1
100
AcDbVertex
100
AcDb3dPolylineVertex
 10
404.30090981441344
 20
-207.67861761282256
 30
0.0
 70
              32
  0
VERTEX
  5
2FB
100
AcDbEntity
  8
一般
370
               0
390
0
  6
Continuous
 62
               1
100
AcDbVertex
100
AcDb3dPolylineVertex
 10
404.30090981441344
 20
-207.6386176128226
 30
0.0
 70
              32
  0
VERTEX
  5
2FC
100
AcDbEntity
  8
一般
370
               0
390
0
  6
Continuous
 62
               1
100
AcDbVertex
100
AcDb3dPolylineVertex
 10
404.30090981441344
 20
-207.60861761282285
 30
0.0
 70
              32
  0
VERTEX
  5
2FD
100
AcDbEntity
  8
一般
370
               0
390
0
  6
Continuous
 62
               1
100
AcDbVertex
100
AcDb3dPolylineVertex
 10
404.30090981441344
 20
-207.57861761282265
 30
0.0
 70
              32
  0
VERTEX
  5
2FE
100
AcDbEntity
  8
一般
370
               0
390
0
  6
Continuous
 62
               1
100
AcDbVertex
100
AcDb3dPolylineVertex
 10
404.30090981441344
 20
-207.54861761282291
 30
0.0
 70
              32
  0
VERTEX
  5
2FF
100
AcDbEntity
  8
一般
370
               0
390
0
  6
Continuous
 62
               1
100
AcDbVertex
100
AcDb3dPolylineVertex
 10
404.30090981441344
 20
-207.51861761282271
 30
0.0
 70
              32
  0
VERTEX
  5
300
100
AcDbEntity
  8
一般
370
               0
390
0
  6
Continuous
 62
               1
100
AcDbVertex
100
AcDb3dPolylineVertex
 10
404.30090981441344
 20
-207.48861761282251
 30
0.0
 70
              32
  0
VERTEX
  5
301
100
AcDbEntity
  8
一般
370
               0
390
0
  6
Continuous
 62
               1
100
AcDbVertex
100
AcDb3dPolylineVertex
 10
404.30090981441344
 20
-207.44861761282255
 30
0.0
 70
              32
  0
VERTEX
  5
302
100
AcDbEntity
  8
一般
370
               0
390
0
  6
Continuous
 62
               1
100
AcDbVertex
100
AcDb3dPolylineVertex
 10
404.30090981441344
 20
-207.4186176128228
 30
0.0
 70
              32
  0
VERTEX
  5
303
100
AcDbEntity
  8
一般
370
               0
390
0
  6
Continuous
 62
               1
100
AcDbVertex
100
AcDb3dPolylineVertex
 10
404.30090981441344
 20
-207.3886176128226
 30
0.0
 70
              32
  0
VERTEX
  5
304
100
AcDbEntity
  8
一般
370
               0
390
0
  6
Continuous
 62
               1
100
AcDbVertex
100
AcDb3dPolylineVertex
 10
404.30090981441344
 20
-207.34861761282264
 30
0.0
 70
              32
  0
VERTEX
  5
305
100
AcDbEntity
  8
一般
370
               0
390
0
  6
Continuous
 62
               1
100
AcDbVertex
100
AcDb3dPolylineVertex
 10
404.30090981441344
 20
-207.31861761282289
 30
0.0
 70
              32
  0
VERTEX
  5
306
100
AcDbEntity
  8
一般
370
               0
390
0
  6
Continuous
 62
               1
100
AcDbVertex
100
AcDb3dPolylineVertex
 10
404.30090981441344
 20
-207.27861761282293
 30
0.0
 70
              32
  0
VERTEX
  5
307
100
AcDbEntity
  8
一般
370
               0
390
0
  6
Continuous
 62
               1
100
AcDbVertex
100
AcDb3dPolylineVertex
 10
404.30090981441344
 20
-207.24861761282273
 30
0.0
 70
              32
  0
VERTEX
  5
308
100
AcDbEntity
  8
一般
370
               0
390
0
  6
Continuous
 62
               1
100
AcDbVertex
100
AcDb3dPolylineVertex
 10
404.30090981441344
 20
-207.20861761282276
 30
0.0
 70
              32
  0
VERTEX
  5
309
100
AcDbEntity
  8
一般
370
               0
390
0
  6
Continuous
 62
               1
100
AcDbVertex
100
AcDb3dPolylineVertex
 10
404.30090981441344
 20
-207.1686176128228
 30
0.0
 70
              32
  0
VERTEX
  5
30A
100
AcDbEntity
  8
一般
370
               0
390
0
  6
Continuous
 62
               1
100
AcDbVertex
100
AcDb3dPolylineVertex
 10
404.30090981441344
 20
-207.12861761282284
 30
0.0
 70
              32
  0
VERTEX
  5
30B
100
AcDbEntity
  8
一般
370
               0
390
0
  6
Continuous
 62
               1
100
AcDbVertex
100
AcDb3dPolylineVertex
 10
404.30090981441344
 20
-207.09861761282264
 30
0.0
 70
              32
  0
VERTEX
  5
30C
100
AcDbEntity
  8
一般
370
               0
390
0
  6
Continuous
 62
               1
100
AcDbVertex
100
AcDb3dPolylineVertex
 10
404.30090981441344
 20
-207.05861761282267
 30
0.0
 70
              32
  0
VERTEX
  5
30D
100
AcDbEntity
  8
一般
370
               0
390
0
  6
Continuous
 62
               1
100
AcDbVertex
100
AcDb3dPolylineVertex
 10
404.30090981441344
 20
-207.01861761282271
 30
0.0
 70
              32
  0
VERTEX
  5
30E
100
AcDbEntity
  8
一般
370
               0
390
0
  6
Continuous
 62
               1
100
AcDbVertex
100
AcDb3dPolylineVertex
 10
404.30090981441344
 20
-206.97861761282275
 30
0.0
 70
              32
  0
VERTEX
  5
30F
100
AcDbEntity
  8
一般
370
               0
390
0
  6
Continuous
 62
               1
100
AcDbVertex
100
AcDb3dPolylineVertex
 10
404.30090981441344
 20
-206.93861761282278
 30
0.0
 70
              32
  0
VERTEX
  5
310
100
AcDbEntity
  8
一般
370
               0
390
0
  6
Continuous
 62
               1
100
AcDbVertex
100
AcDb3dPolylineVertex
 10
404.30090981441344
 20
-206.89861761282282
 30
0.0
 70
              32
  0
VERTEX
  5
311
100
AcDbEntity
  8
一般
370
               0
390
0
  6
Continuous
 62
               1
100
AcDbVertex
100
AcDb3dPolylineVertex
 10
404.30090981441344
 20
-206.85861761282285
 30
0.0
 70
              32
  0
VERTEX
  5
312
100
AcDbEntity
  8
一般
370
               0
390
0
  6
Continuous
 62
               1
100
AcDbVertex
100
AcDb3dPolylineVertex
 10
404.30090981441344
 20
-206.81861761282289
 30
0.0
 70
              32
  0
VERTEX
  5
313
100
AcDbEntity
  8
一般
370
               0
390
0
  6
Continuous
 62
               1
100
AcDbVertex
100
AcDb3dPolylineVertex
 10
404.30090981441344
 20
-206.77861761282293
 30
0.0
 70
              32
  0
VERTEX
  5
314
100
AcDbEntity
  8
一般
370
               0
390
0
  6
Continuous
 62
               1
100
AcDbVertex
100
AcDb3dPolylineVertex
 10
404.30090981441344
 20
-206.72861761282275
 30
0.0
 70
              32
  0
VERTEX
  5
315
100
AcDbEntity
  8
一般
370
               0
390
0
  6
Continuous
 62
               1
100
AcDbVertex
100
AcDb3dPolylineVertex
 10
404.30090981441344
 20
-206.68861761282278
 30
0.0
 70
              32
  0
VERTEX
  5
316
100
AcDbEntity
  8
一般
370
               0
390
0
  6
Continuous
 62
               1
100
AcDbVertex
100
AcDb3dPolylineVertex
 10
404.30090981441344
 20
-206.64861761282282
 30
0.0
 70
              32
  0
VERTEX
  5
317
100
AcDbEntity
  8
一般
370
               0
390
0
  6
Continuous
 62
               1
100
AcDbVertex
100
AcDb3dPolylineVertex
 10
404.30090981441344
 20
-206.59861761282264
 30
0.0
 70
              32
  0
VERTEX
  5
318
100
AcDbEntity
  8
一般
370
               0
390
0
  6
Continuous
 62
               1
100
AcDbVertex
100
AcDb3dPolylineVertex
 10
404.30090981441344
 20
-206.55861761282267
 30
0.0
 70
              32
  0
VERTEX
  5
319
100
AcDbEntity
  8
一般
370
               0
390
0
  6
Continuous
 62
               1
100
AcDbVertex
100
AcDb3dPolylineVertex
 10
404.30090981441344
 20
-206.51861761282271
 30
0.0
 70
              32
  0
VERTEX
  5
31A
100
AcDbEntity
  8
一般
370
               0
390
0
  6
Continuous
 62
               1
100
AcDbVertex
100
AcDb3dPolylineVertex
 10
404.30090981441344
 20
-206.46861761282253
 30
0.0
 70
              32
  0
VERTEX
  5
31B
100
AcDbEntity
  8
一般
370
               0
390
0
  6
Continuous
 62
               1
100
AcDbVertex
100
AcDb3dPolylineVertex
 10
404.30090981441344
 20
-206.42861761282256
 30
0.0
 70
              32
  0
VERTEX
  5
31C
100
AcDbEntity
  8
一般
370
               0
390
0
  6
Continuous
 62
               1
100
AcDbVertex
100
AcDb3dPolylineVertex
 10
404.30090981441344
 20
-206.37861761282284
 30
0.0
 70
              32
  0
VERTEX
  5
31D
100
AcDbEntity
  8
一般
370
               0
390
0
  6
Continuous
 62
               1
100
AcDbVertex
100
AcDb3dPolylineVertex
 10
404.30090981441344
 20
-206.33861761282287
 30
0.0
 70
              32
  0
VERTEX
  5
31E
100
AcDbEntity
  8
一般
370
               0
390
0
  6
Continuous
 62
               1
100
AcDbVertex
100
AcDb3dPolylineVertex
 10
404.30090981441344
 20
-206.28861761282269
 30
0.0
 70
              32
  0
VERTEX
  5
31F
100
AcDbEntity
  8
一般
370
               0
390
0
  6
Continuous
 62
               1
100
AcDbVertex
100
AcDb3dPolylineVertex
 10
404.30090981441344
 20
-206.23861761282251
 30
0.0
 70
              32
  0
VERTEX
  5
320
100
AcDbEntity
  8
一般
370
               0
390
0
  6
Continuous
 62
               1
100
AcDbVertex
100
AcDb3dPolylineVertex
 10
404.30090981441344
 20
-206.19861761282255
 30
0.0
 70
              32
  0
VERTEX
  5
321
100
AcDbEntity
  8
一般
370
               0
390
0
  6
Continuous
 62
               1
100
AcDbVertex
100
AcDb3dPolylineVertex
 10
404.30090981441344
 20
-206.14861761282282
 30
0.0
 70
              32
  0
VERTEX
  5
322
100
AcDbEntity
  8
一般
370
               0
390
0
  6
Continuous
 62
               1
100
AcDbVertex
100
AcDb3dPolylineVertex
 10
404.30090981441344
 20
-206.09861761282264
 30
0.0
 70
              32
  0
VERTEX
  5
323
100
AcDbEntity
  8
一般
370
               0
390
0
  6
Continuous
 62
               1
100
AcDbVertex
100
AcDb3dPolylineVertex
 10
404.30090981441344
 20
-206.05861761282267
 30
0.0
 70
              32
  0
VERTEX
  5
324
100
AcDbEntity
  8
一般
370
               0
390
0
  6
Continuous
 62
               1
100
AcDbVertex
100
AcDb3dPolylineVertex
 10
404.30090981441344
 20
-206.00861761282295
 30
0.0
 70
              32
  0
VERTEX
  5
325
100
AcDbEntity
  8
一般
370
               0
390
0
  6
Continuous
 62
               1
100
AcDbVertex
100
AcDb3dPolylineVertex
 10
404.30090981441344
 20
-205.95861761282276
 30
0.0
 70
              32
  0
VERTEX
  5
326
100
AcDbEntity
  8
一般
370
               0
390
0
  6
Continuous
 62
               1
100
AcDbVertex
100
AcDb3dPolylineVertex
 10
404.30090981441344
 20
-205.90861761282258
 30
0.0
 70
              32
  0
VERTEX
  5
327
100
AcDbEntity
  8
一般
370
               0
390
0
  6
Continuous
 62
               1
100
AcDbVertex
100
AcDb3dPolylineVertex
 10
404.30090981441344
 20
-205.85861761282285
 30
0.0
 70
              32
  0
VERTEX
  5
328
100
AcDbEntity
  8
一般
370
               0
390
0
  6
Continuous
 62
               1
100
AcDbVertex
100
AcDb3dPolylineVertex
 10
404.30090981441344
 20
-205.80861761282267
 30
0.0
 70
              32
  0
VERTEX
  5
329
100
AcDbEntity
  8
一般
370
               0
390
0
  6
Continuous
 62
               1
100
AcDbVertex
100
AcDb3dPolylineVertex
 10
404.30090981441344
 20
-205.76861761282271
 30
0.0
 70
              32
  0
VERTEX
  5
32A
100
AcDbEntity
  8
一般
370
               0
390
0
  6
Continuous
 62
               1
100
AcDbVertex
100
AcDb3dPolylineVertex
 10
404.30090981441344
 20
-205.71861761282253
 30
0.0
 70
              32
  0
VERTEX
  5
32B
100
AcDbEntity
  8
一般
370
               0
390
0
  6
Continuous
 62
               1
100
AcDbVertex
100
AcDb3dPolylineVertex
 10
404.30090981441344
 20
-205.6686176128228
 30
0.0
 70
              32
  0
VERTEX
  5
32C
100
AcDbEntity
  8
一般
370
               0
390
0
  6
Continuous
 62
               1
100
AcDbVertex
100
AcDb3dPolylineVertex
 10
404.30090981441344
 20
-205.61861761282262
 30
0.0
 70
              32
  0
VERTEX
  5
32D
100
AcDbEntity
  8
一般
370
               0
390
0
  6
Continuous
 62
               1
100
AcDbVertex
100
AcDb3dPolylineVertex
 10
404.30090981441344
 20
-205.56861761282289
 30
0.0
 70
              32
  0
VERTEX
  5
32E
100
AcDbEntity
  8
一般
370
               0
390
0
  6
Continuous
 62
               1
100
AcDbVertex
100
AcDb3dPolylineVertex
 10
404.30090981441344
 20
-205.50861761282295
 30
0.0
 70
              32
  0
VERTEX
  5
32F
100
AcDbEntity
  8
一般
370
               0
390
0
  6
Continuous
 62
               1
100
AcDbVertex
100
AcDb3dPolylineVertex
 10
404.30090981441344
 20
-205.45861761282276
 30
0.0
 70
              32
  0
VERTEX
  5
330
100
AcDbEntity
  8
一般
370
               0
390
0
  6
Continuous
 62
               1
100
AcDbVertex
100
AcDb3dPolylineVertex
 10
404.30090981441344
 20
-205.40861761282258
 30
0.0
 70
              32
  0
VERTEX
  5
331
100
AcDbEntity
  8
一般
370
               0
390
0
  6
Continuous
 62
               1
100
AcDbVertex
100
AcDb3dPolylineVertex
 10
404.30090981441344
 20
-205.35861761282285
 30
0.0
 70
              32
  0
VERTEX
  5
332
100
AcDbEntity
  8
一般
370
               0
390
0
  6
Continuous
 62
               1
100
AcDbVertex
100
AcDb3dPolylineVertex
 10
404.30090981441344
 20
-205.30861761282267
 30
0.0
 70
              32
  0
VERTEX
  5
333
100
AcDbEntity
  8
一般
370
               0
390
0
  6
Continuous
 62
               1
100
AcDbVertex
100
AcDb3dPolylineVertex
 10
404.30090981441344
 20
-205.25861761282295
 30
0.0
 70
              32
  0
VERTEX
  5
334
100
AcDbEntity
  8
一般
370
               0
390
0
  6
Continuous
 62
               1
100
AcDbVertex
100
AcDb3dPolylineVertex
 10
404.30090981441344
 20
-205.19861761282255
 30
0.0
 70
              32
  0
VERTEX
  5
335
100
AcDbEntity
  8
一般
370
               0
390
0
  6
Continuous
 62
               1
100
AcDbVertex
100
AcDb3dPolylineVertex
 10
404.30090981441344
 20
-205.14861761282282
 30
0.0
 70
              32
  0
VERTEX
  5
336
100
AcDbEntity
  8
一般
370
               0
390
0
  6
Continuous
 62
               1
100
AcDbVertex
100
AcDb3dPolylineVertex
 10
404.30090981441344
 20
-205.09861761282264
 30
0.0
 70
              32
  0
VERTEX
  5
337
100
AcDbEntity
  8
一般
370
               0
390
0
  6
Continuous
 62
               1
100
AcDbVertex
100
AcDb3dPolylineVertex
 10
404.30090981441344
 20
-205.04861761282291
 30
0.0
 70
              32
  0
VERTEX
  5
338
100
AcDbEntity
  8
一般
370
               0
390
0
  6
Continuous
 62
               1
100
AcDbVertex
100
AcDb3dPolylineVertex
 10
404.30090981441344
 20
-204.98861761282251
 30
0.0
 70
              32
  0
VERTEX
  5
339
100
AcDbEntity
  8
一般
370
               0
390
0
  6
Continuous
 62
               1
100
AcDbVertex
100
AcDb3dPolylineVertex
 10
404.30090981441344
 20
-204.93861761282278
 30
0.0
 70
              32
  0
VERTEX
  5
33A
100
AcDbEntity
  8
一般
370
               0
390
0
  6
Continuous
 62
               1
100
AcDbVertex
100
AcDb3dPolylineVertex
 10
404.30090981441344
 20
-204.8886176128226
 30
0.0
 70
              32
  0
VERTEX
  5
33B
100
AcDbEntity
  8
一般
370
               0
390
0
  6
Continuous
 62
               1
100
AcDbVertex
100
AcDb3dPolylineVertex
 10
404.30090981441344
 20
-204.82861761282265
 30
0.0
 70
              32
  0
VERTEX
  5
33C
100
AcDbEntity
  8
一般
370
               0
390
0
  6
Continuous
 62
               1
100
AcDbVertex
100
AcDb3dPolylineVertex
 10
404.30090981441344
 20
-204.77861761282293
 30
0.0
 70
              32
  0
VERTEX
  5
33D
100
AcDbEntity
  8
一般
370
               0
390
0
  6
Continuous
 62
               1
100
AcDbVertex
100
AcDb3dPolylineVertex
 10
404.30090981441344
 20
-204.71861761282253
 30
0.0
 70
              32
  0
VERTEX
  5
33E
100
AcDbEntity
  8
一般
370
               0
390
0
  6
Continuous
 62
               1
100
AcDbVertex
100
AcDb3dPolylineVertex
 10
404.30090981441344
 20
-204.6686176128228
 30
0.0
 70
              32
  0
VERTEX
  5
33F
100
AcDbEntity
  8
一般
370
               0
390
0
  6
Continuous
 62
               1
100
AcDbVertex
100
AcDb3dPolylineVertex
 10
404.30090981441344
 20
-204.60861761282285
 30
0.0
 70
              32
  0
VERTEX
  5
340
100
AcDbEntity
  8
一般
370
               0
390
0
  6
Continuous
 62
               1
100
AcDbVertex
100
AcDb3dPolylineVertex
 10
404.30090981441344
 20
-204.55861761282267
 30
0.0
 70
              32
  0
VERTEX
  5
341
100
AcDbEntity
  8
一般
370
               0
390
0
  6
Continuous
 62
               1
100
AcDbVertex
100
AcDb3dPolylineVertex
 10
404.30090981441344
 20
-204.49861761282273
 30
0.0
 70
              32
  0
VERTEX
  5
342
100
AcDbEntity
  8
一般
370
               0
390
0
  6
Continuous
 62
               1
100
AcDbVertex
100
AcDb3dPolylineVertex
 10
404.30090981441344
 20
-204.44861761282255
 30
0.0
 70
              32
  0
VERTEX
  5
343
100
AcDbEntity
  8
一般
370
               0
390
0
  6
Continuous
 62
               1
100
AcDbVertex
100
AcDb3dPolylineVertex
 10
404.30090981441344
 20
-204.3886176128226
 30
0.0
 70
              32
  0
VERTEX
  5
344
100
AcDbEntity
  8
一般
370
               0
390
0
  6
Continuous
 62
               1
100
AcDbVertex
100
AcDb3dPolylineVertex
 10
404.30090981441344
 20
-204.33861761282287
 30
0.0
 70
              32
  0
VERTEX
  5
345
100
AcDbEntity
  8
一般
370
               0
390
0
  6
Continuous
 62
               1
100
AcDbVertex
100
AcDb3dPolylineVertex
 10
404.30090981441344
 20
-204.27861761282293
 30
0.0
 70
              32
  0
VERTEX
  5
346
100
AcDbEntity
  8
一般
370
               0
390
0
  6
Continuous
 62
               1
100
AcDbVertex
100
AcDb3dPolylineVertex
 10
404.30090981441344
 20
-204.21861761282253
 30
0.0
 70
              32
  0
VERTEX
  5
347
100
AcDbEntity
  8
一般
370
               0
390
0
  6
Continuous
 62
               1
100
AcDbVertex
100
AcDb3dPolylineVertex
 10
404.30090981441344
 20
-204.1686176128228
 30
0.0
 70
              32
  0
VERTEX
  5
348
100
AcDbEntity
  8
一般
370
               0
390
0
  6
Continuous
 62
               1
100
AcDbVertex
100
AcDb3dPolylineVertex
 10
404.30090981441344
 20
-204.10861761282285
 30
0.0
 70
              32
  0
VERTEX
  5
349
100
AcDbEntity
  8
一般
370
               0
390
0
  6
Continuous
 62
               1
100
AcDbVertex
100
AcDb3dPolylineVertex
 10
404.30090981441344
 20
-204.04861761282291
 30
0.0
 70
              32
  0
VERTEX
  5
34A
100
AcDbEntity
  8
一般
370
               0
390
0
  6
Continuous
 62
               1
100
AcDbVertex
100
AcDb3dPolylineVertex
 10
404.30090981441344
 20
-203.99861761282273
 30
0.0
 70
              32
  0
VERTEX
  5
34B
100
AcDbEntity
  8
一般
370
               0
390
0
  6
Continuous
 62
               1
100
AcDbVertex
100
AcDb3dPolylineVertex
 10
404.30090981441344
 20
-203.93861761282278
 30
0.0
 70
              32
  0
VERTEX
  5
34C
100
AcDbEntity
  8
一般
370
               0
390
0
  6
Continuous
 62
               1
100
AcDbVertex
100
AcDb3dPolylineVertex
 10
404.30090981441344
 20
-203.87861761282284
 30
0.0
 70
              32
  0
VERTEX
  5
34D
100
AcDbEntity
  8
一般
370
               0
390
0
  6
Continuous
 62
               1
100
AcDbVertex
100
AcDb3dPolylineVertex
 10
404.30090981441344
 20
-203.82861761282265
 30
0.0
 70
              32
  0
VERTEX
  5
34E
100
AcDbEntity
  8
一般
370
               0
390
0
  6
Continuous
 62
               1
100
AcDbVertex
100
AcDb3dPolylineVertex
 10
404.30090981441344
 20
-203.76861761282271
 30
0.0
 70
              32
  0
VERTEX
  5
34F
100
AcDbEntity
  8
一般
370
               0
390
0
  6
Continuous
 62
               1
100
AcDbVertex
100
AcDb3dPolylineVertex
 10
404.30090981441344
 20
-203.70861761282276
 30
0.0
 70
              32
  0
VERTEX
  5
350
100
AcDbEntity
  8
一般
370
               0
390
0
  6
Continuous
 62
               1
100
AcDbVertex
100
AcDb3dPolylineVertex
 10
404.30090981441344
 20
-203.64861761282282
 30
0.0
 70
              32
  0
VERTEX
  5
351
100
AcDbEntity
  8
一般
370
               0
390
0
  6
Continuous
 62
               1
100
AcDbVertex
100
AcDb3dPolylineVertex
 10
404.30090981441344
 20
-203.58861761282287
 30
0.0
 70
              32
  0
VERTEX
  5
352
100
AcDbEntity
  8
一般
370
               0
390
0
  6
Continuous
 62
               1
100
AcDbVertex
100
AcDb3dPolylineVertex
 10
404.30090981441344
 20
-203.53861761282269
 30
0.0
 70
              32
  0
VERTEX
  5
353
100
AcDbEntity
  8
一般
370
               0
390
0
  6
Continuous
 62
               1
100
AcDbVertex
100
AcDb3dPolylineVertex
 10
404.30090981441344
 20
-203.47861761282275
 30
0.0
 70
              32
  0
VERTEX
  5
354
100
AcDbEntity
  8
一般
370
               0
390
0
  6
Continuous
 62
               1
100
AcDbVertex
100
AcDb3dPolylineVertex
 10
404.30090981441344
 20
-203.4186176128228
 30
0.0
 70
              32
  0
VERTEX
  5
355
100
AcDbEntity
  8
一般
370
               0
390
0
  6
Continuous
 62
               1
100
AcDbVertex
100
AcDb3dPolylineVertex
 10
404.30090981441344
 20
-203.35861761282297
 30
0.0
 70
              32
  0
VERTEX
  5
356
100
AcDbEntity
  8
一般
370
               0
390
0
  6
Continuous
 62
               1
100
AcDbVertex
100
AcDb3dPolylineVertex
 10
404.30090981441344
 20
-203.29861761282302
 30
0.0
 70
              32
  0
VERTEX
  5
357
100
AcDbEntity
  8
一般
370
               0
390
0
  6
Continuous
 62
               1
100
AcDbVertex
100
AcDb3dPolylineVertex
 10
404.30090981441344
 20
-203.23861761282262
 30
0.0
 70
              32
  0
VERTEX
  5
358
100
AcDbEntity
  8
一般
370
               0
390
0
  6
Continuous
 62
               1
100
AcDbVertex
100
AcDb3dPolylineVertex
 10
404.30090981441344
 20
-203.17861761282268
 30
0.0
 70
              32
  0
VERTEX
  5
359
100
AcDbEntity
  8
一般
370
               0
390
0
  6
Continuous
 62
               1
100
AcDbVertex
100
AcDb3dPolylineVertex
 10
404.30090981441344
 20
-203.12861761282295
 30
0.0
 70
              32
  0
VERTEX
  5
35A
100
AcDbEntity
  8
一般
370
               0
390
0
  6
Continuous
 62
               1
100
AcDbVertex
100
AcDb3dPolylineVertex
 10
404.30090981441344
 20
-203.068617612823
 30
0.0
 70
              32
  0
VERTEX
  5
35B
100
AcDbEntity
  8
一般
370
               0
390
0
  6
Continuous
 62
               1
100
AcDbVertex
100
AcDb3dPolylineVertex
 10
404.30090981441344
 20
-203.00861761282306
 30
0.0
 70
              32
  0
VERTEX
  5
35C
100
AcDbEntity
  8
一般
370
               0
390
0
  6
Continuous
 62
               1
100
AcDbVertex
100
AcDb3dPolylineVertex
 10
404.30090981441344
 20
-202.94861761282266
 30
0.0
 70
              32
  0
VERTEX
  5
35D
100
AcDbEntity
  8
一般
370
               0
390
0
  6
Continuous
 62
               1
100
AcDbVertex
100
AcDb3dPolylineVertex
 10
404.30090981441344
 20
-202.88861761282271
 30
0.0
 70
              32
  0
VERTEX
  5
35E
100
AcDbEntity
  8
一般
370
               0
390
0
  6
Continuous
 62
               1
100
AcDbVertex
100
AcDb3dPolylineVertex
 10
404.30090981441344
 20
-202.82861761282277
 30
0.0
 70
              32
  0
VERTEX
  5
35F
100
AcDbEntity
  8
一般
370
               0
390
0
  6
Continuous
 62
               1
100
AcDbVertex
100
AcDb3dPolylineVertex
 10
404.30090981441344
 20
-202.76861761282282
 30
0.0
 70
              32
  0
VERTEX
  5
360
100
AcDbEntity
  8
一般
370
               0
390
0
  6
Continuous
 62
               1
100
AcDbVertex
100
AcDb3dPolylineVertex
 10
404.30090981441344
 20
-202.70861761282288
 30
0.0
 70
              32
  0
VERTEX
  5
361
100
AcDbEntity
  8
一般
370
               0
390
0
  6
Continuous
 62
               1
100
AcDbVertex
100
AcDb3dPolylineVertex
 10
404.30090981441344
 20
-202.64861761282293
 30
0.0
 70
              32
  0
VERTEX
  5
362
100
AcDbEntity
  8
一般
370
               0
390
0
  6
Continuous
 62
               1
100
AcDbVertex
100
AcDb3dPolylineVertex
 10
404.30090981441344
 20
-202.58861761282299
 30
0.0
 70
              32
  0
VERTEX
  5
363
100
AcDbEntity
  8
一般
370
               0
390
0
  6
Continuous
 62
               1
100
AcDbVertex
100
AcDb3dPolylineVertex
 10
404.30090981441344
 20
-202.52861761282304
 30
0.0
 70
              32
  0
VERTEX
  5
364
100
AcDbEntity
  8
一般
370
               0
390
0
  6
Continuous
 62
               1
100
AcDbVertex
100
AcDb3dPolylineVertex
 10
404.30090981441344
 20
-202.46861761282264
 30
0.0
 70
              32
  0
VERTEX
  5
365
100
AcDbEntity
  8
一般
370
               0
390
0
  6
Continuous
 62
               1
100
AcDbVertex
100
AcDb3dPolylineVertex
 10
404.30090981441344
 20
-202.4086176128227
 30
0.0
 70
              32
  0
VERTEX
  5
366
100
AcDbEntity
  8
一般
370
               0
390
0
  6
Continuous
 62
               1
100
AcDbVertex
100
AcDb3dPolylineVertex
 10
404.30090981441344
 20
-202.34861761282275
 30
0.0
 70
              32
  0
VERTEX
  5
367
100
AcDbEntity
  8
一般
370
               0
390
0
  6
Continuous
 62
               1
100
AcDbVertex
100
AcDb3dPolylineVertex
 10
404.30090981441344
 20
-202.2886176128228
 30
0.0
 70
              32
  0
VERTEX
  5
368
100
AcDbEntity
  8
一般
370
               0
390
0
  6
Continuous
 62
               1
100
AcDbVertex
100
AcDb3dPolylineVertex
 10
404.30090981441344
 20
-202.22861761282286
 30
0.0
 70
              32
  0
VERTEX
  5
369
100
AcDbEntity
  8
一般
370
               0
390
0
  6
Continuous
 62
               1
100
AcDbVertex
100
AcDb3dPolylineVertex
 10
404.30090981441344
 20
-202.16861761282291
 30
0.0
 70
              32
  0
VERTEX
  5
36A
100
AcDbEntity
  8
一般
370
               0
390
0
  6
Continuous
 62
               1
100
AcDbVertex
100
AcDb3dPolylineVertex
 10
404.30090981441344
 20
-202.10861761282297
 30
0.0
 70
              32
  0
VERTEX
  5
36B
100
AcDbEntity
  8
一般
370
               0
390
0
  6
Continuous
 62
               1
100
AcDbVertex
100
AcDb3dPolylineVertex
 10
404.30090981441344
 20
-202.04861761282302
 30
0.0
 70
              32
  0
VERTEX
  5
36C
100
AcDbEntity
  8
一般
370
               0
390
0
  6
Continuous
 62
               1
100
AcDbVertex
100
AcDb3dPolylineVertex
 10
404.30090981441344
 20
-201.99861761282284
 30
0.0
 70
              32
  0
VERTEX
  5
36D
100
AcDbEntity
  8
一般
370
               0
390
0
  6
Continuous
 62
               1
100
AcDbVertex
100
AcDb3dPolylineVertex
 10
404.30090981441344
 20
-201.9386176128229
 30
0.0
 70
              32
  0
VERTEX
  5
36E
100
AcDbEntity
  8
一般
370
               0
390
0
  6
Continuous
 62
               1
100
AcDbVertex
100
AcDb3dPolylineVertex
 10
404.30090981441344
 20
-201.87861761282295
 30
0.0
 70
              32
  0
VERTEX
  5
36F
100
AcDbEntity
  8
一般
370
               0
390
0
  6
Continuous
 62
               1
100
AcDbVertex
100
AcDb3dPolylineVertex
 10
404.30090981441344
 20
-201.818617612823
 30
0.0
 70
              32
  0
VERTEX
  5
370
100
AcDbEntity
  8
一般
370
               0
390
0
  6
Continuous
 62
               1
100
AcDbVertex
100
AcDb3dPolylineVertex
 10
404.30090981441344
 20
-201.75861761282306
 30
0.0
 70
              32
  0
VERTEX
  5
371
100
AcDbEntity
  8
一般
370
               0
390
0
  6
Continuous
 62
               1
100
AcDbVertex
100
AcDb3dPolylineVertex
 10
404.30090981441344
 20
-201.69861761282266
 30
0.0
 70
              32
  0
VERTEX
  5
372
100
AcDbEntity
  8
一般
370
               0
390
0
  6
Continuous
 62
               1
100
AcDbVertex
100
AcDb3dPolylineVertex
 10
404.30090981441344
 20
-201.63861761282271
 30
0.0
 70
              32
  0
VERTEX
  5
373
100
AcDbEntity
  8
一般
370
               0
390
0
  6
Continuous
 62
               1
100
AcDbVertex
100
AcDb3dPolylineVertex
 10
404.30090981441344
 20
-201.57861761282277
 30
0.0
 70
              32
  0
VERTEX
  5
374
100
AcDbEntity
  8
一般
370
               0
390
0
  6
Continuous
 62
               1
100
AcDbVertex
100
AcDb3dPolylineVertex
 10
404.30090981441344
 20
-201.52861761282304
 30
0.0
 70
              32
  0
VERTEX
  5
375
100
AcDbEntity
  8
一般
370
               0
390
0
  6
Continuous
 62
               1
100
AcDbVertex
100
AcDb3dPolylineVertex
 10
404.30090981441344
 20
-201.46861761282264
 30
0.0
 70
              32
  0
VERTEX
  5
376
100
AcDbEntity
  8
一般
370
               0
390
0
  6
Continuous
 62
               1
100
AcDbVertex
100
AcDb3dPolylineVertex
 10
404.30090981441344
 20
-201.4086176128227
 30
0.0
 70
              32
  0
VERTEX
  5
377
100
AcDbEntity
  8
一般
370
               0
390
0
  6
Continuous
 62
               1
100
AcDbVertex
100
AcDb3dPolylineVertex
 10
404.30090981441344
 20
-201.34861761282275
 30
0.0
 70
              32
  0
VERTEX
  5
378
100
AcDbEntity
  8
一般
370
               0
390
0
  6
Continuous
 62
               1
100
AcDbVertex
100
AcDb3dPolylineVertex
 10
404.30090981441344
 20
-201.2886176128228
 30
0.0
 70
              32
  0
VERTEX
  5
379
100
AcDbEntity
  8
一般
370
               0
390
0
  6
Continuous
 62
               1
100
AcDbVertex
100
AcDb3dPolylineVertex
 10
404.30090981441344
 20
-201.23861761282262
 30
0.0
 70
              32
  0
VERTEX
  5
37A
100
AcDbEntity
  8
一般
370
               0
390
0
  6
Continuous
 62
               1
100
AcDbVertex
100
AcDb3dPolylineVertex
 10
404.30090981441344
 20
-201.17861761282268
 30
0.0
 70
              32
  0
VERTEX
  5
37B
100
AcDbEntity
  8
一般
370
               0
390
0
  6
Continuous
 62
               1
100
AcDbVertex
100
AcDb3dPolylineVertex
 10
404.30090981441344
 20
-201.11861761282273
 30
0.0
 70
              32
  0
VERTEX
  5
37C
100
AcDbEntity
  8
一般
370
               0
390
0
  6
Continuous
 62
               1
100
AcDbVertex
100
AcDb3dPolylineVertex
 10
404.30090981441344
 20
-201.05861761282279
 30
0.0
 70
              32
  0
VERTEX
  5
37D
100
AcDbEntity
  8
一般
370
               0
390
0
  6
Continuous
 62
               1
100
AcDbVertex
100
AcDb3dPolylineVertex
 10
404.30090981441344
 20
-201.00861761282306
 30
0.0
 70
              32
  0
VERTEX
  5
37E
100
AcDbEntity
  8
一般
370
               0
390
0
  6
Continuous
 62
               1
100
AcDbVertex
100
AcDb3dPolylineVertex
 10
404.30090981441344
 20
-200.94861761282266
 30
0.0
 70
              32
  0
VERTEX
  5
37F
100
AcDbEntity
  8
一般
370
               0
390
0
  6
Continuous
 62
               1
100
AcDbVertex
100
AcDb3dPolylineVertex
 10
404.30090981441344
 20
-200.88861761282271
 30
0.0
 70
              32
  0
VERTEX
  5
380
100
AcDbEntity
  8
一般
370
               0
390
0
  6
Continuous
 62
               1
100
AcDbVertex
100
AcDb3dPolylineVertex
 10
404.30090981441344
 20
-200.83861761282299
 30
0.0
 70
              32
  0
VERTEX
  5
381
100
AcDbEntity
  8
一般
370
               0
390
0
  6
Continuous
 62
               1
100
AcDbVertex
100
AcDb3dPolylineVertex
 10
404.30090981441344
 20
-200.77861761282304
 30
0.0
 70
              32
  0
VERTEX
  5
382
100
AcDbEntity
  8
一般
370
               0
390
0
  6
Continuous
 62
               1
100
AcDbVertex
100
AcDb3dPolylineVertex
 10
404.30090981441344
 20
-200.71861761282264
 30
0.0
 70
              32
  0
VERTEX
  5
383
100
AcDbEntity
  8
一般
370
               0
390
0
  6
Continuous
 62
               1
100
AcDbVertex
100
AcDb3dPolylineVertex
 10
404.30090981441344
 20
-200.66861761282291
 30
0.0
 70
              32
  0
VERTEX
  5
384
100
AcDbEntity
  8
一般
370
               0
390
0
  6
Continuous
 62
               1
100
AcDbVertex
100
AcDb3dPolylineVertex
 10
404.30090981441344
 20
-200.60861761282297
 30
0.0
 70
              32
  0
VERTEX
  5
385
100
AcDbEntity
  8
一般
370
               0
390
0
  6
Continuous
 62
               1
100
AcDbVertex
100
AcDb3dPolylineVertex
 10
404.30090981441344
 20
-200.55861761282279
 30
0.0
 70
              32
  0
VERTEX
  5
386
100
AcDbEntity
  8
一般
370
               0
390
0
  6
Continuous
 62
               1
100
AcDbVertex
100
AcDb3dPolylineVertex
 10
404.30090981441344
 20
-200.49861761282284
 30
0.0
 70
              32
  0
VERTEX
  5
387
100
AcDbEntity
  8
一般
370
               0
390
0
  6
Continuous
 62
               1
100
AcDbVertex
100
AcDb3dPolylineVertex
 10
404.30090981441344
 20
-200.4386176128229
 30
0.0
 70
              32
  0
VERTEX
  5
388
100
AcDbEntity
  8
一般
370
               0
390
0
  6
Continuous
 62
               1
100
AcDbVertex
100
AcDb3dPolylineVertex
 10
404.30090981441344
 20
-200.38861761282271
 30
0.0
 70
              32
  0
VERTEX
  5
389
100
AcDbEntity
  8
一般
370
               0
390
0
  6
Continuous
 62
               1
100
AcDbVertex
100
AcDb3dPolylineVertex
 10
404.30090981441344
 20
-200.32861761282277
 30
0.0
 70
              32
  0
VERTEX
  5
38A
100
AcDbEntity
  8
一般
370
               0
390
0
  6
Continuous
 62
               1
100
AcDbVertex
100
AcDb3dPolylineVertex
 10
404.30090981441344
 20
-200.27861761282304
 30
0.0
 70
              32
  0
VERTEX
  5
38B
100
AcDbEntity
  8
一般
370
               0
390
0
  6
Continuous
 62
               1
100
AcDbVertex
100
AcDb3dPolylineVertex
 10
404.30090981441344
 20
-200.22861761282286
 30
0.0
 70
              32
  0
VERTEX
  5
38C
100
AcDbEntity
  8
一般
370
               0
390
0
  6
Continuous
 62
               1
100
AcDbVertex
100
AcDb3dPolylineVertex
 10
404.30090981441344
 20
-200.16861761282291
 30
0.0
 70
              32
  0
VERTEX
  5
38D
100
AcDbEntity
  8
一般
370
               0
390
0
  6
Continuous
 62
               1
100
AcDbVertex
100
AcDb3dPolylineVertex
 10
404.30090981441344
 20
-200.11861761282273
 30
0.0
 70
              32
  0
VERTEX
  5
38E
100
AcDbEntity
  8
一般
370
               0
390
0
  6
Continuous
 62
               1
100
AcDbVertex
100
AcDb3dPolylineVertex
 10
404.30090981441344
 20
-200.05861761282279
 30
0.0
 70
              32
  0
VERTEX
  5
38F
100
AcDbEntity
  8
一般
370
               0
390
0
  6
Continuous
 62
               1
100
AcDbVertex
100
AcDb3dPolylineVertex
 10
404.30090981441344
 20
-200.00861761282306
 30
0.0
 70
              32
  0
VERTEX
  5
390
100
AcDbEntity
  8
一般
370
               0
390
0
  6
Continuous
 62
               1
100
AcDbVertex
100
AcDb3dPolylineVertex
 10
404.30090981441344
 20
-199.95861761282288
 30
0.0
 70
              32
  0
VERTEX
  5
391
100
AcDbEntity
  8
一般
370
               0
390
0
  6
Continuous
 62
               1
100
AcDbVertex
100
AcDb3dPolylineVertex
 10
404.30090981441344
 20
-199.89861761282293
 30
0.0
 70
              32
  0
VERTEX
  5
392
100
AcDbEntity
  8
一般
370
               0
390
0
  6
Continuous
 62
               1
100
AcDbVertex
100
AcDb3dPolylineVertex
 10
404.30090981441344
 20
-199.84861761282275
 30
0.0
 70
              32
  0
VERTEX
  5
393
100
AcDbEntity
  8
一般
370
               0
390
0
  6
Continuous
 62
               1
100
AcDbVertex
100
AcDb3dPolylineVertex
 10
404.30090981441344
 20
-199.79861761282302
 30
0.0
 70
              32
  0
VERTEX
  5
394
100
AcDbEntity
  8
一般
370
               0
390
0
  6
Continuous
 62
               1
100
AcDbVertex
100
AcDb3dPolylineVertex
 10
404.30090981441344
 20
-199.74861761282284
 30
0.0
 70
              32
  0
VERTEX
  5
395
100
AcDbEntity
  8
一般
370
               0
390
0
  6
Continuous
 62
               1
100
AcDbVertex
100
AcDb3dPolylineVertex
 10
404.30090981441344
 20
-199.6886176128229
 30
0.0
 70
              32
  0
VERTEX
  5
396
100
AcDbEntity
  8
一般
370
               0
390
0
  6
Continuous
 62
               1
100
AcDbVertex
100
AcDb3dPolylineVertex
 10
404.30090981441344
 20
-199.63861761282271
 30
0.0
 70
              32
  0
VERTEX
  5
397
100
AcDbEntity
  8
一般
370
               0
390
0
  6
Continuous
 62
               1
100
AcDbVertex
100
AcDb3dPolylineVertex
 10
404.30090981441344
 20
-199.58861761282299
 30
0.0
 70
              32
  0
VERTEX
  5
398
100
AcDbEntity
  8
一般
370
               0
390
0
  6
Continuous
 62
               1
100
AcDbVertex
100
AcDb3dPolylineVertex
 10
404.30090981441344
 20
-199.5386176128228
 30
0.0
 70
              32
  0
VERTEX
  5
399
100
AcDbEntity
  8
一般
370
               0
390
0
  6
Continuous
 62
               1
100
AcDbVertex
100
AcDb3dPolylineVertex
 10
404.30090981441344
 20
-199.48861761282262
 30
0.0
 70
              32
  0
VERTEX
  5
39A
100
AcDbEntity
  8
一般
370
               0
390
0
  6
Continuous
 62
               1
100
AcDbVertex
100
AcDb3dPolylineVertex
 10
404.30090981441344
 20
-199.4386176128229
 30
0.0
 70
              32
  0
VERTEX
  5
39B
100
AcDbEntity
  8
一般
370
               0
390
0
  6
Continuous
 62
               1
100
AcDbVertex
100
AcDb3dPolylineVertex
 10
404.30090981441344
 20
-199.38861761282271
 30
0.0
 70
              32
  0
VERTEX
  5
39C
100
AcDbEntity
  8
一般
370
               0
390
0
  6
Continuous
 62
               1
100
AcDbVertex
100
AcDb3dPolylineVertex
 10
404.30090981441344
 20
-199.33861761282299
 30
0.0
 70
              32
  0
VERTEX
  5
39D
100
AcDbEntity
  8
一般
370
               0
390
0
  6
Continuous
 62
               1
100
AcDbVertex
100
AcDb3dPolylineVertex
 10
404.30090981441344
 20
-199.2886176128228
 30
0.0
 70
              32
  0
VERTEX
  5
39E
100
AcDbEntity
  8
一般
370
               0
390
0
  6
Continuous
 62
               1
100
AcDbVertex
100
AcDb3dPolylineVertex
 10
404.30090981441344
 20
-199.23861761282262
 30
0.0
 70
              32
  0
VERTEX
  5
39F
100
AcDbEntity
  8
一般
370
               0
390
0
  6
Continuous
 62
               1
100
AcDbVertex
100
AcDb3dPolylineVertex
 10
404.30090981441344
 20
-199.1886176128229
 30
0.0
 70
              32
  0
VERTEX
  5
3A0
100
AcDbEntity
  8
一般
370
               0
390
0
  6
Continuous
 62
               1
100
AcDbVertex
100
AcDb3dPolylineVertex
 10
404.30090981441344
 20
-199.13861761282271
 30
0.0
 70
              32
  0
VERTEX
  5
3A1
100
AcDbEntity
  8
一般
370
               0
390
0
  6
Continuous
 62
               1
100
AcDbVertex
100
AcDb3dPolylineVertex
 10
404.30090981441344
 20
-199.08861761282299
 30
0.0
 70
              32
  0
VERTEX
  5
3A2
100
AcDbEntity
  8
一般
370
               0
390
0
  6
Continuous
 62
               1
100
AcDbVertex
100
AcDb3dPolylineVertex
 10
404.30090981441344
 20
-199.0386176128228
 30
0.0
 70
              32
  0
VERTEX
  5
3A3
100
AcDbEntity
  8
一般
370
               0
390
0
  6
Continuous
 62
               1
100
AcDbVertex
100
AcDb3dPolylineVertex
 10
404.30090981441344
 20
-198.98861761282262
 30
0.0
 70
              32
  0
VERTEX
  5
3A4
100
AcDbEntity
  8
一般
370
               0
390
0
  6
Continuous
 62
               1
100
AcDbVertex
100
AcDb3dPolylineVertex
 10
404.30090981441344
 20
-198.94861761282266
 30
0.0
 70
              32
  0
VERTEX
  5
3A5
100
AcDbEntity
  8
一般
370
               0
390
0
  6
Continuous
 62
               1
100
AcDbVertex
100
AcDb3dPolylineVertex
 10
404.30090981441344
 20
-198.89861761282293
 30
0.0
 70
              32
  0
VERTEX
  5
3A6
100
AcDbEntity
  8
一般
370
               0
390
0
  6
Continuous
 62
               1
100
AcDbVertex
100
AcDb3dPolylineVertex
 10
404.30090981441344
 20
-198.84861761282275
 30
0.0
 70
              32
  0
VERTEX
  5
3A7
100
AcDbEntity
  8
一般
370
               0
390
0
  6
Continuous
 62
               1
100
AcDbVertex
100
AcDb3dPolylineVertex
 10
404.30090981441344
 20
-198.79861761282302
 30
0.0
 70
              32
  0
VERTEX
  5
3A8
100
AcDbEntity
  8
一般
370
               0
390
0
  6
Continuous
 62
               1
100
AcDbVertex
100
AcDb3dPolylineVertex
 10
404.30090981441344
 20
-198.75861761282306
 30
0.0
 70
              32
  0
VERTEX
  5
3A9
100
AcDbEntity
  8
一般
370
               0
390
0
  6
Continuous
 62
               1
100
AcDbVertex
100
AcDb3dPolylineVertex
 10
404.30090981441344
 20
-198.70861761282288
 30
0.0
 70
              32
  0
VERTEX
  5
3AA
100
AcDbEntity
  8
一般
370
               0
390
0
  6
Continuous
 62
               1
100
AcDbVertex
100
AcDb3dPolylineVertex
 10
404.30090981441344
 20
-198.66861761282291
 30
0.0
 70
              32
  0
VERTEX
  5
3AB
100
AcDbEntity
  8
一般
370
               0
390
0
  6
Continuous
 62
               1
100
AcDbVertex
100
AcDb3dPolylineVertex
 10
404.30090981441344
 20
-198.61861761282273
 30
0.0
 70
              32
  0
VERTEX
  5
3AC
100
AcDbEntity
  8
一般
370
               0
390
0
  6
Continuous
 62
               1
100
AcDbVertex
100
AcDb3dPolylineVertex
 10
404.30090981441344
 20
-198.57861761282277
 30
0.0
 70
              32
  0
VERTEX
  5
3AD
100
AcDbEntity
  8
一般
370
               0
390
0
  6
Continuous
 62
               1
100
AcDbVertex
100
AcDb3dPolylineVertex
 10
404.30090981441344
 20
-198.52861761282304
 30
0.0
 70
              32
  0
VERTEX
  5
3AE
100
AcDbEntity
  8
一般
370
               0
390
0
  6
Continuous
 62
               1
100
AcDbVertex
100
AcDb3dPolylineVertex
 10
404.30090981441344
 20
-198.48861761282262
 30
0.0
 70
              32
  0
VERTEX
  5
3AF
100
AcDbEntity
  8
一般
370
               0
390
0
  6
Continuous
 62
               1
100
AcDbVertex
100
AcDb3dPolylineVertex
 10
404.30090981441344
 20
-198.4386176128229
 30
0.0
 70
              32
  0
VERTEX
  5
3B0
100
AcDbEntity
  8
一般
370
               0
390
0
  6
Continuous
 62
               1
100
AcDbVertex
100
AcDb3dPolylineVertex
 10
404.30090981441344
 20
-198.39861761282293
 30
0.0
 70
              32
  0
VERTEX
  5
3B1
100
AcDbEntity
  8
一般
370
               0
390
0
  6
Continuous
 62
               1
100
AcDbVertex
100
AcDb3dPolylineVertex
 10
404.30090981441344
 20
-198.34861761282275
 30
0.0
 70
              32
  0
VERTEX
  5
3B2
100
AcDbEntity
  8
一般
370
               0
390
0
  6
Continuous
 62
               1
100
AcDbVertex
100
AcDb3dPolylineVertex
 10
404.30090981441344
 20
-198.30861761282279
 30
0.0
 70
              32
  0
VERTEX
  5
3B3
100
AcDbEntity
  8
一般
370
               0
390
0
  6
Continuous
 62
               1
100
AcDbVertex
100
AcDb3dPolylineVertex
 10
404.30090981441344
 20
-198.26861761282282
 30
0.0
 70
              32
  0
VERTEX
  5
3B4
100
AcDbEntity
  8
一般
370
               0
390
0
  6
Continuous
 62
               1
100
AcDbVertex
100
AcDb3dPolylineVertex
 10
404.30090981441344
 20
-198.22861761282286
 30
0.0
 70
              32
  0
VERTEX
  5
3B5
100
AcDbEntity
  8
一般
370
               0
390
0
  6
Continuous
 62
               1
100
AcDbVertex
100
AcDb3dPolylineVertex
 10
404.30090981441344
 20
-198.1886176128229
 30
0.0
 70
              32
  0
VERTEX
  5
3B6
100
AcDbEntity
  8
一般
370
               0
390
0
  6
Continuous
 62
               1
100
AcDbVertex
100
AcDb3dPolylineVertex
 10
404.30090981441344
 20
-198.13861761282271
 30
0.0
 70
              32
  0
VERTEX
  5
3B7
100
AcDbEntity
  8
一般
370
               0
390
0
  6
Continuous
 62
               1
100
AcDbVertex
100
AcDb3dPolylineVertex
 10
404.30090981441344
 20
-198.09861761282275
 30
0.0
 70
              32
  0
VERTEX
  5
3B8
100
AcDbEntity
  8
一般
370
               0
390
0
  6
Continuous
 62
               1
100
AcDbVertex
100
AcDb3dPolylineVertex
 10
404.30090981441344
 20
-198.05861761282279
 30
0.0
 70
              32
  0
VERTEX
  5
3B9
100
AcDbEntity
  8
一般
370
               0
390
0
  6
Continuous
 62
               1
100
AcDbVertex
100
AcDb3dPolylineVertex
 10
404.30090981441344
 20
-198.01861761282282
 30
0.0
 70
              32
  0
VERTEX
  5
3BA
100
AcDbEntity
  8
一般
370
               0
390
0
  6
Continuous
 62
               1
100
AcDbVertex
100
AcDb3dPolylineVertex
 10
404.30090981441344
 20
-197.97861761282286
 30
0.0
 70
              32
  0
VERTEX
  5
3BB
100
AcDbEntity
  8
一般
370
               0
390
0
  6
Continuous
 62
               1
100
AcDbVertex
100
AcDb3dPolylineVertex
 10
404.30090981441344
 20
-197.9386176128229
 30
0.0
 70
              32
  0
VERTEX
  5
3BC
100
AcDbEntity
  8
一般
370
               0
390
0
  6
Continuous
 62
               1
100
AcDbVertex
100
AcDb3dPolylineVertex
 10
404.30090981441344
 20
-197.9086176128227
 30
0.0
 70
              32
  0
VERTEX
  5
3BD
100
AcDbEntity
  8
一般
370
               0
390
0
  6
Continuous
 62
               1
100
AcDbVertex
100
AcDb3dPolylineVertex
 10
404.30090981441344
 20
-197.86861761282273
 30
0.0
 70
              32
  0
VERTEX
  5
3BE
100
AcDbEntity
  8
一般
370
               0
390
0
  6
Continuous
 62
               1
100
AcDbVertex
100
AcDb3dPolylineVertex
 10
404.30090981441344
 20
-197.82861761282277
 30
0.0
 70
              32
  0
VERTEX
  5
3BF
100
AcDbEntity
  8
一般
370
               0
390
0
  6
Continuous
 62
               1
100
AcDbVertex
100
AcDb3dPolylineVertex
 10
404.30090981441344
 20
-197.7886176128228
 30
0.0
 70
              32
  0
VERTEX
  5
3C0
100
AcDbEntity
  8
一般
370
               0
390
0
  6
Continuous
 62
               1
100
AcDbVertex
100
AcDb3dPolylineVertex
 10
404.30090981441344
 20
-197.75861761282306
 30
0.0
 70
              32
  0
VERTEX
  5
3C1
100
AcDbEntity
  8
一般
370
               0
390
0
  6
Continuous
 62
               1
100
AcDbVertex
100
AcDb3dPolylineVertex
 10
404.30090981441344
 20
-197.71861761282264
 30
0.0
 70
              32
  0
VERTEX
  5
3C2
100
AcDbEntity
  8
一般
370
               0
390
0
  6
Continuous
 62
               1
100
AcDbVertex
100
AcDb3dPolylineVertex
 10
404.30090981441344
 20
-197.6886176128229
 30
0.0
 70
              32
  0
VERTEX
  5
3C3
100
AcDbEntity
  8
一般
370
               0
390
0
  6
Continuous
 62
               1
100
AcDbVertex
100
AcDb3dPolylineVertex
 10
404.30090981441344
 20
-197.64861761282293
 30
0.0
 70
              32
  0
VERTEX
  5
3C4
100
AcDbEntity
  8
一般
370
               0
390
0
  6
Continuous
 62
               1
100
AcDbVertex
100
AcDb3dPolylineVertex
 10
404.30090981441344
 20
-197.61861761282273
 30
0.0
 70
              32
  0
VERTEX
  5
3C5
100
AcDbEntity
  8
一般
370
               0
390
0
  6
Continuous
 62
               1
100
AcDbVertex
100
AcDb3dPolylineVertex
 10
404.30090981441344
 20
-197.57861761282277
 30
0.0
 70
              32
  0
VERTEX
  5
3C6
100
AcDbEntity
  8
一般
370
               0
390
0
  6
Continuous
 62
               1
100
AcDbVertex
100
AcDb3dPolylineVertex
 10
404.30090981441344
 20
-197.54861761282302
 30
0.0
 70
              32
  0
VERTEX
  5
3C7
100
AcDbEntity
  8
一般
370
               0
390
0
  6
Continuous
 62
               1
100
AcDbVertex
100
AcDb3dPolylineVertex
 10
404.30090981441344
 20
-197.51861761282282
 30
0.0
 70
              32
  0
VERTEX
  5
3C8
100
AcDbEntity
  8
一般
370
               0
390
0
  6
Continuous
 62
               1
100
AcDbVertex
100
AcDb3dPolylineVertex
 10
404.30090981441344
 20
-197.47861761282286
 30
0.0
 70
              32
  0
VERTEX
  5
3C9
100
AcDbEntity
  8
一般
370
               0
390
0
  6
Continuous
 62
               1
100
AcDbVertex
100
AcDb3dPolylineVertex
 10
404.30090981441344
 20
-197.44861761282266
 30
0.0
 70
              32
  0
VERTEX
  5
3CA
100
AcDbEntity
  8
一般
370
               0
390
0
  6
Continuous
 62
               1
100
AcDbVertex
100
AcDb3dPolylineVertex
 10
404.30090981441344
 20
-197.41861761282291
 30
0.0
 70
              32
  0
VERTEX
  5
3CB
100
AcDbEntity
  8
一般
370
               0
390
0
  6
Continuous
 62
               1
100
AcDbVertex
100
AcDb3dPolylineVertex
 10
404.30090981441344
 20
-197.38861761282271
 30
0.0
 70
              32
  0
VERTEX
  5
3CC
100
AcDbEntity
  8
一般
370
               0
390
0
  6
Continuous
 62
               1
100
AcDbVertex
100
AcDb3dPolylineVertex
 10
404.30090981441344
 20
-197.35861761282297
 30
0.0
 70
              32
  0
VERTEX
  5
3CD
100
AcDbEntity
  8
一般
370
               0
390
0
  6
Continuous
 62
               1
100
AcDbVertex
100
AcDb3dPolylineVertex
 10
404.30090981441344
 20
-197.32861761282277
 30
0.0
 70
              32
  0
VERTEX
  5
3CE
100
AcDbEntity
  8
一般
370
               0
390
0
  6
Continuous
 62
               1
100
AcDbVertex
100
AcDb3dPolylineVertex
 10
404.30090981441344
 20
-197.29861761282302
 30
0.0
 70
              32
  0
VERTEX
  5
3CF
100
AcDbEntity
  8
一般
370
               0
390
0
  6
Continuous
 62
               1
100
AcDbVertex
100
AcDb3dPolylineVertex
 10
404.30090981441344
 20
-197.26861761282282
 30
0.0
 70
              32
  0
VERTEX
  5
3D0
100
AcDbEntity
  8
一般
370
               0
390
0
  6
Continuous
 62
               1
100
AcDbVertex
100
AcDb3dPolylineVertex
 10
404.30090981441344
 20
-197.23861761282262
 30
0.0
 70
              32
  0
VERTEX
  5
3D1
100
AcDbEntity
  8
一般
370
               0
390
0
  6
Continuous
 62
               1
100
AcDbVertex
100
AcDb3dPolylineVertex
 10
404.30090981441344
 20
-197.20861761282288
 30
0.0
 70
              32
  0
VERTEX
  5
3D2
100
AcDbEntity
  8
一般
370
               0
390
0
  6
Continuous
 62
               1
100
AcDbVertex
100
AcDb3dPolylineVertex
 10
404.30090981441344
 20
-197.1886176128229
 30
0.0
 70
              32
  0
VERTEX
  5
3D3
100
AcDbEntity
  8
一般
370
               0
390
0
  6
Continuous
 62
               1
100
AcDbVertex
100
AcDb3dPolylineVertex
 10
404.30090981441344
 20
-197.1586176128227
 30
0.0
 70
              32
  0
VERTEX
  5
3D4
100
AcDbEntity
  8
一般
370
               0
390
0
  6
Continuous
 62
               1
100
AcDbVertex
100
AcDb3dPolylineVertex
 10
404.30090981441344
 20
-197.12861761282295
 30
0.0
 70
              32
  0
VERTEX
  5
3D5
100
AcDbEntity
  8
一般
370
               0
390
0
  6
Continuous
 62
               1
100
AcDbVertex
100
AcDb3dPolylineVertex
 10
404.30090981441344
 20
-197.10861761282297
 30
0.0
 70
              32
  0
VERTEX
  5
3D6
100
AcDbEntity
  8
一般
370
               0
390
0
  6
Continuous
 62
               1
100
AcDbVertex
100
AcDb3dPolylineVertex
 10
404.30090981441344
 20
-197.07861761282277
 30
0.0
 70
              32
  0
VERTEX
  5
3D7
100
AcDbEntity
  8
一般
370
               0
390
0
  6
Continuous
 62
               1
100
AcDbVertex
100
AcDb3dPolylineVertex
 10
404.30090981441344
 20
-197.05861761282279
 30
0.0
 70
              32
  0
VERTEX
  5
3D8
100
AcDbEntity
  8
一般
370
               0
390
0
  6
Continuous
 62
               1
100
AcDbVertex
100
AcDb3dPolylineVertex
 10
404.30090981441344
 20
-197.02861761282304
 30
0.0
 70
              32
  0
VERTEX
  5
3D9
100
AcDbEntity
  8
一般
370
               0
390
0
  6
Continuous
 62
               1
100
AcDbVertex
100
AcDb3dPolylineVertex
 10
404.30090981441344
 20
-197.00861761282306
 30
0.0
 70
              32
  0
VERTEX
  5
3DA
100
AcDbEntity
  8
一般
370
               0
390
0
  6
Continuous
 62
               1
100
AcDbVertex
100
AcDb3dPolylineVertex
 10
404.30090981441344
 20
-196.97861761282286
 30
0.0
 70
              32
  0
VERTEX
  5
3DB
100
AcDbEntity
  8
一般
370
               0
390
0
  6
Continuous
 62
               1
100
AcDbVertex
100
AcDb3dPolylineVertex
 10
404.30090981441344
 20
-196.95861761282288
 30
0.0
 70
              32
  0
VERTEX
  5
3DC
100
AcDbEntity
  8
一般
370
               0
390
0
  6
Continuous
 62
               1
100
AcDbVertex
100
AcDb3dPolylineVertex
 10
404.30090981441344
 20
-196.9386176128229
 30
0.0
 70
              32
  0
VERTEX
  5
3DD
100
AcDbEntity
  8
一般
370
               0
390
0
  6
Continuous
 62
               1
100
AcDbVertex
100
AcDb3dPolylineVertex
 10
404.30090981441344
 20
-196.91861761282291
 30
0.0
 70
              32
  0
VERTEX
  5
3DE
100
AcDbEntity
  8
一般
370
               0
390
0
  6
Continuous
 62
               1
100
AcDbVertex
100
AcDb3dPolylineVertex
 10
404.30090981441344
 20
-196.89861761282293
 30
0.0
 70
              32
  0
VERTEX
  5
3DF
100
AcDbEntity
  8
一般
370
               0
390
0
  6
Continuous
 62
               1
100
AcDbVertex
100
AcDb3dPolylineVertex
 10
404.30090981441344
 20
-196.87861761282295
 30
0.0
 70
              32
  0
VERTEX
  5
3E0
100
AcDbEntity
  8
一般
370
               0
390
0
  6
Continuous
 62
               1
100
AcDbVertex
100
AcDb3dPolylineVertex
 10
404.30090981441344
 20
-196.84861761282275
 30
0.0
 70
              32
  0
VERTEX
  5
3E1
100
AcDbEntity
  8
一般
370
               0
390
0
  6
Continuous
 62
               1
100
AcDbVertex
100
AcDb3dPolylineVertex
 10
404.30090981441344
 20
-196.83861761282299
 30
0.0
 70
              32
  0
VERTEX
  5
3E2
100
AcDbEntity
  8
一般
370
               0
390
0
  6
Continuous
 62
               1
100
AcDbVertex
100
AcDb3dPolylineVertex
 10
404.30090981441344
 20
-196.818617612823
 30
0.0
 70
              32
  0
VERTEX
  5
3E3
100
AcDbEntity
  8
一般
370
               0
390
0
  6
Continuous
 62
               1
100
AcDbVertex
100
AcDb3dPolylineVertex
 10
404.30090981441344
 20
-196.79861761282302
 30
0.0
 70
              32
  0
VERTEX
  5
3E4
100
AcDbEntity
  8
一般
370
               0
390
0
  6
Continuous
 62
               1
100
AcDbVertex
100
AcDb3dPolylineVertex
 10
404.30090981441344
 20
-196.77861761282304
 30
0.0
 70
              32
  0
VERTEX
  5
3E5
100
AcDbEntity
  8
一般
370
               0
390
0
  6
Continuous
 62
               1
100
AcDbVertex
100
AcDb3dPolylineVertex
 10
404.30090981441344
 20
-196.75861761282306
 30
0.0
 70
              32
  0
VERTEX
  5
3E6
100
AcDbEntity
  8
一般
370
               0
390
0
  6
Continuous
 62
               1
100
AcDbVertex
100
AcDb3dPolylineVertex
 10
404.30090981441344
 20
-196.74861761282284
 30
0.0
 70
              32
  0
VERTEX
  5
3E7
100
AcDbEntity
  8
一般
370
               0
390
0
  6
Continuous
 62
               1
100
AcDbVertex
100
AcDb3dPolylineVertex
 10
404.30090981441344
 20
-196.72861761282286
 30
0.0
 70
              32
  0
VERTEX
  5
3E8
100
AcDbEntity
  8
一般
370
               0
390
0
  6
Continuous
 62
               1
100
AcDbVertex
100
AcDb3dPolylineVertex
 10
404.30090981441344
 20
-196.70861761282288
 30
0.0
 70
              32
  0
VERTEX
  5
3E9
100
AcDbEntity
  8
一般
370
               0
390
0
  6
Continuous
 62
               1
100
AcDbVertex
100
AcDb3dPolylineVertex
 10
404.30090981441344
 20
-196.69861761282266
 30
0.0
 70
              32
  0
VERTEX
  5
3EA
100
AcDbEntity
  8
一般
370
               0
390
0
  6
Continuous
 62
               1
100
AcDbVertex
100
AcDb3dPolylineVertex
 10
404.30090981441344
 20
-196.67861761282268
 30
0.0
 70
              32
  0
VERTEX
  5
3EB
100
AcDbEntity
  8
一般
370
               0
390
0
  6
Continuous
 62
               1
100
AcDbVertex
100
AcDb3dPolylineVertex
 10
404.30090981441344
 20
-196.66861761282291
 30
0.0
 70
              32
  0
VERTEX
  5
3EC
100
AcDbEntity
  8
一般
370
               0
390
0
  6
Continuous
 62
               1
100
AcDbVertex
100
AcDb3dPolylineVertex
 10
404.30090981441344
 20
-196.6586176128227
 30
0.0
 70
              32
  0
VERTEX
  5
3ED
100
AcDbEntity
  8
一般
370
               0
390
0
  6
Continuous
 62
               1
100
AcDbVertex
100
AcDb3dPolylineVertex
 10
404.30090981441344
 20
-196.63861761282271
 30
0.0
 70
              32
  0
VERTEX
  5
3EE
100
AcDbEntity
  8
一般
370
               0
390
0
  6
Continuous
 62
               1
100
AcDbVertex
100
AcDb3dPolylineVertex
 10
404.30090981441344
 20
-196.62861761282295
 30
0.0
 70
              32
  0
VERTEX
  5
3EF
100
AcDbEntity
  8
一般
370
               0
390
0
  6
Continuous
 62
               1
100
AcDbVertex
100
AcDb3dPolylineVertex
 10
404.30090981441344
 20
-196.61861761282273
 30
0.0
 70
              32
  0
VERTEX
  5
3F0
100
AcDbEntity
  8
一般
370
               0
390
0
  6
Continuous
 62
               1
100
AcDbVertex
100
AcDb3dPolylineVertex
 10
404.30090981441344
 20
-196.60861761282297
 30
0.0
 70
              32
  0
VERTEX
  5
3F1
100
AcDbEntity
  8
一般
370
               0
390
0
  6
Continuous
 62
               1
100
AcDbVertex
100
AcDb3dPolylineVertex
 10
404.30090981441344
 20
-196.59861761282275
 30
0.0
 70
              32
  0
VERTEX
  5
3F2
100
AcDbEntity
  8
一般
370
               0
390
0
  6
Continuous
 62
               1
100
AcDbVertex
100
AcDb3dPolylineVertex
 10
404.30090981441344
 20
-196.58861761282299
 30
0.0
 70
              32
  0
VERTEX
  5
3F3
100
AcDbEntity
  8
一般
370
               0
390
0
  6
Continuous
 62
               1
100
AcDbVertex
100
AcDb3dPolylineVertex
 10
404.30090981441344
 20
-196.57861761282277
 30
0.0
 70
              32
  0
VERTEX
  5
3F4
100
AcDbEntity
  8
一般
370
               0
390
0
  6
Continuous
 62
               1
100
AcDbVertex
100
AcDb3dPolylineVertex
 10
404.30090981441344
 20
-196.568617612823
 30
0.0
 70
              32
  0
VERTEX
  5
3F5
100
AcDbEntity
  8
一般
370
               0
390
0
  6
Continuous
 62
               1
100
AcDbVertex
100
AcDb3dPolylineVertex
 10
404.30090981441344
 20
-196.55861761282279
 30
0.0
 70
              32
  0
VERTEX
  5
3F6
100
AcDbEntity
  8
一般
370
               0
390
0
  6
Continuous
 62
               1
100
AcDbVertex
100
AcDb3dPolylineVertex
 10
404.30090981441344
 20
-196.54861761282302
 30
0.0
 70
              32
  0
VERTEX
  5
3F7
100
AcDbEntity
  8
一般
370
               0
390
0
  6
Continuous
 62
               1
100
AcDbVertex
100
AcDb3dPolylineVertex
 10
404.30090981441344
 20
-196.5386176128228
 30
0.0
 70
              32
  0
VERTEX
  5
3F8
100
AcDbEntity
  8
一般
370
               0
390
0
  6
Continuous
 62
               1
100
AcDbVertex
100
AcDb3dPolylineVertex
 10
404.30090981441344
 20
-196.5386176128228
 30
0.0
 70
              32
  0
VERTEX
  5
3F9
100
AcDbEntity
  8
一般
370
               0
390
0
  6
Continuous
 62
               1
100
AcDbVertex
100
AcDb3dPolylineVertex
 10
404.30090981441344
 20
-196.52861761282304
 30
0.0
 70
              32
  0
VERTEX
  5
3FA
100
AcDbEntity
  8
一般
370
               0
390
0
  6
Continuous
 62
               1
100
AcDbVertex
100
AcDb3dPolylineVertex
 10
404.30090981441344
 20
-196.52861761282304
 30
0.0
 70
              32
  0
VERTEX
  5
3FB
100
AcDbEntity
  8
一般
370
               0
390
0
  6
Continuous
 62
               1
100
AcDbVertex
100
AcDb3dPolylineVertex
 10
404.30090981441344
 20
-196.51861761282282
 30
0.0
 70
              32
  0
VERTEX
  5
3FC
100
AcDbEntity
  8
一般
370
               0
390
0
  6
Continuous
 62
               1
100
AcDbVertex
100
AcDb3dPolylineVertex
 10
404.30090981441344
 20
-196.51861761282282
 30
0.0
 70
              32
  0
VERTEX
  5
3FD
100
AcDbEntity
  8
一般
370
               0
390
0
  6
Continuous
 62
               1
100
AcDbVertex
100
AcDb3dPolylineVertex
 10
404.30090981441344
 20
-196.50861761282306
 30
0.0
 70
              32
  0
VERTEX
  5
3FE
100
AcDbEntity
  8
一般
370
               0
390
0
  6
Continuous
 62
               1
100
AcDbVertex
100
AcDb3dPolylineVertex
 10
404.30090981441344
 20
-196.50861761282306
 30
0.0
 70
              32
  0
VERTEX
  5
3FF
100
AcDbEntity
  8
一般
370
               0
390
0
  6
Continuous
 62
               1
100
AcDbVertex
100
AcDb3dPolylineVertex
 10
404.30090981441344
 20
-196.50861761282306
 30
0.0
 70
              32
  0
VERTEX
  5
400
100
AcDbEntity
  8
一般
370
               0
390
0
  6
Continuous
 62
               1
100
AcDbVertex
100
AcDb3dPolylineVertex
 10
404.30090981441344
 20
-196.49861761282284
 30
0.0
 70
              32
  0
VERTEX
  5
401
100
AcDbEntity
  8
一般
370
               0
390
0
  6
Continuous
 62
               1
100
AcDbVertex
100
AcDb3dPolylineVertex
 10
404.30090981441344
 20
-196.49861761282284
 30
0.0
 70
              32
  0
VERTEX
  5
402
100
AcDbEntity
  8
一般
370
               0
390
0
  6
Continuous
 62
               1
100
AcDbVertex
100
AcDb3dPolylineVertex
 10
404.30090981441344
 20
-196.49861761282284
 30
0.0
 70
              32
  0
VERTEX
  5
403
100
AcDbEntity
  8
一般
370
               0
390
0
  6
Continuous
 62
               1
100
AcDbVertex
100
AcDb3dPolylineVertex
 10
404.30090981441344
 20
-196.49861761282284
 30
0.0
 70
              32
  0
SEQEND
  5
404
100
AcDbEntity
  8
一般
370
               0
390
0
  6
Continuous
 62
               1
  0
LINE
  5
405
100
AcDbEntity
  8
一般
370
               0
390
0
  6
Continuous
 62
               1
100
AcDbLine
 10
409.30019999998103
 20
-205.99999999999864
 30
0.0
 11
409.30019999998103
 21
-202.49999999999875
 31
0.0
  0
LINE
  5
406
100
AcDbEntity
  8
一般
370
               0
390
0
  6
Continuous
 62
               1
100
AcDbLine
 10
409.30019999998103
 20
-209.49999999999864
 30
0.0
 11
409.30019999998103
 21
-205.99999999999864
 31
0.0
  0
LINE
  5
407
100
AcDbEntity
  8
一般
370
               0
390
0
  6
Continuous
 62
               1
100
AcDbLine
 10
409.30019999998103
 20
-198.99999999999875
 30
0.0
 11
409.30019999998103
 21
-195.49999999999875
 31
0.0
  0
LINE
  5
408
100
AcDbEntity
  8
一般
370
               0
390
0
  6
Continuous
 62
               1
100
AcDbLine
 10
409.30019999998103
 20
-202.49999999999875
 30
0.0
 11
409.30019999998103
 21
-198.99999999999875
 31
0.0
  0
LINE
  5
409
100
AcDbEntity
  8
一般
370
               0
390
0
  6
Continuous
 62
               1
100
AcDbLine
 10
405.30019999998103
 20
-209.49999999999864
 30
0.0
 11
409.30019999998103
 21
-209.49999999999864
 31
0.0
  0
LINE
  5
40A
100
AcDbEntity
  8
一般
370
               0
390
0
  6
Continuous
 62
               1
100
AcDbLine
 10
409.30019999998103
 20
-195.49999999999875
 30
0.0
 11
405.30019999998103
 21
-195.49999999999875
 31
0.0
  0
ARC
  5
40B
100
AcDbEntity
  8
一般
370
               0
390
0
  6
Continuous
 62
               1
100
AcDbCircle
 10
405.30019999998103
 20
-196.49999999999875
 30
0.0
 40
1.0
100
AcDbArc
 50
90.0
 51
180.0
  0
ARC
  5
40C
100
AcDbEntity
  8
一般
370
               0
390
0
  6
Continuous
 62
               1
100
AcDbCircle
 10
405.30019999998103
 20
-208.49999999999864
 30
0.0
 40
1.0
100
AcDbArc
 50
180.0
 51
270.0
  0
LINE
  5
40D
100
AcDbEntity
  8
一般
370
               0
390
0
  6
Continuous
 62
               1
100
AcDbLine
 10
442.00019999998085
 20
-202.49999999999875
 30
0.0
 11
442.00019999998085
 21
-209.49999999999864
 31
0.0
  0
LINE
  5
40E
100
AcDbEntity
  8
一般
370
               0
390
0
  6
Continuous
 62
               1
100
AcDbLine
 10
442.00019999998085
 20
-202.49999999999875
 30
0.0
 11
442.00019999998085
 21
-195.49999999999875
 31
0.0
  0
LINE
  5
40F
100
AcDbEntity
  8
一般
370
               0
390
0
  6
Continuous
 62
               1
100
AcDbLine
 10
754.97342001757488
 20
-584.99999999999818
 30
0.0
 11
754.97342001757488
 21
85.000000000001137
 31
0.0
  0
LINE
  5
410
100
AcDbEntity
  8
一般
370
               0
390
0
  6
Continuous
 62
               1
100
AcDbLine
 10
606.39403617463495
 20
85.000000000002956
 30
0.0
 11
606.39403617463495
 21
-584.99999999999818
 31
0.0
  0
LINE
  5
411
100
AcDbEntity
  8
一般
370
               0
390
0
  6
Continuous
 62
               1
100
AcDbLine
 10
754.97342001760944
 20
73.000000000000242
 30
0.0
 11
754.97342001760944
 21
-572.99999999999909
 31
0.0
  0
LINE
  5
412
100
AcDbEntity
  8
一般
370
               0
390
0
  6
Continuous
 62
               1
100
AcDbLine
 10
451.00019999997994
 20
-584.99999999999818
 30
0.0
 11
451.00019999997994
 21
85.000000000002956
 31
0.0
  0
LINE
  5
413
100
AcDbEntity
  8
一般
370
               0
390
0
  6
Continuous
 62
               1
100
AcDbLine
 10
606.39403617463495
 20
85.000000000002956
 30
0.0
 11
606.39403617463495
 21
-584.99999999999818
 31
0.0
  0
LINE
  5
414
100
AcDbEntity
  8
一般
370
               0
390
0
  6
Continuous
 62
               1
100
AcDbLine
 10
492.00019999997903
 20
85.000000000002956
 30
0.0
 11
492.00019999997903
 21
-584.99999999999818
 31
0.0
  0
LINE
  5
415
100
AcDbEntity
  8
一般
370
               0
390
0
  6
Continuous
 62
               1
100
AcDbLine
 10
754.97342001761035
 20
-584.99999999999909
 30
0.0
 11
606.39403617463495
 21
-584.99999999999818
 31
0.0
  0
LINE
  5
416
100
AcDbEntity
  8
一般
370
               0
390
0
  6
Continuous
 62
               1
100
AcDbLine
 10
606.39403617463495
 20
-599.99999999999818
 30
0.0
 11
754.97342001734387
 21
-599.99999999999909
 31
0.0
  0
LINE
  5
417
100
AcDbEntity
  8
一般
370
               0
390
0
  6
Continuous
 62
               1
100
AcDbLine
 10
606.39403617463495
 20
-584.99999999999818
 30
0.0
 11
754.97342001757488
 21
-584.99999999999818
 31
0.0
  0
LINE
  5
418
100
AcDbEntity
  8
一般
370
               0
390
0
  6
Continuous
 62
               1
100
AcDbLine
 10
450.74715749690085
 20
-599.99999999999818
 30
0.0
 11
606.39403617463495
 21
-599.99999999999818
 31
0.0
  0
LINE
  5
419
100
AcDbEntity
  8
一般
370
               0
390
0
  6
Continuous
 62
               1
100
AcDbLine
 10
606.39403617463495
 20
-584.99999999999818
 30
0.0
 11
450.74715749690085
 21
-584.99999999999818
 31
0.0
  0
LINE
  5
41A
100
AcDbEntity
  8
一般
370
               0
390
0
  6
Continuous
 62
               1
100
AcDbLine
 10
492.00019999997903
 20
-584.99999999999818
 30
0.0
 11
606.39403617463495
 21
-584.99999999999818
 31
0.0
  0
CIRCLE
  5
41B
100
AcDbEntity
  8
一般
370
               0
390
0
  6
Continuous
 62
               1
100
AcDbCircle
 10
479.00019999997994
 20
-563.99999999999818
 30
0.0
 40
4.0
  0
LINE
  5
41C
100
AcDbEntity
  8
一般
370
               0
390
0
  6
Continuous
 62
               1
100
AcDbLine
 10
450.74715749689813
 20
-572.99999999999818
 30
0.0
 11
450.74715749690085
 21
-584.99999999999818
 31
0.0
  0
LINE
  5
41D
100
AcDbEntity
  8
一般
370
               0
390
0
  6
Continuous
 62
               1
100
AcDbLine
 10
451.00019999997994
 20
-572.99999999999818
 30
0.0
 11
451.00019999997994
 21
-584.99999999999818
 31
0.0
  0
LINE
  5
41E
100
AcDbEntity
  8
一般
370
               0
390
0
  6
Continuous
 62
               1
100
AcDbLine
 10
451.00019999997994
 20
-572.99999999999818
 30
0.0
 11
450.74715749689813
 21
-572.99999999999818
 31
0.0
  0
LINE
  5
41F
100
AcDbEntity
  8
一般
370
               0
390
0
  6
Continuous
 62
               1
100
AcDbLine
 10
450.74715749690085
 20
-584.99999999999818
 30
0.0
 11
450.74715749690085
 21
-599.99999999999818
 31
0.0
  0
LINE
  5
420
100
AcDbEntity
  8
一般
370
               0
390
0
  6
Continuous
 62
               1
100
AcDbLine
 10
606.39403617463495
 20
-584.99999999999818
 30
0.0
 11
606.39403617463495
 21
-599.99999999999818
 31
0.0
  0
LINE
  5
421
100
AcDbEntity
  8
一般
370
               0
390
0
  6
Continuous
 62
               1
100
AcDbLine
 10
754.97342001734387
 20
-599.99999999999909
 30
0.0
 11
770.00019999997903
 21
-600.0
 31
0.0
  0
LINE
  5
422
100
AcDbEntity
  8
一般
370
               0
390
0
  6
Continuous
 62
               1
100
AcDbLine
 10
770.00019999997994
 20
-572.99999999999909
 30
0.0
 11
754.97342001760944
 21
-572.99999999999909
 31
0.0
  0
LINE
  5
423
100
AcDbEntity
  8
一般
370
               0
390
0
  6
Continuous
 62
               1
100
AcDbLine
 10
754.97342001760944
 20
-572.99999999999909
 30
0.0
 11
754.97342001761035
 21
-584.99999999999909
 31
0.0
  0
LINE
  5
424
100
AcDbEntity
  8
一般
370
               0
390
0
  6
Continuous
 62
               1
100
AcDbLine
 10
754.97342001760944
 20
-584.99999999999909
 30
0.0
 11
754.97342001734387
 21
-599.99999999999909
 31
0.0
  0
LINE
  5
425
100
AcDbEntity
  8
一般
370
               0
390
0
  6
Continuous
 62
               1
100
AcDbLine
 10
770.00019999997903
 20
-600.0
 30
0.0
 11
770.00019999997994
 21
-572.99999999999909
 31
0.0
  0
CIRCLE
  5
426
100
AcDbEntity
  8
一般
370
               0
390
0
  6
Continuous
 62
               1
100
AcDbCircle
 10
479.00019999997994
 20
-249.99999999999773
 30
0.0
 40
4.0
  0
LINE
  5
427
100
AcDbEntity
  8
一般
370
               0
390
0
  6
Continuous
 62
               1
100
AcDbLine
 10
449.00019999998085
 20
-207.49999999999864
 30
0.0
 11
449.00019999998085
 21
-197.49999999999875
 31
0.0
  0
LINE
  5
428
100
AcDbEntity
  8
一般
370
               0
390
0
  6
Continuous
 62
               1
100
AcDbLine
 10
449.00019999998085
 20
-205.49999999999864
 30
0.0
 11
451.00019999997994
 21
-205.49999999999864
 31
0.0
  0
LINE
  5
429
100
AcDbEntity
  8
一般
370
               0
390
0
  6
Continuous
 62
               1
100
AcDbLine
 10
451.00019999997994
 20
-199.49999999999875
 30
0.0
 11
449.00019999998085
 21
-199.49999999999875
 31
0.0
  0
CIRCLE
  5
42A
100
AcDbEntity
  8
一般
370
               0
390
0
  6
Continuous
 62
               1
100
AcDbCircle
 10
581.00080554371061
 20
-250.00000000000091
 30
0.0
 40
4.0
  0
CIRCLE
  5
42B
100
AcDbEntity
  8
一般
370
               0
390
0
  6
Continuous
 62
               1
100
AcDbCircle
 10
581.00019999997903
 20
-249.99999999999773
 30
0.0
 40
4.1999999999999886
  0
CIRCLE
  5
42C
100
AcDbEntity
  8
一般
370
               0
390
0
  6
Continuous
 62
               1
100
AcDbCircle
 10
581.00019999997903
 20
-249.99999999999773
 30
0.0
 40
7.0000000000418368
  0
LINE
  5
42D
100
AcDbEntity
  8
一般
370
               0
390
0
  6
Continuous
 62
               1
100
AcDbLine
 10
754.97342001757488
 20
85.000000000001137
 30
0.0
 11
606.39403617463495
 21
85.000000000002956
 31
0.0
  0
LINE
  5
42E
100
AcDbEntity
  8
一般
370
               0
390
0
  6
Continuous
 62
               1
100
AcDbLine
 10
492.00019999997903
 20
85.000000000002956
 30
0.0
 11
606.39403617463495
 21
85.000000000002956
 31
0.0
  0
LINE
  5
42F
100
AcDbEntity
  8
一般
370
               0
390
0
  6
Continuous
 62
               1
100
AcDbLine
 10
451.00019999997994
 20
85.000000000002956
 30
0.0
 11
492.00019999997903
 21
85.000000000002956
 31
0.0
  0
CIRCLE
  5
430
100
AcDbEntity
  8
一般
370
               0
390
0
  6
Continuous
 62
               1
100
AcDbCircle
 10
479.00019999997994
 20
64.000000000002061
 30
0.0
 40
4.0
  0
LINE
  5
431
100
AcDbEntity
  8
一般
370
               0
390
0
  6
Continuous
 62
               1
100
AcDbLine
 10
423.09085448780343
 20
84.999999999997954
 30
0.0
 11
400.00019999998358
 21
85.000000000000227
 31
0.0
  0
LINE
  5
432
100
AcDbEntity
  8
一般
370
               0
390
0
  6
Continuous
 62
               1
100
AcDbLine
 10
400.00019999998358
 20
100.00000000000023
 30
0.0
 11
423.09085448780343
 21
99.999999999997954
 31
0.0
  0
LINE
  5
433
100
AcDbEntity
  8
一般
370
               0
390
0
  6
Continuous
 62
               1
100
AcDbLine
 10
404.03179013697945
 20
72.999999999998877
 30
0.0
 11
426.97244087504305
 21
72.999999999997968
 31
0.0
  0
LINE
  5
434
100
AcDbEntity
  8
一般
370
               0
390
0
  6
Continuous
 62
               1
100
AcDbLine
 10
400.00019999998358
 20
85.000000000000227
 30
0.0
 11
400.00019999998358
 21
100.00000000000023
 31
0.0
  0
LINE
  5
435
100
AcDbEntity
  8
一般
370
               0
390
0
  6
Continuous
 62
               1
100
AcDbLine
 10
404.00019999998358
 20
83.500000000000242
 30
0.0
 11
404.00019999998358
 21
85.000000000000227
 31
0.0
  0
LINE
  5
436
100
AcDbEntity
  8
一般
370
               0
390
0
  6
Continuous
 62
               1
100
AcDbLine
 10
404.03179013697945
 20
72.999999999998877
 30
0.0
 11
404.03179013697945
 21
83.500000000000242
 31
0.0
  0
LINE
  5
437
100
AcDbEntity
  8
一般
370
               0
390
0
  6
Continuous
 62
               1
100
AcDbLine
 10
404.00019999998358
 20
83.500000000000242
 30
0.0
 11
404.03179013697945
 21
83.500000000000242
 31
0.0
  0
LINE
  5
438
100
AcDbEntity
  8
一般
370
               0
390
0
  6
Continuous
 62
               1
100
AcDbLine
 10
404.03179013697945
 20
83.500000000000242
 30
0.0
 11
404.03179013697945
 21
72.999999999998877
 31
0.0
  0
LINE
  5
439
100
AcDbEntity
  8
一般
370
               0
390
0
  6
Continuous
 62
               1
100
AcDbLine
 10
606.39403617463495
 20
84.999999999997954
 30
0.0
 11
754.97342001757488
 21
85.000000000000227
 31
0.0
  0
LINE
  5
43A
100
AcDbEntity
  8
一般
370
               0
390
0
  6
Continuous
 62
               1
100
AcDbLine
 10
606.39403617463495
 20
99.999999999997954
 30
0.0
 11
754.97342001734387
 21
100.00000000000114
 31
0.0
  0
LINE
  5
43B
100
AcDbEntity
  8
一般
370
               0
390
0
  6
Continuous
 62
               1
100
AcDbLine
 10
754.97342001761035
 20
85.000000000000227
 30
0.0
 11
606.39403617463495
 21
84.999999999997954
 31
0.0
  0
LINE
  5
43C
100
AcDbEntity
  8
一般
370
               0
390
0
  6
Continuous
 62
               1
100
AcDbLine
 10
606.39403617463495
 20
84.999999999997954
 30
0.0
 11
606.39403617463495
 21
99.999999999997954
 31
0.0
  0
LINE
  5
43D
100
AcDbEntity
  8
一般
370
               0
390
0
  6
Continuous
 62
               1
100
AcDbLine
 10
450.74715749690085
 20
84.999999999997954
 30
0.0
 11
450.74715749690085
 21
99.999999999997954
 31
0.0
  0
LINE
  5
43E
100
AcDbEntity
  8
一般
370
               0
390
0
  6
Continuous
 62
               1
100
AcDbLine
 10
423.09085448780343
 20
84.999999999997954
 30
0.0
 11
423.09085448780343
 21
99.999999999997954
 31
0.0
  0
LINE
  5
43F
100
AcDbEntity
  8
一般
370
               0
390
0
  6
Continuous
 62
               1
100
AcDbLine
 10
450.74715749690085
 20
99.999999999997954
 30
0.0
 11
606.39403617463495
 21
99.999999999997954
 31
0.0
  0
LINE
  5
440
100
AcDbEntity
  8
一般
370
               0
390
0
  6
Continuous
 62
               1
100
AcDbLine
 10
423.09085448780343
 20
99.999999999997954
 30
0.0
 11
450.74715749690085
 21
99.999999999997954
 31
0.0
  0
LINE
  5
441
100
AcDbEntity
  8
一般
370
               0
390
0
  6
Continuous
 62
               1
100
AcDbLine
 10
492.00019999997903
 20
84.999999999997954
 30
0.0
 11
606.39403617463495
 21
84.999999999997954
 31
0.0
  0
LINE
  5
442
100
AcDbEntity
  8
一般
370
               0
390
0
  6
Continuous
 62
               1
100
AcDbLine
 10
606.39403617463495
 20
84.999999999997954
 30
0.0
 11
450.74715749690085
 21
84.999999999997954
 31
0.0
  0
LINE
  5
443
100
AcDbEntity
  8
一般
370
               0
390
0
  6
Continuous
 62
               1
100
AcDbLine
 10
450.74715749690085
 20
84.999999999997954
 30
0.0
 11
423.09085448780343
 21
84.999999999997954
 31
0.0
  0
LINE
  5
444
100
AcDbEntity
  8
一般
370
               0
390
0
  6
Continuous
 62
               1
100
AcDbLine
 10
426.97244087504305
 20
72.999999999997968
 30
0.0
 11
450.74715749689813
 21
72.999999999997968
 31
0.0
  0
LINE
  5
445
100
AcDbEntity
  8
一般
370
               0
390
0
  6
Continuous
 62
               1
100
AcDbLine
 10
426.97244087504305
 20
72.999999999997968
 30
0.0
 11
426.97244087504305
 21
84.999999999997954
 31
0.0
  0
LINE
  5
446
100
AcDbEntity
  8
一般
370
               0
390
0
  6
Continuous
 62
               1
100
AcDbLine
 10
451.00019999997994
 20
72.999999999997968
 30
0.0
 11
450.74715749689813
 21
72.999999999997968
 31
0.0
  0
LINE
  5
447
100
AcDbEntity
  8
一般
370
               0
390
0
  6
Continuous
 62
               1
100
AcDbLine
 10
451.00019999997994
 20
72.999999999997968
 30
0.0
 11
451.00019999997994
 21
84.999999999997954
 31
0.0
  0
LINE
  5
448
100
AcDbEntity
  8
一般
370
               0
390
0
  6
Continuous
 62
               1
100
AcDbLine
 10
450.74715749689813
 20
72.999999999997968
 30
0.0
 11
450.74715749690085
 21
84.999999999997954
 31
0.0
  0
LINE
  5
449
100
AcDbEntity
  8
一般
370
               0
390
0
  6
Continuous
 62
               1
100
AcDbLine
 10
770.00019999997903
 20
100.00000000000114
 30
0.0
 11
770.00019999997994
 21
73.000000000000242
 31
0.0
  0
LINE
  5
44A
100
AcDbEntity
  8
一般
370
               0
390
0
  6
Continuous
 62
               1
100
AcDbLine
 10
754.97342001760944
 20
85.000000000000227
 30
0.0
 11
754.97342001734387
 21
100.00000000000114
 31
0.0
  0
LINE
  5
44B
100
AcDbEntity
  8
一般
370
               0
390
0
  6
Continuous
 62
               1
100
AcDbLine
 10
754.97342001734387
 20
100.00000000000114
 30
0.0
 11
770.00019999997903
 21
100.00000000000114
 31
0.0
  0
LINE
  5
44C
100
AcDbEntity
  8
一般
370
               0
390
0
  6
Continuous
 62
               1
100
AcDbLine
 10
754.97342001760944
 20
73.000000000000242
 30
0.0
 11
754.97342001761035
 21
85.000000000000227
 31
0.0
  0
LINE
  5
44D
100
AcDbEntity
  8
一般
370
               0
390
0
  6
Continuous
 62
               1
100
AcDbLine
 10
770.00019999997994
 20
73.000000000000242
 30
0.0
 11
754.97342001760944
 21
73.000000000000242
 31
0.0
  0
CIRCLE
  5
44E
100
AcDbEntity
  8
一般
370
               0
390
0
  6
Continuous
 62
               1
100
AcDbCircle
 10
-22.894458577467091
 20
-55.764912452399841
 30
0.0
 40
132.92789319161739
  0
CIRCLE
  5
44F
100
AcDbEntity
  8
一般
370
               0
390
0
  6
Continuous
 62
               1
100
AcDbCircle
 10
-22.894458577467063
 20
-55.764912452399841
 30
0.0
 40
137.78921459910657
  0
LINE
  5
450
100
AcDbEntity
  8
一般
370
               0
390
0
  6
Continuous
 62
               1
100
AcDbLine
 10
400.00019999998358
 20
85.000000000000227
 30
0.0
 11
400.00019999998358
 21
-584.99999999999909
 31
0.0
  0
LINE
  5
451
100
AcDbEntity
  8
一般
370
               0
390
0
  6
Continuous
 62
               1
100
AcDbLine
 10
-530.00000000000546
 20
84.999971389769826
 30
0.0
 11
-530.00000000000546
 21
-584.99999999999909
 31
0.0
  0
ENDSEC
  0
SECTION
  2
OBJECTS
  0
DICTIONARY
  5
19
100
AcDbDictionary
280
               0
281
               1
  3
ACAD_GROUP
350
1A
  3
ACAD_MLINESTYLE
350
1B
  3
ACAD_LAYOUT
350
1E
  3
ACAD_PLOTSETTINGS
350
22
  3
ACAD_PLOTSTYLENAME
350
1F
  3
ACAD_WIPEOUT_VARS
350
23
  0
DICTIONARY
  5
1A
102
{ACAD_REACTORS
330
19
102
}
100
AcDbDictionary
280
               0
281
               1
  0
DICTIONARY
  5
1B
102
{ACAD_REACTORS
330
19
102
}
100
AcDbDictionary
280
               0
281
               1
  3
Standard
350
1C
  0
MLINESTYLE
  5
1C
102
{ACAD_REACTORS
330
1B
102
}
100
AcDbMlineStyle
  2
Standard
 70
               0
  3

 62
               0
 51
90.0
 52
90.0
 71
               2
 49
0.5
 62
             256
  6
ByLayer
 49
-0.5
 62
             256
  6
ByLayer
  0
ACDBDICTIONARYWDFLT
  5
1F
102
{ACAD_REACTORS
330
19
102
}
100
AcDbDictionary
281
               1
  3
Normal
350
1D
100
AcDbDictionaryWithDefault
340
1D
  0
ACDBPLACEHOLDER
  5
1D
102
{ACAD_REACTORS
330
1F
102
}
  0
LAYOUT
  5
20
102
{ACAD_REACTORS
330
1E
102
}
100
AcDbPlotSettings
  1

  2

  4

  6

 40
0.0
 41
0.0
 42
0.0
 43
0.0
 44
0.0
 45
0.0
 46
0.0
 47
0.0
 48
0.0
 49
0.0
140
0.0
141
0.0
142
1.0
143
1.0
 70
            1024
 72
               0
 73
               0
 74
               0
  7
G515Pro_LR.ctb
 75
               0
147
1.0
148
0.0
149
0.0
100
AcDbLayout
  1
Model
 70
               0
 71
               0
 10
0.0
 20
0.0
 11
0.0
 21
0.0
 12
0.0
 22
0.0
 32
0.0
 14
0.0
 24
0.0
 34
0.0
 15
0.0
 25
0.0
 35
0.0
146
0.0
 13
0.0
 23
0.0
 33
0.0
 16
0.0
 26
0.0
 36
0.0
 17
0.0
 27
0.0
 37
0.0
 76
               0
330
A
331
0
345
0
346
0
  0
LAYOUT
  5
21
102
{ACAD_REACTORS
330
1E
102
}
100
AcDbPlotSettings
  1

  2

  4

  6

 40
0.0
 41
0.0
 42
0.0
 43
0.0
 44
0.0
 45
0.0
 46
0.0
 47
0.0
 48
0.0
 49
0.0
140
0.0
141
0.0
142
1.0
143
1.0
 70
               0
 72
               0
 73
               0
 74
               0
  7

 75
               0
147
1.0
148
0.0
149
0.0
100
AcDbLayout
  1
Layout1
 70
               0
 71
               0
 10
0.0
 20
0.0
 11
0.0
 21
0.0
 12
0.0
 22
0.0
 32
0.0
 14
0.0
 24
0.0
 34
0.0
 15
0.0
 25
0.0
 35
0.0
146
0.0
 13
0.0
 23
0.0
 33
0.0
 16
0.0
 26
0.0
 36
0.0
 17
0.0
 27
0.0
 37
0.0
 76
               0
330
B
331
0
345
0
346
0
  0
DICTIONARY
  5
1E
102
{ACAD_REACTORS
330
19
102
}
100
AcDbDictionary
280
               0
281
               1
  3
Layout1
350
21
  3
Model
350
20
  0
DICTIONARY
  5
22
102
{ACAD_REACTORS
330
19
102
}
100
AcDbDictionary
280
               0
281
               1
  0
WIPEOUTVARIABLES
  5
23
100
AcDbWipeoutVariables
 70
               0
  0
ENDSEC
  0
EOF
