  0
SECTION
  2
HEADER
  9
$ACADVER
  1
AC1015
  9
$ACADMAINTVER
 70
               6
  9
$DWGCODEPAGE
  3
ANSI_932
  9
$INSBASE
 10
0.0
 20
0.0
 30
0.0
  9
$EXTMIN
 10
-1249.9999999999998
 20
-1866.5383663178545
 30
0.0
  9
$EXTMAX
 10
1449.9999999999998
 20
2139.4710705281227
 30
0.0
  9
$LIMMIN
 10
0.0
 20
0.0
  9
$LIMMAX
 10
0.0
 20
0.0
  9
$ORTHOMODE
 70
               0
  9
$REGENMODE
 70
               1
  9
$FILLMODE
 70
               1
  9
$QTEXTMODE
 70
               0
  9
$MIRRTEXT
 70
               1
  9
$LTSCALE
 40
76.199999999999989
  9
$ATTMODE
 70
               1
  9
$TEXTSIZE
 40
0.2
  9
$TRACEWID
 40
1.0
  9
$TEXTSTYLE
  7
Standard
  9
$CLAYER
  8
一般
  9
$CELTYPE
  6
Continuous
  9
$CECOLOR
 62
             256
  9
$CELTSCALE
 40
1.0
  9
$DISPSILH
 70
               0
  9
$DIMSCALE
 40
1.0
  9
$DIMASZ
 40
37.50933837890625
  9
$DIMEXO
 40
29.999999999999996
  9
$DIMDLI
 40
4.9999999999999991
  9
$DIMRND
 40
0.0
  9
$DIMDLE
 40
0.0
  9
$DIMEXE
 40
29.999999999999996
  9
$DIMTP
 40
0.0
  9
$DIMTM
 40
0.0
  9
$DIMTXT
 40
40.721028645833343
  9
$DIMCEN
 40
0.0
  9
$DIMTSZ
 40
0.0
  9
$DIMTOL
 70
               0
  9
$DIMLIM
 70
               0
  9
$DIMTIH
 70
               0
  9
$DIMTOH
 70
               0
  9
$DIMSE1
 70
               0
  9
$DIMSE2
 70
               0
  9
$DIMTAD
 70
               1
  9
$DIMZIN
 70
              11
  9
$DIMBLK
  1
VW_EMPTYARROW
  9
$DIMASO
 70
               1
  9
$DIMSHO
 70
               1
  9
$DIMPOST
  1
<>
  9
$DIMAPOST
  1
[]
  9
$DIMALT
 70
               0
  9
$DIMALTD
 70
               2
  9
$DIMALTF
 40
1.0
  9
$DIMLFAC
 40
1.0
  9
$DIMTOFL
 70
               1
  9
$DIMTVP
 40
0.0
  9
$DIMTIX
 70
               1
  9
$DIMSOXD
 70
               0
  9
$DIMSAH
 70
               0
  9
$DIMBLK1
  1

  9
$DIMBLK2
  1

  9
$DIMSTYLE
  2
HIBINO
  9
$DIMCLRD
 70
               0
  9
$DIMCLRE
 70
               0
  9
$DIMCLRT
 70
               0
  9
$DIMTFAC
 40
1.0
  9
$DIMGAP
 40
0.4999999999999999
  9
$DIMJUST
 70
               0
  9
$DIMSD1
 70
               0
  9
$DIMSD2
 70
               0
  9
$DIMTOLJ
 70
               1
  9
$DIMTZIN
 70
              11
  9
$DIMALTZ
 70
              11
  9
$DIMALTTZ
 70
              11
  9
$DIMUPT
 70
               0
  9
$DIMDEC
 70
               2
  9
$DIMTDEC
 70
               2
  9
$DIMALTU
 70
               2
  9
$DIMALTTD
 70
               2
  9
$DIMTXSTY
  7
ＭＳ ゴシック
  9
$DIMAUNIT
 70
               0
  9
$DIMADEC
 70
               0
  9
$DIMALTRND
 40
0.0
  9
$DIMAZIN
 70
               0
  9
$DIMDSEP
 70
              46
  9
$DIMATFIT
 70
               0
  9
$DIMFRAC
 70
               2
  9
$DIMLDRBLK
  1

  9
$DIMLUNIT
 70
               2
  9
$DIMLWD
 70
              -2
  9
$DIMLWE
 70
              -2
  9
$DIMTMOVE
 70
               0
  9
$LUNITS
 70
               2
  9
$LUPREC
 70
               4
  9
$SKETCHINC
 40
0.1
  9
$FILLETRAD
 40
0.0
  9
$AUNITS
 70
               0
  9
$AUPREC
 70
               0
  9
$MENU
  1
acad
  9
$ELEVATION
 40
0.0
  9
$PELEVATION
 40
0.0
  9
$THICKNESS
 40
0.0
  9
$LIMCHECK
 70
               0
  9
$CHAMFERA
 40
0.0
  9
$CHAMFERB
 40
0.0
  9
$CHAMFERC
 40
0.0
  9
$CHAMFERD
 40
0.0
  9
$SKPOLY
 70
               0
  9
$TDCREATE
 40
2458499.668136574
  9
$TDUCREATE
 40
0.000000000
  9
$TDUPDATE
 40
2458499.668136574
  9
$TDUUPDATE
 40
0.000000000
  9
$TDINDWG
 40
0.0000000000
  9
$TDUSRTIMER
 40
0.0000000000
  9
$USRTIMER
 70
               1
  9
$ANGBASE
 50
0.0
  9
$ANGDIR
 70
               0
  9
$PDMODE
 70
               1
  9
$PDSIZE
 40
-2.0
  9
$PLINEWID
 40
0.0
  9
$SPLFRAME
 70
               0
  9
$SPLINETYPE
 70
               6
  9
$SPLINESEGS
 70
               8
  9
$HANDSEED
  5
299
  9
$SURFTAB1
 70
               6
  9
$SURFTAB2
 70
               6
  9
$SURFTYPE
 70
               6
  9
$SURFU
 70
               6
  9
$SURFV
 70
               6
  9
$UCSBASE
  2

  9
$UCSNAME
  2

  9
$UCSORG
 10
0.0
 20
0.0
 30
0.0
  9
$UCSXDIR
 10
1.0
 20
0.0
 30
0.0
  9
$UCSYDIR
 10
0.0
 20
1.0
 30
0.0
  9
$UCSORTHOREF
  2

  9
$UCSORTHOVIEW
 70
               0
  9
$UCSORGTOP
 10
0.0
 20
0.0
 30
0.0
  9
$UCSORGBOTTOM
 10
0.0
 20
0.0
 30
0.0
  9
$UCSORGLEFT
 10
0.0
 20
0.0
 30
0.0
  9
$UCSORGRIGHT
 10
0.0
 20
0.0
 30
0.0
  9
$UCSORGFRONT
 10
0.0
 20
0.0
 30
0.0
  9
$UCSORGBACK
 10
0.0
 20
0.0
 30
0.0
  9
$PUCSBASE
  2

  9
$PUCSNAME
  2

  9
$PUCSORG
 10
0.0
 20
0.0
 30
0.0
  9
$PUCSXDIR
 10
1.0
 20
0.0
 30
0.0
  9
$PUCSYDIR
 10
0.0
 20
1.0
 30
0.0
  9
$PUCSORTHOREF
  2

  9
$PUCSORTHOVIEW
 70
               0
  9
$PUCSORGTOP
 10
0.0
 20
0.0
 30
0.0
  9
$PUCSORGBOTTOM
 10
0.0
 20
0.0
 30
0.0
  9
$PUCSORGLEFT
 10
0.0
 20
0.0
 30
0.0
  9
$PUCSORGRIGHT
 10
0.0
 20
0.0
 30
0.0
  9
$PUCSORGFRONT
 10
0.0
 20
0.0
 30
0.0
  9
$PUCSORGBACK
 10
0.0
 20
0.0
 30
0.0
  9
$USERI1
 70
               0
  9
$USERI2
 70
               0
  9
$USERI3
 70
               0
  9
$USERI4
 70
               0
  9
$USERI5
 70
               0
  9
$USERR1
 40
0.0
  9
$USERR2
 40
0.0
  9
$USERR3
 40
0.0
  9
$USERR4
 40
0.0
  9
$USERR5
 40
0.0
  9
$WORLDVIEW
 70
               1
  9
$SHADEDGE
 70
               3
  9
$SHADEDIF
 70
              70
  9
$TILEMODE
 70
               1
  9
$MAXACTVP
 70
              64
  9
$PINSBASE
 10
0.0
 20
0.0
 30
0.0
  9
$PLIMCHECK
 70
               0
  9
$PEXTMIN
 10
1.0000000000000000E+20
 20
1.0000000000000000E+20
 30
1.0000000000000000E+20
  9
$PEXTMAX
 10
-1.0000000000000000E+20
 20
-1.0000000000000000E+20
 30
-1.0000000000000000E+20
  9
$PLIMMIN
 10
0.0
 20
0.0
  9
$PLIMMAX
 10
12.0
 20
9.0
  9
$UNITMODE
 70
               0
  9
$VISRETAIN
 70
               0
  9
$PLINEGEN
 70
               1
  9
$PSLTSCALE
 70
               0
  9
$TREEDEPTH
 70
            3020
  9
$CMLSTYLE
  2
Standard
  9
$CMLJUST
 70
               0
  9
$CMLSCALE
 40
1.0
  9
$PROXYGRAPHICS
 70
               0
  9
$MEASUREMENT
 70
               1
  9
$CELWEIGHT
370
               0
  9
$ENDCAPS
280
               0
  9
$JOINSTYLE
280
               0
  9
$LWDISPLAY
290
               0
  9
$INSUNITS
 70
               4
  9
$HYPERLINKBASE
  1

  9
$STYLESHEET
  1

  9
$XEDIT
290
               1
  9
$CEPSNTYPE
380
               0
  9
$PSTYLEMODE
290
               1
  9
$FINGERPRINTGUID
  2

  9
$VERSIONGUID
  2

  9
$EXTNAMES
290
               1
  9
$PSVPSCALE
 40
0.0
  0
ENDSEC
  0
SECTION
  2
CLASSES
  0
CLASS
  1
LWPOLYLINE
  2
AcDbPolyline
  3
AutoCAD 2000
 90
        0
280
               0
281
               1
  0
CLASS
  1
IMAGE
  2
AcDbRasterImage
  3
ISM
 90
      127
280
               0
281
               1
  0
CLASS
  1
OLE2FRAME
  2
AcDbOle2Frame
  3
AutoCAD 2000
 90
        0
280
               0
281
               1
  0
CLASS
  1
HATCH
  2
AcDbHatch
  3
AutoCAD 2000
 90
        0
280
               0
281
               1
  0
CLASS
  1
DICTIONARYVAR
  2
AcDbDictionaryVar
  3
AutoCAD 2000
 90
        0
280
               0
281
               0
  0
CLASS
  1
RASTERVARIABLES
  2
AcDbRasterVariables
  3
ISM
 90
        0
280
               0
281
               0
  0
CLASS
  1
IMAGEDEF
  2
AcDbRasterImageDef
  3
ISM
 90
        0
280
               0
281
               0
  0
CLASS
  1
IMAGEDEF_REACTOR
  2
AcDbRasterImageDefReactor
  3
ISM
 90
        1
280
               0
281
               0
  0
CLASS
  1
IDBUFFER
  2
AcDbIdBuffer
  3
AutoCAD 2000
 90
        0
280
               0
281
               0
  0
CLASS
  1
SPATIAL_FILTER
  2
AcDbSpatialFilter
  3
AutoCAD 2000
 90
        0
280
               0
281
               0
  0
CLASS
  1
XRECORD
  2
AcDbXrecord
  3
AutoCAD 2000
 90
        0
280
               0
281
               0
  0
CLASS
  1
SORTENTSTABLE
  2
AcDbSortentsTable
  3
AutoCAD 2000
 90
        0
280
               0
281
               0
  0
CLASS
  1
LAYER_INDEX
  2
AcDbLayerIndex
  3
AutoCAD 2000
 90
        0
280
               0
281
               0
  0
CLASS
  1
SPATIAL_INDEX
  2
AcDbSpatialIndex
  3
AutoCAD 2000
 90
        0
280
               0
281
               0
  0
CLASS
  1
OBJECT_PTR
  2
CAseDLPNTableRecord
  3
"ASE-LPNTableRecord"
 90
        1
280
               0
281
               0
  0
CLASS
  1
LAYOUT
  2
AcDbLayout
  3
AutoCAD 2000
 90
        0
280
               0
281
               0
  0
CLASS
  1
PLOTSETTINGS
  2
AcDbPlotSettings
  3
AutoCAD 2000
 90
        0
280
               0
281
               0
  0
CLASS
  1
ACDBDICTIONARYWDFLT
  2
AcDbDictionaryWithDefault
  3
AutoCAD 2000
 90
        0
280
               0
281
               0
  0
CLASS
  1
ACDBPLACEHOLDER
  2
AcDbPlaceHolder
  3
AutoCAD 2000
 90
        0
280
               0
281
               0
  0
CLASS
  1
VBA_PROJECT
  2
AcDbVbaProject
  3
acadvba
 90
        0
280
               0
281
               0
  0
CLASS
  1
WIPEOUT
  2
AcDbWipeout
  3
WipeOut|AutoCAD Express Tool|expresstools@autodesk.com
 90
      127
280
               0
281
               1
  0
CLASS
  1
WIPEOUTVARIABLES
  2
AcDbWipeoutVariables
  3
WipeOut|AutoCAD Express Tool|expresstools@autodesk.com
 90
        0
280
               0
281
               0
  0
CLASS
  1
RTEXT
  2
RText
  3
RText|AutoCAD Express Tool|expresstools@autodesk.com
 90
        0
280
               0
281
               1
  0
CLASS
  1
ARCALIGNEDTEXT
  2
AcDbArcAlignedText
  3
ATEXT|AutoCAD Express Tool|expresstools@autodesk.com
 90
        0
280
               0
281
               1
  0
ENDSEC
  0
SECTION
  2
TABLES
  0
TABLE
  2
VPORT
  5
7
100
AcDbSymbolTable
 70
               1
  0
VPORT
  5
15
100
AcDbSymbolTableRecord
100
AcDbViewportTableRecord
  2
*ACTIVE
 70
               0
 10
0.0
 20
0.0
 11
1.0
 21
1.0
 12
100.0
 22
136.46635210513409
 13
0.0
 23
0.0
 14
1.0
 24
1.0
 15
0.0
 25
0.0
 16
0.0
 26
0.0
 36
1.0
 17
0.0
 27
0.0
 37
0.0
 40
4006.0094368459772
 41
0.688564
 42
50.0
 43
0.0
 44
0.0
 50
0.0
 51
0.0
 71
               0
 72
            2000
 73
               1
 74
               1
 75
               0
 76
               0
 77
               0
 78
               0
281
               0
 65
               0
110
0.0
120
0.0
130
0.0
111
1.0
121
0.0
131
0.0
112
0.0
122
1.0
132
0.0
345
0
346
0
 79
               0
146
0.0
  0
ENDTAB
  0
TABLE
  2
LTYPE
  5
4
100
AcDbSymbolTable
 70
              13
  0
LTYPE
  5
11
100
AcDbSymbolTableRecord
100
AcDbLinetypeTableRecord
  2
ByBlock
 70
              64
  3

 72
              65
 73
               0
 40
0.0
  0
LTYPE
  5
12
100
AcDbSymbolTableRecord
100
AcDbLinetypeTableRecord
  2
ByLayer
 70
              64
  3

 72
              65
 73
               0
 40
0.0
  0
LTYPE
  5
13
100
AcDbSymbolTableRecord
100
AcDbLinetypeTableRecord
  2
Continuous
 70
              64
  3
Solid line
 72
              65
 73
               0
 40
0.0
  0
LTYPE
  5
2C
100
AcDbSymbolTableRecord
100
AcDbLinetypeTableRecord
  2
STYLE_01
 70
               0
  3

 72
              65
 73
               2
 40
0.4166412353515625
 49
0.208282470703125
 74
               0
 49
-0.2083587646484375
 74
               0
  0
LTYPE
  5
2D
100
AcDbSymbolTableRecord
100
AcDbLinetypeTableRecord
  2
STYLE_02
 70
               0
  3

 72
              65
 73
               2
 40
0.694427490234375
 49
0.4860687255859375
 74
               0
 49
-0.2083587646484375
 74
               0
  0
LTYPE
  5
2E
100
AcDbSymbolTableRecord
100
AcDbLinetypeTableRecord
  2
STYLE_03
 70
               0
  3

 72
              65
 73
               2
 40
1.25
 49
1.0416412353515625
 74
               0
 49
-0.2083587646484375
 74
               0
  0
LTYPE
  5
2F
100
AcDbSymbolTableRecord
100
AcDbLinetypeTableRecord
  2
STYLE_04
 70
               0
  3

 72
              65
 73
               2
 40
1.5277099609375
 49
1.319427490234375
 74
               0
 49
-0.208282470703125
 74
               0
  0
LTYPE
  5
30
100
AcDbSymbolTableRecord
100
AcDbLinetypeTableRecord
  2
STYLE_05
 70
               0
  3

 72
              65
 73
               2
 40
0.208282470703125
 49
0.069427490234375
 74
               0
 49
-0.13885498046875
 74
               0
  0
LTYPE
  5
31
100
AcDbSymbolTableRecord
100
AcDbLinetypeTableRecord
  2
STYLE_06
 70
               0
  3

 72
              65
 73
               4
 40
1.0416412353515625
 49
0.625
 74
               0
 49
-0.208282470703125
 74
               0
 49
0.069427490234375
 74
               0
 49
-0.1389312744140625
 74
               0
  0
LTYPE
  5
32
100
AcDbSymbolTableRecord
100
AcDbLinetypeTableRecord
  2
STYLE_07
 70
               0
  3

 72
              65
 73
               6
 40
1.875
 49
0.625
 74
               0
 49
-0.208282470703125
 74
               0
 49
0.625
 74
               0
 49
-0.2083587646484375
 74
               0
 49
0.069427490234375
 74
               0
 49
-0.1389312744140625
 74
               0
  0
LTYPE
  5
33
100
AcDbSymbolTableRecord
100
AcDbLinetypeTableRecord
  2
STYLE_08
 70
               0
  3

 72
              65
 73
               6
 40
1.25
 49
0.625
 74
               0
 49
-0.208282470703125
 74
               0
 49
0.069427490234375
 74
               0
 49
-0.1389312744140625
 74
               0
 49
0.069427490234375
 74
               0
 49
-0.1389312744140625
 74
               0
  0
LTYPE
  5
34
100
AcDbSymbolTableRecord
100
AcDbLinetypeTableRecord
  2
STYLE_09
 70
               0
  3

 72
              65
 73
               4
 40
5.0
 49
3.75
 74
               0
 49
-0.2777862548828125
 74
               0
 49
0.694427490234375
 74
               0
 49
-0.2777862548828125
 74
               0
  0
LTYPE
  5
35
100
AcDbSymbolTableRecord
100
AcDbLinetypeTableRecord
  2
STYLE_10
 70
               0
  3

 72
              65
 73
               6
 40
5.9375
 49
3.75
 74
               0
 49
-0.2777862548828125
 74
               0
 49
0.694427490234375
 74
               0
 49
-0.2777862548828125
 74
               0
 49
0.625
 74
               0
 49
-0.3125
 74
               0
  0
ENDTAB
  0
TABLE
  2
LAYER
  5
2
100
AcDbSymbolTable
 70
               5
  0
LAYER
  5
14
100
AcDbSymbolTableRecord
100
AcDbLayerTableRecord
  2
0
 70
               0
 62
               7
  6
Continuous
290
               1
370
              -3
390
1D
  0
LAYER
  5
36
100
AcDbSymbolTableRecord
100
AcDbLayerTableRecord
  2
一般
 70
               0
 62
               7
  6
Continuous
290
               1
370
               0
390
1D
  0
LAYER
  5
37
100
AcDbSymbolTableRecord
100
AcDbLayerTableRecord
  2
寸法
 70
               0
 62
               7
  6
Continuous
290
               1
370
               0
390
1D
  0
LAYER
  5
38
100
AcDbSymbolTableRecord
100
AcDbLayerTableRecord
  2
Layer1
 70
               0
 62
               3
  6
Continuous
290
               1
370
               0
390
1D
  0
LAYER
  5
39
100
AcDbSymbolTableRecord
100
AcDbLayerTableRecord
  2
Defpoints
 70
               0
 62
               7
  6
Continuous
290
               0
370
              -3
390
1D
  0
ENDTAB
  0
TABLE
  2
STYLE
  5
3
100
AcDbSymbolTable
 70
               2
  0
STYLE
  5
17
100
AcDbSymbolTableRecord
100
AcDbTextStyleTableRecord
  2
Standard
 70
               0
 40
0.0
 41
1.0
 50
0.0
 71
               0
 42
0.0
  3
txt
  4
BIGFONT.SHX
  0
STYLE
  5
2B
100
AcDbSymbolTableRecord
100
AcDbTextStyleTableRecord
  2
ＭＳ ゴシック
 70
               0
 40
0.0
 41
1.0
 50
0.0
 71
               0
 42
0.0
  3

  4
ＭＳ ゴシック
1001
ACAD
1000
ＭＳ ゴシック
1071
        0
  0
ENDTAB
  0
TABLE
  2
VIEW
  5
5
100
AcDbSymbolTable
 70
               0
  0
ENDTAB
  0
TABLE
  2
UCS
  5
6
100
AcDbSymbolTable
 70
               0
  0
ENDTAB
  0
TABLE
  2
APPID
  5
8
100
AcDbSymbolTable
 70
               1
  0
APPID
  5
16
100
AcDbSymbolTableRecord
100
AcDbRegAppTableRecord
  2
ACAD
 70
               0
  0
ENDTAB
  0
TABLE
  2
DIMSTYLE
  5
9
100
AcDbSymbolTable
 70
               2
100
AcDbDimStyleTable
 71
               0
  0
DIMSTYLE
105
18
100
AcDbSymbolTableRecord
100
AcDbDimStyleTableRecord
  2
Standard
 70
               0
  3

  4

 40
1.0
 41
0.18
 42
0.0625
 43
0.38
 44
0.18
 45
0.0
 46
0.0
 47
0.0
 48
0.0
 71
               0
 72
               0
 73
               1
 74
               1
 75
               0
 76
               0
 77
               0
 78
               0
 79
               0
140
0.18
141
0.09
142
0.0
143
25.399999999999999
144
1.0
145
0.0
146
1.0
147
0.09
148
0.0
170
               0
171
               2
172
               0
173
               0
174
               0
175
               0
176
               0
177
               0
178
               0
179
               0
271
               4
272
               4
273
               2
274
               2
275
               0
276
               0
277
               2
278
              46
279
               0
280
               0
281
               0
282
               0
283
               1
284
               0
285
               0
286
               0
288
               0
289
               3
340
17
341
0
342
0
343
0
344
0
371
              -2
372
              -2
  0
DIMSTYLE
105
43
100
AcDbSymbolTableRecord
100
AcDbDimStyleTableRecord
  2
HIBINO
 70
               0
  3
<>
  4
[]
 40
1.0
 41
37.50933837890625
 42
29.999999999999996
 43
4.9999999999999991
 44
29.999999999999996
 45
0.0
 46
0.0
 47
0.0
 48
0.0
 71
               0
 72
               0
 73
               0
 74
               0
 75
               0
 76
               0
 77
               1
 78
              11
 79
               0
140
40.721028645833343
141
0.0
142
0.0
143
1.0
144
1.0
145
0.0
146
1.0
147
0.4999999999999999
148
0.0
170
               0
171
               2
172
               1
173
               0
174
               1
175
               0
176
               0
177
               0
178
               0
179
               0
271
               2
272
               2
273
               2
274
               2
275
               0
276
               2
277
               2
278
              46
279
               0
280
               0
281
               0
282
               0
283
               1
284
              11
285
              11
286
              11
288
               0
289
               0
340
2B
341
3A
342
3A
343
0
344
0
371
              -2
372
              -2
  0
ENDTAB
  0
TABLE
  2
BLOCK_RECORD
  5
1
100
AcDbSymbolTable
 70
               8
  0
BLOCK_RECORD
  5
A
100
AcDbSymbolTableRecord
100
AcDbBlockTableRecord
  2
*MODEL_SPACE
340
20
  0
BLOCK_RECORD
  5
B
100
AcDbSymbolTableRecord
100
AcDbBlockTableRecord
  2
*PAPER_SPACE
340
21
  0
BLOCK_RECORD
  5
3A
100
AcDbSymbolTableRecord
100
AcDbBlockTableRecord
  2
VW_EMPTYARROW
340
0
  0
BLOCK_RECORD
  5
24
100
AcDbSymbolTableRecord
100
AcDbBlockTableRecord
  2
Callout
340
0
102
{BLKREFS
331
110
102
}
  0
BLOCK_RECORD
  5
25
100
AcDbSymbolTableRecord
100
AcDbBlockTableRecord
  2
*D2
340
0
  0
BLOCK_RECORD
  5
26
100
AcDbSymbolTableRecord
100
AcDbBlockTableRecord
  2
*D3
340
0
  0
BLOCK_RECORD
  5
27
100
AcDbSymbolTableRecord
100
AcDbBlockTableRecord
  2
*D4
340
0
  0
BLOCK_RECORD
  5
28
100
AcDbSymbolTableRecord
100
AcDbBlockTableRecord
  2
*D5
340
0
  0
BLOCK_RECORD
  5
29
100
AcDbSymbolTableRecord
100
AcDbBlockTableRecord
  2
*D6
340
0
  0
BLOCK_RECORD
  5
2A
100
AcDbSymbolTableRecord
100
AcDbBlockTableRecord
  2
Callout-1
340
0
102
{BLKREFS
331
298
102
}
  0
ENDTAB
  0
ENDSEC
  0
SECTION
  2
BLOCKS
  0
BLOCK
  5
D
100
AcDbEntity
  8
0
390
0
100
AcDbBlockBegin
  2
*MODEL_SPACE
 70
               0
 10
0.0
 20
0.0
 30
0.0
  3
*MODEL_SPACE
  1

  0
ENDBLK
  5
E
100
AcDbEntity
  8
0
390
0
100
AcDbBlockEnd
  0
BLOCK
  5
F
100
AcDbEntity
 67
               1
  8
0
390
0
100
AcDbBlockBegin
  2
*PAPER_SPACE
 70
               0
 10
0.0
 20
0.0
 30
0.0
  3
*PAPER_SPACE
  1

  0
ENDBLK
  5
10
100
AcDbEntity
 67
               1
  8
0
390
0
100
AcDbBlockEnd
  0
BLOCK
  5
3B
100
AcDbEntity
  8
0
370
              -2
390
0
  6
ByBlock
 62
               0
100
AcDbBlockBegin
  2
VW_EMPTYARROW
 70
               0
 10
0.0
 20
0.0
 30
0.0
  3
VW_EMPTYARROW
  1

  0
LINE
  5
3C
100
AcDbEntity
  8
0
370
              -2
390
0
  6
ByBlock
 62
               0
100
AcDbLine
 10
0.0
 20
0.0
 30
0.0
 11
-1.0
 21
0.0
 31
0.0
  0
POLYLINE
  5
3D
100
AcDbEntity
  8
一般
370
              -2
390
0
  6
Continuous
 62
               0
100
AcDb2dPolyline
 66
               1
 10
0.0
 20
0.0
 30
0.0
 75
               5
  0
VERTEX
  5
3E
100
AcDbEntity
  8
一般
370
              -2
390
0
  6
Continuous
 62
               0
100
AcDbVertex
100
AcDb2dVertex
 10
-0.99993896484375
 20
0.2679328381102957
 30
0.0
  0
VERTEX
  5
3F
100
AcDbEntity
  8
一般
370
              -2
390
0
  6
Continuous
 62
               0
100
AcDbVertex
100
AcDb2dVertex
 10
0.0
 20
0.0
 30
0.0
  0
VERTEX
  5
40
100
AcDbEntity
  8
一般
370
              -2
390
0
  6
Continuous
 62
               0
100
AcDbVertex
100
AcDb2dVertex
 10
-0.9999389648437499
 20
-0.2679328381102959
 30
0.0
  0
SEQEND
  5
41
100
AcDbEntity
  8
一般
370
              -2
390
0
  6
Continuous
 62
               0
  0
ENDBLK
  5
42
100
AcDbEntity
  8
0
390
0
100
AcDbBlockEnd
  0
BLOCK
  5
44
100
AcDbEntity
  8
Layer1
390
0
100
AcDbBlockBegin
  2
Callout
 70
               2
 10
0.0
 20
0.0
 30
0.0
  3
Callout
  1

  0
MTEXT
  5
45
100
AcDbEntity
  8
Layer1
390
0
 62
               1
100
AcDbMText
 10
10.375188710587135
 20
-51.533123378078031
 30
0.0
 40
36.64892578125
 41
675.24900000000002
 71
               1
 72
               1
  1
{\fＭＳ ゴシック|b0|i0|c128|p0;\lG512Proのこの位置のネジ径は左右ともに8mmです。}
 11
-0.1804480335776183
 21
-0.9835845195904471
 31
0.0
 73
               1
 44
0.7828267384257843
  0
LINE
  5
46
100
AcDbEntity
  8
Layer1
370
               0
390
0
  6
Continuous
 62
               1
100
AcDbLine
 10
-8.593837599134087
 20
-46.843212745495045
 30
0.0
 11
0.0
 21
0.0
 31
0.0
  0
LINE
  5
47
100
AcDbEntity
  8
Layer1
370
               0
390
0
  6
Continuous
 62
               1
100
AcDbLine
 10
0.0
 20
0.0
 30
0.0
 11
497.71513426687397
 21
0.0
 31
0.0
  0
POLYLINE
  5
48
100
AcDbEntity
  8
一般
370
               0
390
0
  6
Continuous
 62
               1
100
AcDb2dPolyline
 66
               1
 10
0.0
 20
0.0
 30
0.0
 75
               5
  0
VERTEX
  5
49
100
AcDbEntity
  8
一般
370
               0
390
0
  6
Continuous
 62
               1
100
AcDbVertex
100
AcDb2dVertex
 10
450.09013426687397
 20
12.76108028953222
 30
0.0
  0
VERTEX
  5
4A
100
AcDbEntity
  8
一般
370
               0
390
0
  6
Continuous
 62
               1
100
AcDbVertex
100
AcDb2dVertex
 10
497.71513426687397
 20
0.0
 30
0.0
  0
VERTEX
  5
4B
100
AcDbEntity
  8
一般
370
               0
390
0
  6
Continuous
 62
               1
100
AcDbVertex
100
AcDb2dVertex
 10
450.09013426687397
 20
-12.761080289532231
 30
0.0
  0
SEQEND
  5
4C
100
AcDbEntity
  8
一般
370
               0
390
0
  6
Continuous
 62
               1
  0
ENDBLK
  5
4D
100
AcDbEntity
  8
Layer1
390
0
100
AcDbBlockEnd
  0
BLOCK
  5
4E
100
AcDbEntity
  8
寸法
390
0
100
AcDbBlockBegin
  2
*D2
 70
               1
 10
0.0
 20
0.0
 30
0.0
  3
*D2
  1

  0
LINE
  5
4F
100
AcDbEntity
  8
寸法
370
              -2
390
0
  6
Continuous
 62
               0
100
AcDbLine
 10
-329.99999999903275
 20
-600.00000000043372
 30
0.0
 11
-480.0
 21
-600.00000000043372
 31
0.0
  0
LINE
  5
50
100
AcDbEntity
  8
寸法
370
              -2
390
0
  6
Continuous
 62
               0
100
AcDbLine
 10
-329.99999999903912
 20
29.999999999567365
 30
0.0
 11
-480.0
 21
29.999999999567365
 31
0.0
  0
LINE
  5
51
100
AcDbEntity
  8
寸法
370
              -2
390
0
  6
Continuous
 62
               0
100
AcDbLine
 10
-450.0
 20
-600.00000000043372
 30
0.0
 11
-450.0
 21
29.999999999567365
 31
0.0
  0
POLYLINE
  5
52
100
AcDbEntity
  8
一般
370
              -2
390
0
  6
Continuous
 62
               0
100
AcDb2dPolyline
 66
               1
 10
0.0
 20
0.0
 30
0.0
 75
               5
  0
VERTEX
  5
53
100
AcDbEntity
  8
一般
370
              -2
390
0
  6
Continuous
 62
               0
100
AcDbVertex
100
AcDb2dVertex
 10
-439.94940307274635
 20
-562.49066162152747
 30
0.0
  0
VERTEX
  5
54
100
AcDbEntity
  8
一般
370
              -2
390
0
  6
Continuous
 62
               0
100
AcDbVertex
100
AcDb2dVertex
 10
-450.0
 20
-600.00000000043372
 30
0.0
  0
VERTEX
  5
55
100
AcDbEntity
  8
一般
370
              -2
390
0
  6
Continuous
 62
               0
100
AcDbVertex
100
AcDb2dVertex
 10
-460.05059692725365
 20
-562.49066162152747
 30
0.0
  0
SEQEND
  5
56
100
AcDbEntity
  8
一般
370
              -2
390
0
  6
Continuous
 62
               0
  0
POLYLINE
  5
57
100
AcDbEntity
  8
一般
370
              -2
390
0
  6
Continuous
 62
               0
100
AcDb2dPolyline
 66
               1
 10
0.0
 20
0.0
 30
0.0
 75
               5
  0
VERTEX
  5
58
100
AcDbEntity
  8
一般
370
              -2
390
0
  6
Continuous
 62
               0
100
AcDbVertex
100
AcDb2dVertex
 10
-460.05059692725365
 20
-7.5093383793388853
 30
0.0
  0
VERTEX
  5
59
100
AcDbEntity
  8
一般
370
              -2
390
0
  6
Continuous
 62
               0
100
AcDbVertex
100
AcDb2dVertex
 10
-450.0
 20
29.999999999567365
 30
0.0
  0
VERTEX
  5
5A
100
AcDbEntity
  8
一般
370
              -2
390
0
  6
Continuous
 62
               0
100
AcDbVertex
100
AcDb2dVertex
 10
-439.94940307274635
 20
-7.5093383793388853
 30
0.0
  0
SEQEND
  5
5B
100
AcDbEntity
  8
一般
370
              -2
390
0
  6
Continuous
 62
               0
  0
MTEXT
  5
5C
100
AcDbEntity
  8
寸法
390
0
 62
               0
100
AcDbMText
 10
-505.62936197916679
 20
-324.68750000043315
 30
0.0
 40
40.721028645833343
 41
0.0
 71
               1
 72
               1
  1
{\fＭＳ ゴシック|b0|i0|c128|p0;\l630}
 11
0.0
 21
1.0
 31
0.0
 73
               1
 44
0.7828267384257843
  0
POINT
  5
5D
100
AcDbEntity
  8
Defpoints
370
               0
390
0
 62
               0
100
AcDbPoint
 10
-299.99999999903912
 20
29.999999999567365
 30
0.0
  0
POINT
  5
5E
100
AcDbEntity
  8
Defpoints
370
               0
390
0
 62
               0
100
AcDbPoint
 10
-299.99999999903275
 20
-600.00000000043372
 30
0.0
  0
POINT
  5
5F
100
AcDbEntity
  8
Defpoints
370
               0
390
0
 62
               0
100
AcDbPoint
 10
-450.0
 20
-600.00000000043372
 30
0.0
  0
ENDBLK
  5
60
100
AcDbEntity
  8
寸法
390
0
100
AcDbBlockEnd
  0
BLOCK
  5
61
100
AcDbEntity
  8
寸法
390
0
100
AcDbBlockBegin
  2
*D3
 70
               1
 10
0.0
 20
0.0
 30
0.0
  3
*D3
  1

  0
LINE
  5
62
100
AcDbEntity
  8
寸法
370
              -2
390
0
  6
Continuous
 62
               0
100
AcDbLine
 10
-299.99999999903275
 20
-630.00000000043372
 30
0.0
 11
-299.99999999903275
 21
-780.0
 31
0.0
  0
LINE
  5
63
100
AcDbEntity
  8
寸法
370
              -2
390
0
  6
Continuous
 62
               0
100
AcDbLine
 10
48.000000000969962
 20
-630.00000000043121
 30
0.0
 11
48.000000000969962
 21
-780.0
 31
0.0
  0
LINE
  5
64
100
AcDbEntity
  8
寸法
370
              -2
390
0
  6
Continuous
 62
               0
100
AcDbLine
 10
-299.99999999903275
 20
-750.0
 30
0.0
 11
48.000000000969962
 21
-750.0
 31
0.0
  0
POLYLINE
  5
65
100
AcDbEntity
  8
一般
370
              -2
390
0
  6
Continuous
 62
               0
100
AcDb2dPolyline
 66
               1
 10
0.0
 20
0.0
 30
0.0
 75
               5
  0
VERTEX
  5
66
100
AcDbEntity
  8
一般
370
              -2
390
0
  6
Continuous
 62
               0
100
AcDbVertex
100
AcDb2dVertex
 10
-262.4906616201265
 20
-760.05059692725365
 30
0.0
  0
VERTEX
  5
67
100
AcDbEntity
  8
一般
370
              -2
390
0
  6
Continuous
 62
               0
100
AcDbVertex
100
AcDb2dVertex
 10
-299.99999999903275
 20
-750.0
 30
0.0
  0
VERTEX
  5
68
100
AcDbEntity
  8
一般
370
              -2
390
0
  6
Continuous
 62
               0
100
AcDbVertex
100
AcDb2dVertex
 10
-262.4906616201265
 20
-739.94940307274635
 30
0.0
  0
SEQEND
  5
69
100
AcDbEntity
  8
一般
370
              -2
390
0
  6
Continuous
 62
               0
  0
POLYLINE
  5
6A
100
AcDbEntity
  8
一般
370
              -2
390
0
  6
Continuous
 62
               0
100
AcDb2dPolyline
 66
               1
 10
0.0
 20
0.0
 30
0.0
 75
               5
  0
VERTEX
  5
6B
100
AcDbEntity
  8
一般
370
              -2
390
0
  6
Continuous
 62
               0
100
AcDbVertex
100
AcDb2dVertex
 10
10.490661622063712
 20
-739.94940307274635
 30
0.0
  0
VERTEX
  5
6C
100
AcDbEntity
  8
一般
370
              -2
390
0
  6
Continuous
 62
               0
100
AcDbVertex
100
AcDb2dVertex
 10
48.000000000969962
 20
-750.0
 30
0.0
  0
VERTEX
  5
6D
100
AcDbEntity
  8
一般
370
              -2
390
0
  6
Continuous
 62
               0
100
AcDbVertex
100
AcDb2dVertex
 10
10.490661622063712
 20
-760.05059692725365
 30
0.0
  0
SEQEND
  5
6E
100
AcDbEntity
  8
一般
370
              -2
390
0
  6
Continuous
 62
               0
  0
MTEXT
  5
6F
100
AcDbEntity
  8
寸法
390
0
 62
               0
100
AcDbMText
 10
-165.68749999903139
 20
-694.37063802083333
 30
0.0
 40
40.721028645833343
 41
0.0
 71
               1
 72
               1
  1
{\fＭＳ ゴシック|b0|i0|c128|p0;\l348}
 73
               1
 44
0.7828267384257843
  0
POINT
  5
70
100
AcDbEntity
  8
Defpoints
370
               0
390
0
 62
               0
100
AcDbPoint
 10
48.000000000969962
 20
-600.00000000043121
 30
0.0
  0
POINT
  5
71
100
AcDbEntity
  8
Defpoints
370
               0
390
0
 62
               0
100
AcDbPoint
 10
-299.99999999903275
 20
-600.00000000043372
 30
0.0
  0
POINT
  5
72
100
AcDbEntity
  8
Defpoints
370
               0
390
0
 62
               0
100
AcDbPoint
 10
-299.99999999903275
 20
-750.0
 30
0.0
  0
ENDBLK
  5
73
100
AcDbEntity
  8
寸法
390
0
100
AcDbBlockEnd
  0
BLOCK
  5
74
100
AcDbEntity
  8
寸法
390
0
100
AcDbBlockBegin
  2
*D4
 70
               1
 10
0.0
 20
0.0
 30
0.0
  3
*D4
  1

  0
LINE
  5
75
100
AcDbEntity
  8
寸法
370
              -2
390
0
  6
Continuous
 62
               0
100
AcDbLine
 10
-157.4305987908715
 20
350.0
 30
0.0
 11
-480.0
 21
350.0
 31
0.0
  0
LINE
  5
76
100
AcDbEntity
  8
寸法
370
              -2
390
0
  6
Continuous
 62
               0
100
AcDbLine
 10
-221.60489598323329
 20
670.00000000021441
 30
0.0
 11
-480.0
 21
670.00000000021441
 31
0.0
  0
LINE
  5
77
100
AcDbEntity
  8
寸法
370
              -2
390
0
  6
Continuous
 62
               0
100
AcDbLine
 10
-450.0
 20
350.0
 30
0.0
 11
-450.0
 21
670.00000000021441
 31
0.0
  0
POLYLINE
  5
78
100
AcDbEntity
  8
一般
370
              -2
390
0
  6
Continuous
 62
               0
100
AcDb2dPolyline
 66
               1
 10
0.0
 20
0.0
 30
0.0
 75
               5
  0
VERTEX
  5
79
100
AcDbEntity
  8
一般
370
              -2
390
0
  6
Continuous
 62
               0
100
AcDbVertex
100
AcDb2dVertex
 10
-439.94940307274635
 20
387.50933837890625
 30
0.0
  0
VERTEX
  5
7A
100
AcDbEntity
  8
一般
370
              -2
390
0
  6
Continuous
 62
               0
100
AcDbVertex
100
AcDb2dVertex
 10
-450.0
 20
350.0
 30
0.0
  0
VERTEX
  5
7B
100
AcDbEntity
  8
一般
370
              -2
390
0
  6
Continuous
 62
               0
100
AcDbVertex
100
AcDb2dVertex
 10
-460.05059692725365
 20
387.50933837890625
 30
0.0
  0
SEQEND
  5
7C
100
AcDbEntity
  8
一般
370
              -2
390
0
  6
Continuous
 62
               0
  0
POLYLINE
  5
7D
100
AcDbEntity
  8
一般
370
              -2
390
0
  6
Continuous
 62
               0
100
AcDb2dPolyline
 66
               1
 10
0.0
 20
0.0
 30
0.0
 75
               5
  0
VERTEX
  5
7E
100
AcDbEntity
  8
一般
370
              -2
390
0
  6
Continuous
 62
               0
100
AcDbVertex
100
AcDb2dVertex
 10
-460.05059692725365
 20
632.49066162130816
 30
0.0
  0
VERTEX
  5
7F
100
AcDbEntity
  8
一般
370
              -2
390
0
  6
Continuous
 62
               0
100
AcDbVertex
100
AcDb2dVertex
 10
-450.0
 20
670.00000000021441
 30
0.0
  0
VERTEX
  5
80
100
AcDbEntity
  8
一般
370
              -2
390
0
  6
Continuous
 62
               0
100
AcDbVertex
100
AcDb2dVertex
 10
-439.94940307274635
 20
632.49066162130816
 30
0.0
  0
SEQEND
  5
81
100
AcDbEntity
  8
一般
370
              -2
390
0
  6
Continuous
 62
               0
  0
MTEXT
  5
82
100
AcDbEntity
  8
寸法
390
0
 62
               0
100
AcDbMText
 10
-505.62936197916679
 20
470.31250000010721
 30
0.0
 40
40.721028645833343
 41
0.0
 71
               1
 72
               1
  1
{\fＭＳ ゴシック|b0|i0|c128|p0;\l320}
 11
0.0
 21
1.0
 31
0.0
 73
               1
 44
0.7828267384257843
  0
POINT
  5
83
100
AcDbEntity
  8
Defpoints
370
               0
390
0
 62
               0
100
AcDbPoint
 10
-191.60489598323329
 20
670.00000000021441
 30
0.0
  0
POINT
  5
84
100
AcDbEntity
  8
Defpoints
370
               0
390
0
 62
               0
100
AcDbPoint
 10
-127.43059879087154
 20
350.0
 30
0.0
  0
POINT
  5
85
100
AcDbEntity
  8
Defpoints
370
               0
390
0
 62
               0
100
AcDbPoint
 10
-450.0
 20
350.0
 30
0.0
  0
ENDBLK
  5
86
100
AcDbEntity
  8
寸法
390
0
100
AcDbBlockEnd
  0
BLOCK
  5
87
100
AcDbEntity
  8
寸法
390
0
100
AcDbBlockBegin
  2
*D5
 70
               1
 10
0.0
 20
0.0
 30
0.0
  3
*D5
  1

  0
LINE
  5
88
100
AcDbEntity
  8
寸法
370
              -2
390
0
  6
Continuous
 62
               0
100
AcDbLine
 10
-154.18536344304397
 20
672.18052061330877
 30
0.0
 11
-191.0267243196738
 21
697.97713598457244
 31
0.0
  0
LINE
  5
89
100
AcDbEntity
  8
寸法
370
              -2
390
0
  6
Continuous
 62
               0
100
AcDbLine
 10
50.0
 20
630.0
 30
0.0
 11
50.0
 21
823.44766018998791
 31
0.0
  0
ARC
  5
8A
100
AcDbEntity
  8
寸法
370
              -2
390
0
  6
Continuous
 62
               0
100
AcDbCircle
 10
50.0
 20
529.20829700787863
 30
0.0
 40
264.23936318210934
100
AcDbArc
 50
90.0
 51
144.99998250212357
  0
POLYLINE
  5
8B
100
AcDbEntity
  8
一般
370
              -2
390
0
  6
Continuous
 62
               0
100
AcDb2dPolyline
 66
               1
 10
0.0
 20
0.0
 30
0.0
 75
               5
  0
VERTEX
  5
8C
100
AcDbEntity
  8
一般
370
              -2
390
0
  6
Continuous
 62
               0
100
AcDbVertex
100
AcDb2dVertex
 10
-136.27362860590603
 20
705.20793493479982
 30
0.0
  0
VERTEX
  5
8D
100
AcDbEntity
  8
一般
370
              -2
390
0
  6
Continuous
 62
               0
100
AcDbVertex
100
AcDb2dVertex
 10
-166.45216824603602
 20
680.76983538907996
 30
0.0
  0
VERTEX
  5
8E
100
AcDbEntity
  8
一般
370
              -2
390
0
  6
Continuous
 62
               0
100
AcDbVertex
100
AcDb2dVertex
 10
-152.53583604142773
 20
717.0231202359513
 30
0.0
  0
SEQEND
  5
8F
100
AcDbEntity
  8
一般
370
              -2
390
0
  6
Continuous
 62
               0
  0
POLYLINE
  5
90
100
AcDbEntity
  8
一般
370
              -2
390
0
  6
Continuous
 62
               0
100
AcDb2dPolyline
 66
               1
 10
0.0
 20
0.0
 30
0.0
 75
               5
  0
VERTEX
  5
91
100
AcDbEntity
  8
一般
370
              -2
390
0
  6
Continuous
 62
               0
100
AcDbVertex
100
AcDb2dVertex
 10
12.490661621093764
 20
803.49825711724156
 30
0.0
  0
VERTEX
  5
92
100
AcDbEntity
  8
一般
370
              -2
390
0
  6
Continuous
 62
               0
100
AcDbVertex
100
AcDb2dVertex
 10
50.000000000000014
 20
793.44766018998791
 30
0.0
  0
VERTEX
  5
93
100
AcDbEntity
  8
一般
370
              -2
390
0
  6
Continuous
 62
               0
100
AcDbVertex
100
AcDb2dVertex
 10
12.490661621093764
 20
783.39706326273426
 30
0.0
  0
SEQEND
  5
94
100
AcDbEntity
  8
一般
370
              -2
390
0
  6
Continuous
 62
               0
  0
MTEXT
  5
95
100
AcDbEntity
  8
寸法
390
0
 62
               0
100
AcDbMText
 10
-144.63655725605088
 20
788.5011536910564
 30
0.0
 40
40.721028645833343
 41
0.0
 71
               1
 72
               1
  1
{\fＭＳ ゴシック|b0|i0|c128|p0;\l55°}
 11
0.8870109036861985
 21
0.4617484777904455
 31
0.0
 73
               1
 44
0.7828267384257843
  0
POINT
  5
96
100
AcDbEntity
  8
Defpoints
370
               0
390
0
 62
               0
100
AcDbPoint
 10
-129.61080736940619
 20
654.9732200178164
 30
0.0
  0
POINT
  5
97
100
AcDbEntity
  8
Defpoints
370
               0
390
0
 62
               0
100
AcDbPoint
 10
50.0
 20
600.0
 30
0.0
  0
POINT
  5
98
100
AcDbEntity
  8
Defpoints
370
               0
390
0
 62
               0
100
AcDbPoint
 10
50.0
 20
529.20829700787863
 30
0.0
  0
ENDBLK
  5
99
100
AcDbEntity
  8
寸法
390
0
100
AcDbBlockEnd
  0
BLOCK
  5
9A
100
AcDbEntity
  8
寸法
390
0
100
AcDbBlockBegin
  2
*D6
 70
               1
 10
0.0
 20
0.0
 30
0.0
  3
*D6
  1

  0
LINE
  5
9B
100
AcDbEntity
  8
寸法
370
              -2
390
0
  6
Continuous
 62
               0
100
AcDbLine
 10
-299.99995273407455
 20
627.26679559891647
 30
0.0
 11
-299.99995273407455
 21
756.21938001667729
 31
0.0
  0
LINE
  5
9C
100
AcDbEntity
  8
寸法
370
              -2
390
0
  6
Continuous
 62
               0
100
AcDbLine
 10
-207.82786687942041
 20
679.5477893129339
 30
0.0
 11
-180.51998701560126
 21
718.54752193757531
 31
0.0
  0
ARC
  5
9D
100
AcDbEntity
  8
寸法
370
              -2
390
0
  6
Continuous
 62
               0
100
AcDbCircle
 10
-299.99995273407455
 20
547.91227891398512
 30
0.0
 40
178.3071011026922
100
AcDbArc
 50
55.000026526106275
 51
90.0
  0
POLYLINE
  5
9E
100
AcDbEntity
  8
一般
370
              -2
390
0
  6
Continuous
 62
               0
100
AcDb2dPolyline
 66
               1
 10
0.0
 20
0.0
 30
0.0
 75
               5
  0
VERTEX
  5
9F
100
AcDbEntity
  8
一般
370
              -2
390
0
  6
Continuous
 62
               0
100
AcDbVertex
100
AcDb2dVertex
 10
-262.4906143551683
 20
716.16878308942364
 30
0.0
  0
VERTEX
  5
A0
100
AcDbEntity
  8
一般
370
              -2
390
0
  6
Continuous
 62
               0
100
AcDbVertex
100
AcDb2dVertex
 10
-299.99995273407455
 20
726.21938001667729
 30
0.0
  0
VERTEX
  5
A1
100
AcDbEntity
  8
一般
370
              -2
390
0
  6
Continuous
 62
               0
100
AcDbVertex
100
AcDb2dVertex
 10
-262.4906143551683
 20
736.26997694393094
 30
0.0
  0
SEQEND
  5
A2
100
AcDbEntity
  8
一般
370
              -2
390
0
  6
Continuous
 62
               0
  0
POLYLINE
  5
A3
100
AcDbEntity
  8
一般
370
              -2
390
0
  6
Continuous
 62
               0
100
AcDb2dPolyline
 66
               1
 10
0.0
 20
0.0
 30
0.0
 75
               5
  0
VERTEX
  5
A4
100
AcDbEntity
  8
一般
370
              -2
390
0
  6
Continuous
 62
               0
100
AcDbVertex
100
AcDb2dVertex
 10
-222.68833437317164
 20
723.72039229902703
 30
0.0
  0
VERTEX
  5
A5
100
AcDbEntity
  8
一般
370
              -2
390
0
  6
Continuous
 62
               0
100
AcDbVertex
100
AcDb2dVertex
 10
-197.72726872889797
 20
693.97295264248396
 30
0.0
  0
VERTEX
  5
A6
100
AcDbEntity
  8
一般
370
              -2
390
0
  6
Continuous
 62
               0
100
AcDbVertex
100
AcDb2dVertex
 10
-234.21790551064146
 20
707.25445826045802
 30
0.0
  0
SEQEND
  5
A7
100
AcDbEntity
  8
一般
370
              -2
390
0
  6
Continuous
 62
               0
  0
MTEXT
  5
A8
100
AcDbEntity
  8
寸法
390
0
 62
               0
100
AcDbMText
 10
-262.92739581717507
 20
784.8765544788987
 30
0.0
 40
40.721028645833343
 41
0.0
 71
               1
 72
               1
  1
{\fＭＳ ゴシック|b0|i0|c128|p0;\l35°}
 11
0.9295347697897739
 21
-0.3687344732349717
 31
0.0
 73
               1
 44
0.7828267384257843
  0
POINT
  5
A9
100
AcDbEntity
  8
Defpoints
370
               0
390
0
 62
               0
100
AcDbPoint
 10
-299.99995273407455
 20
597.26679559891647
 30
0.0
  0
POINT
  5
AA
100
AcDbEntity
  8
Defpoints
370
               0
390
0
 62
               0
100
AcDbPoint
 10
-225.03514859271706
 20
654.97322001784255
 30
0.0
  0
POINT
  5
AB
100
AcDbEntity
  8
Defpoints
370
               0
390
0
 62
               0
100
AcDbPoint
 10
-299.99995273407455
 20
547.91227891398512
 30
0.0
  0
ENDBLK
  5
AC
100
AcDbEntity
  8
寸法
390
0
100
AcDbBlockEnd
  0
BLOCK
  5
AD
100
AcDbEntity
  8
一般
390
0
100
AcDbBlockBegin
  2
Callout-1
 70
               2
 10
0.0
 20
0.0
 30
0.0
  3
Callout-1
  1

  0
MTEXT
  5
AE
100
AcDbEntity
  8
一般
390
0
 62
               1
100
AcDbMText
 10
-93.271994097473694
 20
31.329417299911206
 30
0.0
 40
36.64892578125
 41
95.504000000000019
 71
               1
 72
               1
  1
{\fＭＳ ゴシック|b0|i0|c128|p0;\lΦM6}
 11
-0.8660254037844384
 21
0.5000000000000004
 31
0.0
 73
               1
 44
0.7828267384257843
  0
LINE
  5
AF
100
AcDbEntity
  8
一般
370
               0
390
0
  6
Continuous
 62
               1
100
AcDbLine
 10
-82.488919710467783
 20
47.624999999999993
 30
0.0
 11
0.0
 21
0.0
 31
0.0
  0
LINE
  5
B0
100
AcDbEntity
  8
一般
370
               0
390
0
  6
Continuous
 62
               1
100
AcDbLine
 10
0.0
 20
0.0
 30
0.0
 11
308.4494146727202
 21
0.0
 31
0.0
  0
POLYLINE
  5
B1
100
AcDbEntity
  8
一般
370
               0
390
0
  6
Continuous
 62
               1
100
AcDb2dPolyline
 66
               1
 10
0.0
 20
0.0
 30
0.0
 75
               5
  0
VERTEX
  5
B2
100
AcDbEntity
  8
一般
370
               0
390
0
  6
Continuous
 62
               1
100
AcDbVertex
100
AcDb2dVertex
 10
260.8244146727202
 20
12.76108028953222
 30
0.0
  0
VERTEX
  5
B3
100
AcDbEntity
  8
一般
370
               0
390
0
  6
Continuous
 62
               1
100
AcDbVertex
100
AcDb2dVertex
 10
308.4494146727202
 20
0.0
 30
0.0
  0
VERTEX
  5
B4
100
AcDbEntity
  8
一般
370
               0
390
0
  6
Continuous
 62
               1
100
AcDbVertex
100
AcDb2dVertex
 10
260.8244146727202
 20
-12.761080289532231
 30
0.0
  0
SEQEND
  5
B5
100
AcDbEntity
  8
一般
370
               0
390
0
  6
Continuous
 62
               1
  0
ENDBLK
  5
B6
100
AcDbEntity
  8
一般
390
0
100
AcDbBlockEnd
  0
ENDSEC
  0
SECTION
  2
ENTITIES
  0
LINE
  5
B7
100
AcDbEntity
  8
一般
370
               0
390
0
  6
Continuous
 62
               2
100
AcDbLine
 10
-1249.9999999999998
 20
2139.4710705281227
 30
0.0
 11
1449.9999999999998
 21
2139.4710705281227
 31
0.0
  0
LINE
  5
B8
100
AcDbEntity
  8
一般
370
               0
390
0
  6
Continuous
 62
               2
100
AcDbLine
 10
1449.9999999999998
 20
-1760.5289294718773
 30
0.0
 11
-1249.9999999999998
 21
-1760.5289294718773
 31
0.0
  0
LINE
  5
B9
100
AcDbEntity
  8
一般
370
               0
390
0
  6
Continuous
 62
               2
100
AcDbLine
 10
-1249.9999999999998
 20
-1760.5289294718773
 30
0.0
 11
-1249.9999999999998
 21
2139.4710705281227
 31
0.0
  0
LINE
  5
BA
100
AcDbEntity
  8
一般
370
               0
390
0
  6
Continuous
 62
               2
100
AcDbLine
 10
1449.9999999999998
 20
2139.4710705281227
 30
0.0
 11
1449.9999999999998
 21
-1760.5289294718773
 31
0.0
  0
LINE
  5
BB
100
AcDbEntity
  8
一般
370
               0
390
0
  6
Continuous
 62
               2
100
AcDbLine
 10
99.999999999999986
 20
-1423.0289294718771
 30
0.0
 11
1449.9999999999998
 21
-1423.0289294718771
 31
0.0
  0
LINE
  5
BC
100
AcDbEntity
  8
一般
370
               0
390
0
  6
Continuous
 62
               2
100
AcDbLine
 10
99.999999999999986
 20
-1760.5289294718773
 30
0.0
 11
99.999999999999986
 21
-1423.0289294718771
 31
0.0
  0
MTEXT
  5
BD
100
AcDbEntity
  8
一般
390
0
 62
               1
100
AcDbMText
 10
113.49999999999999
 20
-1436.2267122843773
 30
0.0
 40
24.432617187499996
 41
0.0
 71
               1
 72
               1
  1
{\fＭＳ ゴシック|b0|i0|c128|p0;\lNOTE}
 73
               1
 44
0.7828267384257843
  0
LINE
  5
BE
100
AcDbEntity
  8
一般
370
               0
390
0
  6
Continuous
 62
               1
100
AcDbLine
 10
625.0
 20
-1760.5289294718773
 30
0.0
 11
625.0
 21
-1423.0289294718771
 31
0.0
  0
MTEXT
  5
BF
100
AcDbEntity
  8
一般
390
0
 62
               1
100
AcDbMText
 10
638.5
 20
-1436.2267122843773
 30
0.0
 40
24.432617187499996
 41
0.0
 71
               1
 72
               1
  1
{\fＭＳ ゴシック|b0|i0|c128|p0;\lTITLE}
 73
               1
 44
0.7828267384257843
  0
LINE
  5
C0
100
AcDbEntity
  8
一般
370
               0
390
0
  6
Continuous
 62
               1
100
AcDbLine
 10
99.999999999999986
 20
-1610.5289294718771
 30
0.0
 11
1449.9999999999998
 21
-1610.5289294718771
 31
0.0
  0
MTEXT
  5
C1
100
AcDbEntity
  8
一般
390
0
 62
               1
100
AcDbMText
 10
826.0
 20
-1622.8819122843772
 30
0.0
 40
24.432617187499996
 41
0.0
 71
               1
 72
               1
  1
{\fＭＳ ゴシック|b0|i0|c128|p0;\lDRAWN}
 73
               1
 44
0.7828267384257843
  0
MTEXT
  5
C2
100
AcDbEntity
  8
一般
390
0
 62
               1
100
AcDbMText
 10
451.0
 20
-1622.8819122843772
 30
0.0
 40
24.432617187499996
 41
0.0
 71
               1
 72
               1
  1
{\fＭＳ ゴシック|b0|i0|c128|p0;\lDATE}
 73
               1
 44
0.7828267384257843
  0
MTEXT
  5
C3
100
AcDbEntity
  8
一般
390
0
 62
               1
100
AcDbMText
 10
300.99999999999994
 20
-1622.8819122843772
 30
0.0
 40
24.432617187499996
 41
0.0
 71
               1
 72
               1
  1
{\fＭＳ ゴシック|b0|i0|c128|p0;\lSCALE}
 73
               1
 44
0.7828267384257843
  0
MTEXT
  5
C4
100
AcDbEntity
  8
一般
390
0
 62
               1
100
AcDbMText
 10
638.5
 20
-1622.8819122843772
 30
0.0
 40
24.432617187499996
 41
0.0
 71
               1
 72
               1
  1
{\fＭＳ ゴシック|b0|i0|c128|p0;\lDESIGN}
 73
               1
 44
0.7828267384257843
  0
MTEXT
  5
C5
100
AcDbEntity
  8
一般
390
0
 62
               1
100
AcDbMText
 10
1200.9999999999998
 20
-1622.8819122843772
 30
0.0
 40
24.432617187499996
 41
0.0
 71
               1
 72
               1
  1
{\fＭＳ ゴシック|b0|i0|c128|p0;\lDRAWING NO.}
 73
               1
 44
0.7828267384257843
  0
MTEXT
  5
C6
100
AcDbEntity
  8
一般
390
0
 62
               1
100
AcDbMText
 10
1013.4999999999999
 20
-1622.8819122843772
 30
0.0
 40
24.432617187499996
 41
0.0
 71
               1
 72
               1
  1
{\fＭＳ ゴシック|b0|i0|c128|p0;\lCHECK}
 73
               1
 44
0.7828267384257843
  0
LINE
  5
C7
100
AcDbEntity
  8
一般
370
               0
390
0
  6
Continuous
 62
               1
100
AcDbLine
 10
315.62499999999994
 20
-1741.7789294718773
 30
0.0
 11
371.875
 21
-1685.5289294718771
 31
0.0
  0
MTEXT
  5
C8
100
AcDbEntity
  8
一般
390
0
 62
               1
100
AcDbMText
 10
306.24999999999994
 20
-1677.7304622843772
 30
0.0
 40
24.432617187499996
 41
0.0
 71
               1
 72
               1
  1
{\fＭＳ ゴシック|b0|i0|c128|p0;\l1}
 73
               1
 44
0.7828267384257843
  0
LINE
  5
C9
100
AcDbEntity
  8
一般
370
               0
390
0
  6
Continuous
 62
               1
100
AcDbLine
 10
287.49999999999994
 20
-1760.5289294718773
 30
0.0
 11
287.49999999999994
 21
-1610.5289294718771
 31
0.0
  0
LINE
  5
CA
100
AcDbEntity
  8
一般
370
               0
390
0
  6
Continuous
 62
               1
100
AcDbLine
 10
437.49999999999994
 20
-1760.5289294718773
 30
0.0
 11
437.49999999999994
 21
-1610.5289294718771
 31
0.0
  0
LINE
  5
CB
100
AcDbEntity
  8
一般
370
               0
390
0
  6
Continuous
 62
               1
100
AcDbLine
 10
812.49999999999989
 20
-1610.5289294718771
 30
0.0
 11
812.49999999999989
 21
-1760.5289294718773
 31
0.0
  0
LINE
  5
CC
100
AcDbEntity
  8
一般
370
               0
390
0
  6
Continuous
 62
               1
100
AcDbLine
 10
1187.5
 20
-1610.5289294718771
 30
0.0
 11
1187.5
 21
-1760.5289294718773
 31
0.0
  0
LINE
  5
CD
100
AcDbEntity
  8
一般
370
               0
390
0
  6
Continuous
 62
               1
100
AcDbLine
 10
999.99999999999989
 20
-1760.5289294718773
 30
0.0
 11
999.99999999999989
 21
-1610.5289294718771
 31
0.0
  0
MTEXT
  5
CE
100
AcDbEntity
  8
一般
390
0
 62
               1
100
AcDbMText
 10
450.34809999999999
 20
-1693.1416122843773
 30
0.0
 40
24.432617187499996
 41
0.0
 71
               1
 72
               1
  1
{\fＭＳ ゴシック|b0|i0|c128|p0;\l19.01}
 73
               1
 44
0.7828267384257843
  0
MTEXT
  5
CF
100
AcDbEntity
  8
一般
390
0
 62
               1
100
AcDbMText
 10
362.5
 20
-1705.8554622843772
 30
0.0
 40
24.432617187499996
 41
0.0
 71
               1
 72
               1
  1
{\fＭＳ ゴシック|b0|i0|c128|p0;\l15}
 73
               1
 44
0.7828267384257843
  0
MTEXT
  5
D0
100
AcDbEntity
  8
一般
390
0
 62
               1
100
AcDbMText
 10
835.08715016551935
 20
-1693.1416122843773
 30
0.0
 40
24.432617187499996
 41
0.0
 71
               1
 72
               1
  1
{\fＭＳ ゴシック|b0|i0|c128|p0;\lshohei\P kojima}
 73
               1
 44
0.7828267384257843
  0
MTEXT
  5
D1
100
AcDbEntity
  8
一般
390
0
 62
               1
100
AcDbMText
 10
158.25000000000023
 20
-1682.023695096877
 30
0.0
 40
48.865234374999993
 41
0.0
 71
               1
 72
               1
  1
{\fＭＳ ゴシック|b0|i0|c128|p0;\lA4}
 73
               1
 44
0.7828267384257843
  0
MTEXT
  5
D2
100
AcDbEntity
  8
一般
390
0
 62
               1
100
AcDbMText
 10
114.37499999999997
 20
-1625.3881372843771
 30
0.0
 40
24.432617187499996
 41
0.0
 71
               1
 72
               1
  1
{\fＭＳ ゴシック|b0|i0|c128|p0;\lPAPER SIZE}
 73
               1
 44
0.7828267384257843
  0
MTEXT
  5
D3
100
AcDbEntity
  8
一般
390
0
 62
               1
100
AcDbMText
 10
-1208.6054711466472
 20
-1803.9701957449379
 30
0.0
 40
52.937337239583329
 41
0.0
 71
               1
 72
               1
  1
{\fＭＳ ゴシック|b0|i0|c128|p0;\lHibino-Intersound Corporation}
 73
               1
 44
0.7828267384257843
  0
MTEXT
  5
D4
100
AcDbEntity
  8
一般
390
0
 62
               1
100
AcDbMText
 10
402.70914520320849
 20
-1798.7038719455968
 30
0.0
 40
52.937337239583329
 41
0.0
 71
               1
 72
               1
  1
{\fＭＳ ゴシック|b0|i0|c128|p0;\lヒビノインタ ーサウンド株式会社}
 73
               1
 44
0.7828267384257843
  0
LINE
  5
D5
100
AcDbEntity
  8
一般
370
               0
390
0
  6
Continuous
 62
               1
100
AcDbLine
 10
-1037.4999999999998
 20
1989.4710705281225
 30
0.0
 11
1175.0
 21
1989.4710705281225
 31
0.0
  0
LINE
  5
D6
100
AcDbEntity
  8
一般
370
               0
390
0
  6
Continuous
 62
               1
100
AcDbLine
 10
-1037.4999999999998
 20
1933.2210705281225
 30
0.0
 11
1175.0
 21
1933.2210705281225
 31
0.0
  0
LINE
  5
D7
100
AcDbEntity
  8
一般
370
               0
390
0
  6
Continuous
 62
               1
100
AcDbLine
 10
-1037.4999999999998
 20
1820.7210705281225
 30
0.0
 11
1175.0
 21
1820.7210705281225
 31
0.0
  0
LINE
  5
D8
100
AcDbEntity
  8
一般
370
               0
390
0
  6
Continuous
 62
               1
100
AcDbLine
 10
-549.99999999999989
 20
1876.9710705281225
 30
0.0
 11
1175.0
 21
1876.9710705281225
 31
0.0
  0
LINE
  5
D9
100
AcDbEntity
  8
一般
370
               0
390
0
  6
Continuous
 62
               1
100
AcDbLine
 10
-1037.4999999999998
 20
1989.4710705281225
 30
0.0
 11
-1037.4999999999998
 21
1033.2210705281225
 31
0.0
  0
MTEXT
  5
DA
100
AcDbEntity
  8
一般
390
0
 62
               1
100
AcDbMText
 10
-1018.7499999999998
 20
2047.0190463093727
 30
0.0
 40
36.64892578125
 41
0.0
 71
               1
 72
               1
  1
{\fＭＳ ゴシック|b0|i0|c128|p0;\l仕様}
 73
               1
 44
0.7828267384257843
  0
LINE
  5
DB
100
AcDbEntity
  8
一般
370
               0
390
0
  6
Continuous
 62
               1
100
AcDbLine
 10
-549.99999999999989
 20
1989.4710705281225
 30
0.0
 11
-550.0
 21
1033.2210705281225
 31
0.0
  0
LINE
  5
DC
100
AcDbEntity
  8
一般
370
               0
390
0
  6
Continuous
 62
               1
100
AcDbLine
 10
1175.0
 20
1989.4710705281225
 30
0.0
 11
1175.0
 21
1033.2210705281225
 31
0.0
  0
LINE
  5
DD
100
AcDbEntity
  8
一般
370
               0
390
0
  6
Continuous
 62
               1
100
AcDbLine
 10
-1037.4999999999998
 20
1764.4710705281225
 30
0.0
 11
1175.0
 21
1764.4710705281225
 31
0.0
  0
LINE
  5
DE
100
AcDbEntity
  8
一般
370
               0
390
0
  6
Continuous
 62
               1
100
AcDbLine
 10
-1037.4999999999998
 20
1708.2210705281225
 30
0.0
 11
1175.0
 21
1708.2210705281225
 31
0.0
  0
LINE
  5
DF
100
AcDbEntity
  8
一般
370
               0
390
0
  6
Continuous
 62
               1
100
AcDbLine
 10
-1037.4999999999998
 20
1651.9710705281225
 30
0.0
 11
1175.0
 21
1651.9710705281225
 31
0.0
  0
LINE
  5
E0
100
AcDbEntity
  8
一般
370
               0
390
0
  6
Continuous
 62
               1
100
AcDbLine
 10
-1037.4999999999998
 20
1595.7210705281225
 30
0.0
 11
1175.0
 21
1595.7210705281225
 31
0.0
  0
LINE
  5
E1
100
AcDbEntity
  8
一般
370
               0
390
0
  6
Continuous
 62
               1
100
AcDbLine
 10
-549.99999999999989
 20
1539.4710705281225
 30
0.0
 11
1175.0
 21
1539.4710705281225
 31
0.0
  0
LINE
  5
E2
100
AcDbEntity
  8
一般
370
               0
390
0
  6
Continuous
 62
               1
100
AcDbLine
 10
-549.99999999999989
 20
1483.2210705281225
 30
0.0
 11
1175.0
 21
1483.2210705281225
 31
0.0
  0
LINE
  5
E3
100
AcDbEntity
  8
一般
370
               0
390
0
  6
Continuous
 62
               1
100
AcDbLine
 10
-549.99999999999989
 20
1426.9710705281225
 30
0.0
 11
1175.0
 21
1426.9710705281225
 31
0.0
  0
LINE
  5
E4
100
AcDbEntity
  8
一般
370
               0
390
0
  6
Continuous
 62
               1
100
AcDbLine
 10
-1037.4999999999998
 20
1370.7210705281225
 30
0.0
 11
1175.0
 21
1370.7210705281225
 31
0.0
  0
LINE
  5
E5
100
AcDbEntity
  8
一般
370
               0
390
0
  6
Continuous
 62
               1
100
AcDbLine
 10
-1037.4999999999998
 20
1314.4710705281225
 30
0.0
 11
1175.0
 21
1314.4710705281225
 31
0.0
  0
LINE
  5
E6
100
AcDbEntity
  8
一般
370
               0
390
0
  6
Continuous
 62
               1
100
AcDbLine
 10
-1037.4999999999998
 20
1258.2210705281225
 30
0.0
 11
1175.0
 21
1258.2210705281225
 31
0.0
  0
MTEXT
  5
E7
100
AcDbEntity
  8
一般
390
0
 62
               1
100
AcDbMText
 10
-1026.253402260606
 20
1244.6883889212083
 30
0.0
 40
28.504720052083332
 41
0.0
 71
               1
 72
               1
  1
{\fＭＳ ゴシック|b0|i0|c128|p0;\lエンクロージャー}
 73
               1
 44
0.7828267384257843
  0
MTEXT
  5
E8
100
AcDbEntity
  8
一般
390
0
 62
               1
100
AcDbMText
 10
-536.04846723336721
 20
1130.2654768924435
 30
0.0
 40
28.504720052083332
 41
0.0
 71
               1
 72
               1
  1
{\fＭＳ ゴシック|b0|i0|c128|p0;\l348(W)×630(H)×320(D)mm(突起部含まず）}
 73
               1
 44
0.7828267384257843
  0
MTEXT
  5
E9
100
AcDbEntity
  8
一般
390
0
 62
               1
100
AcDbMText
 10
-536.70032930733794
 20
1188.4362706170189
 30
0.0
 40
28.504720052083332
 41
0.0
 71
               1
 72
               1
  1
{\fＭＳ ゴシック|b0|i0|c128|p0;\lポリウレア樹脂塗装　黒}
 73
               1
 44
0.7828267384257843
  0
MTEXT
  5
EA
100
AcDbEntity
  8
一般
390
0
 62
               1
100
AcDbMText
 10
-1024.1496401700006
 20
1190.0717439765488
 30
0.0
 40
28.504720052083332
 41
0.0
 71
               1
 72
               1
  1
{\fＭＳ ゴシック|b0|i0|c128|p0;\l仕上げ}
 73
               1
 44
0.7828267384257843
  0
MTEXT
  5
EB
100
AcDbEntity
  8
一般
390
0
 62
               1
100
AcDbMText
 10
-1024.5739666945406
 20
1358.1060377537206
 30
0.0
 40
28.504720052083332
 41
0.0
 71
               1
 72
               1
  1
{\fＭＳ ゴシック|b0|i0|c128|p0;\l入力コネクタ ー}
 73
               1
 44
0.7828267384257843
  0
MTEXT
  5
EC
100
AcDbEntity
  8
一般
390
0
 62
               1
100
AcDbMText
 10
-536.38980852022371
 20
1355.862219637447
 30
0.0
 40
28.504720052083332
 41
0.0
 71
               1
 72
               1
  1
{\fＭＳ ゴシック|b0|i0|c128|p0;\l2×Neutrik NL4MP}
 73
               1
 44
0.7828267384257843
  0
MTEXT
  5
ED
100
AcDbEntity
  8
一般
390
0
 62
               1
100
AcDbMText
 10
-1024.2387238909109
 20
1300.8748534403574
 30
0.0
 40
28.504720052083332
 41
0.0
 71
               1
 72
               1
  1
{\fＭＳ ゴシック|b0|i0|c128|p0;\l公称インピーダンス}
 73
               1
 44
0.7828267384257843
  0
MTEXT
  5
EE
100
AcDbEntity
  8
一般
390
0
 62
               1
100
AcDbMText
 10
-536.69649561882227
 20
1300.4878706051952
 30
0.0
 40
28.504720052083332
 41
0.0
 71
               1
 72
               1
  1
{\fＭＳ ゴシック|b0|i0|c128|p0;\l8Ω}
 73
               1
 44
0.7828267384257843
  0
MTEXT
  5
EF
100
AcDbEntity
  8
一般
390
0
 62
               1
100
AcDbMText
 10
-1024.8074419570676
 20
1920.3963233423199
 30
0.0
 40
28.504720052083332
 41
0.0
 71
               1
 72
               1
  1
{\fＭＳ ゴシック|b0|i0|c128|p0;\l形式}
 73
               1
 44
0.7828267384257843
  0
MTEXT
  5
F0
100
AcDbEntity
  8
一般
390
0
 62
               1
100
AcDbMText
 10
-536.4821648183148
 20
1918.0188830630129
 30
0.0
 40
28.504720052083332
 41
0.0
 71
               1
 72
               1
  1
{\fＭＳ ゴシック|b0|i0|c128|p0;\l2-Way フルレンジ・スピーカーシステム}
 73
               1
 44
0.7828267384257843
  0
MTEXT
  5
F1
100
AcDbEntity
  8
一般
390
0
 62
               1
100
AcDbMText
 10
-1024.3470622377317
 20
1807.158487092662
 30
0.0
 40
28.504720052083332
 41
0.0
 71
               1
 72
               1
  1
{\fＭＳ ゴシック|b0|i0|c128|p0;\l周波数特性}
 73
               1
 44
0.7828267384257843
  0
MTEXT
  5
F2
100
AcDbEntity
  8
一般
390
0
 62
               1
100
AcDbMText
 10
-1024.9865430874981
 20
1750.6733563417604
 30
0.0
 40
28.504720052083332
 41
0.0
 71
               1
 72
               1
  1
{\fＭＳ ゴシック|b0|i0|c128|p0;\l許容入力(AES/ピーク）}
 73
               1
 44
0.7828267384257843
  0
MTEXT
  5
F3
100
AcDbEntity
  8
一般
390
0
 62
               1
100
AcDbMText
 10
-1024.4940488192826
 20
1695.8976007313324
 30
0.0
 40
28.504720052083332
 41
0.0
 71
               1
 72
               1
  1
{\fＭＳ ゴシック|b0|i0|c128|p0;\l感度}
 73
               1
 44
0.7828267384257843
  0
MTEXT
  5
F4
100
AcDbEntity
  8
一般
390
0
 62
               1
100
AcDbMText
 10
-1023.9498472400196
 20
1639.4644170449567
 30
0.0
 40
28.504720052083332
 41
0.0
 71
               1
 72
               1
  1
{\fＭＳ ゴシック|b0|i0|c128|p0;\l最大音圧}
 73
               1
 44
0.7828267384257843
  0
MTEXT
  5
F5
100
AcDbEntity
  8
一般
390
0
 62
               1
100
AcDbMText
 10
-1026.8609062369183
 20
1582.7931338952594
 30
0.0
 40
28.504720052083332
 41
0.0
 71
               1
 72
               1
  1
{\fＭＳ ゴシック|b0|i0|c128|p0;\lカバレージ角}
 73
               1
 44
0.7828267384257843
  0
MTEXT
  5
F6
100
AcDbEntity
  8
一般
390
0
 62
               1
100
AcDbMText
 10
-1035.59488602703
 20
1529.4556554022256
 30
0.0
 40
28.504720052083332
 41
0.0
 71
               1
 72
               1
  1
{\fＭＳ ゴシック|b0|i0|c128|p0;\lドライバー構成}
 73
               1
 44
0.7828267384257843
  0
MTEXT
  5
F7
100
AcDbEntity
  8
一般
390
0
 62
               1
100
AcDbMText
 10
-1026.1682398732198
 20
1412.9638415333934
 30
0.0
 40
28.504720052083332
 41
0.0
 71
               1
 72
               1
  1
{\fＭＳ ゴシック|b0|i0|c128|p0;\lクロスオーバー}
 73
               1
 44
0.7828267384257843
  0
MTEXT
  5
F8
100
AcDbEntity
  8
一般
390
0
 62
               1
100
AcDbMText
 10
-1025.4849709920627
 20
1132.2104928615577
 30
0.0
 40
28.504720052083332
 41
0.0
 71
               1
 72
               1
  1
{\fＭＳ ゴシック|b0|i0|c128|p0;\l寸法}
 73
               1
 44
0.7828267384257843
  0
MTEXT
  5
F9
100
AcDbEntity
  8
一般
390
0
 62
               1
100
AcDbMText
 10
-536.92811729434368
 20
1077.2254886451365
 30
0.0
 40
28.504720052083332
 41
0.0
 71
               1
 72
               1
  1
{\fＭＳ ゴシック|b0|i0|c128|p0;\l約16kg}
 73
               1
 44
0.7828267384257843
  0
MTEXT
  5
FA
100
AcDbEntity
  8
一般
390
0
 62
               1
100
AcDbMText
 10
-1024.8403468895051
 20
1076.5269985247019
 30
0.0
 40
28.504720052083332
 41
0.0
 71
               1
 72
               1
  1
{\fＭＳ ゴシック|b0|i0|c128|p0;\l重量}
 73
               1
 44
0.7828267384257843
  0
MTEXT
  5
FB
100
AcDbEntity
  8
一般
390
0
 62
               1
100
AcDbMText
 10
-536.36333765384722
 20
1804.9126886356582
 30
0.0
 40
28.504720052083332
 41
0.0
 71
               1
 72
               1
  1
{\fＭＳ ゴシック|b0|i0|c128|p0;\l60Hz～21kHz(-3dB)}
 73
               1
 44
0.7828267384257843
  0
MTEXT
  5
FC
100
AcDbEntity
  8
一般
390
0
 62
               1
100
AcDbMText
 10
-536.97112038138459
 20
1749.2131750164222
 30
0.0
 40
28.504720052083332
 41
0.0
 71
               1
 72
               1
  1
{\fＭＳ ゴシック|b0|i0|c128|p0;\l600W/2400W}
 73
               1
 44
0.7828267384257843
  0
MTEXT
  5
FD
100
AcDbEntity
  8
一般
390
0
 62
               1
100
AcDbMText
 10
-536.5415257608845
 20
1693.3953086883528
 30
0.0
 40
28.504720052083332
 41
0.0
 71
               1
 72
               1
  1
{\fＭＳ ゴシック|b0|i0|c128|p0;\l98dB}
 73
               1
 44
0.7828267384257843
  0
MTEXT
  5
FE
100
AcDbEntity
  8
一般
390
0
 62
               1
100
AcDbMText
 10
-538.34569917557019
 20
1637.3853393221057
 30
0.0
 40
28.504720052083332
 41
0.0
 71
               1
 72
               1
  1
{\fＭＳ ゴシック|b0|i0|c128|p0;\l132dB}
 73
               1
 44
0.7828267384257843
  0
MTEXT
  5
FF
100
AcDbEntity
  8
一般
390
0
 62
               1
100
AcDbMText
 10
-536.27740625294939
 20
1579.8035128416855
 30
0.0
 40
28.504720052083332
 41
0.0
 71
               1
 72
               1
  1
{\fＭＳ ゴシック|b0|i0|c128|p0;\l90°×60°}
 73
               1
 44
0.7828267384257843
  0
MTEXT
  5
100
100
AcDbEntity
  8
一般
390
0
 62
               1
100
AcDbMText
 10
-536.66305963321417
 20
1526.7165829299518
 30
0.0
 40
28.504720052083332
 41
0.0
 71
               1
 72
               1
  1
{\fＭＳ ゴシック|b0|i0|c128|p0;\l低域：1×12インチネオジム磁石採用、3インチボイスコイル}
 73
               1
 44
0.7828267384257843
  0
MTEXT
  5
101
100
AcDbEntity
  8
一般
390
0
 62
               1
100
AcDbMText
 10
-536.84350440732032
 20
1470.8675405692736
 30
0.0
 40
28.504720052083332
 41
0.0
 71
               1
 72
               1
  1
{\fＭＳ ゴシック|b0|i0|c128|p0;\l高域：1インチネオジム磁石採用コンプレッションドライバー、1.75インチボイスコイル }
 73
               1
 44
0.7828267384257843
  0
MTEXT
  5
102
100
AcDbEntity
  8
一般
390
0
 62
               1
100
AcDbMText
 10
-536.86345393199247
 20
1412.9077883291782
 30
0.0
 40
28.504720052083332
 41
0.0
 71
               1
 72
               1
  1
{\fＭＳ ゴシック|b0|i0|c128|p0;\l1.3kHz}
 73
               1
 44
0.7828267384257843
  0
MTEXT
  5
103
100
AcDbEntity
  8
一般
390
0
 62
               1
100
AcDbMText
 10
-537.34701457796382
 20
1245.5727629047076
 30
0.0
 40
28.504720052083332
 41
0.0
 71
               1
 72
               1
  1
{\fＭＳ ゴシック|b0|i0|c128|p0;\l合板}
 73
               1
 44
0.7828267384257843
  0
LINE
  5
104
100
AcDbEntity
  8
一般
370
               0
390
0
  6
Continuous
 62
               1
100
AcDbLine
 10
-1037.4999999999998
 20
1201.9710705281225
 30
0.0
 11
1175.0
 21
1201.9710705281225
 31
0.0
  0
LINE
  5
105
100
AcDbEntity
  8
一般
370
               0
390
0
  6
Continuous
 62
               1
100
AcDbLine
 10
-1037.4999999999998
 20
1145.7210705281225
 30
0.0
 11
1175.0
 21
1145.7210705281225
 31
0.0
  0
LINE
  5
106
100
AcDbEntity
  8
一般
370
               0
390
0
  6
Continuous
 62
               1
100
AcDbLine
 10
-1037.4999999999998
 20
1089.4710705281225
 30
0.0
 11
1175.0
 21
1089.4710705281225
 31
0.0
  0
MTEXT
  5
107
100
AcDbEntity
  8
一般
390
0
 62
               1
100
AcDbMText
 10
-235.38593683979207
 20
1972.6626737977135
 30
0.0
 40
28.504720052083332
 41
0.0
 71
               1
 72
               1
  1
{\fＭＳ ゴシック|b0|i0|c128|p0;\lG512Pro-L}
 73
               1
 44
0.7828267384257843
  0
LINE
  5
108
100
AcDbEntity
  8
一般
370
               0
390
0
  6
Continuous
 62
               1
100
AcDbLine
 10
-1037.4999999999998
 20
1033.2210705281225
 30
0.0
 11
1175.0
 21
1033.2210705281225
 31
0.0
  0
MTEXT
  5
109
100
AcDbEntity
  8
一般
390
0
 62
               1
100
AcDbMText
 10
414.61406316020793
 20
1974.462797911945
 30
0.0
 40
28.504720052083332
 41
0.0
 71
               1
 72
               1
  1
{\fＭＳ ゴシック|b0|i0|c128|p0;\lG512Pro-R}
 73
               1
 44
0.7828267384257843
  0
LINE
  5
10A
100
AcDbEntity
  8
一般
370
               0
390
0
  6
Continuous
 62
               1
100
AcDbLine
 10
300.0
 20
1820.7210705281225
 30
0.0
 11
300.0
 21
1876.9710705281225
 31
0.0
  0
LINE
  5
10B
100
AcDbEntity
  8
一般
370
               0
390
0
  6
Continuous
 62
               1
100
AcDbLine
 10
300.0
 20
1933.2210705281225
 30
0.0
 11
300.0
 21
1989.4710705281225
 31
0.0
  0
MTEXT
  5
10C
100
AcDbEntity
  8
一般
390
0
 62
               1
100
AcDbMText
 10
-536.58587507697644
 20
1863.8302585464592
 30
0.0
 40
28.504720052083332
 41
0.0
 71
               1
 72
               1
  1
{\fＭＳ ゴシック|b0|i0|c128|p0;\lL仕様}
 73
               1
 44
0.7828267384257843
  0
MTEXT
  5
10D
100
AcDbEntity
  8
一般
390
0
 62
               1
100
AcDbMText
 10
313.32771372389209
 20
1863.1686692185722
 30
0.0
 40
28.504720052083332
 41
0.0
 71
               1
 72
               1
  1
{\fＭＳ ゴシック|b0|i0|c128|p0;\lR仕様}
 73
               1
 44
0.7828267384257843
  0
LINE
  5
10E
100
AcDbEntity
  8
一般
370
               0
390
0
  6
Continuous
 62
               1
100
AcDbLine
 10
-549.99999999999989
 20
1426.9710705281225
 30
0.0
 11
-1037.4999999999998
 21
1426.9710705281225
 31
0.0
  0
LINE
  5
10F
100
AcDbEntity
  8
一般
370
               0
390
0
  6
Continuous
 62
               1
100
AcDbLine
 10
-549.99999999999989
 20
1539.4710705281225
 30
0.0
 11
-1037.4999999999998
 21
1539.4710705281225
 31
0.0
  0
INSERT
  5
110
100
AcDbEntity
  8
Layer1
390
0
 62
               1
100
AcDbBlockReference
  2
Callout
 10
554.899441574702
 20
-781.04490123125788
 30
0.0
 50
100.39585757433396
  0
MTEXT
  5
111
100
AcDbEntity
  8
一般
390
0
 62
               1
100
AcDbMText
 10
-200.0
 20
-1539.8376536906271
 30
0.0
 40
36.64892578125
 41
0.0
 71
               1
 72
               1
  1
{\fＭＳ ゴシック|b0|i0|c128|p0;\l(単位：mm)}
 73
               1
 44
0.7828267384257843
  0
DIMENSION
  5
112
100
AcDbEntity
  8
寸法
370
               0
390
0
  6
Continuous
 62
               1
100
AcDbDimension
  2
*D2
 10
-450.0
 20
-600.00000000043372
 30
0.0
 11
-450.0
 21
-285.00000000043315
 31
0.0
 71
               5
 72
               1
 41
1.0
 42
0.0
  3
HIBINO
100
AcDbAlignedDimension
 13
-299.99999999903912
 23
29.999999999567365
 33
0.0
 14
-299.99999999903275
 24
-600.00000000043372
 34
0.0
 50
-90.0
100
AcDbRotatedDimension
1001
ACAD
1000
DSTYLE
1002
{
1070
             279
1070
               2
1070
             340
1005
2B
1070
             147
1040
7.5
1002
}
  0
DIMENSION
  5
113
100
AcDbEntity
  8
寸法
370
               0
390
0
  6
Continuous
 62
               1
100
AcDbDimension
  2
*D3
 10
-299.99999999903275
 20
-750.0
 30
0.0
 11
-125.9999999990314
 21
-750.0
 31
0.0
 71
               5
 72
               1
 41
1.0
 42
0.0
  3
HIBINO
100
AcDbAlignedDimension
 13
48.000000000969962
 23
-600.00000000043121
 33
0.0
 14
-299.99999999903275
 24
-600.00000000043372
 34
0.0
100
AcDbRotatedDimension
1001
ACAD
1000
DSTYLE
1002
{
1070
             279
1070
               2
1070
             340
1005
2B
1070
             147
1040
7.5
1002
}
  0
DIMENSION
  5
114
100
AcDbEntity
  8
寸法
370
               0
390
0
  6
Continuous
 62
               1
100
AcDbDimension
  2
*D4
 10
-450.0
 20
350.0
 30
0.0
 11
-450.0
 21
510.00000000010721
 31
0.0
 71
               5
 72
               1
 41
1.0
 42
0.0
  3
HIBINO
100
AcDbAlignedDimension
 13
-191.60489598323329
 23
670.00000000021441
 33
0.0
 14
-127.43059879087154
 24
350.0
 34
0.0
 50
-90.0
100
AcDbRotatedDimension
1001
ACAD
1000
DSTYLE
1002
{
1070
             279
1070
               2
1070
             340
1005
2B
1070
             147
1040
7.5
1002
}
  0
DIMENSION
  5
115
100
AcDbEntity
  8
寸法
370
               0
390
0
  6
Continuous
 62
               1
100
AcDbDimension
  2
*D5
 10
-72.012123721655612
 20
763.59149333350695
 30
0.0
 11
-75.475237305083951
 21
770.24407511115351
 31
0.0
 70
             133
 71
               5
 72
               1
 41
1.0
 42
0.0
  3
HIBINO
100
AcDb3PointAngularDimension
 13
-129.61080736940619
 23
654.9732200178164
 33
0.0
 14
50.0
 24
600.0
 34
0.0
 15
50.0
 25
529.20829700787863
 35
0.0
1001
ACAD
1000
DSTYLE
1002
{
1070
             279
1070
               2
1070
             342
1005
3A
1070
             340
1005
2B
1070
               3
1000
<> 
1070
             147
1040
7.5
1002
}
  0
DIMENSION
  5
116
100
AcDbEntity
  8
寸法
370
               0
390
0
  6
Continuous
 62
               1
100
AcDbDimension
  2
*D6
 10
-246.38201270458944
 20
717.96679608609747
 30
0.0
 11
-231.48646918565618
 21
720.62643986278135
 31
0.0
 70
             133
 71
               5
 72
               1
 41
1.0
 42
0.0
  3
HIBINO
100
AcDb3PointAngularDimension
 13
-299.99995273407455
 23
597.26679559891647
 33
0.0
 14
-225.03514859271706
 24
654.97322001784255
 34
0.0
 15
-299.99995273407455
 25
547.91227891398512
 35
0.0
1001
ACAD
1000
DSTYLE
1002
{
1070
             279
1070
               2
1070
             342
1005
3A
1070
             340
1005
2B
1070
               3
1000
<> 
1070
             147
1040
7.5
1002
}
  0
MTEXT
  5
117
100
AcDbEntity
  8
一般
390
0
 62
               1
100
AcDbMText
 10
849.99999999999989
 20
-1559.2929760137774
 30
0.0
 40
36.64892578125
 41
0.0
 71
               1
 72
               1
  1
{\fＭＳ ゴシック|b0|i0|c128|p0;\lG512Pro-(L/R)}
 73
               1
 44
0.7828267384257843
  0
MTEXT
  5
118
100
AcDbEntity
  8
一般
390
0
 62
               1
100
AcDbMText
 10
849.99999999999989
 20
-1444.0724372251852
 30
0.0
 40
36.64892578125
 41
0.0
 71
               1
 72
               1
  1
{\fＭＳ ゴシック|b0|i0|c128|p0;\lCODA AUDIO}
 73
               1
 44
0.7828267384257843
  0
MTEXT
  5
119
100
AcDbEntity
  8
一般
390
0
 62
               1
100
AcDbMText
 10
-1099.9999999999998
 20
-1672.5263122843774
 30
0.0
 40
24.432617187499996
 41
0.0
 71
               1
 72
               1
  1
{\fＭＳ ゴシック|b0|i0|c128|p0;\l仕様および外観は予告なく変更されることがありますので、ご了承ください。}
 73
               1
 44
0.7828267384257843
  0
MTEXT
  5
11A
100
AcDbEntity
  8
一般
390
0
 62
               1
100
AcDbMText
 10
818.08273681255582
 20
-1508.3714465495261
 30
0.0
 40
24.432617187500004
 41
0.0
 71
               1
 72
               1
  1
{\fＭＳ ゴシック|b0|i0|c128|p0;\l2Way-フルレンジ・スピーカー}
 73
               1
 44
0.7828267384257843
  0
ARC
  5
11B
100
AcDbEntity
  8
一般
370
               0
390
0
  6
Continuous
 62
               1
100
AcDbCircle
 10
21.999971110953638
 20
390.66786895220798
 30
0.0
 40
26.000000000011728
100
AcDbArc
 50
281.31988551673965
 51
0.0
  0
LINE
  5
11C
100
AcDbEntity
  8
一般
370
               0
390
0
  6
Continuous
 62
               1
100
AcDbLine
 10
-129.61080736940619
 20
654.9732200178164
 30
0.0
 11
47.999858438411692
 21
530.60881211711012
 31
0.0
  0
LINE
  5
11D
100
AcDbEntity
  8
一般
370
               0
390
0
  6
Continuous
 62
               1
100
AcDbLine
 10
32.99978242423866
 20
-294.99999368200253
 30
0.0
 11
-2.0000649878707151
 21
-294.99999368200275
 31
0.0
  0
ARC
  5
11E
100
AcDbEntity
  8
一般
370
               0
390
0
  6
Continuous
 62
               1
100
AcDbCircle
 10
31.000000000964505
 20
-392.93489100017848
 30
0.0
 40
2.0000000000002762
100
AcDbArc
 50
192.79846756443246
 51
0.0
  0
ARC
  5
11F
100
AcDbEntity
  8
一般
370
               0
390
0
  6
Continuous
 62
               1
100
AcDbCircle
 10
31.000000000965414
 20
-464.26510900068695
 30
0.0
 40
2.0
100
AcDbArc
 50
0.0000000000260551
 51
167.20153243556754
  0
LINE
  5
120
100
AcDbEntity
  8
一般
370
               0
390
0
  6
Continuous
 62
               1
100
AcDbLine
 10
21.000175338054291
 20
9.0000263451589433
 30
0.0
 11
32.999782424236841
 21
9.0000263451589433
 31
0.0
  0
LINE
  5
121
100
AcDbEntity
  8
一般
370
               0
390
0
  6
Continuous
 62
               1
100
AcDbLine
 10
32.999782424236841
 20
-21.000004649256311
 30
0.0
 11
21.000175338054291
 21
-21.000004649256311
 31
0.0
  0
LINE
  5
122
100
AcDbEntity
  8
一般
370
               0
390
0
  6
Continuous
 62
               1
100
AcDbLine
 10
21.00017533805611
 20
-269.99998772153805
 30
0.0
 11
32.99978242423775
 21
-269.99998772153805
 31
0.0
  0
LINE
  5
123
100
AcDbEntity
  8
一般
370
               0
390
0
  6
Continuous
 62
               1
100
AcDbLine
 10
-299.99995273407455
 20
547.91227891398512
 30
0.0
 11
-225.03514859271706
 21
654.97322001784255
 31
0.0
  0
ARC
  5
124
100
AcDbEntity
  8
一般
370
               0
390
0
  6
Continuous
 62
               1
100
AcDbCircle
 10
-274.00002888902998
 20
390.66786895220616
 30
0.0
 40
26.000000000010004
100
AcDbArc
 50
180.0
 51
258.6801144832595
  0
LINE
  5
125
100
AcDbEntity
  8
一般
370
               0
390
0
  6
Continuous
 62
               1
100
AcDbLine
 10
-300.00002888903907
 20
390.66786895220616
 30
0.0
 11
-299.99995273407455
 21
547.91227891398512
 31
0.0
  0
ARC
  5
126
100
AcDbEntity
  8
一般
370
               0
390
0
  6
Continuous
 62
               1
100
AcDbCircle
 10
-126.00002888903727
 20
1130.0000000002583
 30
0.0
 40
780.00000000004422
100
AcDbArc
 50
258.68011448326035
 51
281.31988551673965
  0
ARC
  5
127
100
AcDbEntity
  8
一般
370
               0
390
0
  6
Continuous
 62
               1
100
AcDbCircle
 10
-177.32297798108027
 20
586.74013514400531
 30
0.0
 40
83.25986485620912
100
AcDbArc
 50
55.036725217973711
 51
124.96327478201493
  0
CIRCLE
  5
128
100
AcDbEntity
  8
一般
370
               0
390
0
  6
Continuous
 62
               1
100
AcDbCircle
 10
-126.00002888903818
 20
464.91227564698693
 30
0.0
 40
6.5000000000218279
  0
CIRCLE
  5
129
100
AcDbEntity
  8
一般
370
               0
390
0
  6
Continuous
 62
               1
100
AcDbCircle
 10
-126.00002888903818
 20
544.91227564698761
 30
0.0
 40
6.5000000000218279
  0
ARC
  5
12A
100
AcDbEntity
  8
一般
370
               0
390
0
  6
Continuous
 62
               1
100
AcDbCircle
 10
-205.55323678698403
 20
634.94094510658078
 30
0.0
 40
10.000000000000274
100
AcDbArc
 50
183.26588377316426
 51
270.0
  0
ARC
  5
12B
100
AcDbEntity
  8
一般
370
               0
390
0
  6
Continuous
 62
               1
100
AcDbCircle
 10
-205.55323678697857
 20
633.80155383367082
 30
0.0
 40
9.9999999999970406
100
AcDbArc
 50
113.13136166467696
 51
176.73411622769075
  0
ARC
  5
12C
100
AcDbEntity
  8
一般
370
               0
390
0
  6
Continuous
 62
               1
100
AcDbCircle
 10
-175.55323678698312
 20
563.57408041932058
 30
0.0
 40
86.366864687261
100
AcDbArc
 50
66.868638335324334
 51
113.13136166467565
  0
LINE
  5
12D
100
AcDbEntity
  8
一般
370
               0
390
0
  6
Continuous
 62
               1
100
AcDbLine
 10
-205.55323678698403
 20
624.94094510658078
 30
0.0
 11
-145.55323678698221
 21
624.94094510658078
 31
0.0
  0
ARC
  5
12E
100
AcDbEntity
  8
一般
370
               0
390
0
  6
Continuous
 62
               1
100
AcDbCircle
 10
-145.55323678698676
 20
633.80155383367037
 30
0.0
 40
9.9999999999953033
100
AcDbArc
 50
3.2658837723908087
 51
66.868638335319972
  0
ARC
  5
12F
100
AcDbEntity
  8
一般
370
               0
390
0
  6
Continuous
 62
               1
100
AcDbCircle
 10
-145.55323678698403
 20
634.94094510658033
 30
0.0
 40
9.9999999999995453
100
AcDbArc
 50
270.0
 51
356.73411622691373
  0
CIRCLE
  5
130
100
AcDbEntity
  8
一般
370
               0
390
0
  6
Continuous
 62
               1
100
AcDbCircle
 10
-126.00002888903818
 20
464.91227564698693
 30
0.0
 40
3.4999999999790816
  0
CIRCLE
  5
131
100
AcDbEntity
  8
一般
370
               0
390
0
  6
Continuous
 62
               1
100
AcDbCircle
 10
-126.00002888903818
 20
544.91227564698761
 30
0.0
 40
3.4999999999790816
  0
LINE
  5
132
100
AcDbEntity
  8
一般
370
               0
390
0
  6
STYLE_01
 62
               1
100
AcDbLine
 10
-994.3877243062816
 20
-270.85000000043289
 30
0.0
 11
-994.3877243062816
 21
-284.85000000043311
 31
0.0
  0
LINE
  5
133
100
AcDbEntity
  8
一般
370
               0
390
0
  6
Continuous
 62
               1
100
AcDbLine
 10
-958.08772425793541
 20
-585.00000023851328
 30
0.0
 11
-958.08772425793541
 21
15.000008702184317
 31
0.0
  0
LINE
  5
134
100
AcDbEntity
  8
一般
370
               0
390
0
  6
Continuous
 62
               1
100
AcDbLine
 10
-916.08772854946983
 20
15.000008702184317
 30
0.0
 11
-916.08772854946983
 21
-585.00000023851328
 31
0.0
  0
LINE
  5
135
100
AcDbEntity
  8
一般
370
               0
390
0
  6
STYLE_01
 62
               1
100
AcDbLine
 10
-960.58772430628142
 20
-282.85000000043311
 30
0.0
 11
-960.58772430628142
 21
-272.85000000043311
 31
0.0
  0
LINE
  5
136
100
AcDbEntity
  8
一般
370
               0
390
0
  6
STYLE_01
 62
               1
100
AcDbLine
 10
-995.3877149119262
 20
-271.84999668607753
 30
0.0
 11
-995.3877149119262
 21
-283.84999120245021
 31
0.0
  0
LINE
  5
137
100
AcDbEntity
  8
一般
370
               0
390
0
  6
STYLE_01
 62
               1
100
AcDbLine
 10
-990.38771968029778
 20
-277.85000884542507
 30
0.0
 11
-990.38771968029778
 21
-274.34999430189174
 31
0.0
  0
LINE
  5
138
100
AcDbEntity
  8
一般
370
               0
390
0
  6
STYLE_01
 62
               1
100
AcDbLine
 10
-967.58772115849297
 20
-277.85000884542507
 30
0.0
 11
-967.58772115849297
 21
-270.8500095606808
 31
0.0
  0
LINE
  5
139
100
AcDbEntity
  8
一般
370
               0
390
0
  6
STYLE_01
 62
               1
100
AcDbLine
 10
-959.3321310010524
 20
-573.00000000043008
 30
0.0
 11
-980.904156044915
 21
-573.0000000004303
 31
0.0
  0
LINE
  5
13A
100
AcDbEntity
  8
一般
370
               0
390
0
  6
STYLE_01
 62
               1
100
AcDbLine
 10
-980.904156044915
 20
-573.0000000004303
 30
0.0
 11
-995.96842714581089
 21
-573.00000000043121
 31
0.0
  0
LINE
  5
13B
100
AcDbEntity
  8
一般
370
               0
390
0
  6
STYLE_01
 62
               1
100
AcDbLine
 10
-995.96842714581089
 20
-573.00000000043121
 30
0.0
 11
-995.96842714581089
 21
-583.50000000043099
 31
0.0
  0
LINE
  5
13C
100
AcDbEntity
  8
一般
370
               0
390
0
  6
STYLE_01
 62
               1
100
AcDbLine
 10
-995.96842714581089
 20
-583.50000000043099
 30
0.0
 11
-995.99999995305461
 21
-583.50000000043099
 31
0.0
  0
LINE
  5
13D
100
AcDbEntity
  8
一般
370
               0
390
0
  6
STYLE_01
 62
               1
100
AcDbLine
 10
-995.99999995305461
 20
-583.50000000043099
 30
0.0
 11
-996.0000036253814
 21
-585.00000023851442
 31
0.0
  0
LINE
  5
13E
100
AcDbEntity
  8
一般
370
               0
390
0
  6
STYLE_01
 62
               1
100
AcDbLine
 10
-980.90414385937584
 20
-585.00000023851351
 30
0.0
 11
-980.904156044915
 21
-573.0000000004303
 31
0.0
  0
LINE
  5
13F
100
AcDbEntity
  8
一般
370
               0
390
0
  6
Continuous
 62
               1
100
AcDbLine
 10
-984.82634241652249
 20
-585.00000000043144
 30
0.0
 11
-984.82634241652249
 21
-600.00000000043121
 31
0.0
  0
CIRCLE
  5
140
100
AcDbEntity
  8
一般
370
               0
390
0
  6
Continuous
 62
               1
100
AcDbCircle
 10
-929.08772430628142
 20
-564.00000000043212
 30
0.0
 40
4.0
  0
LINE
  5
141
100
AcDbEntity
  8
一般
370
               0
390
0
  6
STYLE_01
 62
               1
100
AcDbLine
 10
-958.08772425793541
 20
-573.0000057221406
 30
0.0
 11
-959.3321310010524
 21
-573.00000000043008
 31
0.0
  0
LINE
  5
142
100
AcDbEntity
  8
一般
370
               0
390
0
  6
STYLE_01
 62
               1
100
AcDbLine
 10
-959.33213100104331
 20
-585.00000000043121
 30
0.0
 11
-959.3321310010524
 21
-573.00000000043008
 31
0.0
  0
LINE
  5
143
100
AcDbEntity
  8
一般
370
               0
390
0
  6
Continuous
 62
               1
100
AcDbLine
 10
-959.33213100104331
 20
-585.00000000043121
 30
0.0
 11
-959.33213100106241
 21
-600.00000000043121
 31
0.0
  0
LINE
  5
144
100
AcDbEntity
  8
一般
370
               0
390
0
  6
STYLE_01
 62
               1
100
AcDbLine
 10
-967.58772115849297
 20
-282.85000407705348
 30
0.0
 11
-960.58772430628142
 21
-282.85000000043311
 31
0.0
  0
LINE
  5
145
100
AcDbEntity
  8
一般
370
               0
390
0
  6
STYLE_01
 62
               1
100
AcDbLine
 10
-967.58772115849297
 20
-277.85000884542507
 30
0.0
 11
-990.38771968029778
 21
-277.85000884542507
 31
0.0
  0
LINE
  5
146
100
AcDbEntity
  8
一般
370
               0
390
0
  6
STYLE_01
 62
               1
100
AcDbLine
 10
-967.58772115849297
 20
-284.85000813016933
 30
0.0
 11
-990.38771968029778
 21
-284.85000813016933
 31
0.0
  0
LINE
  5
147
100
AcDbEntity
  8
一般
370
               0
390
0
  6
STYLE_01
 62
               1
100
AcDbLine
 10
-990.38771968029778
 20
-281.349993586636
 30
0.0
 11
-990.38771968029778
 21
-277.85000884542507
 31
0.0
  0
LINE
  5
148
100
AcDbEntity
  8
一般
370
               0
390
0
  6
STYLE_01
 62
               1
100
AcDbLine
 10
-990.38771968029778
 20
-284.85000813016933
 30
0.0
 11
-990.38771968029778
 21
-281.349993586636
 31
0.0
  0
LINE
  5
149
100
AcDbEntity
  8
一般
370
               0
390
0
  6
STYLE_01
 62
               1
100
AcDbLine
 10
-994.3877243062816
 20
-284.85000000043311
 30
0.0
 11
-990.38771968029778
 21
-284.85000813016933
 31
0.0
  0
ARC
  5
14A
100
AcDbEntity
  8
一般
370
               0
390
0
  6
STYLE_01
 62
               1
100
AcDbCircle
 10
-994.3877243062816
 20
-283.85000000043311
 30
0.0
 40
1.0
100
AcDbArc
 50
180.00000000002606
 51
270.0
  0
LINE
  5
14B
100
AcDbEntity
  8
一般
370
               0
390
0
  6
STYLE_01
 62
               1
100
AcDbLine
 10
-967.58772115849297
 20
-284.85000813016933
 30
0.0
 11
-967.58772115849297
 21
-277.85000884542507
 31
0.0
  0
CIRCLE
  5
14C
100
AcDbEntity
  8
一般
370
               0
390
0
  6
Continuous
 62
               1
100
AcDbCircle
 10
-929.08772430628142
 20
-285.00000000043093
 30
0.0
 40
4.0
  0
LINE
  5
14D
100
AcDbEntity
  8
一般
370
               0
390
0
  6
STYLE_01
 62
               1
100
AcDbLine
 10
-960.58772187374871
 20
-280.85000002393764
 30
0.0
 11
-958.0877242579345
 21
-280.85000002393764
 31
0.0
  0
LINE
  5
14E
100
AcDbEntity
  8
一般
370
               0
390
0
  6
STYLE_01
 62
               1
100
AcDbLine
 10
-960.58772430628142
 20
-272.85000000043311
 30
0.0
 11
-967.58772115849297
 21
-272.85001361379665
 31
0.0
  0
LINE
  5
14F
100
AcDbEntity
  8
一般
370
               0
390
0
  6
STYLE_01
 62
               1
100
AcDbLine
 10
-967.58772115849297
 20
-270.8500095606808
 30
0.0
 11
-990.38771968029778
 21
-270.8500095606808
 31
0.0
  0
LINE
  5
150
100
AcDbEntity
  8
一般
370
               0
390
0
  6
STYLE_01
 62
               1
100
AcDbLine
 10
-990.38771968029778
 20
-274.34999430189174
 30
0.0
 11
-990.38771968029778
 21
-270.8500095606808
 31
0.0
  0
LINE
  5
151
100
AcDbEntity
  8
一般
370
               0
390
0
  6
STYLE_01
 62
               1
100
AcDbLine
 10
-990.38771968029778
 20
-270.8500095606808
 30
0.0
 11
-994.3877243062816
 21
-270.85000000043289
 31
0.0
  0
ARC
  5
152
100
AcDbEntity
  8
一般
370
               0
390
0
  6
STYLE_01
 62
               1
100
AcDbCircle
 10
-994.3877243062816
 20
-271.85000000043266
 30
0.0
 40
1.0
100
AcDbArc
 50
90.0
 51
180.00000000002603
  0
LINE
  5
153
100
AcDbEntity
  8
一般
370
               0
390
0
  6
STYLE_01
 62
               1
100
AcDbLine
 10
-958.0877242579345
 20
-274.8499878645901
 30
0.0
 11
-960.58772187374871
 21
-274.8499878645901
 31
0.0
  0
LINE
  5
154
100
AcDbEntity
  8
一般
370
               0
390
0
  6
STYLE_01
 62
               1
100
AcDbLine
 10
-995.99999995305961
 20
3.0000163502951125
 30
0.0
 11
-958.08772425793541
 21
2.999984383488794
 31
0.0
  0
LINE
  5
155
100
AcDbEntity
  8
一般
370
               0
390
0
  6
STYLE_01
 62
               1
100
AcDbLine
 10
-987.48756628178489
 20
15.000008702183862
 30
0.0
 11
-987.48755479295141
 21
2.9999999995687574
 31
0.0
  0
LINE
  5
156
100
AcDbEntity
  8
一般
370
               0
390
0
  6
STYLE_01
 62
               1
100
AcDbLine
 10
-976.60822089702742
 20
2.9999999995687574
 30
0.0
 11
-976.60822849415672
 21
15.000008702183862
 31
0.0
  0
LINE
  5
157
100
AcDbEntity
  8
一般
370
               0
390
0
  6
STYLE_01
 62
               1
100
AcDbLine
 10
-996.0000036253814
 20
15.000008702182953
 30
0.0
 11
-995.99999995305961
 21
3.0000163502951125
 31
0.0
  0
LINE
  5
158
100
AcDbEntity
  8
一般
370
               0
390
0
  6
Continuous
 62
               1
100
AcDbLine
 10
-999.99999995305461
 20
29.999986260813372
 30
0.0
 11
-999.99999995305461
 21
-600.00000204592493
 31
0.0
  0
LINE
  5
159
100
AcDbEntity
  8
一般
370
               0
390
0
  6
Continuous
 62
               1
100
AcDbLine
 10
-984.82634241652249
 20
14.999999999569667
 30
0.0
 11
-984.82634241652249
 21
29.999999999569638
 31
0.0
  0
CIRCLE
  5
15A
100
AcDbEntity
  8
一般
370
               0
390
0
  6
Continuous
 62
               1
100
AcDbCircle
 10
-929.08772430628142
 20
-6.0000000004293952
 30
0.0
 40
4.0
  0
LINE
  5
15B
100
AcDbEntity
  8
一般
370
               0
390
0
  6
Continuous
 62
               1
100
AcDbLine
 10
-959.33213100104331
 20
14.999999999569894
 30
0.0
 11
-959.33213100106241
 21
29.999999999569638
 31
0.0
  0
LINE
  5
15C
100
AcDbEntity
  8
一般
370
               0
390
0
  6
Continuous
 62
               1
100
AcDbLine
 10
-279.10344827489325
 20
29.999999999567592
 30
0.0
 11
-299.99999999903548
 21
29.999999999567592
 31
0.0
  0
LINE
  5
15D
100
AcDbEntity
  8
一般
370
               0
390
0
  6
Continuous
 62
               1
100
AcDbLine
 10
-819.39118783615959
 20
-585.00000023851328
 30
0.0
 11
-819.39118783615959
 21
15.000008702184317
 31
0.0
  0
LINE
  5
15E
100
AcDbEntity
  8
一般
370
               0
390
0
  6
Continuous
 62
               1
100
AcDbLine
 10
-695.0267799354242
 20
2.9999999995678479
 30
0.0
 11
-695.02677993542511
 21
-573.00000000043167
 31
0.0
  0
LINE
  5
15F
100
AcDbEntity
  8
一般
370
               0
390
0
  6
Continuous
 62
               1
100
AcDbLine
 10
-695.02678010307591
 20
-600.00000000043258
 30
0.0
 11
-695.02678010307591
 21
29.999999999568487
 31
0.0
  0
LINE
  5
160
100
AcDbEntity
  8
一般
370
               0
390
0
  6
Continuous
 62
               1
100
AcDbLine
 10
-819.39118783615959
 20
29.999994397069543
 30
0.0
 11
-819.39118783615959
 21
-585.00000023851328
 31
0.0
  0
LINE
  5
161
100
AcDbEntity
  8
一般
370
               0
390
0
  6
Continuous
 62
               1
100
AcDbLine
 10
-299.99999999903548
 20
-600.00000000043349
 30
0.0
 11
-299.99999999903548
 21
29.999999999567592
 31
0.0
  0
LINE
  5
162
100
AcDbEntity
  8
一般
370
               0
390
0
  6
Continuous
 62
               1
100
AcDbLine
 10
-295.99999999904003
 20
2.999999999566711
 30
0.0
 11
-295.99999999903548
 21
-573.00000000043235
 31
0.0
  0
LINE
  5
163
100
AcDbEntity
  8
一般
370
               0
390
0
  6
Continuous
 62
               1
100
AcDbLine
 10
-999.99999995305552
 20
-585.00000023851328
 30
0.0
 11
-695.02678010307591
 21
-585.00000023851442
 31
0.0
  0
LINE
  5
164
100
AcDbEntity
  8
一般
370
               0
390
0
  6
Continuous
 62
               1
100
AcDbLine
 10
-999.99999995305461
 20
-600.00000204592493
 30
0.0
 11
-679.99999995305461
 21
-599.99999989964613
 31
0.0
  0
LINE
  5
165
100
AcDbEntity
  8
一般
370
               0
390
0
  6
Continuous
 62
               1
100
AcDbLine
 10
-819.39118783615959
 20
-600.00000083455973
 30
0.0
 11
-819.39118783615959
 21
-585.00000023851328
 31
0.0
  0
CIRCLE
  5
166
100
AcDbEntity
  8
一般
370
               0
390
0
  6
Continuous
 62
               1
100
AcDbCircle
 10
-845.08772430628051
 20
-285.00000000043093
 30
0.0
 40
4.2000000000000455
  0
CIRCLE
  5
167
100
AcDbEntity
  8
一般
370
               0
390
0
  6
Continuous
 62
               1
100
AcDbCircle
 10
-845.08772430628051
 20
-285.00000000043093
 30
0.0
 40
6.4999999999781721
  0
LINE
  5
168
100
AcDbEntity
  8
一般
370
               0
390
0
  6
Continuous
 62
               1
100
AcDbLine
 10
-679.99999995305552
 20
-573.0000000004319
 30
0.0
 11
-695.02677993542511
 21
-573.00000000043167
 31
0.0
  0
LINE
  5
169
100
AcDbEntity
  8
一般
370
               0
390
0
  6
Continuous
 62
               1
100
AcDbLine
 10
-679.99999995305461
 20
-599.99999989964613
 30
0.0
 11
-679.99999995305552
 21
-573.0000000004319
 31
0.0
  0
LINE
  5
16A
100
AcDbEntity
  8
一般
370
               0
390
0
  6
Continuous
 62
               1
100
AcDbLine
 10
-295.99999999903548
 20
-573.00000000043235
 30
0.0
 11
-296.00021376106224
 21
-585.00000023851578
 31
0.0
  0
LINE
  5
16B
100
AcDbEntity
  8
一般
370
               0
390
0
  6
Continuous
 62
               1
100
AcDbLine
 10
-695.02678010307591
 20
15.000008702182953
 30
0.0
 11
-999.99999995305461
 21
15.000008702182953
 31
0.0
  0
LINE
  5
16C
100
AcDbEntity
  8
一般
370
               0
390
0
  6
Continuous
 62
               1
100
AcDbLine
 10
-679.99999995305461
 20
30.000000676510709
 30
0.0
 11
-999.99999995305461
 21
29.999986260813372
 31
0.0
  0
LINE
  5
16D
100
AcDbEntity
  8
一般
370
               0
390
0
  6
Continuous
 62
               1
100
AcDbLine
 10
-679.99999995305461
 20
2.9999999995676205
 30
0.0
 11
-679.99999995305461
 21
30.000000676510709
 31
0.0
  0
LINE
  5
16E
100
AcDbEntity
  8
一般
370
               0
390
0
  6
Continuous
 62
               1
100
AcDbLine
 10
-695.0267799354242
 20
2.9999999995678479
 30
0.0
 11
-679.99999995305461
 21
2.9999999995676205
 31
0.0
  0
LINE
  5
16F
100
AcDbEntity
  8
一般
370
               0
390
0
  6
Continuous
 62
               1
100
AcDbLine
 10
-296.00021376106679
 20
15.000008702181816
 30
0.0
 11
-295.99999999904003
 21
2.999999999566711
 31
0.0
  0
LINE
  5
170
100
AcDbEntity
  8
一般
370
               0
390
0
  6
Continuous
 62
               1
100
AcDbLine
 10
-285.0000573584789
 20
2.9999843834867477
 30
0.0
 11
-285.00005735847435
 21
-573.0000057221431
 31
0.0
  0
ARC
  5
171
100
AcDbEntity
  8
一般
370
               0
390
0
  6
Continuous
 62
               1
100
AcDbCircle
 10
-125.99999999903459
 20
-428.60000000043317
 30
0.0
 40
150.20000000000027
100
AcDbArc
 50
46.239852310357946
 51
87.079499885891906
  0
ARC
  5
172
100
AcDbEntity
  8
一般
370
               0
390
0
  6
Continuous
 62
               1
100
AcDbCircle
 10
-125.99999999903459
 20
-428.60000000043317
 30
0.0
 40
150.20000000000016
100
AcDbArc
 50
92.920500114108123
 51
133.76014768964205
  0
LINE
  5
173
100
AcDbEntity
  8
一般
370
               0
390
0
  6
Continuous
 62
               1
100
AcDbLine
 10
-132.06216825935599
 20
-274.34999430189197
 30
0.0
 11
-134.08300413582083
 21
-277.85000884542529
 31
0.0
  0
LINE
  5
174
100
AcDbEntity
  8
一般
370
               0
390
0
  6
Continuous
 62
               1
100
AcDbLine
 10
-117.9172707984185
 20
-277.85000884542507
 30
0.0
 11
-119.93762983772514
 21
-274.34999430189174
 31
0.0
  0
CIRCLE
  5
175
100
AcDbEntity
  8
一般
370
               0
390
0
  6
Continuous
 62
               1
100
AcDbCircle
 10
-125.99999999903731
 20
-277.85000000043334
 30
0.0
 40
1.6000000000003638
  0
CIRCLE
  5
176
100
AcDbEntity
  8
一般
370
               0
390
0
  6
Continuous
 62
               1
100
AcDbCircle
 10
-125.99999999903731
 20
-277.85000000043334
 30
0.0
 40
7.0
  0
CIRCLE
  5
177
100
AcDbEntity
  8
一般
370
               0
390
0
  6
Continuous
 62
               1
100
AcDbCircle
 10
-125.99999999903731
 20
-277.85000000043334
 30
0.0
 40
4.5999999999748979
  0
LINE
  5
178
100
AcDbEntity
  8
一般
370
               0
390
0
  6
Continuous
 62
               1
100
AcDbLine
 10
-2.0000649878707151
 20
-294.99999368200275
 30
0.0
 11
-1.9999999990364046
 21
-167.1945909948958
 31
0.0
  0
LINE
  5
179
100
AcDbEntity
  8
一般
370
               0
390
0
  6
Continuous
 62
               1
100
AcDbLine
 10
-284.99999999903548
 20
-167.19459099489785
 30
0.0
 11
-284.99999999903457
 21
-392.93489100017166
 31
0.0
  0
ARC
  5
17A
100
AcDbEntity
  8
一般
370
               0
390
0
  6
Continuous
 62
               1
100
AcDbCircle
 10
-125.99999999903459
 20
-428.60000000043317
 30
0.0
 40
159.00000000000068
100
AcDbArc
 50
12.798467564435654
 51
167.20153243555802
  0
LINE
  5
17B
100
AcDbEntity
  8
一般
370
               0
390
0
  6
Continuous
 62
               1
100
AcDbLine
 10
21.000175338057019
 20
-294.99999368200253
 30
0.0
 11
21.00017533805611
 21
-269.99998772153805
 31
0.0
  0
LINE
  5
17C
100
AcDbEntity
  8
一般
370
               0
390
0
  6
Continuous
 62
               1
100
AcDbLine
 10
-118.99999999903186
 20
-583.50000000043099
 30
0.0
 11
-132.99999999903184
 21
-583.50000000043099
 31
0.0
  0
LINE
  5
17D
100
AcDbEntity
  8
一般
370
               0
390
0
  6
Continuous
 62
               1
100
AcDbLine
 10
-299.99999999903548
 20
-600.00000000043349
 30
0.0
 11
48.000000000965414
 21
-600.00000000043349
 31
0.0
  0
LINE
  5
17E
100
AcDbEntity
  8
一般
370
               0
390
0
  6
Continuous
 62
               1
100
AcDbLine
 10
48.000000000965414
 20
-585.00000000043144
 30
0.0
 11
-299.99999999903275
 21
-585.00000000043144
 31
0.0
  0
CIRCLE
  5
17F
100
AcDbEntity
  8
一般
370
               0
390
0
  6
Continuous
 62
               1
100
AcDbCircle
 10
-125.99999999903459
 20
-428.60000000043317
 30
0.0
 40
39.250000000000909
  0
CIRCLE
  5
180
100
AcDbEntity
  8
一般
370
               0
390
0
  6
Continuous
 62
               1
100
AcDbCircle
 10
-125.99999999903459
 20
-428.60000000043306
 30
0.0
 40
122.60999999999967
  0
ARC
  5
181
100
AcDbEntity
  8
一般
370
               0
390
0
  6
Continuous
 62
               1
100
AcDbCircle
 10
-125.99999999903459
 20
-428.60000000043317
 30
0.0
 40
150.20000000000022
100
AcDbArc
 50
267.32878971385475
 51
268.76014768965325
  0
CIRCLE
  5
182
100
AcDbEntity
  8
一般
370
               0
390
0
  6
Continuous
 62
               1
100
AcDbCircle
 10
-125.99999999903459
 20
-428.60000000043317
 30
0.0
 40
131.8951629691428
  0
CIRCLE
  5
183
100
AcDbEntity
  8
一般
370
               0
390
0
  6
Continuous
 62
               1
100
AcDbCircle
 10
-125.99999999903459
 20
-428.60000000043317
 30
0.0
 40
140.67655845432546
  0
LINE
  5
184
100
AcDbEntity
  8
一般
370
               0
390
0
  6
Continuous
 62
               1
100
AcDbLine
 10
-132.06216825935508
 20
-281.34999358663623
 30
0.0
 11
-130.04133238289023
 21
-284.85000813016956
 31
0.0
  0
ARC
  5
185
100
AcDbEntity
  8
一般
370
               0
390
0
  6
Continuous
 62
               1
100
AcDbCircle
 10
-125.99999999903459
 20
-428.60000000043317
 30
0.0
 40
150.20000000000056
100
AcDbArc
 50
181.23985231035289
 51
223.76014768966468
  0
LINE
  5
186
100
AcDbEntity
  8
一般
370
               0
390
0
  6
Continuous
 62
               1
100
AcDbLine
 10
-285.00005735847435
 20
-573.0000057221431
 30
0.0
 11
-284.99999999903457
 21
-464.26510900068922
 31
0.0
  0
ARC
  5
187
100
AcDbEntity
  8
一般
370
               0
390
0
  6
Continuous
 62
               1
100
AcDbCircle
 10
-125.99999999903459
 20
-428.60000000043317
 30
0.0
 40
159.0
100
AcDbArc
 50
192.79846756444195
 51
245.25450659013856
  0
LINE
  5
188
100
AcDbEntity
  8
一般
370
               0
390
0
  6
Continuous
 62
               1
100
AcDbLine
 10
-132.99999999903184
 20
-573.00000000043121
 30
0.0
 11
-295.99999999903548
 21
-573.00000000043121
 31
0.0
  0
ARC
  5
189
100
AcDbEntity
  8
一般
370
               0
390
0
  6
Continuous
 62
               1
100
AcDbCircle
 10
-125.99999999903459
 20
-428.60000000043317
 30
0.0
 40
150.20000000000016
100
AcDbArc
 50
226.23985231035789
 51
254.02561338732369
  0
LINE
  5
18A
100
AcDbEntity
  8
一般
370
               0
390
0
  6
Continuous
 62
               1
100
AcDbLine
 10
-278.31813826057396
 20
-585.00000023851578
 30
0.0
 11
-278.31830238628982
 21
-573.00000000043212
 31
0.0
  0
LINE
  5
18B
100
AcDbEntity
  8
一般
370
               0
390
0
  6
Continuous
 62
               1
100
AcDbLine
 10
-279.10344827488689
 20
-585.00000000043349
 30
0.0
 11
-279.10344827488689
 21
-600.00000000043349
 31
0.0
  0
LINE
  5
18C
100
AcDbEntity
  8
一般
370
               0
390
0
  6
Continuous
 62
               1
100
AcDbLine
 10
-132.99999999903184
 20
-583.50000000043099
 30
0.0
 11
-132.99999999903184
 21
-573.00000000043121
 31
0.0
  0
ARC
  5
18D
100
AcDbEntity
  8
一般
370
               0
390
0
  6
Continuous
 62
               1
100
AcDbCircle
 10
-125.99999999903459
 20
-428.60000000043317
 30
0.0
 40
150.20000000000002
100
AcDbArc
 50
136.23985231033515
 51
178.76014768964714
  0
ARC
  5
18E
100
AcDbEntity
  8
一般
370
               0
390
0
  6
Continuous
 62
               1
100
AcDbCircle
 10
-282.99999999903457
 20
-464.26510900068922
 30
0.0
 40
2.0000000000003015
100
AcDbArc
 50
12.79846756443564
 51
180.0
  0
ARC
  5
18F
100
AcDbEntity
  8
一般
370
               0
390
0
  6
Continuous
 62
               1
100
AcDbCircle
 10
-282.99999999903366
 20
-392.93489100017166
 30
0.0
 40
2.0000000000009095
100
AcDbArc
 50
180.0
 51
347.20153243555484
  0
LINE
  5
190
100
AcDbEntity
  8
一般
370
               0
390
0
  6
Continuous
 62
               1
100
AcDbLine
 10
-134.08300413582083
 20
-277.85000884542529
 30
0.0
 11
-132.06216825935508
 21
-281.34999358663623
 31
0.0
  0
ARC
  5
191
100
AcDbEntity
  8
一般
370
               0
390
0
  6
Continuous
 62
               1
100
AcDbCircle
 10
-125.99999999903459
 20
-428.60000000043317
 30
0.0
 40
150.19999999999968
100
AcDbArc
 50
316.23985231033527
 51
358.76014768965354
  0
ARC
  5
192
100
AcDbEntity
  8
一般
370
               0
390
0
  6
Continuous
 62
               1
100
AcDbCircle
 10
-125.99999999903459
 20
-428.60000000043317
 30
0.0
 40
159.00000000000023
100
AcDbArc
 50
294.74549340986135
 51
347.20153243556439
  0
LINE
  5
193
100
AcDbEntity
  8
一般
370
               0
390
0
  6
Continuous
 62
               1
100
AcDbLine
 10
44.000000000970871
 20
-573.00000000043121
 30
0.0
 11
-118.99999999903186
 21
-573.00000000043121
 31
0.0
  0
ARC
  5
194
100
AcDbEntity
  8
一般
370
               0
390
0
  6
Continuous
 62
               1
100
AcDbCircle
 10
-125.99999999903459
 20
-428.60000000043317
 30
0.0
 40
150.20000000000067
100
AcDbArc
 50
285.97438661267626
 51
313.76014768964194
  0
LINE
  5
195
100
AcDbEntity
  8
一般
370
               0
390
0
  6
Continuous
 62
               1
100
AcDbLine
 10
-118.99999999903186
 20
-573.00000000043121
 30
0.0
 11
-118.99999999903186
 21
-583.50000000043099
 31
0.0
  0
ARC
  5
196
100
AcDbEntity
  8
一般
370
               0
390
0
  6
Continuous
 62
               1
100
AcDbCircle
 10
-125.99999999903459
 20
-428.60000000043317
 30
0.0
 40
150.20000000000022
100
AcDbArc
 50
271.23985231034675
 51
272.67121028614531
  0
LINE
  5
197
100
AcDbEntity
  8
一般
370
               0
390
0
  6
Continuous
 62
               1
100
AcDbLine
 10
26.318340163498291
 20
-585.00000023851351
 30
0.0
 11
26.318302388227934
 21
-573.0000000004303
 31
0.0
  0
LINE
  5
198
100
AcDbEntity
  8
一般
370
               0
390
0
  6
Continuous
 62
               1
100
AcDbLine
 10
27.103448276821368
 20
-585.00000000043144
 30
0.0
 11
27.103448276821368
 21
-600.00000000043121
 31
0.0
  0
LINE
  5
199
100
AcDbEntity
  8
一般
370
               0
390
0
  6
Continuous
 62
               1
100
AcDbLine
 10
-121.95846571418907
 20
-284.85000813016933
 30
0.0
 11
-119.93762983772423
 21
-281.349993586636
 31
0.0
  0
LINE
  5
19A
100
AcDbEntity
  8
一般
370
               0
390
0
  6
Continuous
 62
               1
100
AcDbLine
 10
-126.00013746711876
 20
-284.85000813016933
 30
0.0
 11
-121.95846571418907
 21
-284.85000813016933
 31
0.0
  0
LINE
  5
19B
100
AcDbEntity
  8
一般
370
               0
390
0
  6
Continuous
 62
               1
100
AcDbLine
 10
-130.04133238289023
 20
-284.85000813016956
 30
0.0
 11
-126.00013746711876
 21
-284.85000813016933
 31
0.0
  0
LINE
  5
19C
100
AcDbEntity
  8
一般
370
               0
390
0
  6
Continuous
 62
               1
100
AcDbLine
 10
-119.93762983772423
 20
-281.349993586636
 30
0.0
 11
-117.9172707984185
 21
-277.85000884542507
 31
0.0
  0
ARC
  5
19D
100
AcDbEntity
  8
一般
370
               0
390
0
  6
Continuous
 62
               1
100
AcDbCircle
 10
-125.99999999903459
 20
-428.60000000043317
 30
0.0
 40
150.19999999999965
100
AcDbArc
 50
1.2398523103529002
 51
43.760147689664819
  0
LINE
  5
19E
100
AcDbEntity
  8
一般
370
               0
390
0
  6
Continuous
 62
               1
100
AcDbLine
 10
-295.99999999904003
 20
2.9999999995687574
 30
0.0
 11
-1.9999999990336619
 21
2.9999999995687574
 31
0.0
  0
LINE
  5
19F
100
AcDbEntity
  8
一般
370
               0
390
0
  6
Continuous
 62
               1
100
AcDbLine
 10
-299.99999999903548
 20
14.999999999567621
 30
0.0
 11
48.000000000965414
 21
14.999999999567621
 31
0.0
  0
LINE
  5
1A0
100
AcDbEntity
  8
一般
370
               0
390
0
  6
Continuous
 62
               1
100
AcDbLine
 10
48.000000000965414
 20
29.999999999569638
 30
0.0
 11
-279.10344827489325
 21
29.999999999567592
 31
0.0
  0
LINE
  5
1A1
100
AcDbEntity
  8
一般
370
               0
390
0
  6
Continuous
 62
               1
100
AcDbLine
 10
-130.04133238289114
 20
-270.85000956068103
 30
0.0
 11
-132.06216825935599
 21
-274.34999430189197
 31
0.0
  0
ARC
  5
1A2
100
AcDbEntity
  8
一般
370
               0
390
0
  6
Continuous
 62
               1
100
AcDbCircle
 10
-143.49999999903821
 20
12.399999999571349
 30
0.0
 40
278.60000000000412
100
AcDbArc
 50
247.40646832567921
 51
292.59353167432079
  0
ARC
  5
1A3
100
AcDbEntity
  8
一般
370
               0
390
0
  6
Continuous
 62
               1
100
AcDbCircle
 10
-5.4999999990318571
 20
-125.60000000043181
 30
0.0
 40
278.00000000000557
100
AcDbArc
 50
157.40646832567052
 51
202.59353167432948
  0
ARC
  5
1A4
100
AcDbEntity
  8
一般
370
               0
390
0
  6
Continuous
 62
               1
100
AcDbCircle
 10
-5.4999999989554595
 20
-125.60000000043271
 30
0.0
 40
278.60000000008642
100
AcDbArc
 50
188.52462508463483
 51
202.59353167432351
  0
ARC
  5
1A5
100
AcDbEntity
  8
一般
370
               0
390
0
  6
Continuous
 62
               1
100
AcDbCircle
 10
-241.8529204993979
 20
-223.95292050079303
 30
0.0
 40
22.600000000000549
100
AcDbArc
 50
202.59353167432988
 51
247.40646832567899
  0
ARC
  5
1A6
100
AcDbEntity
  8
一般
370
               0
390
0
  6
Continuous
 62
               1
100
AcDbCircle
 10
-241.85292049939881
 20
-223.95292050079644
 30
0.0
 40
21.999999999998316
100
AcDbArc
 50
202.59353167432903
 51
247.40646832567845
  0
CIRCLE
  5
1A7
100
AcDbEntity
  8
一般
370
               0
390
0
  6
Continuous
 62
               1
100
AcDbCircle
 10
-248.85891039583339
 20
-230.9589103972292
 30
0.0
 40
3.2500000000009095
  0
ARC
  5
1A8
100
AcDbEntity
  8
一般
370
               0
390
0
  6
Continuous
 62
               1
100
AcDbCircle
 10
-282.99999999904912
 20
-167.19459099489785
 30
0.0
 40
2.0000000000002425
100
AcDbArc
 50
8.5246250846405509
 51
179.99999999999997
  0
LINE
  5
1A9
100
AcDbEntity
  8
一般
370
               0
390
0
  6
Continuous
 62
               1
100
AcDbLine
 10
-278.31813826057851
 20
15.000008702182043
 30
0.0
 11
-278.31830238629436
 21
2.9999999995669384
 31
0.0
  0
ARC
  5
1AA
100
AcDbEntity
  8
一般
370
               0
390
0
  6
Continuous
 62
               1
100
AcDbCircle
 10
-241.85292049940244
 20
-27.247079500065752
 30
0.0
 40
22.599999999994122
100
AcDbArc
 50
112.59353167432073
 51
157.40646832567703
  0
ARC
  5
1AB
100
AcDbEntity
  8
一般
370
               0
390
0
  6
Continuous
 62
               1
100
AcDbCircle
 10
-241.8529204993979
 20
-27.247079500070981
 30
0.0
 40
21.999999999999524
100
AcDbArc
 50
112.59353167432005
 51
157.40646832567035
  0
LINE
  5
1AC
100
AcDbEntity
  8
一般
370
               0
390
0
  6
Continuous
 62
               1
100
AcDbLine
 10
-285.0000573584789
 20
2.9999843834867477
 30
0.0
 11
-284.99999999903639
 21
-84.00540900597764
 31
0.0
  0
ARC
  5
1AD
100
AcDbEntity
  8
一般
370
               0
390
0
  6
Continuous
 62
               1
100
AcDbCircle
 10
-5.4999999989554595
 20
-125.60000000043271
 30
0.0
 40
278.60000000008034
100
AcDbArc
 50
157.40646832567649
 51
171.47537491536519
  0
ARC
  5
1AE
100
AcDbEntity
  8
一般
370
               0
390
0
  6
Continuous
 62
               1
100
AcDbCircle
 10
-282.99999999905003
 20
-84.00540900597764
 30
0.0
 40
2.000000000005457
100
AcDbArc
 50
180.0
 51
351.47537491537304
  0
ARC
  5
1AF
100
AcDbEntity
  8
一般
370
               0
390
0
  6
Continuous
 62
               1
100
AcDbCircle
 10
-143.49999999903639
 20
-263.6000000004297
 30
0.0
 40
275.99999999999807
100
AcDbArc
 50
104.99641272689581
 51
112.59353167432073
  0
ARC
  5
1B0
100
AcDbEntity
  8
一般
370
               0
390
0
  6
Continuous
 62
               1
100
AcDbCircle
 10
-143.49999999903639
 20
-263.60000000043925
 30
0.0
 40
278.60000000000713
100
AcDbArc
 50
106.87753436779096
 51
112.59353167432076
  0
ARC
  5
1B1
100
AcDbEntity
  8
一般
370
               0
390
0
  6
Continuous
 62
               1
100
AcDbCircle
 10
-143.49999999903639
 20
-263.6000000004322
 30
0.0
 40
278.00000000000023
100
AcDbArc
 50
106.46504958942099
 51
112.59353167432076
  0
CIRCLE
  5
1B2
100
AcDbEntity
  8
一般
370
               0
390
0
  6
Continuous
 62
               1
100
AcDbCircle
 10
-248.85891039583521
 20
-20.241089603637306
 30
0.0
 40
3.2500000000009095
  0
LINE
  5
1B3
100
AcDbEntity
  8
一般
370
               0
390
0
  6
Continuous
 62
               1
100
AcDbLine
 10
-279.10344827489325
 20
14.999999999567621
 30
0.0
 11
-279.10344827489325
 21
29.999999999567592
 31
0.0
  0
LINE
  5
1B4
100
AcDbEntity
  8
一般
370
               0
390
0
  6
Continuous
 62
               1
100
AcDbLine
 10
-1.9999999990364046
 20
-167.1945909948958
 30
0.0
 11
-1.9999999990373141
 21
-84.005409005975594
 31
0.0
  0
ARC
  5
1B5
100
AcDbEntity
  8
一般
370
               0
390
0
  6
Continuous
 62
               1
100
AcDbCircle
 10
-281.49999999903912
 20
-125.60000000043362
 30
0.0
 40
278.00000000000171
100
AcDbArc
 50
337.40646832567046
 51
22.593531674329483
  0
ARC
  5
1B6
100
AcDbEntity
  8
一般
370
               0
390
0
  6
Continuous
 62
               1
100
AcDbCircle
 10
-281.49999999904821
 20
-125.60000000043362
 30
0.0
 40
276.0000000000108
100
AcDbArc
 50
337.40646832567046
 51
22.593531674329483
  0
LINE
  5
1B7
100
AcDbEntity
  8
一般
370
               0
390
0
  6
Continuous
 62
               1
100
AcDbLine
 10
-126.00013746711967
 20
-270.8500095606808
 30
0.0
 11
-130.04133238289114
 21
-270.85000956068103
 31
0.0
  0
LINE
  5
1B8
100
AcDbEntity
  8
一般
370
               0
390
0
  6
Continuous
 62
               1
100
AcDbLine
 10
-119.93762983772514
 20
-274.34999430189174
 30
0.0
 11
-121.95846571418998
 21
-270.8500095606808
 31
0.0
  0
LINE
  5
1B9
100
AcDbEntity
  8
一般
370
               0
390
0
  6
Continuous
 62
               1
100
AcDbLine
 10
-121.95846571418998
 20
-270.8500095606808
 30
0.0
 11
-126.00013746711967
 21
-270.8500095606808
 31
0.0
  0
ARC
  5
1BA
100
AcDbEntity
  8
一般
370
               0
390
0
  6
Continuous
 62
               1
100
AcDbCircle
 10
-281.49999999902093
 20
-125.60000000043408
 30
0.0
 40
278.59999999998797
100
AcDbArc
 50
337.40646832567052
 51
351.4753749153586
  0
CIRCLE
  5
1BB
100
AcDbEntity
  8
一般
370
               0
390
0
  6
Continuous
 62
               1
100
AcDbCircle
 10
-38.141089602241223
 20
-230.95891039722761
 30
0.0
 40
3.25
  0
ARC
  5
1BC
100
AcDbEntity
  8
一般
370
               0
390
0
  6
Continuous
 62
               1
100
AcDbCircle
 10
-45.147079498680355
 20
-223.95292050078803
 30
0.0
 40
22.600000000005736
100
AcDbArc
 50
292.59353167432096
 51
337.40646832567023
  0
ARC
  5
1BD
100
AcDbEntity
  8
一般
370
               0
390
0
  6
Continuous
 62
               1
100
AcDbCircle
 10
-3.9999999990254906
 20
-167.1945909948958
 30
0.0
 40
2.000000000001819
100
AcDbArc
 50
0.0000000000195413
 51
171.47537491535431
  0
ARC
  5
1BE
100
AcDbEntity
  8
一般
370
               0
390
0
  6
Continuous
 62
               1
100
AcDbCircle
 10
-143.49999999903639
 20
-263.6000000004297
 30
0.0
 40
275.99999999999818
100
AcDbArc
 50
67.4064683256791
 51
75.003587273104202
  0
ARC
  5
1BF
100
AcDbEntity
  8
一般
370
               0
390
0
  6
Continuous
 62
               1
100
AcDbCircle
 10
-143.49999999903639
 20
-263.60000000043925
 30
0.0
 40
278.60000000000696
100
AcDbArc
 50
67.406468325679256
 51
73.122465632209057
  0
ARC
  5
1C0
100
AcDbEntity
  8
一般
370
               0
390
0
  6
Continuous
 62
               1
100
AcDbCircle
 10
-143.49999999903639
 20
-263.6000000004322
 30
0.0
 40
277.99999999999989
100
AcDbArc
 50
67.406468325679256
 51
73.534950410579015
  0
LINE
  5
1C1
100
AcDbEntity
  8
一般
370
               0
390
0
  6
Continuous
 62
               1
100
AcDbLine
 10
-1.9999999990336761
 20
2.9999999995687574
 30
0.0
 11
-2.0000649878734436
 21
15.000008702183862
 31
0.0
  0
LINE
  5
1C2
100
AcDbEntity
  8
一般
370
               0
390
0
  6
Continuous
 62
               1
100
AcDbLine
 10
-11.375160355305084
 20
15.000008702183862
 30
0.0
 11
-11.375163397726752
 21
2.9999999995687574
 31
0.0
  0
LINE
  5
1C3
100
AcDbEntity
  8
一般
370
               0
390
0
  6
Continuous
 62
               1
100
AcDbLine
 10
21.000175338054291
 20
-21.000004649256311
 30
0.0
 11
21.000175338054291
 21
9.0000263451589433
 31
0.0
  0
ARC
  5
1C4
100
AcDbEntity
  8
一般
370
               0
390
0
  6
Continuous
 62
               1
100
AcDbCircle
 10
-281.49999999902093
 20
-125.60000000043408
 30
0.0
 40
278.59999999998621
100
AcDbArc
 50
8.5246250846412384
 51
22.593531674329508
  0
ARC
  5
1C5
100
AcDbEntity
  8
一般
370
               0
390
0
  6
Continuous
 62
               1
100
AcDbCircle
 10
-45.147079498677627
 20
-27.247079500070072
 30
0.0
 40
22.599999999999532
100
AcDbArc
 50
22.593531674329693
 51
67.406468325680109
  0
ARC
  5
1C6
100
AcDbEntity
  8
一般
370
               0
390
0
  6
Continuous
 62
               1
100
AcDbCircle
 10
-45.147079498676717
 20
-27.24707950006939
 30
0.0
 40
21.999999999998426
100
AcDbArc
 50
22.593531674329729
 51
67.406468325679114
  0
CIRCLE
  5
1C7
100
AcDbEntity
  8
一般
370
               0
390
0
  6
Continuous
 62
               1
100
AcDbCircle
 10
-38.141089602243042
 20
-20.241089603635942
 30
0.0
 40
3.2500000000009095
  0
LINE
  5
1C8
100
AcDbEntity
  8
一般
370
               0
390
0
  6
Continuous
 62
               1
100
AcDbLine
 10
-1.9999999990373141
 20
-84.005409005975594
 30
0.0
 11
-1.9999999990336761
 21
2.9999999995687574
 31
0.0
  0
ARC
  5
1C9
100
AcDbEntity
  8
一般
370
               0
390
0
  6
Continuous
 62
               1
100
AcDbCircle
 10
-3.9999999990264001
 20
-84.005409005975594
 30
0.0
 40
2.0000000000020752
100
AcDbArc
 50
188.52462508463927
 51
0.0
  0
LINE
  5
1CA
100
AcDbEntity
  8
一般
370
               0
390
0
  6
Continuous
 62
               1
100
AcDbLine
 10
27.10344827681773
 20
14.999999999569667
 30
0.0
 11
27.10344827681773
 21
29.999999999569638
 31
0.0
  0
LINE
  5
1CB
100
AcDbEntity
  8
一般
370
               0
390
0
  6
Continuous
 62
               1
100
AcDbLine
 10
47.999858438411692
 20
530.60881211711012
 30
0.0
 11
47.999971110964552
 21
390.66786895220753
 31
0.0
  0
LINE
  5
1CC
100
AcDbEntity
  8
一般
370
               0
390
0
  6
Continuous
 62
               1
100
AcDbLine
 10
422.08772104742911
 20
15.000008702181816
 30
0.0
 11
536.08772855761435
 21
15.000008702181816
 31
0.0
  0
LINE
  5
1CD
100
AcDbEntity
  8
一般
370
               0
390
0
  6
Continuous
 62
               1
100
AcDbLine
 10
422.08772104742911
 20
-585.00000023851578
 30
0.0
 11
536.08772855761435
 21
-585.00000023851578
 31
0.0
  0
LINE
  5
1CE
100
AcDbEntity
  8
一般
370
               0
390
0
  6
Continuous
 62
               1
100
AcDbLine
 10
422.08772104742911
 20
-600.00000083456223
 30
0.0
 11
579.33213100920784
 21
-600.00000000043372
 31
0.0
  0
LINE
  5
1CF
100
AcDbEntity
  8
一般
370
               0
390
0
  6
Continuous
 62
               1
100
AcDbLine
 10
619.99999996119914
 20
-584.99999993885899
 30
0.0
 11
422.08772104742911
 21
-585.00000023851578
 31
0.0
  0
LINE
  5
1D0
100
AcDbEntity
  8
一般
370
               0
390
0
  6
Continuous
 62
               1
100
AcDbLine
 10
422.08772104742911
 20
15.000008702181816
 30
0.0
 11
619.99999996119914
 21
14.999997748824214
 31
0.0
  0
LINE
  5
1D1
100
AcDbEntity
  8
一般
370
               0
390
0
  6
Continuous
 62
               1
100
AcDbLine
 10
315.02677994356873
 20
-600.00000000043303
 30
0.0
 11
315.02677994356873
 21
29.999999999568047
 31
0.0
  0
LINE
  5
1D2
100
AcDbEntity
  8
一般
370
               0
390
0
  6
Continuous
 62
               1
100
AcDbLine
 10
422.08772104742911
 20
-585.00000023851578
 30
0.0
 11
422.08772104742911
 21
15.000008702181816
 31
0.0
  0
LINE
  5
1D3
100
AcDbEntity
  8
一般
370
               0
390
0
  6
Continuous
 62
               1
100
AcDbLine
 10
422.08772104742911
 20
-600.00000083456223
 30
0.0
 11
422.08772104742911
 21
29.999994397067042
 31
0.0
  0
LINE
  5
1D4
100
AcDbEntity
  8
一般
370
               0
390
0
  6
Continuous
 62
               1
100
AcDbLine
 10
48.000000000965414
 20
29.999999999569638
 30
0.0
 11
48.000000000965414
 21
-600.00000000043349
 31
0.0
  0
LINE
  5
1D5
100
AcDbEntity
  8
一般
370
               0
390
0
  6
Continuous
 62
               1
100
AcDbLine
 10
32.999782424236841
 20
15.00000870218409
 30
0.0
 11
32.999782424240479
 21
-573.00000572214083
 31
0.0
  0
LINE
  5
1D6
100
AcDbEntity
  8
一般
370
               0
390
0
  6
Continuous
 62
               1
100
AcDbLine
 10
44.000000000970871
 20
-573.00000000043008
 30
0.0
 11
43.999938826824732
 21
15.000008702184317
 31
0.0
  0
LINE
  5
1D7
100
AcDbEntity
  8
一般
370
               0
390
0
  6
Continuous
 62
               1
100
AcDbLine
 10
33.000000000965414
 20
-464.26510900068695
 30
0.0
 11
32.999782424240479
 21
-573.00000572214083
 31
0.0
  0
LINE
  5
1D8
100
AcDbEntity
  8
一般
370
               0
390
0
  6
Continuous
 62
               1
100
AcDbLine
 10
43.99993882682837
 20
-585.00000023851328
 30
0.0
 11
44.000000000970871
 21
-573.00000000043008
 31
0.0
  0
LINE
  5
1D9
100
AcDbEntity
  8
一般
370
               0
390
0
  6
Continuous
 62
               1
100
AcDbLine
 10
33.000000000964505
 20
-392.93489100017848
 30
0.0
 11
32.99978242423866
 21
-294.99999368200253
 31
0.0
  0
LINE
  5
1DA
100
AcDbEntity
  8
一般
370
               0
390
0
  6
Continuous
 62
               1
100
AcDbLine
 10
315.02678011122134
 20
-585.00000023851533
 30
0.0
 11
422.08772104742911
 21
-585.00000023851578
 31
0.0
  0
LINE
  5
1DB
100
AcDbEntity
  8
一般
370
               0
390
0
  6
Continuous
 62
               1
100
AcDbLine
 10
299.99999996120005
 20
-599.99999988335696
 30
0.0
 11
422.08772104742911
 21
-600.00000083456223
 31
0.0
  0
LINE
  5
1DC
100
AcDbEntity
  8
一般
370
               0
390
0
  6
Continuous
 62
               1
100
AcDbLine
 10
422.08772104742911
 20
-585.00000023851578
 30
0.0
 11
315.02678011122134
 21
-585.00000023851533
 31
0.0
  0
LINE
  5
1DD
100
AcDbEntity
  8
一般
370
               0
390
0
  6
Continuous
 62
               1
100
AcDbLine
 10
315.02677994356873
 20
-573.00000000043235
 30
0.0
 11
299.99999996120005
 21
-573.0000000004319
 31
0.0
  0
LINE
  5
1DE
100
AcDbEntity
  8
一般
370
               0
390
0
  6
Continuous
 62
               1
100
AcDbLine
 10
299.99999996120005
 20
-573.0000000004319
 30
0.0
 11
299.99999996120005
 21
-599.99999988335696
 31
0.0
  0
LINE
  5
1DF
100
AcDbEntity
  8
一般
370
               0
390
0
  6
Continuous
 62
               1
100
AcDbLine
 10
422.08772104742911
 20
15.000008702181816
 30
0.0
 11
315.02678011122134
 21
15.000008702182271
 31
0.0
  0
LINE
  5
1E0
100
AcDbEntity
  8
一般
370
               0
390
0
  6
Continuous
 62
               1
100
AcDbLine
 10
619.99999996119914
 20
29.99998404031389
 30
0.0
 11
299.99999996119914
 21
30.00000078591971
 31
0.0
  0
LINE
  5
1E1
100
AcDbEntity
  8
一般
370
               0
390
0
  6
Continuous
 62
               1
100
AcDbLine
 10
315.02678011122134
 20
15.000008702182271
 30
0.0
 11
422.08772104742911
 21
15.000008702181816
 31
0.0
  0
LINE
  5
1E2
100
AcDbEntity
  8
一般
370
               0
390
0
  6
Continuous
 62
               1
100
AcDbLine
 10
299.99999996119914
 20
30.00000078591971
 30
0.0
 11
299.99999996119914
 21
2.9999999995676205
 31
0.0
  0
LINE
  5
1E3
100
AcDbEntity
  8
一般
370
               0
390
0
  6
Continuous
 62
               1
100
AcDbLine
 10
299.99999996119914
 20
2.9999999995676205
 30
0.0
 11
315.02677994356964
 21
2.9999999995676205
 31
0.0
  0
LINE
  5
1E4
100
AcDbEntity
  8
一般
370
               0
390
0
  6
STYLE_01
 62
               1
100
AcDbLine
 10
614.38772431442612
 20
-277.85000000043334
 30
0.0
 11
614.38772431442612
 21
-270.85000000043357
 31
0.0
  0
LINE
  5
1E5
100
AcDbEntity
  8
一般
370
               0
390
0
  6
Continuous
 62
               1
100
AcDbLine
 10
578.08772426607993
 20
15.000008702181816
 30
0.0
 11
578.08772426607993
 21
-585.00000023851578
 31
0.0
  0
LINE
  5
1E6
100
AcDbEntity
  8
一般
370
               0
390
0
  6
Continuous
 62
               1
100
AcDbLine
 10
536.08772855761435
 20
-585.00000023851578
 30
0.0
 11
536.08772855761435
 21
15.000008702181816
 31
0.0
  0
LINE
  5
1E7
100
AcDbEntity
  8
一般
370
               0
390
0
  6
STYLE_01
 62
               1
100
AcDbLine
 10
580.58772431442503
 20
-272.85000000043311
 30
0.0
 11
580.58772431442503
 21
-277.85000000043334
 31
0.0
  0
LINE
  5
1E8
100
AcDbEntity
  8
一般
370
               0
390
0
  6
STYLE_01
 62
               1
100
AcDbLine
 10
610.3877196884423
 20
-274.34999430189197
 30
0.0
 11
610.3877196884423
 21
-277.85000884542529
 31
0.0
  0
LINE
  5
1E9
100
AcDbEntity
  8
一般
370
               0
390
0
  6
STYLE_01
 62
               1
100
AcDbLine
 10
587.58772116663749
 20
-270.85000956068103
 30
0.0
 11
587.58772116663749
 21
-277.85000884542529
 31
0.0
  0
LINE
  5
1EA
100
AcDbEntity
  8
一般
370
               0
390
0
  6
Continuous
 62
               1
100
AcDbLine
 10
579.33213100920784
 20
-600.00000000043372
 30
0.0
 11
604.82634242466611
 21
-600.00000000043349
 31
0.0
  0
LINE
  5
1EB
100
AcDbEntity
  8
一般
370
               0
390
0
  6
STYLE_01
 62
               1
100
AcDbLine
 10
587.58772116663749
 20
-284.85000813016956
 30
0.0
 11
610.3877196884423
 21
-284.85000813016956
 31
0.0
  0
LINE
  5
1EC
100
AcDbEntity
  8
一般
370
               0
390
0
  6
STYLE_01
 62
               1
100
AcDbLine
 10
587.58772116663749
 20
-277.85000884542529
 30
0.0
 11
610.3877196884423
 21
-277.85000884542529
 31
0.0
  0
CIRCLE
  5
1ED
100
AcDbEntity
  8
一般
370
               0
390
0
  6
Continuous
 62
               1
100
AcDbCircle
 10
549.08772431442503
 20
-564.0000000004344
 30
0.0
 40
4.0
  0
LINE
  5
1EE
100
AcDbEntity
  8
一般
370
               0
390
0
  6
STYLE_01
 62
               1
100
AcDbLine
 10
578.08772426607993
 20
-573.0000057221431
 30
0.0
 11
615.96842715395542
 21
-572.99983154884637
 31
0.0
  0
LINE
  5
1EF
100
AcDbEntity
  8
一般
370
               0
390
0
  6
STYLE_01
 62
               1
100
AcDbLine
 10
579.33213100920329
 20
-573.00000000043235
 30
0.0
 11
579.33213100920784
 21
-585.00000000043372
 31
0.0
  0
LINE
  5
1F0
100
AcDbEntity
  8
一般
370
               0
390
0
  6
Continuous
 62
               1
100
AcDbLine
 10
579.33213100920784
 20
-600.00000000043372
 30
0.0
 11
579.33213100920784
 21
-585.00000000043372
 31
0.0
  0
CIRCLE
  5
1F1
100
AcDbEntity
  8
一般
370
               0
390
0
  6
Continuous
 62
               1
100
AcDbCircle
 10
465.08772431442412
 20
-285.00000000043343
 30
0.0
 40
6.5000000000463842
  0
CIRCLE
  5
1F2
100
AcDbEntity
  8
一般
370
               0
390
0
  6
Continuous
 62
               1
100
AcDbCircle
 10
465.08772431442412
 20
-285.00000000043343
 30
0.0
 40
4.1999999999999886
  0
CIRCLE
  5
1F3
100
AcDbEntity
  8
一般
370
               0
390
0
  6
Continuous
 62
               1
100
AcDbCircle
 10
549.08772431442503
 20
-285.00000000043343
 30
0.0
 40
4.0
  0
LINE
  5
1F4
100
AcDbEntity
  8
一般
370
               0
390
0
  6
STYLE_01
 62
               1
100
AcDbLine
 10
580.58772431442503
 20
-282.85000000043311
 30
0.0
 11
587.58772116663749
 21
-282.85000407705348
 31
0.0
  0
LINE
  5
1F5
100
AcDbEntity
  8
一般
370
               0
390
0
  6
STYLE_01
 62
               1
100
AcDbLine
 10
580.58772431442503
 20
-277.85000000043334
 30
0.0
 11
580.58772431442503
 21
-282.85000000043311
 31
0.0
  0
LINE
  5
1F6
100
AcDbEntity
  8
一般
370
               0
390
0
  6
STYLE_01
 62
               1
100
AcDbLine
 10
578.08772426607902
 20
-280.85000002393764
 30
0.0
 11
580.58772188189323
 21
-280.85000002393764
 31
0.0
  0
LINE
  5
1F7
100
AcDbEntity
  8
一般
370
               0
390
0
  6
STYLE_01
 62
               1
100
AcDbLine
 10
587.58772116663749
 20
-277.85000884542529
 30
0.0
 11
587.58772116663749
 21
-284.85000813016956
 31
0.0
  0
LINE
  5
1F8
100
AcDbEntity
  8
一般
370
               0
390
0
  6
STYLE_01
 62
               1
100
AcDbLine
 10
615.96842715395542
 20
-584.99999994496318
 30
0.0
 11
615.96842715395542
 21
-572.99983154884637
 31
0.0
  0
LINE
  5
1F9
100
AcDbEntity
  8
一般
370
               0
390
0
  6
Continuous
 62
               1
100
AcDbLine
 10
604.82634242466611
 20
-600.00000000043349
 30
0.0
 11
619.99999996119914
 21
-600.00000000043258
 31
0.0
  0
LINE
  5
1FA
100
AcDbEntity
  8
一般
370
               0
390
0
  6
STYLE_01
 62
               1
100
AcDbLine
 10
600.90414386752036
 20
-585.00000023851578
 30
0.0
 11
600.90415605305952
 21
-573.00000000043212
 31
0.0
  0
LINE
  5
1FB
100
AcDbEntity
  8
一般
370
               0
390
0
  6
Continuous
 62
               1
100
AcDbLine
 10
604.82634242466611
 20
-585.00000000043349
 30
0.0
 11
604.82634242466611
 21
-600.00000000043349
 31
0.0
  0
LINE
  5
1FC
100
AcDbEntity
  8
一般
370
               0
390
0
  6
Continuous
 62
               1
100
AcDbLine
 10
619.99999996119914
 20
-600.00000000043258
 30
0.0
 11
619.99999996119914
 21
29.99998404031389
 31
0.0
  0
LINE
  5
1FD
100
AcDbEntity
  8
一般
370
               0
390
0
  6
STYLE_01
 62
               1
100
AcDbLine
 10
614.38772431442612
 20
-284.85000000043311
 30
0.0
 11
614.38772431442612
 21
-277.85000000043334
 31
0.0
  0
LINE
  5
1FE
100
AcDbEntity
  8
一般
370
               0
390
0
  6
STYLE_01
 62
               1
100
AcDbLine
 10
610.3877196884423
 20
-281.34999358663623
 30
0.0
 11
610.3877196884423
 21
-284.85000813016956
 31
0.0
  0
LINE
  5
1FF
100
AcDbEntity
  8
一般
370
               0
390
0
  6
STYLE_01
 62
               1
100
AcDbLine
 10
610.3877196884423
 20
-277.85000884542529
 30
0.0
 11
610.3877196884423
 21
-281.34999358663623
 31
0.0
  0
LINE
  5
200
100
AcDbEntity
  8
一般
370
               0
390
0
  6
STYLE_01
 62
               1
100
AcDbLine
 10
610.3877196884423
 20
-284.85000813016933
 30
0.0
 11
614.38772431442612
 21
-284.85000000043311
 31
0.0
  0
ARC
  5
201
100
AcDbEntity
  8
一般
370
               0
390
0
  6
STYLE_01
 62
               1
100
AcDbCircle
 10
614.38772431442612
 20
-283.85000000043311
 30
0.0
 40
1.0
100
AcDbArc
 50
270.0
 51
359.99999999997402
  0
LINE
  5
202
100
AcDbEntity
  8
一般
370
               0
390
0
  6
STYLE_01
 62
               1
100
AcDbLine
 10
610.3877196884423
 20
-270.85000956068103
 30
0.0
 11
587.58772116663749
 21
-270.85000956068103
 31
0.0
  0
LINE
  5
203
100
AcDbEntity
  8
一般
370
               0
390
0
  6
STYLE_01
 62
               1
100
AcDbLine
 10
587.58772116663749
 20
-272.85001361379665
 30
0.0
 11
580.58772431442503
 21
-272.85000000043311
 31
0.0
  0
LINE
  5
204
100
AcDbEntity
  8
一般
370
               0
390
0
  6
STYLE_01
 62
               1
100
AcDbLine
 10
580.58772188189323
 20
-274.8499878645901
 30
0.0
 11
578.08772426607902
 21
-274.8499878645901
 31
0.0
  0
LINE
  5
205
100
AcDbEntity
  8
一般
370
               0
390
0
  6
STYLE_01
 62
               1
100
AcDbLine
 10
579.33213100920784
 20
14.999999999567393
 30
0.0
 11
579.33213100920239
 21
2.999999999566711
 31
0.0
  0
CIRCLE
  5
206
100
AcDbEntity
  8
一般
370
               0
390
0
  6
Continuous
 62
               1
100
AcDbCircle
 10
549.08772431442503
 20
-6.0000000004316689
 30
0.0
 40
4.0
  0
LINE
  5
207
100
AcDbEntity
  8
一般
370
               0
390
0
  6
STYLE_01
 62
               1
100
AcDbLine
 10
578.08772426607993
 20
2.9999843834867477
 30
0.0
 11
615.99999996133909
 21
3.0004601452359907
 31
0.0
  0
LINE
  5
208
100
AcDbEntity
  8
一般
370
               0
390
0
  6
Continuous
 62
               1
100
AcDbLine
 10
579.33213100920784
 20
29.999999999567365
 30
0.0
 11
579.33213100920784
 21
14.999999999567393
 31
0.0
  0
LINE
  5
209
100
AcDbEntity
  8
一般
370
               0
390
0
  6
STYLE_01
 62
               1
100
AcDbLine
 10
610.3877196884423
 20
-270.85000956068103
 30
0.0
 11
610.3877196884423
 21
-274.34999430189197
 31
0.0
  0
LINE
  5
20A
100
AcDbEntity
  8
一般
370
               0
390
0
  6
STYLE_01
 62
               1
100
AcDbLine
 10
614.38772431442612
 20
-270.85000000043357
 30
0.0
 11
610.3877196884423
 21
-270.8500095606808
 31
0.0
  0
ARC
  5
20B
100
AcDbEntity
  8
一般
370
               0
390
0
  6
STYLE_01
 62
               1
100
AcDbCircle
 10
614.38772431442612
 20
-271.85000000043266
 30
0.0
 40
1.0
100
AcDbArc
 50
359.99999999997402
 51
90.0
  0
LINE
  5
20C
100
AcDbEntity
  8
一般
370
               0
390
0
  6
STYLE_01
 62
               1
100
AcDbLine
 10
600.90414386752036
 20
15.000008702182043
 30
0.0
 11
600.90415605305952
 21
2.9999999995669384
 31
0.0
  0
LINE
  5
20D
100
AcDbEntity
  8
一般
370
               0
390
0
  6
STYLE_01
 62
               1
100
AcDbLine
 10
615.99999996133909
 20
3.0004601452359907
 30
0.0
 11
616.00000363352592
 21
15.000008702182953
 31
0.0
  0
LINE
  5
20E
100
AcDbEntity
  8
一般
370
               0
390
0
  6
Continuous
 62
               1
100
AcDbLine
 10
604.82634242466611
 20
14.999999999567621
 30
0.0
 11
604.82634242466611
 21
29.999999999567592
 31
0.0
  0
LINE
  5
20F
100
AcDbEntity
  8
一般
370
               0
390
0
  6
Continuous
 62
               1
100
AcDbLine
 10
1073.0348110425175
 20
-584.99999983526982
 30
0.0
 11
1147.9998111951045
 21
-584.99999983527027
 31
0.0
  0
LINE
  5
210
100
AcDbEntity
  8
一般
370
               0
390
0
  6
Continuous
 62
               1
100
AcDbLine
 10
1147.999811195109
 20
15.00000910542758
 30
0.0
 11
1073.0348110425221
 21
15.000009105428035
 31
0.0
  0
LINE
  5
211
100
AcDbEntity
  8
一般
370
               0
390
0
  6
Continuous
 62
               1
100
AcDbLine
 10
1073.0350070537461
 20
-599.99999959718753
 30
0.0
 11
1147.9998111951045
 21
-600.00000043131672
 31
0.0
  0
LINE
  5
212
100
AcDbEntity
  8
一般
370
               0
390
0
  6
Continuous
 62
               1
100
AcDbLine
 10
1147.9998111951045
 20
-584.99999983527027
 30
0.0
 11
1073.0348110425175
 21
-584.99999983526982
 31
0.0
  0
LINE
  5
213
100
AcDbEntity
  8
一般
370
               0
390
0
  6
Continuous
 62
               1
100
AcDbLine
 10
1073.0348110425221
 20
15.000009105428035
 30
0.0
 11
1147.999811195109
 21
15.00000910542758
 31
0.0
  0
LINE
  5
214
100
AcDbEntity
  8
一般
370
               0
390
0
  6
Continuous
 62
               1
100
AcDbLine
 10
800.00000002261913
 20
-584.99999983526777
 30
0.0
 11
800.00000002262368
 21
15.000009105430081
 31
0.0
  0
LINE
  5
215
100
AcDbEntity
  8
一般
370
               0
390
0
  6
Continuous
 62
               1
100
AcDbLine
 10
977.61066583048341
 20
3.0000004028136971
 30
0.0
 11
977.61066583047796
 21
-572.99999959718616
 31
0.0
  0
LINE
  5
216
100
AcDbEntity
  8
一般
370
               0
390
0
  6
Continuous
 62
               1
100
AcDbLine
 10
1073.0350070537443
 20
-572.99999959718684
 30
0.0
 11
1073.0350070537506
 21
3.0000004028134697
 31
0.0
  0
LINE
  5
217
100
AcDbEntity
  8
一般
370
               0
390
0
  6
Continuous
 62
               1
100
AcDbLine
 10
1073.0348110425221
 20
30.000003412845629
 30
0.0
 11
1073.0348110425221
 21
-599.99999959718707
 31
0.0
  0
LINE
  5
218
100
AcDbEntity
  8
一般
370
               0
390
0
  6
Continuous
 62
               1
100
AcDbLine
 10
977.61063578007088
 20
-599.9999995971873
 30
0.0
 11
977.61063578007088
 21
30.000000402813313
 31
0.0
  0
LINE
  5
219
100
AcDbEntity
  8
一般
370
               0
390
0
  6
Continuous
 62
               1
100
AcDbLine
 10
800.00000002262368
 20
29.999994800315307
 30
0.0
 11
800.00000002262368
 21
-600.00000043131422
 31
0.0
  0
LINE
  5
21A
100
AcDbEntity
  8
一般
370
               0
390
0
  6
Continuous
 62
               1
100
AcDbLine
 10
800.00000002261913
 20
-584.99999983526777
 30
0.0
 11
977.61063578006633
 21
-584.99999983526891
 31
0.0
  0
LINE
  5
21B
100
AcDbEntity
  8
一般
370
               0
390
0
  6
Continuous
 62
               1
100
AcDbLine
 10
800.00000002262368
 20
-600.00000043131422
 30
0.0
 11
977.61066583042884
 21
-599.99999959718707
 31
0.0
  0
LINE
  5
21C
100
AcDbEntity
  8
一般
370
               0
390
0
  6
Continuous
 62
               1
100
AcDbLine
 10
800.00000002261913
 20
-584.99999983526777
 30
0.0
 11
977.61063578006633
 21
-584.99999983526891
 31
0.0
  0
CIRCLE
  5
21D
100
AcDbEntity
  8
一般
370
               0
390
0
  6
Continuous
 62
               1
100
AcDbCircle
 10
1033.0530952480167
 20
-461.9999995971898
 30
0.0
 40
6.0
  0
ARC
  5
21E
100
AcDbEntity
  8
一般
370
               0
390
0
  6
Continuous
 62
               1
100
AcDbCircle
 10
1033.0530952480167
 20
-461.9999995971898
 30
0.0
 40
9.0000000000003268
100
AcDbArc
 50
196.12762021316465
 51
350.40593177314395
  0
CIRCLE
  5
21F
100
AcDbEntity
  8
一般
370
               0
390
0
  6
Continuous
 62
               1
100
AcDbCircle
 10
1033.0530952480167
 20
-461.9999995971898
 30
0.0
 40
11.75
  0
ARC
  5
220
100
AcDbEntity
  8
一般
370
               0
390
0
  6
Continuous
 62
               1
100
AcDbCircle
 10
937.49496002535489
 20
-478.70290069512203
 30
0.0
 40
128.00000000000844
100
AcDbArc
 50
3.0017475446949065
 51
20.939490010127116
  0
ARC
  5
221
100
AcDbEntity
  8
一般
370
               0
390
0
  6
Continuous
 62
               1
100
AcDbCircle
 10
1113.1437121590097
 20
-478.70290069512339
 30
0.0
 40
128.00000000001134
100
AcDbArc
 50
159.06050998987294
 51
176.99825245530513
  0
CIRCLE
  5
222
100
AcDbEntity
  8
一般
370
               0
390
0
  6
Continuous
 62
               1
100
AcDbCircle
 10
1033.0693360921823
 20
-461.99999959718866
 30
0.0
 40
12.093386622446815
  0
ARC
  5
223
100
AcDbEntity
  8
一般
370
               0
390
0
  6
Continuous
 62
               1
100
AcDbCircle
 10
1113.1437121590043
 20
-478.70290069512384
 30
0.0
 40
129.00000000000662
100
AcDbArc
 50
159.06443109663419
 51
177.0099124229406
  0
ARC
  5
224
100
AcDbEntity
  8
一般
370
               0
390
0
  6
Continuous
 62
               1
100
AcDbCircle
 10
937.49496002534761
 20
-478.70290069509065
 30
0.0
 40
129.00000000001239
100
AcDbArc
 50
2.9900875770463671
 51
20.935568903524267
  0
LINE
  5
225
100
AcDbEntity
  8
一般
370
               0
390
0
  6
Continuous
 62
               1
100
AcDbLine
 10
1065.3191089856327
 20
-551.99999256350316
 30
0.0
 11
985.31918527957805
 21
-551.99999256350247
 31
0.0
  0
LINE
  5
226
100
AcDbEntity
  8
一般
370
               0
390
0
  6
Continuous
 62
               1
100
AcDbLine
 10
977.61066583042884
 20
-599.99999959718707
 30
0.0
 11
1073.0350070537461
 21
-599.99999959718753
 31
0.0
  0
LINE
  5
227
100
AcDbEntity
  8
一般
370
               0
390
0
  6
Continuous
 62
               1
100
AcDbLine
 10
1073.0350070537443
 20
-572.99999959718684
 30
0.0
 11
977.61066583047796
 21
-572.99999959718616
 31
0.0
  0
LINE
  5
228
100
AcDbEntity
  8
一般
370
               0
390
0
  6
Continuous
 62
               1
100
AcDbLine
 10
984.3192577588261
 20
-573.00000531889646
 30
0.0
 11
984.31933609217958
 21
-471.97384942506915
 31
0.0
  0
LINE
  5
229
100
AcDbEntity
  8
一般
370
               0
390
0
  6
Continuous
 62
               1
100
AcDbLine
 10
985.31918527957805
 20
-551.99999256350247
 30
0.0
 11
985.31933609218049
 21
-471.99999959719571
 31
0.0
  0
CIRCLE
  5
22A
100
AcDbEntity
  8
一般
370
               0
390
0
  6
Continuous
 62
               1
100
AcDbCircle
 10
991.31933609217958
 20
-545.99999959718866
 30
0.0
 40
2.75
  0
CIRCLE
  5
22B
100
AcDbEntity
  8
一般
370
               0
390
0
  6
Continuous
 62
               1
100
AcDbCircle
 10
991.31933609217958
 20
-471.99999959718821
 30
0.0
 40
2.75
  0
LINE
  5
22C
100
AcDbEntity
  8
一般
370
               0
390
0
  6
Continuous
 62
               1
100
AcDbLine
 10
1066.3193360921805
 20
-471.97384942507051
 30
0.0
 11
1066.3195133435429
 21
-573.00000531889714
 31
0.0
  0
CIRCLE
  5
22D
100
AcDbEntity
  8
一般
370
               0
390
0
  6
Continuous
 62
               1
100
AcDbCircle
 10
1033.0530952480167
 20
-520.99999959718957
 30
0.0
 40
11.75
  0
CIRCLE
  5
22E
100
AcDbEntity
  8
一般
370
               0
390
0
  6
Continuous
 62
               1
100
AcDbCircle
 10
1045.0693360921832
 20
-511.49999959718934
 30
0.0
 40
1.75
  0
CIRCLE
  5
22F
100
AcDbEntity
  8
一般
370
               0
390
0
  6
Continuous
 62
               1
100
AcDbCircle
 10
1033.0693360921814
 20
-520.99999959718889
 30
0.0
 40
12.093386622446815
  0
ARC
  5
230
100
AcDbEntity
  8
一般
370
               0
390
0
  6
Continuous
 62
               1
100
AcDbCircle
 10
1033.0530952480167
 20
-520.99999959718957
 30
0.0
 40
9.0000000000000515
100
AcDbArc
 50
9.5940682268560025
 51
163.87237978683532
  0
LINE
  5
231
100
AcDbEntity
  8
一般
370
               0
390
0
  6
Continuous
 62
               1
100
AcDbLine
 10
1023.0532169568251
 20
-518.50000663019887
 30
0.0
 11
1024.4072870151213
 21
-518.49999959718912
 31
0.0
  0
LINE
  5
232
100
AcDbEntity
  8
一般
370
               0
390
0
  6
Continuous
 62
               1
100
AcDbLine
 10
1024.4072870151213
 20
-523.49999959718934
 30
0.0
 11
1023.0532169568251
 21
-523.50000186182729
 31
0.0
  0
CIRCLE
  5
233
100
AcDbEntity
  8
一般
370
               0
390
0
  6
Continuous
 62
               1
100
AcDbCircle
 10
1021.0530952480167
 20
-530.49999959718957
 30
0.0
 40
1.5
  0
LINE
  5
234
100
AcDbEntity
  8
一般
370
               0
390
0
  6
Continuous
 62
               1
100
AcDbLine
 10
1023.0532169568251
 20
-518.50000663019887
 30
0.0
 11
1023.0532169568251
 21
-523.50000186182729
 31
0.0
  0
CIRCLE
  5
235
100
AcDbEntity
  8
一般
370
               0
390
0
  6
Continuous
 62
               1
100
AcDbCircle
 10
1021.0693360921832
 20
-530.49999959718821
 30
0.0
 40
1.75
  0
CIRCLE
  5
236
100
AcDbEntity
  8
一般
370
               0
390
0
  6
Continuous
 62
               1
100
AcDbCircle
 10
1033.0530952480167
 20
-520.99999959718957
 30
0.0
 40
6.0
  0
CIRCLE
  5
237
100
AcDbEntity
  8
一般
370
               0
390
0
  6
Continuous
 62
               1
100
AcDbCircle
 10
1033.0530952480167
 20
-520.99999959718957
 30
0.0
 40
2.75
  0
LINE
  5
238
100
AcDbEntity
  8
一般
370
               0
390
0
  6
Continuous
 62
               1
100
AcDbLine
 10
1041.9272149226663
 20
-519.49999959718957
 30
0.0
 11
1043.0531978833387
 21
-519.49999375559582
 31
0.0
  0
LINE
  5
239
100
AcDbEntity
  8
一般
370
               0
390
0
  6
Continuous
 62
               1
100
AcDbLine
 10
1043.0531978833387
 20
-522.49999983526959
 30
0.0
 11
1043.0531978833387
 21
-519.49999375559582
 31
0.0
  0
LINE
  5
23A
100
AcDbEntity
  8
一般
370
               0
390
0
  6
Continuous
 62
               1
100
AcDbLine
 10
1043.0531978833387
 20
-522.49999983526959
 30
0.0
 11
1041.9272149226663
 21
-522.4999995971898
 31
0.0
  0
ARC
  5
23B
100
AcDbEntity
  8
一般
370
               0
390
0
  6
Continuous
 62
               1
100
AcDbCircle
 10
1033.0530952480167
 20
-520.99999959718957
 30
0.0
 40
9.0000000000000426
100
AcDbArc
 50
196.12762021315842
 51
350.40593177314395
  0
CIRCLE
  5
23C
100
AcDbEntity
  8
一般
370
               0
390
0
  6
Continuous
 62
               1
100
AcDbCircle
 10
1021.0530952480167
 20
-471.49999959718934
 30
0.0
 40
1.5
  0
CIRCLE
  5
23D
100
AcDbEntity
  8
一般
370
               0
390
0
  6
Continuous
 62
               1
100
AcDbCircle
 10
1021.0693360921832
 20
-471.49999959718866
 30
0.0
 40
1.75
  0
LINE
  5
23E
100
AcDbEntity
  8
一般
370
               0
390
0
  6
Continuous
 62
               1
100
AcDbLine
 10
1065.3193360921814
 20
-471.99999959719162
 30
0.0
 11
1065.3191089856327
 21
-551.99999256350316
 31
0.0
  0
CIRCLE
  5
23F
100
AcDbEntity
  8
一般
370
               0
390
0
  6
Continuous
 62
               1
100
AcDbCircle
 10
1059.3193360921841
 20
-545.99999959718912
 30
0.0
 40
2.75
  0
CIRCLE
  5
240
100
AcDbEntity
  8
一般
370
               0
390
0
  6
Continuous
 62
               1
100
AcDbCircle
 10
1045.0530952480167
 20
-511.49999959718934
 30
0.0
 40
1.5
  0
CIRCLE
  5
241
100
AcDbEntity
  8
一般
370
               0
390
0
  6
Continuous
 62
               1
100
AcDbCircle
 10
1059.319336092185
 20
-471.99999959718843
 30
0.0
 40
2.75
  0
ARC
  5
242
100
AcDbEntity
  8
一般
370
               0
390
0
  6
Continuous
 62
               1
100
AcDbCircle
 10
1042.4842907599977
 20
-450.67911122063651
 30
0.0
 40
52.00000000000253
100
AcDbArc
 50
129.7801195765847
 51
160.07498693538233
  0
ARC
  5
243
100
AcDbEntity
  8
一般
370
               0
390
0
  6
Continuous
 62
               1
100
AcDbCircle
 10
1010.6106658304807
 20
-374.99999959718775
 30
0.0
 40
6.5
100
AcDbArc
 50
180.0
 51
270.0
  0
ARC
  5
244
100
AcDbEntity
  8
一般
370
               0
390
0
  6
Continuous
 62
               1
100
AcDbCircle
 10
1010.6106658304807
 20
-306.9999995971877
 30
0.0
 40
6.5
100
AcDbArc
 50
90.0
 51
180.0
  0
ARC
  5
245
100
AcDbEntity
  8
一般
370
               0
390
0
  6
Continuous
 62
               1
100
AcDbCircle
 10
1042.4842907599996
 20
-450.67911122063242
 30
0.0
 40
52.999999999999595
100
AcDbArc
 50
129.76627983103776
 51
160.06538919673471
  0
CIRCLE
  5
246
100
AcDbEntity
  8
一般
370
               0
390
0
  6
Continuous
 62
               1
100
AcDbCircle
 10
992.61066583048068
 20
-378.99999959718821
 30
0.0
 40
3.4999999999918145
  0
CIRCLE
  5
247
100
AcDbEntity
  8
一般
370
               0
390
0
  6
Continuous
 62
               1
100
AcDbCircle
 10
992.61066583048068
 20
-378.99999959718821
 30
0.0
 40
6.5000000000027285
  0
CIRCLE
  5
248
100
AcDbEntity
  8
一般
370
               0
390
0
  6
Continuous
 62
               1
100
AcDbCircle
 10
992.61066583048068
 20
-302.99999959718792
 30
0.0
 40
3.4999999999354259
  0
CIRCLE
  5
249
100
AcDbEntity
  8
一般
370
               0
390
0
  6
Continuous
 62
               1
100
AcDbCircle
 10
992.61066583048068
 20
-302.99999959718792
 30
0.0
 40
6.499999999920874
  0
LINE
  5
24A
100
AcDbEntity
  8
一般
370
               0
390
0
  6
Continuous
 62
               1
100
AcDbLine
 10
1004.1106658304807
 20
-374.99999959718798
 30
0.0
 11
1004.1106658304807
 21
-306.9999995971877
 31
0.0
  0
LINE
  5
24B
100
AcDbEntity
  8
一般
370
               0
390
0
  6
Continuous
 62
               1
100
AcDbLine
 10
1065.1106658304789
 20
-306.99999959718838
 30
0.0
 11
1065.1106658304789
 21
-374.99999959718821
 31
0.0
  0
ARC
  5
24C
100
AcDbEntity
  8
一般
370
               0
390
0
  6
Continuous
 62
               1
100
AcDbCircle
 10
1008.1543814243669
 20
-450.67911122063492
 30
0.0
 40
51.99999999999897
100
AcDbArc
 50
19.925013064617396
 51
50.219880423411766
  0
CIRCLE
  5
24D
100
AcDbEntity
  8
一般
370
               0
390
0
  6
Continuous
 62
               1
100
AcDbCircle
 10
1045.0693360921832
 20
-452.49999959718843
 30
0.0
 40
1.75
  0
LINE
  5
24E
100
AcDbEntity
  8
一般
370
               0
390
0
  6
Continuous
 62
               1
100
AcDbLine
 10
1058.6106658304798
 20
-381.49999959718843
 30
0.0
 11
1010.6106658304807
 21
-381.49999959718798
 31
0.0
  0
ARC
  5
24F
100
AcDbEntity
  8
一般
370
               0
390
0
  6
Continuous
 62
               1
100
AcDbCircle
 10
1008.1543814244214
 20
-450.67911122071769
 30
0.0
 40
52.999999999974911
100
AcDbArc
 50
19.934610803807857
 51
50.233720168127462
  0
LINE
  5
250
100
AcDbEntity
  8
一般
370
               0
390
0
  6
Continuous
 62
               1
100
AcDbLine
 10
1023.0532169568251
 20
-459.49999137140981
 30
0.0
 11
1024.4072870151213
 21
-459.49999959718912
 31
0.0
  0
LINE
  5
251
100
AcDbEntity
  8
一般
370
               0
390
0
  6
Continuous
 62
               1
100
AcDbLine
 10
1024.4072870151213
 20
-464.4999995971898
 30
0.0
 11
1023.0532169568251
 21
-464.49998660303822
 31
0.0
  0
LINE
  5
252
100
AcDbEntity
  8
一般
370
               0
390
0
  6
Continuous
 62
               1
100
AcDbLine
 10
1023.0532169568251
 20
-459.49999137140981
 30
0.0
 11
1023.0532169568251
 21
-464.49998660303822
 31
0.0
  0
CIRCLE
  5
253
100
AcDbEntity
  8
一般
370
               0
390
0
  6
Continuous
 62
               1
100
AcDbCircle
 10
1033.0530952480167
 20
-461.9999995971898
 30
0.0
 40
2.75
  0
ARC
  5
254
100
AcDbEntity
  8
一般
370
               0
390
0
  6
Continuous
 62
               1
100
AcDbCircle
 10
1033.0530952480167
 20
-461.9999995971898
 30
0.0
 40
9.000000000000222
100
AcDbArc
 50
9.5940682268624258
 51
163.87237978683532
  0
LINE
  5
255
100
AcDbEntity
  8
一般
370
               0
390
0
  6
Continuous
 62
               1
100
AcDbLine
 10
1041.9272149226663
 20
-460.49999959718957
 30
0.0
 11
1043.0531978833387
 21
-460.50000829912915
 31
0.0
  0
LINE
  5
256
100
AcDbEntity
  8
一般
370
               0
390
0
  6
Continuous
 62
               1
100
AcDbLine
 10
1043.0531978833387
 20
-463.49999947764172
 30
0.0
 11
1043.0531978833387
 21
-460.50000829912915
 31
0.0
  0
LINE
  5
257
100
AcDbEntity
  8
一般
370
               0
390
0
  6
Continuous
 62
               1
100
AcDbLine
 10
1043.0531978833387
 20
-463.49999947764172
 30
0.0
 11
1041.9272149226663
 21
-463.49999959718912
 31
0.0
  0
LINE
  5
258
100
AcDbEntity
  8
一般
370
               0
390
0
  6
Continuous
 62
               1
100
AcDbLine
 10
1021.296049962245
 20
-406.41431626824351
 30
0.0
 11
1029.3426222221206
 21
-406.41431626824374
 31
0.0
  0
CIRCLE
  5
259
100
AcDbEntity
  8
一般
370
               0
390
0
  6
Continuous
 62
               1
100
AcDbCircle
 10
1025.3193360921814
 20
-412.41431626824374
 30
0.0
 40
2.75
  0
LINE
  5
25A
100
AcDbEntity
  8
一般
370
               0
390
0
  6
Continuous
 62
               1
100
AcDbLine
 10
1021.2883302478349
 20
-405.41431626824419
 30
0.0
 11
1029.3503419365334
 21
-405.41431626824419
 31
0.0
  0
ARC
  5
25B
100
AcDbEntity
  8
一般
370
               0
390
0
  6
Continuous
 62
               1
100
AcDbCircle
 10
1021.6086324570224
 20
-426.41187342365242
 30
0.0
 40
19.999999999997314
100
AcDbArc
 50
90.895519345542695
 51
128.30219529921763
  0
ARC
  5
25C
100
AcDbEntity
  8
一般
370
               0
390
0
  6
Continuous
 62
               1
100
AcDbCircle
 10
1021.6086324569133
 20
-426.41187342369381
 30
0.0
 40
21.000000000036039
100
AcDbArc
 50
90.873936970740218
 51
128.33764747297943
  0
ARC
  5
25D
100
AcDbEntity
  8
一般
370
               0
390
0
  6
Continuous
 62
               1
100
AcDbCircle
 10
1029.0300397273386
 20
-426.41187342365333
 30
0.0
 40
19.999999999998135
100
AcDbArc
 50
51.697804700721171
 51
89.104480654405222
  0
ARC
  5
25E
100
AcDbEntity
  8
一般
370
               0
390
0
  6
Continuous
 62
               1
100
AcDbCircle
 10
1029.0300397273386
 20
-426.4118734236547
 30
0.0
 40
20.999999999998863
100
AcDbArc
 50
51.662352524289609
 51
89.126063028948053
  0
CIRCLE
  5
25F
100
AcDbEntity
  8
一般
370
               0
390
0
  6
Continuous
 62
               1
100
AcDbCircle
 10
1045.0530952480167
 20
-452.4999995971898
 30
0.0
 40
1.5
  0
ARC
  5
260
100
AcDbEntity
  8
一般
370
               0
390
0
  6
Continuous
 62
               1
100
AcDbCircle
 10
1058.6106658304789
 20
-374.99999959718821
 30
0.0
 40
6.5000000000002274
100
AcDbArc
 50
270.0
 51
0.0
  0
LINE
  5
261
100
AcDbEntity
  8
一般
370
               0
390
0
  6
Continuous
 62
               1
100
AcDbLine
 10
1010.6106658304807
 20
-300.4999995971877
 30
0.0
 11
1058.6106658304798
 21
-300.49999959718792
 31
0.0
  0
ARC
  5
262
100
AcDbEntity
  8
一般
370
               0
390
0
  6
Continuous
 62
               1
100
AcDbCircle
 10
1058.6106658304789
 20
-306.99999959718838
 30
0.0
 40
6.5000000000009095
100
AcDbArc
 50
0.0
 51
90.0
  0
LINE
  5
263
100
AcDbEntity
  8
一般
370
               0
390
0
  6
Continuous
 62
               1
100
AcDbLine
 10
977.61063578007088
 20
15.000009105428717
 30
0.0
 11
800.00000002262368
 21
15.000009105430081
 31
0.0
  0
LINE
  5
264
100
AcDbEntity
  8
一般
370
               0
390
0
  6
Continuous
 62
               1
100
AcDbLine
 10
1147.9998111951045
 20
30.000005777519704
 30
0.0
 11
800.00000002262368
 21
29.999994800315307
 31
0.0
  0
LINE
  5
265
100
AcDbEntity
  8
一般
370
               0
390
0
  6
Continuous
 62
               1
100
AcDbLine
 10
977.61063578007088
 20
15.000009105428717
 30
0.0
 11
800.00000002262368
 21
15.000009105430081
 31
0.0
  0
ARC
  5
266
100
AcDbEntity
  8
一般
370
               0
390
0
  6
Continuous
 62
               1
100
AcDbCircle
 10
1025.3230952480208
 20
27.000000402813129
 30
0.0
 40
69.999999999999488
100
AcDbArc
 50
247.97568716295686
 51
292.02431283704311
  0
LINE
  5
267
100
AcDbEntity
  8
一般
370
               0
390
0
  6
Continuous
 62
               1
100
AcDbLine
 10
977.61066583048341
 20
3.0000004028136971
 30
0.0
 11
1073.0350070537506
 21
3.0000004028134697
 31
0.0
  0
ARC
  5
268
100
AcDbEntity
  8
一般
370
               0
390
0
  6
Continuous
 62
               1
100
AcDbCircle
 10
1007.3230952480208
 20
-17.497190519760181
 30
0.0
 40
22.000000000001819
100
AcDbArc
 50
180.0
 51
247.97568716295723
  0
LINE
  5
269
100
AcDbEntity
  8
一般
370
               0
390
0
  6
Continuous
 62
               1
100
AcDbLine
 10
985.32309524801894
 20
-17.497190519759954
 30
0.0
 11
985.32299997684822
 21
2.9999847867337337
 31
0.0
  0
ARC
  5
26A
100
AcDbEntity
  8
一般
370
               0
390
0
  6
Continuous
 62
               1
100
AcDbCircle
 10
1043.3230952480217
 20
-17.497190519760409
 30
0.0
 40
21.999999999999382
100
AcDbArc
 50
292.02431283704027
 51
0.0
  0
LINE
  5
26B
100
AcDbEntity
  8
一般
370
               0
390
0
  6
Continuous
 62
               1
100
AcDbLine
 10
1065.3229236829029
 20
2.999984786733279
 30
0.0
 11
1065.3230952480208
 21
-17.497190519760636
 31
0.0
  0
LINE
  5
26C
100
AcDbEntity
  8
一般
370
               0
390
0
  6
Continuous
 62
               1
100
AcDbLine
 10
1147.9998111951045
 20
-584.99999983527027
 30
0.0
 11
1147.999811195109
 21
15.00000910542758
 31
0.0
  0
LINE
  5
26D
100
AcDbEntity
  8
一般
370
               0
390
0
  6
Continuous
 62
               1
100
AcDbLine
 10
1147.9998111951045
 20
-600.00000043131672
 30
0.0
 11
1147.9998111951045
 21
30.000005777519704
 31
0.0
  0
CIRCLE
  5
26E
100
AcDbEntity
  8
一般
370
               0
390
0
  6
Continuous
 62
               1
100
AcDbCircle
 10
-143.46516289540386
 20
-125.4669440961012
 30
0.0
 40
12.699999999999818
  0
LINE
  5
26F
100
AcDbEntity
  8
一般
370
               0
390
0
  6
Continuous
 62
               1
100
AcDbLine
 10
47.999887327448945
 20
-1110.6088455379954
 30
0.0
 11
-129.61077848035893
 21
-1234.9732534386953
 31
0.0
  0
ARC
  5
270
100
AcDbEntity
  8
一般
370
               0
390
0
  6
Continuous
 62
               1
100
AcDbCircle
 10
21.99999999999271
 20
-970.66790237309374
 30
0.0
 40
26.000000000011823
100
AcDbArc
 50
0.0
 51
78.680114483260297
  0
LINE
  5
271
100
AcDbEntity
  8
一般
370
               0
390
0
  6
Continuous
 62
               1
100
AcDbLine
 10
-225.03511970367708
 20
-1234.973253438729
 30
0.0
 11
-299.99992384503639
 21
-1127.9123123348704
 31
0.0
  0
ARC
  5
272
100
AcDbEntity
  8
一般
370
               0
390
0
  6
Continuous
 62
               1
100
AcDbCircle
 10
-273.99999999999091
 20
-970.66790237309147
 30
0.0
 40
26.000000000008651
100
AcDbArc
 50
101.31988551673894
 51
180.0
  0
LINE
  5
273
100
AcDbEntity
  8
一般
370
               0
390
0
  6
Continuous
 62
               1
100
AcDbLine
 10
-299.99992384503639
 20
-1127.9123123348704
 30
0.0
 11
-299.99999999999909
 21
-970.66790237309101
 31
0.0
  0
CIRCLE
  5
274
100
AcDbEntity
  8
一般
370
               0
390
0
  6
Continuous
 62
               1
100
AcDbCircle
 10
-126.00000000000001
 20
-1084.9123090678713
 30
0.0
 40
21.0
  0
CIRCLE
  5
275
100
AcDbEntity
  8
一般
370
               0
390
0
  6
Continuous
 62
               1
100
AcDbCircle
 10
-126.00000000000001
 20
-1084.9123090678713
 30
0.0
 40
53.5
  0
ARC
  5
276
100
AcDbEntity
  8
一般
370
               0
390
0
  6
Continuous
 62
               1
100
AcDbCircle
 10
-177.32294909204211
 20
-1166.7401685648906
 30
0.0
 40
83.259864856208935
100
AcDbArc
 50
235.03672521798509
 51
304.96327478203011
  0
ARC
  5
277
100
AcDbEntity
  8
一般
370
               0
390
0
  6
Continuous
 62
               1
100
AcDbCircle
 10
-205.5532078979395
 20
-1213.8015872545561
 30
0.0
 40
9.9999999999972253
100
AcDbArc
 50
183.26588377230928
 51
246.86863833532257
  0
ARC
  5
278
100
AcDbEntity
  8
一般
370
               0
390
0
  6
Continuous
 62
               1
100
AcDbCircle
 10
-205.55320789794496
 20
-1214.9409785274661
 30
0.0
 40
10.000000000000455
100
AcDbArc
 50
90.0
 51
176.73411622683574
  0
LINE
  5
279
100
AcDbEntity
  8
一般
370
               0
390
0
  6
Continuous
 62
               1
100
AcDbLine
 10
-145.55320789794405
 20
-1204.9409785274656
 30
0.0
 11
-205.55320789794496
 21
-1204.9409785274656
 31
0.0
  0
ARC
  5
27A
100
AcDbEntity
  8
一般
370
               0
390
0
  6
Continuous
 62
               1
100
AcDbCircle
 10
-175.55320789794496
 20
-1143.5741138402063
 30
0.0
 40
86.366864687261
100
AcDbArc
 50
246.86863833532433
 51
293.13136166467569
  0
ARC
  5
27B
100
AcDbEntity
  8
一般
370
               0
390
0
  6
Continuous
 62
               1
100
AcDbCircle
 10
-145.5532078979486
 20
-1213.8015872545557
 30
0.0
 40
9.999999999996831
100
AcDbArc
 50
293.13136166467746
 51
356.7341162276345
  0
ARC
  5
27C
100
AcDbEntity
  8
一般
370
               0
390
0
  6
Continuous
 62
               1
100
AcDbCircle
 10
-145.55320789794496
 20
-1214.9409785274656
 30
0.0
 40
10.000000000000664
100
AcDbArc
 50
3.2658837731119568
 51
89.999999999999986
  0
CIRCLE
  5
27D
100
AcDbEntity
  8
一般
370
               0
390
0
  6
Continuous
 62
               1
100
AcDbCircle
 10
-166.0
 20
-1084.9123090678727
 30
0.0
 40
4.0
  0
CIRCLE
  5
27E
100
AcDbEntity
  8
一般
370
               0
390
0
  6
Continuous
 62
               1
100
AcDbCircle
 10
-126.00000000000001
 20
-1124.9123090678731
 30
0.0
 40
4.0
  0
CIRCLE
  5
27F
100
AcDbEntity
  8
一般
370
               0
390
0
  6
Continuous
 62
               1
100
AcDbCircle
 10
-126.00000000000001
 20
-1044.9123090678722
 30
0.0
 40
4.0
  0
CIRCLE
  5
280
100
AcDbEntity
  8
一般
370
               0
390
0
  6
Continuous
 62
               1
100
AcDbCircle
 10
-86.000000000000014
 20
-1084.9123090678727
 30
0.0
 40
4.0
  0
ARC
  5
281
100
AcDbEntity
  8
一般
370
               0
390
0
  6
Continuous
 62
               1
100
AcDbCircle
 10
-125.9999999999982
 20
-1710.0000334211445
 30
0.0
 40
780.00000000004445
100
AcDbArc
 50
78.680114483260368
 51
101.31988551673957
  0
LINE
  5
282
100
AcDbEntity
  8
一般
370
               0
390
0
  6
Continuous
 62
               1
100
AcDbLine
 10
48.000000000003624
 20
-970.66790237309283
 30
0.0
 11
47.999887327448945
 21
-1110.6088455379954
 31
0.0
  0
ARC
  5
283
100
AcDbEntity
  8
一般
370
               0
390
0
  6
Continuous
 62
               1
100
AcDbCircle
 10
-143.46516289540386
 20
-125.4669440961012
 30
0.0
 40
132.81672386016808
100
AcDbArc
 50
104.70406233335942
 51
75.295937666640583
  0
ARC
  5
284
100
AcDbEntity
  8
一般
370
               0
390
0
  6
Continuous
 62
               1
100
AcDbCircle
 10
-143.46516289540386
 20
-125.46694409610143
 30
0.0
 40
137.25741766456301
100
AcDbArc
 50
110.61680572170904
 51
69.383194278290944
  0
ARC
  5
285
100
AcDbEntity
  8
一般
370
               0
390
0
  6
Continuous
 62
               1
100
AcDbCircle
 10
-241.88384977609644
 20
-27.191364985866926
 30
0.0
 40
19.93669156359045
100
AcDbArc
 50
112.26831321147561
 51
157.76992126592535
  0
ARC
  5
286
100
AcDbEntity
  8
一般
370
               0
390
0
  6
Continuous
 62
               1
100
AcDbCircle
 10
-5.5827752198977123
 20
-125.61791302300026
 30
0.0
 40
275.91671323064975
100
AcDbArc
 50
157.41447781320491
 51
202.59669904879465
  0
ARC
  5
287
100
AcDbEntity
  8
一般
370
               0
390
0
  6
Continuous
 62
               1
100
AcDbCircle
 10
-45.130584130986094
 20
-27.23440448029271
 30
0.0
 40
19.979815936038662
100
AcDbArc
 50
22.578320316912826
 51
67.327615545734943
  0
ARC
  5
288
100
AcDbEntity
  8
一般
370
               0
390
0
  6
Continuous
 62
               1
100
AcDbCircle
 10
-241.85769550445877
 20
-223.95765985830485
 30
0.0
 40
19.993788156351723
100
AcDbArc
 50
202.58622026186612
 51
247.41393811899181
  0
LINE
  5
289
100
AcDbEntity
  8
一般
370
               0
390
0
  6
Continuous
 62
               1
100
AcDbLine
 10
-250.30512460489581
 20
-244.26449960629526
 30
0.0
 11
-249.53672422859427
 21
-242.41799795637263
 31
0.0
  0
LINE
  5
28A
100
AcDbEntity
  8
一般
370
               0
390
0
  6
Continuous
 62
               1
100
AcDbLine
 10
-24.835500393181533
 20
-232.40512460630487
 30
0.0
 11
-26.682109970781781
 21
-231.636739611721
 31
0.0
  0
ARC
  5
28B
100
AcDbEntity
  8
一般
370
               0
390
0
  6
Continuous
 62
               1
100
AcDbCircle
 10
-45.143759046393356
 20
-223.95611519664396
 30
0.0
 40
19.995726019029153
100
AcDbArc
 50
292.58788648257325
 51
337.48814380871067
  0
ARC
  5
28C
100
AcDbEntity
  8
一般
370
               0
390
0
  6
Continuous
 62
               1
100
AcDbCircle
 10
-143.50006117317605
 20
12.18674048991943
 30
0.0
 40
275.80309416544458
100
AcDbArc
 50
247.38946321875795
 51
292.61053678124279
  0
CIRCLE
  5
28D
100
AcDbEntity
  8
一般
370
               0
390
0
  6
Continuous
 62
               1
100
AcDbCircle
 10
-232.18257272166647
 20
-322.41742727777279
 30
0.0
 40
3.2499999999806124
  0
CIRCLE
  5
28E
100
AcDbEntity
  8
一般
370
               0
390
0
  6
Continuous
 62
               1
100
AcDbCircle
 10
-276.1648344310679
 20
-428.60000000043658
 30
0.0
 40
3.250000000003638
  0
CIRCLE
  5
28F
100
AcDbEntity
  8
一般
370
               0
390
0
  6
Continuous
 62
               1
100
AcDbCircle
 10
-232.18257272166011
 20
-534.78257272310054
 30
0.0
 40
3.2499999999905809
  0
CIRCLE
  5
290
100
AcDbEntity
  8
一般
370
               0
390
0
  6
Continuous
 62
               1
100
AcDbCircle
 10
-19.81742727639103
 20
-322.41742727778808
 30
0.0
 40
3.2499999999998357
  0
CIRCLE
  5
291
100
AcDbEntity
  8
一般
370
               0
390
0
  6
Continuous
 62
               1
100
AcDbCircle
 10
24.16483443299829
 20
-428.60000000042783
 30
0.0
 40
3.2500000000017053
  0
CIRCLE
  5
292
100
AcDbEntity
  8
一般
370
               0
390
0
  6
Continuous
 62
               1
100
AcDbCircle
 10
-19.817427276409504
 20
-534.78257272310043
 30
0.0
 40
3.2500000000292477
  0
CIRCLE
  5
293
100
AcDbEntity
  8
一般
370
               0
390
0
  6
Continuous
 62
               1
100
AcDbCircle
 10
-125.99999999903459
 20
-578.76483443246696
 30
0.0
 40
3.2499999999909051
  0
CIRCLE
  5
294
100
AcDbEntity
  8
一般
370
               0
390
0
  6
Continuous
 62
               1
100
AcDbCircle
 10
-125.99999999903731
 20
-277.85000000043334
 30
0.0
 40
5.9998835214785231
  0
LINE
  5
295
100
AcDbEntity
  8
一般
370
               0
390
0
  6
STYLE_01
 62
               1
100
AcDbLine
 10
615.38772431442612
 20
-283.85000000043357
 30
0.0
 11
615.38772431442612
 21
-271.80000000000001
 31
0.0
  0
MTEXT
  5
296
100
AcDbEntity
  8
一般
390
0
 62
               1
100
AcDbMText
 10
244.32489881697518
 20
-1239.1490255079786
 30
0.0
 40
40.721028645833343
 41
0.0
 71
               1
 72
               1
  1
{\fＭＳ ゴシック|b0|i0|c128|p0;\l寸法図はG512Pro-R(右側仕様）}
 73
               1
 44
0.7828267384257843
  0
LINE
  5
297
100
AcDbEntity
  8
一般
370
               0
390
0
  6
Continuous
 62
               1
100
AcDbLine
 10
200.0
 20
-1300.0
 30
0.0
 11
1000.0
 21
-1300.0
 31
0.0
  0
INSERT
  5
298
100
AcDbEntity
  8
一般
390
0
 62
               1
100
AcDbBlockReference
  2
Callout-1
 10
147.625
 20
619.13698298334702
 30
0.0
 50
-150.00000000000003
  0
ENDSEC
  0
SECTION
  2
OBJECTS
  0
DICTIONARY
  5
19
100
AcDbDictionary
280
               0
281
               1
  3
ACAD_GROUP
350
1A
  3
ACAD_MLINESTYLE
350
1B
  3
ACAD_LAYOUT
350
1E
  3
ACAD_PLOTSETTINGS
350
22
  3
ACAD_PLOTSTYLENAME
350
1F
  3
ACAD_WIPEOUT_VARS
350
23
  0
DICTIONARY
  5
1A
102
{ACAD_REACTORS
330
19
102
}
100
AcDbDictionary
280
               0
281
               1
  0
DICTIONARY
  5
1B
102
{ACAD_REACTORS
330
19
102
}
100
AcDbDictionary
280
               0
281
               1
  3
Standard
350
1C
  0
MLINESTYLE
  5
1C
102
{ACAD_REACTORS
330
1B
102
}
100
AcDbMlineStyle
  2
Standard
 70
               0
  3

 62
               0
 51
90.0
 52
90.0
 71
               2
 49
0.5
 62
             256
  6
ByLayer
 49
-0.5
 62
             256
  6
ByLayer
  0
ACDBDICTIONARYWDFLT
  5
1F
102
{ACAD_REACTORS
330
19
102
}
100
AcDbDictionary
281
               1
  3
Normal
350
1D
100
AcDbDictionaryWithDefault
340
1D
  0
ACDBPLACEHOLDER
  5
1D
102
{ACAD_REACTORS
330
1F
102
}
  0
LAYOUT
  5
20
102
{ACAD_REACTORS
330
1E
102
}
100
AcDbPlotSettings
  1

  2

  4

  6

 40
0.0
 41
0.0
 42
0.0
 43
0.0
 44
0.0
 45
0.0
 46
0.0
 47
0.0
 48
0.0
 49
0.0
140
0.0
141
0.0
142
1.0
143
1.0
 70
            1024
 72
               0
 73
               0
 74
               0
  7
G512Pro_LR.ctb
 75
               0
147
1.0
148
0.0
149
0.0
100
AcDbLayout
  1
Model
 70
               0
 71
               0
 10
0.0
 20
0.0
 11
0.0
 21
0.0
 12
0.0
 22
0.0
 32
0.0
 14
0.0
 24
0.0
 34
0.0
 15
0.0
 25
0.0
 35
0.0
146
0.0
 13
0.0
 23
0.0
 33
0.0
 16
0.0
 26
0.0
 36
0.0
 17
0.0
 27
0.0
 37
0.0
 76
               0
330
A
331
0
345
0
346
0
  0
LAYOUT
  5
21
102
{ACAD_REACTORS
330
1E
102
}
100
AcDbPlotSettings
  1

  2

  4

  6

 40
0.0
 41
0.0
 42
0.0
 43
0.0
 44
0.0
 45
0.0
 46
0.0
 47
0.0
 48
0.0
 49
0.0
140
0.0
141
0.0
142
1.0
143
1.0
 70
               0
 72
               0
 73
               0
 74
               0
  7

 75
               0
147
1.0
148
0.0
149
0.0
100
AcDbLayout
  1
Layout1
 70
               0
 71
               0
 10
0.0
 20
0.0
 11
0.0
 21
0.0
 12
0.0
 22
0.0
 32
0.0
 14
0.0
 24
0.0
 34
0.0
 15
0.0
 25
0.0
 35
0.0
146
0.0
 13
0.0
 23
0.0
 33
0.0
 16
0.0
 26
0.0
 36
0.0
 17
0.0
 27
0.0
 37
0.0
 76
               0
330
B
331
0
345
0
346
0
  0
DICTIONARY
  5
1E
102
{ACAD_REACTORS
330
19
102
}
100
AcDbDictionary
280
               0
281
               1
  3
Layout1
350
21
  3
Model
350
20
  0
DICTIONARY
  5
22
102
{ACAD_REACTORS
330
19
102
}
100
AcDbDictionary
280
               0
281
               1
  0
WIPEOUTVARIABLES
  5
23
100
AcDbWipeoutVariables
 70
               0
  0
ENDSEC
  0
EOF
