  0
SECTION
  2
HEADER
  9
$ACADVER
  1
AC1015
  9
$ACADMAINTVER
 70
               6
  9
$DWGCODEPAGE
  3
ANSI_932
  9
$INSBASE
 10
0.0
 20
0.0
 30
0.0
  9
$EXTMIN
 10
-485.79607390036381
 20
-60.938075990739492
 30
-2.9701066666666662
  9
$EXTMAX
 10
-125.79607390036381
 20
474.02631506789072
 30
2.9701066666666662
  9
$LIMMIN
 10
0.0
 20
0.0
  9
$LIMMAX
 10
0.0
 20
0.0
  9
$ORTHOMODE
 70
               0
  9
$REGENMODE
 70
               1
  9
$FILLMODE
 70
               1
  9
$QTEXTMODE
 70
               0
  9
$MIRRTEXT
 70
               1
  9
$LTSCALE
 40
10.16
  9
$ATTMODE
 70
               1
  9
$TEXTSIZE
 40
0.2
  9
$TRACEWID
 40
1.0
  9
$TEXTSTYLE
  7
Standard
  9
$CLAYER
  8
0
  9
$CELTYPE
  6
Continuous
  9
$CECOLOR
 62
             256
  9
$CELTSCALE
 40
1.0
  9
$DISPSILH
 70
               0
  9
$DIMSCALE
 40
1.0
  9
$DIMASZ
 40
5.0012451171874988
  9
$DIMEXO
 40
3.9999999999999996
  9
$DIMDLI
 40
4.9999999999999991
  9
$DIMRND
 40
0.0
  9
$DIMDLE
 40
0.0
  9
$DIMEXE
 40
3.9999999999999996
  9
$DIMTP
 40
0.0
  9
$DIMTM
 40
0.0
  9
$DIMTXT
 40
7.818437500000039
  9
$DIMCEN
 40
0.0
  9
$DIMTSZ
 40
0.0
  9
$DIMTOL
 70
               0
  9
$DIMLIM
 70
               0
  9
$DIMTIH
 70
               0
  9
$DIMTOH
 70
               0
  9
$DIMSE1
 70
               0
  9
$DIMSE2
 70
               0
  9
$DIMTAD
 70
               1
  9
$DIMZIN
 70
              11
  9
$DIMBLK
  1
VW_EMPTYARROW
  9
$DIMASO
 70
               1
  9
$DIMSHO
 70
               1
  9
$DIMPOST
  1
<>
  9
$DIMAPOST
  1
[]
  9
$DIMALT
 70
               0
  9
$DIMALTD
 70
               2
  9
$DIMALTF
 40
1.0
  9
$DIMLFAC
 40
1.0
  9
$DIMTOFL
 70
               1
  9
$DIMTVP
 40
0.0
  9
$DIMTIX
 70
               1
  9
$DIMSOXD
 70
               0
  9
$DIMSAH
 70
               0
  9
$DIMBLK1
  1

  9
$DIMBLK2
  1

  9
$DIMSTYLE
  2
HIBINO
  9
$DIMCLRD
 70
               0
  9
$DIMCLRE
 70
               0
  9
$DIMCLRT
 70
               0
  9
$DIMTFAC
 40
1.0
  9
$DIMGAP
 40
0.4999999999999999
  9
$DIMJUST
 70
               0
  9
$DIMSD1
 70
               0
  9
$DIMSD2
 70
               0
  9
$DIMTOLJ
 70
               1
  9
$DIMTZIN
 70
              11
  9
$DIMALTZ
 70
              11
  9
$DIMALTTZ
 70
              11
  9
$DIMUPT
 70
               0
  9
$DIMDEC
 70
               2
  9
$DIMTDEC
 70
               2
  9
$DIMALTU
 70
               2
  9
$DIMALTTD
 70
               2
  9
$DIMTXSTY
  7
ＭＳ ゴシック
  9
$DIMAUNIT
 70
               0
  9
$DIMADEC
 70
               0
  9
$DIMALTRND
 40
0.0
  9
$DIMAZIN
 70
               0
  9
$DIMDSEP
 70
              46
  9
$DIMATFIT
 70
               0
  9
$DIMFRAC
 70
               2
  9
$DIMLDRBLK
  1

  9
$DIMLUNIT
 70
               2
  9
$DIMLWD
 70
              -2
  9
$DIMLWE
 70
              -2
  9
$DIMTMOVE
 70
               0
  9
$LUNITS
 70
               2
  9
$LUPREC
 70
               4
  9
$SKETCHINC
 40
0.1
  9
$FILLETRAD
 40
0.0
  9
$AUNITS
 70
               0
  9
$AUPREC
 70
               0
  9
$MENU
  1
acad
  9
$ELEVATION
 40
0.0
  9
$PELEVATION
 40
0.0
  9
$THICKNESS
 40
0.0
  9
$LIMCHECK
 70
               0
  9
$CHAMFERA
 40
0.0
  9
$CHAMFERB
 40
0.0
  9
$CHAMFERC
 40
0.0
  9
$CHAMFERD
 40
0.0
  9
$SKPOLY
 70
               0
  9
$TDCREATE
 40
2458848.136192130
  9
$TDUCREATE
 40
0.000000000
  9
$TDUPDATE
 40
2458848.136192130
  9
$TDUUPDATE
 40
0.000000000
  9
$TDINDWG
 40
0.0000000000
  9
$TDUSRTIMER
 40
0.0000000000
  9
$USRTIMER
 70
               1
  9
$ANGBASE
 50
0.0
  9
$ANGDIR
 70
               0
  9
$PDMODE
 70
               1
  9
$PDSIZE
 40
-2.0
  9
$PLINEWID
 40
0.0
  9
$SPLFRAME
 70
               0
  9
$SPLINETYPE
 70
               6
  9
$SPLINESEGS
 70
               8
  9
$HANDSEED
  5
1F9
  9
$SURFTAB1
 70
               6
  9
$SURFTAB2
 70
               6
  9
$SURFTYPE
 70
               6
  9
$SURFU
 70
               6
  9
$SURFV
 70
               6
  9
$UCSBASE
  2

  9
$UCSNAME
  2

  9
$UCSORG
 10
0.0
 20
0.0
 30
0.0
  9
$UCSXDIR
 10
1.0
 20
0.0
 30
0.0
  9
$UCSYDIR
 10
0.0
 20
1.0
 30
0.0
  9
$UCSORTHOREF
  2

  9
$UCSORTHOVIEW
 70
               0
  9
$UCSORGTOP
 10
0.0
 20
0.0
 30
0.0
  9
$UCSORGBOTTOM
 10
0.0
 20
0.0
 30
0.0
  9
$UCSORGLEFT
 10
0.0
 20
0.0
 30
0.0
  9
$UCSORGRIGHT
 10
0.0
 20
0.0
 30
0.0
  9
$UCSORGFRONT
 10
0.0
 20
0.0
 30
0.0
  9
$UCSORGBACK
 10
0.0
 20
0.0
 30
0.0
  9
$PUCSBASE
  2

  9
$PUCSNAME
  2

  9
$PUCSORG
 10
0.0
 20
0.0
 30
0.0
  9
$PUCSXDIR
 10
1.0
 20
0.0
 30
0.0
  9
$PUCSYDIR
 10
0.0
 20
1.0
 30
0.0
  9
$PUCSORTHOREF
  2

  9
$PUCSORTHOVIEW
 70
               0
  9
$PUCSORGTOP
 10
0.0
 20
0.0
 30
0.0
  9
$PUCSORGBOTTOM
 10
0.0
 20
0.0
 30
0.0
  9
$PUCSORGLEFT
 10
0.0
 20
0.0
 30
0.0
  9
$PUCSORGRIGHT
 10
0.0
 20
0.0
 30
0.0
  9
$PUCSORGFRONT
 10
0.0
 20
0.0
 30
0.0
  9
$PUCSORGBACK
 10
0.0
 20
0.0
 30
0.0
  9
$USERI1
 70
               0
  9
$USERI2
 70
               0
  9
$USERI3
 70
               0
  9
$USERI4
 70
               0
  9
$USERI5
 70
               0
  9
$USERR1
 40
0.0
  9
$USERR2
 40
0.0
  9
$USERR3
 40
0.0
  9
$USERR4
 40
0.0
  9
$USERR5
 40
0.0
  9
$WORLDVIEW
 70
               1
  9
$SHADEDGE
 70
               3
  9
$SHADEDIF
 70
              70
  9
$TILEMODE
 70
               1
  9
$MAXACTVP
 70
              64
  9
$PINSBASE
 10
0.0
 20
0.0
 30
0.0
  9
$PLIMCHECK
 70
               0
  9
$PEXTMIN
 10
1.0000000000000000E+20
 20
1.0000000000000000E+20
 30
1.0000000000000000E+20
  9
$PEXTMAX
 10
-1.0000000000000000E+20
 20
-1.0000000000000000E+20
 30
-1.0000000000000000E+20
  9
$PLIMMIN
 10
0.0
 20
0.0
  9
$PLIMMAX
 10
12.0
 20
9.0
  9
$UNITMODE
 70
               0
  9
$VISRETAIN
 70
               0
  9
$PLINEGEN
 70
               1
  9
$PSLTSCALE
 70
               0
  9
$TREEDEPTH
 70
            3020
  9
$CMLSTYLE
  2
Standard
  9
$CMLJUST
 70
               0
  9
$CMLSCALE
 40
1.0
  9
$PROXYGRAPHICS
 70
               0
  9
$MEASUREMENT
 70
               1
  9
$CELWEIGHT
370
               0
  9
$ENDCAPS
280
               0
  9
$JOINSTYLE
280
               0
  9
$LWDISPLAY
290
               0
  9
$INSUNITS
 70
               4
  9
$HYPERLINKBASE
  1

  9
$STYLESHEET
  1

  9
$XEDIT
290
               1
  9
$CEPSNTYPE
380
               0
  9
$PSTYLEMODE
290
               1
  9
$FINGERPRINTGUID
  2

  9
$VERSIONGUID
  2

  9
$EXTNAMES
290
               1
  9
$PSVPSCALE
 40
0.0
  0
ENDSEC
  0
SECTION
  2
CLASSES
  0
CLASS
  1
LWPOLYLINE
  2
AcDbPolyline
  3
AutoCAD 2000
 90
        0
280
               0
281
               1
  0
CLASS
  1
IMAGE
  2
AcDbRasterImage
  3
ISM
 90
      127
280
               0
281
               1
  0
CLASS
  1
OLE2FRAME
  2
AcDbOle2Frame
  3
AutoCAD 2000
 90
        0
280
               0
281
               1
  0
CLASS
  1
HATCH
  2
AcDbHatch
  3
AutoCAD 2000
 90
        0
280
               0
281
               1
  0
CLASS
  1
DICTIONARYVAR
  2
AcDbDictionaryVar
  3
AutoCAD 2000
 90
        0
280
               0
281
               0
  0
CLASS
  1
RASTERVARIABLES
  2
AcDbRasterVariables
  3
ISM
 90
        0
280
               0
281
               0
  0
CLASS
  1
IMAGEDEF
  2
AcDbRasterImageDef
  3
ISM
 90
        0
280
               0
281
               0
  0
CLASS
  1
IMAGEDEF_REACTOR
  2
AcDbRasterImageDefReactor
  3
ISM
 90
        1
280
               0
281
               0
  0
CLASS
  1
IDBUFFER
  2
AcDbIdBuffer
  3
AutoCAD 2000
 90
        0
280
               0
281
               0
  0
CLASS
  1
SPATIAL_FILTER
  2
AcDbSpatialFilter
  3
AutoCAD 2000
 90
        0
280
               0
281
               0
  0
CLASS
  1
XRECORD
  2
AcDbXrecord
  3
AutoCAD 2000
 90
        0
280
               0
281
               0
  0
CLASS
  1
SORTENTSTABLE
  2
AcDbSortentsTable
  3
AutoCAD 2000
 90
        0
280
               0
281
               0
  0
CLASS
  1
LAYER_INDEX
  2
AcDbLayerIndex
  3
AutoCAD 2000
 90
        0
280
               0
281
               0
  0
CLASS
  1
SPATIAL_INDEX
  2
AcDbSpatialIndex
  3
AutoCAD 2000
 90
        0
280
               0
281
               0
  0
CLASS
  1
OBJECT_PTR
  2
CAseDLPNTableRecord
  3
"ASE-LPNTableRecord"
 90
        1
280
               0
281
               0
  0
CLASS
  1
LAYOUT
  2
AcDbLayout
  3
AutoCAD 2000
 90
        0
280
               0
281
               0
  0
CLASS
  1
PLOTSETTINGS
  2
AcDbPlotSettings
  3
AutoCAD 2000
 90
        0
280
               0
281
               0
  0
CLASS
  1
ACDBDICTIONARYWDFLT
  2
AcDbDictionaryWithDefault
  3
AutoCAD 2000
 90
        0
280
               0
281
               0
  0
CLASS
  1
ACDBPLACEHOLDER
  2
AcDbPlaceHolder
  3
AutoCAD 2000
 90
        0
280
               0
281
               0
  0
CLASS
  1
VBA_PROJECT
  2
AcDbVbaProject
  3
acadvba
 90
        0
280
               0
281
               0
  0
CLASS
  1
WIPEOUT
  2
AcDbWipeout
  3
WipeOut|AutoCAD Express Tool|expresstools@autodesk.com
 90
      127
280
               0
281
               1
  0
CLASS
  1
WIPEOUTVARIABLES
  2
AcDbWipeoutVariables
  3
WipeOut|AutoCAD Express Tool|expresstools@autodesk.com
 90
        0
280
               0
281
               0
  0
CLASS
  1
RTEXT
  2
RText
  3
RText|AutoCAD Express Tool|expresstools@autodesk.com
 90
        0
280
               0
281
               1
  0
CLASS
  1
ARCALIGNEDTEXT
  2
AcDbArcAlignedText
  3
ATEXT|AutoCAD Express Tool|expresstools@autodesk.com
 90
        0
280
               0
281
               1
  0
ENDSEC
  0
SECTION
  2
TABLES
  0
TABLE
  2
VPORT
  5
7
100
AcDbSymbolTable
 70
               1
  0
VPORT
  5
15
100
AcDbSymbolTableRecord
100
AcDbViewportTableRecord
  2
*ACTIVE
 70
               0
 10
0.0
 20
0.0
 11
1.0
 21
1.0
 12
-305.79607390036381
 22
206.54411953857561
 13
0.0
 23
0.0
 14
1.0
 24
1.0
 15
0.0
 25
0.0
 16
0.0
 26
0.0
 36
1.0
 17
0.0
 27
0.0
 37
0.0
 40
534.96439105863021
 41
0.688564
 42
50.0
 43
0.0
 44
0.0
 50
0.0
 51
0.0
 71
               0
 72
            2000
 73
               1
 74
               1
 75
               0
 76
               0
 77
               0
 78
               0
281
               0
 65
               0
110
0.0
120
0.0
130
0.0
111
1.0
121
0.0
131
0.0
112
0.0
122
1.0
132
0.0
345
0
346
0
 79
               0
146
0.0
  0
ENDTAB
  0
TABLE
  2
LTYPE
  5
4
100
AcDbSymbolTable
 70
              13
  0
LTYPE
  5
11
100
AcDbSymbolTableRecord
100
AcDbLinetypeTableRecord
  2
ByBlock
 70
              64
  3

 72
              65
 73
               0
 40
0.0
  0
LTYPE
  5
12
100
AcDbSymbolTableRecord
100
AcDbLinetypeTableRecord
  2
ByLayer
 70
              64
  3

 72
              65
 73
               0
 40
0.0
  0
LTYPE
  5
13
100
AcDbSymbolTableRecord
100
AcDbLinetypeTableRecord
  2
Continuous
 70
              64
  3
Solid line
 72
              65
 73
               0
 40
0.0
  0
LTYPE
  5
29
100
AcDbSymbolTableRecord
100
AcDbLinetypeTableRecord
  2
STYLE_01
 70
               0
  3

 72
              65
 73
               4
 40
0.3999999999999999
 49
0.25
 74
               0
 49
-0.05
 74
               0
 49
0.05
 74
               0
 49
-0.05
 74
               0
  0
LTYPE
  5
2A
100
AcDbSymbolTableRecord
100
AcDbLinetypeTableRecord
  2
STYLE_02
 70
               0
  3

 72
              65
 73
               2
 40
0.694427490234375
 49
0.4860687255859375
 74
               0
 49
-0.2083587646484375
 74
               0
  0
LTYPE
  5
2B
100
AcDbSymbolTableRecord
100
AcDbLinetypeTableRecord
  2
STYLE_03
 70
               0
  3

 72
              65
 73
               2
 40
1.25
 49
1.0416412353515625
 74
               0
 49
-0.2083587646484375
 74
               0
  0
LTYPE
  5
2C
100
AcDbSymbolTableRecord
100
AcDbLinetypeTableRecord
  2
STYLE_04
 70
               0
  3

 72
              65
 73
               2
 40
1.5277099609375
 49
1.319427490234375
 74
               0
 49
-0.208282470703125
 74
               0
  0
LTYPE
  5
2D
100
AcDbSymbolTableRecord
100
AcDbLinetypeTableRecord
  2
STYLE_05
 70
               0
  3

 72
              65
 73
               2
 40
0.208282470703125
 49
0.069427490234375
 74
               0
 49
-0.13885498046875
 74
               0
  0
LTYPE
  5
2E
100
AcDbSymbolTableRecord
100
AcDbLinetypeTableRecord
  2
STYLE_06
 70
               0
  3

 72
              65
 73
               4
 40
1.0416412353515625
 49
0.625
 74
               0
 49
-0.208282470703125
 74
               0
 49
0.069427490234375
 74
               0
 49
-0.1389312744140625
 74
               0
  0
LTYPE
  5
2F
100
AcDbSymbolTableRecord
100
AcDbLinetypeTableRecord
  2
STYLE_07
 70
               0
  3

 72
              65
 73
               6
 40
1.875
 49
0.625
 74
               0
 49
-0.208282470703125
 74
               0
 49
0.625
 74
               0
 49
-0.2083587646484375
 74
               0
 49
0.069427490234375
 74
               0
 49
-0.1389312744140625
 74
               0
  0
LTYPE
  5
30
100
AcDbSymbolTableRecord
100
AcDbLinetypeTableRecord
  2
STYLE_08
 70
               0
  3

 72
              65
 73
               6
 40
1.25
 49
0.625
 74
               0
 49
-0.208282470703125
 74
               0
 49
0.069427490234375
 74
               0
 49
-0.1389312744140625
 74
               0
 49
0.069427490234375
 74
               0
 49
-0.1389312744140625
 74
               0
  0
LTYPE
  5
31
100
AcDbSymbolTableRecord
100
AcDbLinetypeTableRecord
  2
STYLE_09
 70
               0
  3

 72
              65
 73
               4
 40
5.0
 49
3.75
 74
               0
 49
-0.2777862548828125
 74
               0
 49
0.694427490234375
 74
               0
 49
-0.2777862548828125
 74
               0
  0
LTYPE
  5
32
100
AcDbSymbolTableRecord
100
AcDbLinetypeTableRecord
  2
STYLE_10
 70
               0
  3

 72
              65
 73
               6
 40
5.9375
 49
3.75
 74
               0
 49
-0.2777862548828125
 74
               0
 49
0.694427490234375
 74
               0
 49
-0.2777862548828125
 74
               0
 49
0.625
 74
               0
 49
-0.3125
 74
               0
  0
ENDTAB
  0
TABLE
  2
LAYER
  5
2
100
AcDbSymbolTable
 70
              14
  0
LAYER
  5
14
100
AcDbSymbolTableRecord
100
AcDbLayerTableRecord
  2
0
 70
               0
 62
               7
  6
Continuous
290
               1
370
               0
390
1D
  0
LAYER
  5
33
100
AcDbSymbolTableRecord
100
AcDbLayerTableRecord
  2
DATA
 70
               0
 62
               7
  6
Continuous
290
               1
370
               0
390
1D
  0
LAYER
  5
34
100
AcDbSymbolTableRecord
100
AcDbLayerTableRecord
  2
一般
 70
               0
 62
               7
  6
Continuous
290
               1
370
               0
390
1D
  0
LAYER
  5
35
100
AcDbSymbolTableRecord
100
AcDbLayerTableRecord
  2
寸法
 70
               0
 62
               7
  6
Continuous
290
               1
370
               0
390
1D
  0
LAYER
  5
36
100
AcDbSymbolTableRecord
100
AcDbLayerTableRecord
  2
HIBINO-BASE
 70
               0
 62
               7
  6
Continuous
290
               1
370
               0
390
1D
  0
LAYER
  5
37
100
AcDbSymbolTableRecord
100
AcDbLayerTableRecord
  2
SPEC
 70
               0
 62
               7
  6
Continuous
290
               1
370
               0
390
1D
  0
LAYER
  5
38
100
AcDbSymbolTableRecord
100
AcDbLayerTableRecord
  2
DIMNSIONS
 70
               0
 62
               7
  6
Continuous
290
               1
370
               0
390
1D
  0
LAYER
  5
39
100
AcDbSymbolTableRecord
100
AcDbLayerTableRecord
  2
Layer1
 70
               0
 62
               3
  6
Continuous
290
               1
370
               0
390
1D
  0
LAYER
  5
3A
100
AcDbSymbolTableRecord
100
AcDbLayerTableRecord
  2
2D
 70
               0
 62
              82
  6
Continuous
290
               1
370
               0
390
1D
  0
LAYER
  5
3B
100
AcDbSymbolTableRecord
100
AcDbLayerTableRecord
  2
FORMAT
 70
               0
 62
               7
  6
Continuous
290
               1
370
               0
390
1D
  0
LAYER
  5
3C
100
AcDbSymbolTableRecord
100
AcDbLayerTableRecord
  2
Defpoints
 70
               0
 62
               7
  6
Continuous
290
               0
370
               0
390
1D
  0
LAYER
  5
3D
100
AcDbSymbolTableRecord
100
AcDbLayerTableRecord
  2
5in
 70
               0
 62
               7
  6
Continuous
290
               1
370
               0
390
1D
  0
LAYER
  5
3E
100
AcDbSymbolTableRecord
100
AcDbLayerTableRecord
  2
MD_Visible
 70
               0
 62
               7
  6
Continuous
290
               1
370
               0
390
1D
  0
LAYER
  5
3F
100
AcDbSymbolTableRecord
100
AcDbLayerTableRecord
  2
MD_Visible Narrow
 70
               0
 62
               7
  6
Continuous
290
               1
370
               0
390
1D
  0
ENDTAB
  0
TABLE
  2
STYLE
  5
3
100
AcDbSymbolTable
 70
               2
  0
STYLE
  5
17
100
AcDbSymbolTableRecord
100
AcDbTextStyleTableRecord
  2
Standard
 70
               0
 40
0.0
 41
1.0
 50
0.0
 71
               0
 42
0.0
  3
txt
  4
BIGFONT.SHX
  0
STYLE
  5
28
100
AcDbSymbolTableRecord
100
AcDbTextStyleTableRecord
  2
ＭＳ ゴシック
 70
               0
 40
0.0
 41
1.0
 50
0.0
 71
               0
 42
0.0
  3

  4
ＭＳ ゴシック
1001
ACAD
1000
ＭＳ ゴシック
1071
        0
  0
ENDTAB
  0
TABLE
  2
VIEW
  5
5
100
AcDbSymbolTable
 70
               0
  0
ENDTAB
  0
TABLE
  2
UCS
  5
6
100
AcDbSymbolTable
 70
               0
  0
ENDTAB
  0
TABLE
  2
APPID
  5
8
100
AcDbSymbolTable
 70
               1
  0
APPID
  5
16
100
AcDbSymbolTableRecord
100
AcDbRegAppTableRecord
  2
ACAD
 70
               0
  0
ENDTAB
  0
TABLE
  2
DIMSTYLE
  5
9
100
AcDbSymbolTable
 70
               2
100
AcDbDimStyleTable
 71
               0
  0
DIMSTYLE
105
18
100
AcDbSymbolTableRecord
100
AcDbDimStyleTableRecord
  2
Standard
 70
               0
  3

  4

 40
1.0
 41
0.18
 42
0.0625
 43
0.38
 44
0.18
 45
0.0
 46
0.0
 47
0.0
 48
0.0
 71
               0
 72
               0
 73
               1
 74
               1
 75
               0
 76
               0
 77
               0
 78
               0
 79
               0
140
0.18
141
0.09
142
0.0
143
25.399999999999999
144
1.0
145
0.0
146
1.0
147
0.09
148
0.0
170
               0
171
               2
172
               0
173
               0
174
               0
175
               0
176
               0
177
               0
178
               0
179
               0
271
               4
272
               4
273
               2
274
               2
275
               0
276
               0
277
               2
278
              46
279
               0
280
               0
281
               0
282
               0
283
               1
284
               0
285
               0
286
               0
288
               0
289
               3
340
17
341
0
342
0
343
0
344
0
371
              -2
372
              -2
  0
DIMSTYLE
105
49
100
AcDbSymbolTableRecord
100
AcDbDimStyleTableRecord
  2
HIBINO
 70
               0
  3
<>
  4
[]
 40
1.0
 41
5.0012451171874988
 42
3.9999999999999996
 43
4.9999999999999991
 44
3.9999999999999996
 45
0.0
 46
0.0
 47
0.0
 48
0.0
 71
               0
 72
               0
 73
               0
 74
               0
 75
               0
 76
               0
 77
               1
 78
              11
 79
               0
140
7.818437500000039
141
0.0
142
0.0
143
1.0
144
1.0
145
0.0
146
1.0
147
0.4999999999999999
148
0.0
170
               0
171
               2
172
               1
173
               0
174
               1
175
               0
176
               0
177
               0
178
               0
179
               0
271
               2
272
               2
273
               2
274
               2
275
               0
276
               2
277
               2
278
              46
279
               0
280
               0
281
               0
282
               0
283
               1
284
              11
285
              11
286
              11
288
               0
289
               0
340
28
341
40
342
40
343
0
344
0
371
              -2
372
              -2
  0
ENDTAB
  0
TABLE
  2
BLOCK_RECORD
  5
1
100
AcDbSymbolTable
 70
               5
  0
BLOCK_RECORD
  5
A
100
AcDbSymbolTableRecord
100
AcDbBlockTableRecord
  2
*MODEL_SPACE
340
20
  0
BLOCK_RECORD
  5
B
100
AcDbSymbolTableRecord
100
AcDbBlockTableRecord
  2
*PAPER_SPACE
340
21
  0
BLOCK_RECORD
  5
40
100
AcDbSymbolTableRecord
100
AcDbBlockTableRecord
  2
VW_EMPTYARROW
340
0
  0
BLOCK_RECORD
  5
24
100
AcDbSymbolTableRecord
100
AcDbBlockTableRecord
  2
グループ
340
0
102
{BLKREFS
331
1F5
102
}
  0
BLOCK_RECORD
  5
25
100
AcDbSymbolTableRecord
100
AcDbBlockTableRecord
  2
*D2
340
0
  0
BLOCK_RECORD
  5
26
100
AcDbSymbolTableRecord
100
AcDbBlockTableRecord
  2
*D3
340
0
  0
BLOCK_RECORD
  5
27
100
AcDbSymbolTableRecord
100
AcDbBlockTableRecord
  2
*D4
340
0
  0
ENDTAB
  0
ENDSEC
  0
SECTION
  2
BLOCKS
  0
BLOCK
  5
D
100
AcDbEntity
  8
0
390
0
100
AcDbBlockBegin
  2
*MODEL_SPACE
 70
               0
 10
0.0
 20
0.0
 30
0.0
  3
*MODEL_SPACE
  1

  0
ENDBLK
  5
E
100
AcDbEntity
  8
0
390
0
100
AcDbBlockEnd
  0
BLOCK
  5
F
100
AcDbEntity
 67
               1
  8
0
390
0
100
AcDbBlockBegin
  2
*PAPER_SPACE
 70
               0
 10
0.0
 20
0.0
 30
0.0
  3
*PAPER_SPACE
  1

  0
ENDBLK
  5
10
100
AcDbEntity
 67
               1
  8
0
390
0
100
AcDbBlockEnd
  0
BLOCK
  5
41
100
AcDbEntity
  8
0
370
              -2
390
0
  6
ByBlock
 62
               0
100
AcDbBlockBegin
  2
VW_EMPTYARROW
 70
               0
 10
0.0
 20
0.0
 30
0.0
  3
VW_EMPTYARROW
  1

  0
LINE
  5
42
100
AcDbEntity
  8
0
370
              -2
390
0
  6
ByBlock
 62
               0
100
AcDbLine
 10
0.0
 20
0.0
 30
0.0
 11
-1.0
 21
0.0
 31
0.0
  0
POLYLINE
  5
43
100
AcDbEntity
  8
0
370
              -2
390
0
  6
Continuous
 62
               0
100
AcDb2dPolyline
 66
               1
 10
0.0
 20
0.0
 30
0.0
 75
               5
  0
VERTEX
  5
44
100
AcDbEntity
  8
0
370
              -2
390
0
  6
Continuous
 62
               0
100
AcDbVertex
100
AcDb2dVertex
 10
-0.998388671875
 20
0.2675174383612874
 30
0.0
  0
VERTEX
  5
45
100
AcDbEntity
  8
0
370
              -2
390
0
  6
Continuous
 62
               0
100
AcDbVertex
100
AcDb2dVertex
 10
0.0
 20
0.0
 30
0.0
  0
VERTEX
  5
46
100
AcDbEntity
  8
0
370
              -2
390
0
  6
Continuous
 62
               0
100
AcDbVertex
100
AcDb2dVertex
 10
-0.9983886718749999
 20
-0.2675174383612877
 30
0.0
  0
SEQEND
  5
47
100
AcDbEntity
  8
0
370
              -2
390
0
  6
Continuous
 62
               0
  0
ENDBLK
  5
48
100
AcDbEntity
  8
0
390
0
100
AcDbBlockEnd
  0
BLOCK
  5
4A
100
AcDbEntity
  8
0
390
0
100
AcDbBlockBegin
  2
グループ
 70
               0
 10
0.0
 20
0.0
 30
0.0
  3
グループ
  1

  0
LINE
  5
4B
100
AcDbEntity
  8
0
370
               0
390
0
  6
Continuous
 62
              30
100
AcDbLine
 10
139.84697532392039
 20
40.955880461424385
 30
0.0
 11
139.84697532392039
 21
54.95588046142435
 31
0.0
  0
LINE
  5
4C
100
AcDbEntity
  8
0
370
               0
390
0
  6
Continuous
 62
              30
100
AcDbLine
 10
119.84697532392039
 20
54.95588046142435
 30
0.0
 11
119.84697532392039
 21
40.955880461424385
 31
0.0
  0
LINE
  5
4D
100
AcDbEntity
  8
0
370
               0
390
0
  6
Continuous
 62
              30
100
AcDbLine
 10
139.84697532392039
 20
54.95588046142435
 30
0.0
 11
139.34697532392039
 21
55.45588046142435
 31
0.0
  0
LINE
  5
4E
100
AcDbEntity
  8
0
370
               0
390
0
  6
Continuous
 62
              30
100
AcDbLine
 10
120.34697532392039
 20
55.45588046142435
 30
0.0
 11
119.84697532392039
 21
54.95588046142435
 31
0.0
  0
LINE
  5
4F
100
AcDbEntity
  8
0
370
               0
390
0
  6
Continuous
 62
              30
100
AcDbLine
 10
119.84697532392039
 20
40.955880461424385
 30
0.0
 11
120.34697532392039
 21
40.455880461424385
 31
0.0
  0
LINE
  5
50
100
AcDbEntity
  8
0
370
               0
390
0
  6
Continuous
 62
              30
100
AcDbLine
 10
139.34697532392039
 20
40.455880461424385
 30
0.0
 11
139.84697532392039
 21
40.955880461424385
 31
0.0
  0
LINE
  5
51
100
AcDbEntity
  8
0
370
               0
390
0
  6
Continuous
 62
              30
100
AcDbLine
 10
154.84697532392039
 20
65.455880461424357
 30
0.0
 11
154.21167926088413
 21
72.717347689667349
 31
0.0
  0
LINE
  5
52
100
AcDbEntity
  8
0
370
               0
390
0
  6
Continuous
 62
              30
100
AcDbLine
 10
105.48227138695663
 20
72.717347689667349
 30
0.0
 11
104.84697532392039
 21
65.455880461424357
 31
0.0
  0
ARC
  5
53
100
AcDbEntity
  8
0
370
               0
390
0
  6
Continuous
 62
              30
100
AcDbCircle
 10
108.47085548123192
 20
72.455880461424329
 30
0.0
 40
3.0000000000000568
100
AcDbArc
 50
90.0
 51
174.99999999999926
  0
ARC
  5
54
100
AcDbEntity
  8
0
370
               0
390
0
  6
Continuous
 62
              30
100
AcDbCircle
 10
151.22309516660886
 20
72.455880461424329
 30
0.0
 40
3.0000000000000351
100
AcDbArc
 50
5.0000000000008242
 51
90.0
  0
LINE
  5
55
100
AcDbEntity
  8
0
370
               0
390
0
  6
Continuous
 62
              30
100
AcDbLine
 10
139.84697532392039
 20
55.455880461424321
 30
0.0
 11
139.84697532392039
 21
65.455880461424357
 31
0.0
  0
LINE
  5
56
100
AcDbEntity
  8
0
370
               0
390
0
  6
Continuous
 62
              30
100
AcDbLine
 10
119.84697532392039
 20
65.455880461424357
 30
0.0
 11
119.84697532392039
 21
55.455880461424321
 31
0.0
  0
LINE
  5
57
100
AcDbEntity
  8
0
370
               0
390
0
  6
Continuous
 62
              30
100
AcDbLine
 10
124.84697532392039
 20
14.805880461424351
 30
0.0
 11
124.84697532392039
 21
5.955880461424357
 31
0.0
  0
LINE
  5
58
100
AcDbEntity
  8
0
370
               0
390
0
  6
Continuous
 62
              30
100
AcDbLine
 10
134.84697532392039
 20
5.955880461424357
 30
0.0
 11
134.84697532392039
 21
14.805880461424351
 31
0.0
  0
LINE
  5
59
100
AcDbEntity
  8
0
370
               0
390
0
  6
Continuous
 62
              30
100
AcDbLine
 10
134.84697532392039
 20
14.805880461424351
 30
0.0
 11
134.19697532392041
 21
15.455880461424357
 31
0.0
  0
LINE
  5
5A
100
AcDbEntity
  8
0
370
               0
390
0
  6
Continuous
 62
              30
100
AcDbLine
 10
125.49697532392042
 20
15.455880461424357
 30
0.0
 11
124.84697532392039
 21
14.805880461424351
 31
0.0
  0
LINE
  5
5B
100
AcDbEntity
  8
0
370
               0
390
0
  6
Continuous
 62
              30
100
AcDbLine
 10
124.84697532392039
 20
5.955880461424357
 30
0.0
 11
125.34697532392039
 21
5.455880461424357
 31
0.0
  0
LINE
  5
5C
100
AcDbEntity
  8
0
370
               0
390
0
  6
Continuous
 62
              30
100
AcDbLine
 10
134.34697532392039
 20
5.455880461424357
 30
0.0
 11
134.84697532392039
 21
5.955880461424357
 31
0.0
  0
LINE
  5
5D
100
AcDbEntity
  8
0
370
               0
390
0
  6
Continuous
 62
              30
100
AcDbLine
 10
133.84697532392039
 20
15.455880461424357
 30
0.0
 11
133.84697532392039
 21
36.455880461424385
 31
0.0
  0
LINE
  5
5E
100
AcDbEntity
  8
0
370
               0
390
0
  6
Continuous
 62
              30
100
AcDbLine
 10
125.84697532392039
 20
36.455880461424385
 30
0.0
 11
125.84697532392039
 21
15.455880461424357
 31
0.0
  0
LINE
  5
5F
100
AcDbEntity
  8
0
370
               0
390
0
  6
Continuous
 62
              30
100
AcDbLine
 10
119.84697532392039
 20
40.955880461424385
 30
0.0
 11
139.84697532392039
 21
40.955880461424385
 31
0.0
  0
LINE
  5
60
100
AcDbEntity
  8
0
370
               0
390
0
  6
Continuous
 62
              30
100
AcDbLine
 10
139.84697532392039
 20
54.95588046142435
 30
0.0
 11
119.84697532392039
 21
54.95588046142435
 31
0.0
  0
LINE
  5
61
100
AcDbEntity
  8
0
370
               0
390
0
  6
Continuous
 62
              30
100
AcDbLine
 10
154.1668948661025
 20
65.455880461424357
 30
0.0
 11
154.84697532392039
 21
65.455880461424357
 31
0.0
  0
LINE
  5
62
100
AcDbEntity
  8
0
370
               0
390
0
  6
Continuous
 62
              30
100
AcDbLine
 10
104.84697532392039
 20
65.455880461424357
 30
0.0
 11
154.1668948661025
 21
65.455880461424357
 31
0.0
  0
LINE
  5
63
100
AcDbEntity
  8
0
370
               0
390
0
  6
Continuous
 62
              30
100
AcDbLine
 10
150.64159591184944
 20
75.455880461424329
 30
0.0
 11
151.22309516660886
 21
75.455880461424329
 31
0.0
  0
LINE
  5
64
100
AcDbEntity
  8
0
370
               0
390
0
  6
Continuous
 62
              30
100
AcDbLine
 10
108.47085548123192
 20
75.455880461424329
 30
0.0
 11
150.64159591184944
 21
75.455880461424329
 31
0.0
  0
LINE
  5
65
100
AcDbEntity
  8
0
370
               0
390
0
  6
Continuous
 62
              30
100
AcDbLine
 10
139.57494314079321
 20
55.455880461424321
 30
0.0
 11
139.84697532392039
 21
55.455880461424321
 31
0.0
  0
LINE
  5
66
100
AcDbEntity
  8
0
370
               0
390
0
  6
Continuous
 62
              30
100
AcDbLine
 10
119.84697532392039
 20
55.455880461424321
 30
0.0
 11
139.57494314079321
 21
55.455880461424321
 31
0.0
  0
LINE
  5
67
100
AcDbEntity
  8
0
370
               0
390
0
  6
Continuous
 62
              30
100
AcDbLine
 10
124.84697532392039
 20
5.955880461424357
 30
0.0
 11
134.84697532392039
 21
5.955880461424357
 31
0.0
  0
LINE
  5
68
100
AcDbEntity
  8
0
370
               0
390
0
  6
Continuous
 62
              30
100
AcDbLine
 10
134.84697532392039
 20
14.805880461424351
 30
0.0
 11
124.84697532392039
 21
14.805880461424351
 31
0.0
  0
LINE
  5
69
100
AcDbEntity
  8
0
370
               0
390
0
  6
Continuous
 62
              30
100
AcDbLine
 10
125.49697532392042
 20
15.455880461424357
 30
0.0
 11
134.19697532392041
 21
15.455880461424357
 31
0.0
  0
LINE
  5
6A
100
AcDbEntity
  8
0
370
               0
390
0
  6
Continuous
 62
              30
100
AcDbLine
 10
134.34697532392039
 20
5.455880461424357
 30
0.0
 11
125.34697532392039
 21
5.455880461424357
 31
0.0
  0
LINE
  5
6B
100
AcDbEntity
  8
0
370
               0
390
0
  6
Continuous
 62
              30
100
AcDbLine
 10
154.84697532392039
 20
146.45588046142439
 30
0.0
 11
104.84697532392036
 21
146.45588046142439
 31
0.0
  0
LINE
  5
6C
100
AcDbEntity
  8
0
370
               0
390
0
  6
Continuous
 62
              30
100
AcDbLine
 10
157.84697532392039
 20
40.455880461424385
 30
0.0
 11
154.84697532392039
 21
40.455880461424385
 31
0.0
  0
LINE
  5
6D
100
AcDbEntity
  8
0
370
               0
390
0
  6
Continuous
 62
              30
100
AcDbLine
 10
157.84697532392039
 20
41.099481936715222
 30
0.0
 11
154.84697532392039
 21
41.099481936715222
 31
0.0
  0
LINE
  5
6E
100
AcDbEntity
  8
0
370
               0
390
0
  6
Continuous
 62
              30
100
AcDbLine
 10
157.84697532392039
 20
41.099481936715222
 30
0.0
 11
157.84697532392039
 21
40.455880461424385
 31
0.0
  0
LINE
  5
6F
100
AcDbEntity
  8
0
370
               0
390
0
  6
Continuous
 62
              30
100
AcDbLine
 10
154.84697532392039
 20
41.099481936715222
 30
0.0
 11
154.84697532392039
 21
40.455880461424385
 31
0.0
  0
LINE
  5
70
100
AcDbEntity
  8
0
370
               0
390
0
  6
Continuous
 62
              30
100
AcDbLine
 10
154.84697532392039
 20
45.038712948764044
 30
0.0
 11
157.84697532392039
 21
45.038712948764044
 31
0.0
  0
LINE
  5
71
100
AcDbEntity
  8
0
370
               0
390
0
  6
Continuous
 62
              30
100
AcDbLine
 10
157.84697532392039
 20
45.038712948764044
 30
0.0
 11
157.84697532392039
 21
41.099481936715222
 31
0.0
  0
LINE
  5
72
100
AcDbEntity
  8
0
370
               0
390
0
  6
Continuous
 62
              30
100
AcDbLine
 10
154.84697532392039
 20
41.099481936715222
 30
0.0
 11
154.84697532392039
 21
45.038712948764044
 31
0.0
  0
LINE
  5
73
100
AcDbEntity
  8
0
370
               0
390
0
  6
Continuous
 62
              30
100
AcDbLine
 10
157.84697532392039
 20
53.582412454790664
 30
0.0
 11
154.84697532392039
 21
53.582412454790664
 31
0.0
  0
LINE
  5
74
100
AcDbEntity
  8
0
370
               0
390
0
  6
Continuous
 62
              30
100
AcDbLine
 10
157.84697532392039
 20
53.582412454790664
 30
0.0
 11
157.84697532392039
 21
45.038712948764044
 31
0.0
  0
LINE
  5
75
100
AcDbEntity
  8
0
370
               0
390
0
  6
Continuous
 62
              30
100
AcDbLine
 10
154.84697532392039
 20
53.582412454790664
 30
0.0
 11
154.84697532392039
 21
45.038712948764044
 31
0.0
  0
LINE
  5
76
100
AcDbEntity
  8
0
370
               0
390
0
  6
Continuous
 62
              30
100
AcDbLine
 10
157.84697532392039
 20
138.53499736960185
 30
0.0
 11
154.84697532392039
 21
138.53499736960185
 31
0.0
  0
LINE
  5
77
100
AcDbEntity
  8
0
370
               0
390
0
  6
Continuous
 62
              30
100
AcDbLine
 10
157.84697532392039
 20
138.53499736960185
 30
0.0
 11
157.84697532392039
 21
53.582412454790664
 31
0.0
  0
LINE
  5
78
100
AcDbEntity
  8
0
370
               0
390
0
  6
Continuous
 62
              30
100
AcDbLine
 10
154.84697532392039
 20
138.53499736960185
 30
0.0
 11
154.84697532392039
 21
53.582412454790664
 31
0.0
  0
LINE
  5
79
100
AcDbEntity
  8
0
370
               0
390
0
  6
Continuous
 62
              30
100
AcDbLine
 10
154.84697532392039
 20
146.45588046142439
 30
0.0
 11
157.84697532392039
 21
146.45588046142439
 31
0.0
  0
LINE
  5
7A
100
AcDbEntity
  8
0
370
               0
390
0
  6
Continuous
 62
              30
100
AcDbLine
 10
157.84697532392039
 20
146.45588046142439
 30
0.0
 11
157.84697532392039
 21
138.53499736960185
 31
0.0
  0
LINE
  5
7B
100
AcDbEntity
  8
0
370
               0
390
0
  6
Continuous
 62
              30
100
AcDbLine
 10
154.84697532392039
 20
138.53499736960185
 30
0.0
 11
154.84697532392039
 21
146.45588046142439
 31
0.0
  0
LINE
  5
7C
100
AcDbEntity
  8
0
370
               0
390
0
  6
Continuous
 62
              30
100
AcDbLine
 10
104.84697532392039
 20
41.099481936715222
 30
0.0
 11
101.84697532392039
 21
41.099481936715222
 31
0.0
  0
LINE
  5
7D
100
AcDbEntity
  8
0
370
               0
390
0
  6
Continuous
 62
              30
100
AcDbLine
 10
101.84697532392039
 20
45.038712948764044
 30
0.0
 11
104.84697532392039
 21
45.038712948764044
 31
0.0
  0
LINE
  5
7E
100
AcDbEntity
  8
0
370
               0
390
0
  6
Continuous
 62
              30
100
AcDbLine
 10
104.84697532392039
 20
45.038712948764044
 30
0.0
 11
104.84697532392039
 21
41.099481936715222
 31
0.0
  0
LINE
  5
7F
100
AcDbEntity
  8
0
370
               0
390
0
  6
Continuous
 62
              30
100
AcDbLine
 10
101.84697532392039
 20
41.099481936715222
 30
0.0
 11
101.84697532392039
 21
45.038712948764044
 31
0.0
  0
LINE
  5
80
100
AcDbEntity
  8
0
370
               0
390
0
  6
Continuous
 62
              30
100
AcDbLine
 10
104.84697532392039
 20
41.099481936715222
 30
0.0
 11
104.84697532392039
 21
40.455880461424385
 31
0.0
  0
LINE
  5
81
100
AcDbEntity
  8
0
370
               0
390
0
  6
Continuous
 62
              30
100
AcDbLine
 10
104.84697532392039
 20
40.455880461424385
 30
0.0
 11
101.84697532392039
 21
40.455880461424385
 31
0.0
  0
LINE
  5
82
100
AcDbEntity
  8
0
370
               0
390
0
  6
Continuous
 62
              30
100
AcDbLine
 10
101.84697532392039
 20
41.099481936715222
 30
0.0
 11
101.84697532392039
 21
40.455880461424385
 31
0.0
  0
LINE
  5
83
100
AcDbEntity
  8
0
370
               0
390
0
  6
Continuous
 62
              30
100
AcDbLine
 10
104.84697532392039
 20
53.582412454790664
 30
0.0
 11
101.84697532392039
 21
53.582412454790664
 31
0.0
  0
LINE
  5
84
100
AcDbEntity
  8
0
370
               0
390
0
  6
Continuous
 62
              30
100
AcDbLine
 10
104.84697532392039
 20
53.582412454790664
 30
0.0
 11
104.84697532392039
 21
45.038712948764044
 31
0.0
  0
LINE
  5
85
100
AcDbEntity
  8
0
370
               0
390
0
  6
Continuous
 62
              30
100
AcDbLine
 10
101.84697532392039
 20
53.582412454790664
 30
0.0
 11
101.84697532392039
 21
45.038712948764044
 31
0.0
  0
LINE
  5
86
100
AcDbEntity
  8
0
370
               0
390
0
  6
Continuous
 62
              30
100
AcDbLine
 10
104.84697532392039
 20
138.53499736960185
 30
0.0
 11
101.84697532392039
 21
138.53499736960185
 31
0.0
  0
LINE
  5
87
100
AcDbEntity
  8
0
370
               0
390
0
  6
Continuous
 62
              30
100
AcDbLine
 10
104.84697532392039
 20
138.53499736960185
 30
0.0
 11
104.84697532392039
 21
53.582412454790664
 31
0.0
  0
LINE
  5
88
100
AcDbEntity
  8
0
370
               0
390
0
  6
Continuous
 62
              30
100
AcDbLine
 10
101.84697532392039
 20
138.53499736960185
 30
0.0
 11
101.84697532392039
 21
53.582412454790664
 31
0.0
  0
LINE
  5
89
100
AcDbEntity
  8
0
370
               0
390
0
  6
Continuous
 62
              30
100
AcDbLine
 10
101.84697532392039
 20
146.45588046142439
 30
0.0
 11
104.84697532392039
 21
146.45588046142439
 31
0.0
  0
LINE
  5
8A
100
AcDbEntity
  8
0
370
               0
390
0
  6
Continuous
 62
              30
100
AcDbLine
 10
104.84697532392039
 20
146.45588046142439
 30
0.0
 11
104.84697532392039
 21
138.53499736960185
 31
0.0
  0
LINE
  5
8B
100
AcDbEntity
  8
0
370
               0
390
0
  6
Continuous
 62
              30
100
AcDbLine
 10
101.84697532392039
 20
138.53499736960185
 30
0.0
 11
101.84697532392039
 21
146.45588046142439
 31
0.0
  0
LINE
  5
8C
100
AcDbEntity
  8
0
370
               0
390
0
  6
Continuous
 62
              30
100
AcDbLine
 10
97.84697532392039
 20
36.455880461424385
 30
0.0
 11
97.84697532392039
 21
40.455880461424385
 31
0.0
  0
LINE
  5
8D
100
AcDbEntity
  8
0
370
               0
390
0
  6
Continuous
 62
              30
100
AcDbLine
 10
97.84697532392039
 20
40.455880461424385
 30
0.0
 11
101.84697532392039
 21
40.455880461424385
 31
0.0
  0
LINE
  5
8E
100
AcDbEntity
  8
0
370
               0
390
0
  6
Continuous
 62
              30
100
AcDbLine
 10
101.84697532392039
 20
40.455880461424385
 30
0.0
 11
101.84697532392039
 21
36.455880461424385
 31
0.0
  0
LINE
  5
8F
100
AcDbEntity
  8
0
370
               0
390
0
  6
Continuous
 62
              30
100
AcDbLine
 10
101.84697532392039
 20
36.455880461424385
 30
0.0
 11
97.84697532392039
 21
36.455880461424385
 31
0.0
  0
LINE
  5
90
100
AcDbEntity
  8
0
370
               0
390
0
  6
Continuous
 62
              30
100
AcDbLine
 10
157.84697532392039
 20
36.455880461424385
 30
0.0
 11
157.84697532392039
 21
40.455880461424385
 31
0.0
  0
LINE
  5
91
100
AcDbEntity
  8
0
370
               0
390
0
  6
Continuous
 62
              30
100
AcDbLine
 10
157.84697532392039
 20
40.455880461424385
 30
0.0
 11
101.84697532392039
 21
40.455880461424385
 31
0.0
  0
LINE
  5
92
100
AcDbEntity
  8
0
370
               0
390
0
  6
Continuous
 62
              30
100
AcDbLine
 10
157.84697532392039
 20
36.455880461424385
 30
0.0
 11
101.84697532392039
 21
36.455880461424385
 31
0.0
  0
LINE
  5
93
100
AcDbEntity
  8
0
370
               0
390
0
  6
Continuous
 62
              30
100
AcDbLine
 10
161.84697532392039
 20
40.455880461424385
 30
0.0
 11
161.84697532392039
 21
36.455880461424385
 31
0.0
  0
LINE
  5
94
100
AcDbEntity
  8
0
370
               0
390
0
  6
Continuous
 62
              30
100
AcDbLine
 10
157.84697532392039
 20
40.455880461424385
 30
0.0
 11
161.84697532392039
 21
40.455880461424385
 31
0.0
  0
LINE
  5
95
100
AcDbEntity
  8
0
370
               0
390
0
  6
Continuous
 62
              30
100
AcDbLine
 10
161.84697532392039
 20
36.455880461424385
 30
0.0
 11
157.84697532392039
 21
36.455880461424385
 31
0.0
  0
LINE
  5
96
100
AcDbEntity
  8
0
370
               0
390
0
  6
Continuous
 62
              30
100
AcDbLine
 10
161.84697532392039
 20
40.455880461424385
 30
0.0
 11
161.84697532392039
 21
42.455880461424385
 31
0.0
  0
LINE
  5
97
100
AcDbEntity
  8
0
370
               0
390
0
  6
Continuous
 62
              30
100
AcDbLine
 10
97.84697532392039
 20
40.455880461424385
 30
0.0
 11
97.84697532392039
 21
42.455880461424385
 31
0.0
  0
LINE
  5
98
100
AcDbEntity
  8
0
370
               0
390
0
  6
Continuous
 62
              30
100
AcDbLine
 10
161.84697532392039
 20
42.455880461424385
 30
0.0
 11
161.84697532392039
 21
63.45588046142435
 31
0.0
  0
LINE
  5
99
100
AcDbEntity
  8
0
370
               0
390
0
  6
Continuous
 62
              30
100
AcDbLine
 10
97.84697532392039
 20
42.455880461424385
 30
0.0
 11
97.84697532392039
 21
63.45588046142435
 31
0.0
  0
LINE
  5
9A
100
AcDbEntity
  8
0
370
               0
390
0
  6
Continuous
 62
              30
100
AcDbLine
 10
161.84697532392039
 20
69.455880461424329
 30
0.0
 11
157.84697532392033
 21
69.455880461424329
 31
0.0
  0
LINE
  5
9B
100
AcDbEntity
  8
0
370
               0
390
0
  6
Continuous
 62
              30
100
AcDbLine
 10
154.84697532392033
 20
69.455880461424329
 30
0.0
 11
154.49702066981683
 21
69.455880461424329
 31
0.0
  0
LINE
  5
9C
100
AcDbEntity
  8
0
370
               0
390
0
  6
Continuous
 62
              30
100
AcDbLine
 10
105.19692997802426
 20
69.455880461424329
 30
0.0
 11
104.84697532392045
 21
69.455880461424329
 31
0.0
  0
LINE
  5
9D
100
AcDbEntity
  8
0
370
               0
390
0
  6
Continuous
 62
              30
100
AcDbLine
 10
101.84697532392045
 20
69.455880461424329
 30
0.0
 11
97.84697532392039
 21
69.455880461424329
 31
0.0
  0
LINE
  5
9E
100
AcDbEntity
  8
0
370
               0
390
0
  6
Continuous
 62
              30
100
AcDbLine
 10
161.84697532392039
 20
63.45588046142435
 30
0.0
 11
161.84697532392039
 21
69.455880461424329
 31
0.0
  0
LINE
  5
9F
100
AcDbEntity
  8
0
370
               0
390
0
  6
Continuous
 62
              30
100
AcDbLine
 10
97.84697532392039
 20
63.45588046142435
 30
0.0
 11
97.84697532392039
 21
69.455880461424329
 31
0.0
  0
LINE
  5
A0
100
AcDbEntity
  8
0
370
               0
390
0
  6
Continuous
 62
              30
100
AcDbLine
 10
154.21167926088413
 20
72.717347689667349
 30
0.0
 11
105.48227138695663
 21
72.717347689667349
 31
0.0
  0
LINE
  5
A1
100
AcDbEntity
  8
0
370
               0
390
0
  6
Continuous
 62
              30
100
AcDbLine
 10
161.84697532392039
 20
42.455880461424385
 30
0.0
 11
157.84697532392062
 21
42.455880461424385
 31
0.0
  0
LINE
  5
A2
100
AcDbEntity
  8
0
370
               0
390
0
  6
Continuous
 62
              30
100
AcDbLine
 10
154.84697532392062
 20
42.455880461424385
 30
0.0
 11
139.84697532392056
 21
42.455880461424385
 31
0.0
  0
LINE
  5
A3
100
AcDbEntity
  8
0
370
               0
390
0
  6
Continuous
 62
              30
100
AcDbLine
 10
119.84697532392056
 20
42.455880461424385
 30
0.0
 11
104.84697532392062
 21
42.455880461424385
 31
0.0
  0
LINE
  5
A4
100
AcDbEntity
  8
0
370
               0
390
0
  6
Continuous
 62
              30
100
AcDbLine
 10
101.84697532392062
 20
42.455880461424385
 30
0.0
 11
97.84697532392039
 21
42.455880461424385
 31
0.0
  0
LINE
  5
A5
100
AcDbEntity
  8
0
370
               0
390
0
  6
Continuous
 62
              30
100
AcDbLine
 10
161.84697532392039
 20
63.45588046142435
 30
0.0
 11
157.84697532392045
 21
63.45588046142435
 31
0.0
  0
LINE
  5
A6
100
AcDbEntity
  8
0
370
               0
390
0
  6
Continuous
 62
              30
100
AcDbLine
 10
154.84697532392045
 20
63.45588046142435
 30
0.0
 11
139.84697532392056
 21
63.45588046142435
 31
0.0
  0
LINE
  5
A7
100
AcDbEntity
  8
0
370
               0
390
0
  6
Continuous
 62
              30
100
AcDbLine
 10
119.84697532392056
 20
63.45588046142435
 30
0.0
 11
104.84697532392045
 21
63.45588046142435
 31
0.0
  0
LINE
  5
A8
100
AcDbEntity
  8
0
370
               0
390
0
  6
Continuous
 62
              30
100
AcDbLine
 10
101.84697532392045
 20
63.45588046142435
 30
0.0
 11
97.84697532392039
 21
63.45588046142435
 31
0.0
  0
ENDBLK
  5
A9
100
AcDbEntity
  8
0
390
0
100
AcDbBlockEnd
  0
BLOCK
  5
AA
100
AcDbEntity
  8
寸法
390
0
100
AcDbBlockBegin
  2
*D2
 70
               1
 10
0.0
 20
0.0
 30
0.0
  3
*D2
  1

  0
LINE
  5
AB
100
AcDbEntity
  8
寸法
370
              -2
390
0
  6
Continuous
 62
               0
100
AcDbLine
 10
-363.0
 20
152.81822007589037
 30
0.0
 11
-402.0
 21
152.81822007589037
 31
0.0
  0
LINE
  5
AC
100
AcDbEntity
  8
寸法
370
              -2
390
0
  6
Continuous
 62
               0
100
AcDbLine
 10
-362.99999999999994
 20
88.818220075890395
 30
0.0
 11
-402.0
 21
88.818220075890395
 31
0.0
  0
LINE
  5
AD
100
AcDbEntity
  8
寸法
370
              -2
390
0
  6
Continuous
 62
               0
100
AcDbLine
 10
-398.0
 20
152.81822007589037
 30
0.0
 11
-398.0
 21
88.818220075890395
 31
0.0
  0
POLYLINE
  5
AE
100
AcDbEntity
  8
0
370
              -2
390
0
  6
Continuous
 62
               0
100
AcDb2dPolyline
 66
               1
 10
0.0
 20
0.0
 30
0.0
 75
               5
  0
VERTEX
  5
AF
100
AcDbEntity
  8
0
370
              -2
390
0
  6
Continuous
 62
               0
100
AcDbVertex
100
AcDb2dVertex
 10
-399.34007959030049
 20
147.81697495870287
 30
0.0
  0
VERTEX
  5
B0
100
AcDbEntity
  8
0
370
              -2
390
0
  6
Continuous
 62
               0
100
AcDbVertex
100
AcDb2dVertex
 10
-398.0
 20
152.81822007589037
 30
0.0
  0
VERTEX
  5
B1
100
AcDbEntity
  8
0
370
              -2
390
0
  6
Continuous
 62
               0
100
AcDbVertex
100
AcDb2dVertex
 10
-396.65992040969951
 20
147.81697495870287
 30
0.0
  0
SEQEND
  5
B2
100
AcDbEntity
  8
0
370
              -2
390
0
  6
Continuous
 62
               0
  0
POLYLINE
  5
B3
100
AcDbEntity
  8
0
370
              -2
390
0
  6
Continuous
 62
               0
100
AcDb2dPolyline
 66
               1
 10
0.0
 20
0.0
 30
0.0
 75
               5
  0
VERTEX
  5
B4
100
AcDbEntity
  8
0
370
              -2
390
0
  6
Continuous
 62
               0
100
AcDbVertex
100
AcDb2dVertex
 10
-396.65992040969951
 20
93.819465193077889
 30
0.0
  0
VERTEX
  5
B5
100
AcDbEntity
  8
0
370
              -2
390
0
  6
Continuous
 62
               0
100
AcDbVertex
100
AcDb2dVertex
 10
-398.0
 20
88.818220075890395
 30
0.0
  0
VERTEX
  5
B6
100
AcDbEntity
  8
0
370
              -2
390
0
  6
Continuous
 62
               0
100
AcDbVertex
100
AcDb2dVertex
 10
-399.34007959030049
 20
93.819465193077889
 30
0.0
  0
SEQEND
  5
B7
100
AcDbEntity
  8
0
370
              -2
390
0
  6
Continuous
 62
               0
  0
WIPEOUT
  5
B8
100
AcDbEntity
  8
寸法
370
              -2
390
0
  6
Continuous
 62
               0
 92
        0
100
AcDbWipeout
 90
        0
 10
-409.16000000000008
 20
-396.601973228475
 30
0.0
 11
10.160000000000053
 21
0.0
 31
0.0
 12
0.0
 22
10.160000000000053
 32
0.0
 13
1.0
 23
1.0
340
0
 70
               7
280
               1
281
              50
282
              50
283
               0
360
0
 71
               2
 91
        5
 14
0.5000000000000029
 24
-49.927184393596136
 14
0.5000000000000029
 24
-50.927184367105177
 14
-0.5
 24
-50.927184367105177
 14
-0.5
 24
-49.927184393596136
 14
0.5000000000000029
 24
-49.927184393596136
  0
MTEXT
  5
B9
100
AcDbEntity
  8
寸法
390
0
 62
               0
100
AcDbMText
 10
-408.24083750000005
 20
115.73822021046442
 30
0.0
 40
7.818437500000039
 41
0.0
 71
               1
 72
               1
  1
{\fＭＳ ゴシック|b0|i0|c128|p0;\l64}
 11
0.0
 21
1.0
 31
0.0
 73
               1
 44
0.7828267384257842
  0
POINT
  5
BA
100
AcDbEntity
  8
Defpoints
370
               0
390
0
 62
               0
100
AcDbPoint
 10
-358.99999999999994
 20
88.818220075890395
 30
0.0
  0
POINT
  5
BB
100
AcDbEntity
  8
Defpoints
370
               0
390
0
 62
               0
100
AcDbPoint
 10
-359.0
 20
152.81822007589037
 30
0.0
  0
POINT
  5
BC
100
AcDbEntity
  8
Defpoints
370
               0
390
0
 62
               0
100
AcDbPoint
 10
-398.0
 20
152.81822007589037
 30
0.0
  0
ENDBLK
  5
BD
100
AcDbEntity
  8
寸法
390
0
100
AcDbBlockEnd
  0
BLOCK
  5
BE
100
AcDbEntity
  8
寸法
390
0
100
AcDbBlockBegin
  2
*D3
 70
               1
 10
0.0
 20
0.0
 30
0.0
  3
*D3
  1

  0
LINE
  5
BF
100
AcDbEntity
  8
寸法
370
              -2
390
0
  6
Continuous
 62
               0
100
AcDbLine
 10
-363.0
 20
88.818220075890395
 30
0.0
 11
-363.0
 21
56.5
 31
0.0
  0
LINE
  5
C0
100
AcDbEntity
  8
寸法
370
              -2
390
0
  6
Continuous
 62
               0
100
AcDbLine
 10
-241.0
 20
88.818220075890395
 30
0.0
 11
-241.0
 21
56.5
 31
0.0
  0
LINE
  5
C1
100
AcDbEntity
  8
寸法
370
              -2
390
0
  6
Continuous
 62
               0
100
AcDbLine
 10
-363.0
 20
60.5
 30
0.0
 11
-241.0
 21
60.5
 31
0.0
  0
POLYLINE
  5
C2
100
AcDbEntity
  8
0
370
              -2
390
0
  6
Continuous
 62
               0
100
AcDb2dPolyline
 66
               1
 10
0.0
 20
0.0
 30
0.0
 75
               5
  0
VERTEX
  5
C3
100
AcDbEntity
  8
0
370
              -2
390
0
  6
Continuous
 62
               0
100
AcDbVertex
100
AcDb2dVertex
 10
-357.99875488281248
 20
59.159920409699509
 30
0.0
  0
VERTEX
  5
C4
100
AcDbEntity
  8
0
370
              -2
390
0
  6
Continuous
 62
               0
100
AcDbVertex
100
AcDb2dVertex
 10
-363.0
 20
60.5
 30
0.0
  0
VERTEX
  5
C5
100
AcDbEntity
  8
0
370
              -2
390
0
  6
Continuous
 62
               0
100
AcDbVertex
100
AcDb2dVertex
 10
-357.99875488281248
 20
61.840079590300491
 30
0.0
  0
SEQEND
  5
C6
100
AcDbEntity
  8
0
370
              -2
390
0
  6
Continuous
 62
               0
  0
POLYLINE
  5
C7
100
AcDbEntity
  8
0
370
              -2
390
0
  6
Continuous
 62
               0
100
AcDb2dPolyline
 66
               1
 10
0.0
 20
0.0
 30
0.0
 75
               5
  0
VERTEX
  5
C8
100
AcDbEntity
  8
0
370
              -2
390
0
  6
Continuous
 62
               0
100
AcDbVertex
100
AcDb2dVertex
 10
-246.00124511718749
 20
61.840079590300491
 30
0.0
  0
VERTEX
  5
C9
100
AcDbEntity
  8
0
370
              -2
390
0
  6
Continuous
 62
               0
100
AcDbVertex
100
AcDb2dVertex
 10
-241.0
 20
60.5
 30
0.0
  0
VERTEX
  5
CA
100
AcDbEntity
  8
0
370
              -2
390
0
  6
Continuous
 62
               0
100
AcDbVertex
100
AcDb2dVertex
 10
-246.00124511718749
 20
59.159920409699509
 30
0.0
  0
SEQEND
  5
CB
100
AcDbEntity
  8
0
370
              -2
390
0
  6
Continuous
 62
               0
  0
WIPEOUT
  5
CC
100
AcDbEntity
  8
寸法
370
              -2
390
0
  6
Continuous
 62
               0
 92
        0
100
AcDbWipeout
 90
        0
 10
-309.6199994617038
 20
-450.84019343893942
 30
0.0
 11
15.239998923407658
 21
0.0
 31
0.0
 12
0.0
 22
15.239998923407658
 32
0.0
 13
1.0
 23
1.0
340
0
 70
               7
280
               1
281
              50
282
              50
283
               0
360
0
 71
               2
 91
        5
 14
-0.5
 24
-33.1181253039341
 14
0.4999999999999998
 24
-33.1181253039341
 14
0.4999999999999998
 24
-33.7847920176958
 14
-0.5
 24
-33.7847920176958
 14
-0.5
 24
-33.1181253039341
  0
MTEXT
  5
CD
100
AcDbEntity
  8
寸法
390
0
 62
               0
100
AcDbMText
 10
-309.6199994617038
 20
70.740837500000055
 30
0.0
 40
7.818437500000039
 41
0.0
 71
               1
 72
               1
  1
{\fＭＳ ゴシック|b0|i0|c128|p0;\l122}
 73
               1
 44
0.7828267384257842
  0
POINT
  5
CE
100
AcDbEntity
  8
Defpoints
370
               0
390
0
 62
               0
100
AcDbPoint
 10
-241.0
 20
92.818220075890395
 30
0.0
  0
POINT
  5
CF
100
AcDbEntity
  8
Defpoints
370
               0
390
0
 62
               0
100
AcDbPoint
 10
-363.0
 20
92.818220075890395
 30
0.0
  0
POINT
  5
D0
100
AcDbEntity
  8
Defpoints
370
               0
390
0
 62
               0
100
AcDbPoint
 10
-363.0
 20
60.5
 30
0.0
  0
ENDBLK
  5
D1
100
AcDbEntity
  8
寸法
390
0
100
AcDbBlockEnd
  0
BLOCK
  5
D2
100
AcDbEntity
  8
寸法
390
0
100
AcDbBlockBegin
  2
*D4
 70
               1
 10
0.0
 20
0.0
 30
0.0
  3
*D4
  1

  0
LINE
  5
D3
100
AcDbEntity
  8
寸法
370
              -2
390
0
  6
Continuous
 62
               0
100
AcDbLine
 10
-277.49999999999994
 20
353.0
 30
0.0
 11
-383.0
 21
353.0
 31
0.0
  0
LINE
  5
D4
100
AcDbEntity
  8
寸法
370
              -2
390
0
  6
Continuous
 62
               0
100
AcDbLine
 10
-367.0
 20
243.0
 30
0.0
 11
-383.0
 21
243.0
 31
0.0
  0
LINE
  5
D5
100
AcDbEntity
  8
寸法
370
              -2
390
0
  6
Continuous
 62
               0
100
AcDbLine
 10
-379.0
 20
353.0
 30
0.0
 11
-379.0
 21
243.0
 31
0.0
  0
POLYLINE
  5
D6
100
AcDbEntity
  8
0
370
              -2
390
0
  6
Continuous
 62
               0
100
AcDb2dPolyline
 66
               1
 10
0.0
 20
0.0
 30
0.0
 75
               5
  0
VERTEX
  5
D7
100
AcDbEntity
  8
0
370
              -2
390
0
  6
Continuous
 62
               0
100
AcDbVertex
100
AcDb2dVertex
 10
-380.34007959030049
 20
347.99875488281248
 30
0.0
  0
VERTEX
  5
D8
100
AcDbEntity
  8
0
370
              -2
390
0
  6
Continuous
 62
               0
100
AcDbVertex
100
AcDb2dVertex
 10
-379.0
 20
353.0
 30
0.0
  0
VERTEX
  5
D9
100
AcDbEntity
  8
0
370
              -2
390
0
  6
Continuous
 62
               0
100
AcDbVertex
100
AcDb2dVertex
 10
-377.65992040969951
 20
347.99875488281248
 30
0.0
  0
SEQEND
  5
DA
100
AcDbEntity
  8
0
370
              -2
390
0
  6
Continuous
 62
               0
  0
POLYLINE
  5
DB
100
AcDbEntity
  8
0
370
              -2
390
0
  6
Continuous
 62
               0
100
AcDb2dPolyline
 66
               1
 10
0.0
 20
0.0
 30
0.0
 75
               5
  0
VERTEX
  5
DC
100
AcDbEntity
  8
0
370
              -2
390
0
  6
Continuous
 62
               0
100
AcDbVertex
100
AcDb2dVertex
 10
-377.65992040969951
 20
248.00124511718749
 30
0.0
  0
VERTEX
  5
DD
100
AcDbEntity
  8
0
370
              -2
390
0
  6
Continuous
 62
               0
100
AcDbVertex
100
AcDb2dVertex
 10
-379.0
 20
243.0
 30
0.0
  0
VERTEX
  5
DE
100
AcDbEntity
  8
0
370
              -2
390
0
  6
Continuous
 62
               0
100
AcDbVertex
100
AcDb2dVertex
 10
-380.34007959030049
 20
248.00124511718749
 30
0.0
  0
SEQEND
  5
DF
100
AcDbEntity
  8
0
370
              -2
390
0
  6
Continuous
 62
               0
  0
WIPEOUT
  5
E0
100
AcDbEntity
  8
寸法
370
              -2
390
0
  6
Continuous
 62
               0
 92
        0
100
AcDbWipeout
 90
        0
 10
-390.16000000000008
 20
-221.96019290064325
 30
0.0
 11
15.239998923407654
 21
0.0
 31
0.0
 12
0.0
 22
15.239998923407654
 32
0.0
 13
1.0
 23
1.0
340
0
 70
               7
280
               1
281
              50
282
              50
283
               0
360
0
 71
               2
 91
        5
 14
0.1666667137617036
 24
-33.118125303934107
 14
0.1666667137617036
 24
-34.118125303934114
 14
-0.5
 24
-34.118125303934114
 14
-0.5
 24
-33.118125303934107
 14
0.1666667137617036
 24
-33.118125303934107
  0
MTEXT
  5
E1
100
AcDbEntity
  8
寸法
390
0
 62
               0
100
AcDbMText
 10
-389.24083750000005
 20
290.38000053829614
 30
0.0
 40
7.818437500000039
 41
0.0
 71
               1
 72
               1
  1
{\fＭＳ ゴシック|b0|i0|c128|p0;\l110}
 11
0.0
 21
1.0
 31
0.0
 73
               1
 44
0.7828267384257842
  0
POINT
  5
E2
100
AcDbEntity
  8
Defpoints
370
               0
390
0
 62
               0
100
AcDbPoint
 10
-363.0
 20
243.0
 30
0.0
  0
POINT
  5
E3
100
AcDbEntity
  8
Defpoints
370
               0
390
0
 62
               0
100
AcDbPoint
 10
-273.49999999999994
 20
353.0
 30
0.0
  0
POINT
  5
E4
100
AcDbEntity
  8
Defpoints
370
               0
390
0
 62
               0
100
AcDbPoint
 10
-379.0
 20
353.0
 30
0.0
  0
ENDBLK
  5
E5
100
AcDbEntity
  8
寸法
390
0
100
AcDbBlockEnd
  0
ENDSEC
  0
SECTION
  2
ENTITIES
  0
LINE
  5
E6
100
AcDbEntity
  8
HIBINO-BASE
370
               0
390
0
  6
Continuous
 62
               2
100
AcDbLine
 10
-485.79607390036381
 20
474.02631506789072
 30
0.0
 11
-125.79607390036381
 21
474.02631506789072
 31
0.0
  0
LINE
  5
E7
100
AcDbEntity
  8
HIBINO-BASE
370
               0
390
0
  6
Continuous
 62
               2
100
AcDbLine
 10
-125.79607390036381
 20
-45.973684932109308
 30
0.0
 11
-485.79607390036381
 21
-45.973684932109308
 31
0.0
  0
LINE
  5
E8
100
AcDbEntity
  8
HIBINO-BASE
370
               0
390
0
  6
Continuous
 62
               2
100
AcDbLine
 10
-485.79607390036381
 20
-45.973684932109308
 30
0.0
 11
-485.79607390036381
 21
474.02631506789072
 31
0.0
  0
LINE
  5
E9
100
AcDbEntity
  8
HIBINO-BASE
370
               0
390
0
  6
Continuous
 62
               2
100
AcDbLine
 10
-125.79607390036381
 20
474.02631506789072
 30
0.0
 11
-125.79607390036381
 21
-45.973684932109308
 31
0.0
  0
LINE
  5
EA
100
AcDbEntity
  8
HIBINO-BASE
370
               0
390
0
  6
Continuous
 62
               2
100
AcDbLine
 10
-305.79607390036381
 20
-0.9736849321092223
 30
0.0
 11
-125.79607390036381
 21
-0.9736849321092223
 31
0.0
  0
LINE
  5
EB
100
AcDbEntity
  8
HIBINO-BASE
370
               0
390
0
  6
Continuous
 62
               2
100
AcDbLine
 10
-305.79607390036381
 20
-45.973684932109308
 30
0.0
 11
-305.79607390036381
 21
-0.9736849321092223
 31
0.0
  0
MTEXT
  5
EC
100
AcDbEntity
  8
HIBINO-BASE
390
0
 62
               2
100
AcDbMText
 10
-303.9960739003638
 20
-3.1163736821091561
 30
0.0
 40
3.2576822916666659
 41
0.0
 71
               1
 72
               1
  1
{\fＭＳ ゴシック|b0|i0|c128|p0;\lNOTE}
 73
               1
 44
0.7828267384257842
  0
LINE
  5
ED
100
AcDbEntity
  8
HIBINO-BASE
370
               0
390
0
  6
Continuous
 62
               2
100
AcDbLine
 10
-235.79607390036381
 20
-45.973684932109308
 30
0.0
 11
-235.79607390036381
 21
-0.9736849321092223
 31
0.0
  0
MTEXT
  5
EE
100
AcDbEntity
  8
HIBINO-BASE
390
0
 62
               2
100
AcDbMText
 10
-233.9960739003638
 20
-3.1163736821091561
 30
0.0
 40
3.2576822916666659
 41
0.0
 71
               1
 72
               1
  1
{\fＭＳ ゴシック|b0|i0|c128|p0;\lTITLE}
 73
               1
 44
0.7828267384257842
  0
LINE
  5
EF
100
AcDbEntity
  8
HIBINO-BASE
370
               0
390
0
  6
Continuous
 62
               2
100
AcDbLine
 10
-305.79607390036381
 20
-25.97368493210908
 30
0.0
 11
-125.79607390036381
 21
-25.97368493210908
 31
0.0
  0
MTEXT
  5
F0
100
AcDbEntity
  8
HIBINO-BASE
390
0
 62
               2
100
AcDbMText
 10
-208.9960739003638
 20
-28.0037336821091
 30
0.0
 40
3.2576822916666659
 41
0.0
 71
               1
 72
               1
  1
{\fＭＳ ゴシック|b0|i0|c128|p0;\lDRAWN}
 73
               1
 44
0.7828267384257842
  0
MTEXT
  5
F1
100
AcDbEntity
  8
HIBINO-BASE
390
0
 62
               2
100
AcDbMText
 10
-258.9960739003638
 20
-28.0037336821091
 30
0.0
 40
3.2576822916666659
 41
0.0
 71
               1
 72
               1
  1
{\fＭＳ ゴシック|b0|i0|c128|p0;\lDATE}
 73
               1
 44
0.7828267384257842
  0
MTEXT
  5
F2
100
AcDbEntity
  8
HIBINO-BASE
390
0
 62
               2
100
AcDbMText
 10
-278.9960739003638
 20
-28.0037336821091
 30
0.0
 40
3.2576822916666659
 41
0.0
 71
               1
 72
               1
  1
{\fＭＳ ゴシック|b0|i0|c128|p0;\lSCALE}
 73
               1
 44
0.7828267384257842
  0
MTEXT
  5
F3
100
AcDbEntity
  8
HIBINO-BASE
390
0
 62
               2
100
AcDbMText
 10
-233.9960739003638
 20
-28.0037336821091
 30
0.0
 40
3.2576822916666659
 41
0.0
 71
               1
 72
               1
  1
{\fＭＳ ゴシック|b0|i0|c128|p0;\lDESIGN}
 73
               1
 44
0.7828267384257842
  0
MTEXT
  5
F4
100
AcDbEntity
  8
HIBINO-BASE
390
0
 62
               2
100
AcDbMText
 10
-158.9960739003638
 20
-28.0037336821091
 30
0.0
 40
3.2576822916666659
 41
0.0
 71
               1
 72
               1
  1
{\fＭＳ ゴシック|b0|i0|c128|p0;\lDRAWING NO.}
 73
               1
 44
0.7828267384257842
  0
MTEXT
  5
F5
100
AcDbEntity
  8
HIBINO-BASE
390
0
 62
               2
100
AcDbMText
 10
-183.99607390036385
 20
-28.0037336821091
 30
0.0
 40
3.2576822916666659
 41
0.0
 71
               1
 72
               1
  1
{\fＭＳ ゴシック|b0|i0|c128|p0;\lCHECK}
 73
               1
 44
0.7828267384257842
  0
LINE
  5
F6
100
AcDbEntity
  8
HIBINO-BASE
370
               0
390
0
  6
Continuous
 62
               2
100
AcDbLine
 10
-277.04607390036381
 20
-43.473684932109308
 30
0.0
 11
-269.54607390036381
 21
-35.97368493210908
 31
0.0
  0
MTEXT
  5
F7
100
AcDbEntity
  8
HIBINO-BASE
390
0
 62
               2
100
AcDbMText
 10
-278.29607390036381
 20
-35.316873682109247
 30
0.0
 40
3.2576822916666659
 41
0.0
 71
               1
 72
               1
  1
{\fＭＳ ゴシック|b0|i0|c128|p0;\l1}
 73
               1
 44
0.7828267384257842
  0
LINE
  5
F8
100
AcDbEntity
  8
HIBINO-BASE
370
               0
390
0
  6
Continuous
 62
               2
100
AcDbLine
 10
-280.79607390036381
 20
-45.973684932109308
 30
0.0
 11
-280.79607390036381
 21
-25.97368493210908
 31
0.0
  0
LINE
  5
F9
100
AcDbEntity
  8
HIBINO-BASE
370
               0
390
0
  6
Continuous
 62
               2
100
AcDbLine
 10
-260.79607390036381
 20
-45.973684932109308
 30
0.0
 11
-260.79607390036381
 21
-25.97368493210908
 31
0.0
  0
LINE
  5
FA
100
AcDbEntity
  8
HIBINO-BASE
370
               0
390
0
  6
Continuous
 62
               2
100
AcDbLine
 10
-210.79607390036381
 20
-25.97368493210908
 30
0.0
 11
-210.79607390036381
 21
-45.973684932109308
 31
0.0
  0
LINE
  5
FB
100
AcDbEntity
  8
HIBINO-BASE
370
               0
390
0
  6
Continuous
 62
               2
100
AcDbLine
 10
-160.79607390036381
 20
-25.97368493210908
 30
0.0
 11
-160.79607390036381
 21
-45.973684932109308
 31
0.0
  0
LINE
  5
FC
100
AcDbEntity
  8
HIBINO-BASE
370
               0
390
0
  6
Continuous
 62
               2
100
AcDbLine
 10
-185.79607390036381
 20
-45.973684932109308
 30
0.0
 11
-185.79607390036381
 21
-25.97368493210908
 31
0.0
  0
MTEXT
  5
FD
100
AcDbEntity
  8
HIBINO-BASE
390
0
 62
               2
100
AcDbMText
 10
-256.37570324678205
 20
-35.860851487961753
 30
0.0
 40
2.9862087673611097
 41
15.748686419693639
 71
               1
 72
               1
  1
{\fＭＳ ゴシック|b0|i0|c128|p0;\l2020.1}
 73
               1
 44
0.7828267384257843
  0
MTEXT
  5
FE
100
AcDbEntity
  8
HIBINO-BASE
390
0
 62
               2
100
AcDbMText
 10
-270.79607390036381
 20
-39.066873682109247
 30
0.0
 40
3.2576822916666659
 41
0.0
 71
               1
 72
               1
  1
{\fＭＳ ゴシック|b0|i0|c128|p0;\l2}
 73
               1
 44
0.7828267384257842
  0
MTEXT
  5
FF
100
AcDbEntity
  8
HIBINO-BASE
390
0
 62
               2
100
AcDbMText
 10
-207.18445387829456
 20
-35.168550872941807
 30
0.0
 40
3.2309494157603917
 41
17.864442701057715
 71
               1
 72
               1
  1
{\fＭＳ ゴシック|b0|i0|c128|p0;\lKojima\P \fＭＳ ゴシック|b0|i0|c128|p0;\H1.008x;\lShohei}
 73
               1
 44
0.7828267384257842
  0
MTEXT
  5
100
100
AcDbEntity
  8
HIBINO-BASE
390
0
 62
               2
100
AcDbMText
 10
-298.0294072336971
 20
-36.2722890987759
 30
0.0
 40
6.5153645833333345
 41
0.0
 71
               1
 72
               1
  1
{\fＭＳ ゴシック|b0|i0|c128|p0;\lA4}
 73
               1
 44
0.7828267384257843
  0
MTEXT
  5
101
100
AcDbEntity
  8
HIBINO-BASE
390
0
 62
               2
100
AcDbMText
 10
-303.87940723369712
 20
-28.337897015442479
 30
0.0
 40
3.2576822916666659
 41
0.0
 71
               1
 72
               1
  1
{\fＭＳ ゴシック|b0|i0|c128|p0;\lPAPER SIZE}
 73
               1
 44
0.7828267384257842
  0
MTEXT
  5
102
100
AcDbEntity
  8
HIBINO-BASE
390
0
 62
               2
100
AcDbMText
 10
-480.27680338658342
 20
-52.595653247683913
 30
0.0
 40
7.0583116319444414
 41
0.0
 71
               1
 72
               1
  1
{\fＭＳ ゴシック|b0|i0|c128|p0;\lHibino-Intersound Corporation}
 73
               1
 44
0.7828267384257842
  0
MTEXT
  5
103
100
AcDbEntity
  8
HIBINO-BASE
390
0
 62
               2
100
AcDbMText
 10
-265.434854539936
 20
-51.893476741105133
 30
0.0
 40
7.0583116319444414
 41
0.0
 71
               1
 72
               1
  1
{\fＭＳ ゴシック|b0|i0|c128|p0;\lヒビノインタ ーサウンド株式会社}
 73
               1
 44
0.7828267384257842
  0
MTEXT
  5
104
100
AcDbEntity
  8
DATA
390
0
 62
               2
100
AcDbMText
 10
-465.79607390036381
 20
-34.622987015442476
 30
0.0
 40
3.2576822916666659
 41
0.0
 71
               1
 72
               1
  1
{\fＭＳ ゴシック|b0|i0|c128|p0;\l仕様および外観は予告なく変更されることがありますので、ご了承ください。}
 73
               1
 44
0.7828267384257842
  0
MTEXT
  5
105
100
AcDbEntity
  8
DATA
390
0
 62
               2
100
AcDbMText
 10
-201.75373026747525
 20
-18.188089401030311
 30
0.0
 40
4.8865234375000002
 41
0.0
 71
               1
 72
               1
  1
{\fＭＳ ゴシック|b0|i0|c128|p0;\lGAH-N-APS}
 73
               1
 44
0.7828267384257842
  0
MTEXT
  5
106
100
AcDbEntity
  8
DATA
390
0
 62
               2
100
AcDbMText
 10
-204.92001117723686
 20
-3.8137888443213797
 30
0.0
 40
4.8865234375000002
 41
40.717862852321495
 71
               1
 72
               1
  1
{\fＭＳ ゴシック|b0|i0|c128|p0;\lCODA AUDIO}
 73
               1
 44
0.7828267384257842
  0
MTEXT
  5
107
100
AcDbEntity
  8
DATA
390
0
 62
               2
100
AcDbMText
 10
-206.35345982857086
 20
-11.934349207619931
 30
0.0
 40
3.2576822916666659
 41
0.0
 71
               1
 72
               1
  1
{\fＭＳ ゴシック|b0|i0|c128|p0;\lAPS仮設固定用アダプタ}
 73
               1
 44
0.7828267384257842
  0
MTEXT
  5
108
100
AcDbEntity
  8
DIMNSIONS
390
0
 62
               2
100
AcDbMText
 10
-432.3516870233783
 20
55.053752196463989
 30
0.0
 40
3.8006293402777787
 41
0.0
 71
               1
 72
               1
  1
{\fＭＳ ゴシック|b0|i0|c128|p0;\l(単位：mm)}
 73
               1
 44
0.7828267384257843
  0
LINE
  5
109
100
AcDbEntity
  8
SPEC
370
               0
390
0
  6
Continuous
 62
               2
100
AcDbLine
 10
-466.69613177752888
 20
439.19666996202602
 30
0.0
 11
-141.69613177752882
 21
439.19666996202602
 31
0.0
  0
LINE
  5
10A
100
AcDbEntity
  8
SPEC
370
               0
390
0
  6
Continuous
 62
               2
100
AcDbLine
 10
-466.69613177752888
 20
431.69666996202602
 30
0.0
 11
-141.69613177752882
 21
431.69666996202602
 31
0.0
  0
LINE
  5
10B
100
AcDbEntity
  8
SPEC
370
               0
390
0
  6
Continuous
 62
               2
100
AcDbLine
 10
-466.69613177752888
 20
416.69666996202602
 30
0.0
 11
-141.69613177752882
 21
416.69666996202602
 31
0.0
  0
LINE
  5
10C
100
AcDbEntity
  8
SPEC
370
               0
390
0
  6
Continuous
 62
               2
100
AcDbLine
 10
-466.69613177752888
 20
424.19666996202602
 30
0.0
 11
-141.69613177752882
 21
424.19666996202602
 31
0.0
  0
LINE
  5
10D
100
AcDbEntity
  8
SPEC
370
               0
390
0
  6
Continuous
 62
               2
100
AcDbLine
 10
-466.69613177752888
 20
439.19666996202602
 30
0.0
 11
-466.69613177752888
 21
401.69666996202602
 31
0.0
  0
MTEXT
  5
10E
100
AcDbEntity
  8
SPEC
390
0
 62
               2
100
AcDbMText
 10
-464.19613177752888
 20
450.4229182953593
 30
0.0
 40
3.8006293402777787
 41
0.0
 71
               1
 72
               1
  1
{\fＭＳ ゴシック|b0|i0|c128|p0;\l仕様}
 73
               1
 44
0.7828267384257843
  0
LINE
  5
10F
100
AcDbEntity
  8
SPEC
370
               0
390
0
  6
Continuous
 62
               2
100
AcDbLine
 10
-401.69613177752882
 20
439.19666996202602
 30
0.0
 11
-401.69613177752882
 21
401.69666996202602
 31
0.0
  0
LINE
  5
110
100
AcDbEntity
  8
SPEC
370
               0
390
0
  6
Continuous
 62
               2
100
AcDbLine
 10
-141.69613177752882
 20
439.19666996202602
 30
0.0
 11
-141.69613177752882
 21
401.69666996202602
 31
0.0
  0
LINE
  5
111
100
AcDbEntity
  8
SPEC
370
               0
390
0
  6
Continuous
 62
               2
100
AcDbLine
 10
-466.69613177752888
 20
409.19666996202602
 30
0.0
 11
-141.69613177752882
 21
409.19666996202602
 31
0.0
  0
LINE
  5
112
100
AcDbEntity
  8
SPEC
370
               0
390
0
  6
Continuous
 62
               2
100
AcDbLine
 10
-466.69613177752888
 20
401.69666996202602
 30
0.0
 11
-141.69613177752882
 21
401.69666996202602
 31
0.0
  0
MTEXT
  5
113
100
AcDbEntity
  8
SPEC
390
0
 62
               2
100
AcDbMText
 10
-465.15977866492346
 20
421.69576490226757
 30
0.0
 40
3.8006293402777787
 41
0.0
 71
               1
 72
               1
  1
{\fＭＳ ゴシック|b0|i0|c128|p0;\lエンクロージャー}
 73
               1
 44
0.7828267384257843
  0
MTEXT
  5
114
100
AcDbEntity
  8
SPEC
390
0
 62
               2
100
AcDbMText
 10
-399.85988257078111
 20
406.73179856869365
 30
0.0
 40
3.8006293402777787
 41
0.0
 71
               1
 72
               1
  1
{\fＭＳ ゴシック|b0|i0|c128|p0;\l64(W)×110(H)×122(D)mm(突起部含まず）}
 73
               1
 44
0.7828267384257843
  0
MTEXT
  5
115
100
AcDbEntity
  8
SPEC
390
0
 62
               2
100
AcDbMText
 10
-399.85426199927906
 20
414.35493158815234
 30
0.0
 40
3.8006293402777787
 41
0.0
 71
               1
 72
               1
  1
{\fＭＳ ゴシック|b0|i0|c128|p0;\lポリウレア樹脂塗装（防水性）標準：黒}
 73
               1
 44
0.7828267384257843
  0
MTEXT
  5
116
100
AcDbEntity
  8
SPEC
390
0
 62
               2
100
AcDbMText
 10
-464.90762128843153
 20
414.45133526744007
 30
0.0
 40
3.8006293402777787
 41
0.0
 71
               1
 72
               1
  1
{\fＭＳ ゴシック|b0|i0|c128|p0;\l仕上げ}
 73
               1
 44
0.7828267384257843
  0
MTEXT
  5
117
100
AcDbEntity
  8
SPEC
390
0
 62
               2
100
AcDbMText
 10
-465.03637746351563
 20
436.76569071661294
 30
0.0
 40
3.8006293402777787
 41
0.0
 71
               1
 72
               1
  1
{\fＭＳ ゴシック|b0|i0|c128|p0;\l形式}
 73
               1
 44
0.7828267384257843
  0
MTEXT
  5
118
100
AcDbEntity
  8
SPEC
390
0
 62
               2
100
AcDbMText
 10
-465.05797268335652
 20
407.03112307973981
 30
0.0
 40
3.8006293402777787
 41
0.0
 71
               1
 72
               1
  1
{\fＭＳ ゴシック|b0|i0|c128|p0;\l寸法}
 73
               1
 44
0.7828267384257843
  0
MTEXT
  5
119
100
AcDbEntity
  8
SPEC
390
0
 62
               2
100
AcDbMText
 10
-399.98415668146947
 20
422.08277120535433
 30
0.0
 40
3.8006293402777787
 41
0.0
 71
               1
 72
               1
  1
{\fＭＳ ゴシック|b0|i0|c128|p0;\l合板（接合部は金属）}
 73
               1
 44
0.7828267384257843
  0
MTEXT
  5
11A
100
AcDbEntity
  8
SPEC
390
0
 62
               2
100
AcDbMText
 10
-399.32163835729904
 20
436.80939361839188
 30
0.0
 40
3.6195262903104073
 41
0.0
 71
               1
 72
               1
  1
{\fＭＳ ゴシック|b0|i0|c128|p0;\lAPS仮設固定用アダプタ}
 73
               1
 44
0.7828267384257843
  0
MTEXT
  5
11B
100
AcDbEntity
  8
SPEC
390
0
 62
               2
100
AcDbMText
 10
-465.55315360856633
 20
429.40256074907927
 30
0.0
 40
3.8006293402777787
 41
0.0
 71
               1
 72
               1
  1
{\fＭＳ ゴシック|b0|i0|c128|p0;\l接続ハンドルネジ}
 73
               1
 44
0.7828267384257843
  0
MTEXT
  5
11C
100
AcDbEntity
  8
SPEC
390
0
 62
               2
100
AcDbMText
 10
-399.86288012127517
 20
429.29666459247534
 30
0.0
 40
3.8006293402777787
 41
0.0
 71
               1
 72
               1
  1
{\fＭＳ ゴシック|b0|i0|c128|p0;\l製品に含む}
 73
               1
 44
0.7828267384257843
  0
LINE
  5
11D
100
AcDbEntity
  8
0
370
               0
390
0
  6
Continuous
 62
              30
100
AcDbLine
 10
-328.99999999999994
 20
256.99511734408759
 30
0.0
 11
-328.99999999999994
 21
261.49999999999994
 31
0.0
  0
LINE
  5
11E
100
AcDbEntity
  8
0
370
               0
390
0
  6
Continuous
 62
              30
100
AcDbLine
 10
-349.0
 20
261.49999999999994
 30
0.0
 11
-349.0
 21
253.46857772991837
 31
0.0
  0
LINE
  5
11F
100
AcDbEntity
  8
0
370
               0
390
0
  6
Continuous
 62
              30
100
AcDbLine
 10
-328.99999999999994
 20
261.49999999999994
 30
0.0
 11
-329.5
 21
261.99999999999994
 31
0.0
  0
LINE
  5
120
100
AcDbEntity
  8
0
370
               0
390
0
  6
Continuous
 62
              30
100
AcDbLine
 10
-348.5
 20
261.99999999999994
 30
0.0
 11
-349.0
 21
261.49999999999994
 31
0.0
  0
LINE
  5
121
100
AcDbEntity
  8
0
370
               0
390
0
  6
Continuous
 62
              30
100
AcDbLine
 10
-314.0
 20
272.0
 30
0.0
 11
-314.63529606303626
 21
279.26146722824296
 31
0.0
  0
LINE
  5
122
100
AcDbEntity
  8
0
370
               0
390
0
  6
Continuous
 62
              30
100
AcDbLine
 10
-363.36470393696374
 20
279.26146722824296
 30
0.0
 11
-364.0
 21
272.0
 31
0.0
  0
ARC
  5
123
100
AcDbEntity
  8
0
370
               0
390
0
  6
Continuous
 62
              30
100
AcDbCircle
 10
-360.37611984268847
 20
278.99999999999994
 30
0.0
 40
3.0000000000000568
100
AcDbArc
 50
90.0
 51
174.99999999999923
  0
ARC
  5
124
100
AcDbEntity
  8
0
370
               0
390
0
  6
Continuous
 62
              30
100
AcDbCircle
 10
-317.62388015731153
 20
278.99999999999994
 30
0.0
 40
3.0000000000000351
100
AcDbArc
 50
5.0000000000008242
 51
90.0
  0
LINE
  5
125
100
AcDbEntity
  8
0
370
               0
390
0
  6
Continuous
 62
              30
100
AcDbLine
 10
-328.99999999999994
 20
261.99999999999994
 30
0.0
 11
-328.99999999999994
 21
272.0
 31
0.0
  0
LINE
  5
126
100
AcDbEntity
  8
0
370
               0
390
0
  6
Continuous
 62
              30
100
AcDbLine
 10
-349.0
 20
272.0
 30
0.0
 11
-349.0
 21
261.99999999999994
 31
0.0
  0
LINE
  5
127
100
AcDbEntity
  8
0
370
               0
390
0
  6
Continuous
 62
              30
100
AcDbLine
 10
-333.99999999999994
 20
221.34999999999997
 30
0.0
 11
-334.64999999999998
 21
221.99999999999997
 31
0.0
  0
LINE
  5
128
100
AcDbEntity
  8
0
370
               0
390
0
  6
Continuous
 62
              30
100
AcDbLine
 10
-343.34999999999997
 20
221.99999999999997
 30
0.0
 11
-343.99999999999994
 21
221.34999999999997
 31
0.0
  0
LINE
  5
129
100
AcDbEntity
  8
0
370
               0
390
0
  6
Continuous
 62
              30
100
AcDbLine
 10
-343.99999999999994
 20
221.34999999999997
 30
0.0
 11
-343.99999999999994
 21
212.49999999999997
 31
0.0
  0
LINE
  5
12A
100
AcDbEntity
  8
0
370
               0
390
0
  6
Continuous
 62
              30
100
AcDbLine
 10
-333.99999999999994
 20
212.49999999999997
 30
0.0
 11
-333.99999999999994
 21
221.34999999999997
 31
0.0
  0
LINE
  5
12B
100
AcDbEntity
  8
0
370
               0
390
0
  6
Continuous
 62
              30
100
AcDbLine
 10
-343.99999999999994
 20
212.49999999999997
 30
0.0
 11
-343.49999999999994
 21
211.99999999999997
 31
0.0
  0
LINE
  5
12C
100
AcDbEntity
  8
0
370
               0
390
0
  6
Continuous
 62
              30
100
AcDbLine
 10
-334.49999999999994
 20
211.99999999999997
 30
0.0
 11
-333.99999999999994
 21
212.49999999999997
 31
0.0
  0
LINE
  5
12D
100
AcDbEntity
  8
0
370
               0
390
0
  6
Continuous
 62
              30
100
AcDbLine
 10
-334.99999999999994
 20
221.99999999999997
 30
0.0
 11
-334.99999999999994
 21
243.0
 31
0.0
  0
LINE
  5
12E
100
AcDbEntity
  8
0
370
               0
390
0
  6
Continuous
 62
              30
100
AcDbLine
 10
-342.99999999999994
 20
243.0
 30
0.0
 11
-342.99999999999994
 21
221.99999999999997
 31
0.0
  0
LINE
  5
12F
100
AcDbEntity
  8
0
370
               0
390
0
  6
Continuous
 62
              30
100
AcDbLine
 10
-258.5
 20
272.0
 30
0.0
 11
-258.5
 21
258.49999999999994
 31
0.0
  0
LINE
  5
130
100
AcDbEntity
  8
0
370
               0
390
0
  6
Continuous
 62
              30
100
AcDbLine
 10
-243.5
 20
258.49999999999994
 30
0.0
 11
-243.5
 21
272.0
 31
0.0
  0
ARC
  5
131
100
AcDbEntity
  8
0
370
               0
390
0
  6
Continuous
 62
              30
100
AcDbCircle
 10
-245.0
 20
258.49999999999994
 30
0.0
 40
1.4999999999999929
100
AcDbArc
 50
270.0
 51
0.0
  0
ARC
  5
132
100
AcDbEntity
  8
0
370
               0
390
0
  6
Continuous
 62
              30
100
AcDbCircle
 10
-257.0
 20
258.49999999999994
 30
0.0
 40
1.5
100
AcDbArc
 50
180.0
 51
270.0
  0
LINE
  5
133
100
AcDbEntity
  8
0
370
               0
390
0
  6
Continuous
 62
              30
100
AcDbLine
 10
-328.99999999999994
 20
261.49999999999994
 30
0.0
 11
-349.0
 21
261.49999999999994
 31
0.0
  0
LINE
  5
134
100
AcDbEntity
  8
0
370
               0
390
0
  6
Continuous
 62
              30
100
AcDbLine
 10
-344.79150355795355
 20
272.0
 30
0.0
 11
-314.0
 21
272.0
 31
0.0
  0
LINE
  5
135
100
AcDbEntity
  8
0
370
               0
390
0
  6
Continuous
 62
              30
100
AcDbLine
 10
-364.0
 20
272.0
 30
0.0
 11
-344.79150355795355
 21
272.0
 31
0.0
  0
LINE
  5
136
100
AcDbEntity
  8
0
370
               0
390
0
  6
Continuous
 62
              30
100
AcDbLine
 10
-343.9519949649669
 20
281.99999999999994
 30
0.0
 11
-317.62388015731153
 21
281.99999999999994
 31
0.0
  0
LINE
  5
137
100
AcDbEntity
  8
0
370
               0
390
0
  6
Continuous
 62
              30
100
AcDbLine
 10
-360.37611984268847
 20
281.99999999999994
 30
0.0
 11
-343.9519949649669
 21
281.99999999999994
 31
0.0
  0
LINE
  5
138
100
AcDbEntity
  8
0
370
               0
390
0
  6
Continuous
 62
              30
100
AcDbLine
 10
-341.31660142318145
 20
261.99999999999994
 30
0.0
 11
-328.99999999999994
 21
261.99999999999994
 31
0.0
  0
LINE
  5
139
100
AcDbEntity
  8
0
370
               0
390
0
  6
Continuous
 62
              30
100
AcDbLine
 10
-349.0
 20
261.99999999999994
 30
0.0
 11
-341.31660142318145
 21
261.99999999999994
 31
0.0
  0
LINE
  5
13A
100
AcDbEntity
  8
0
370
               0
390
0
  6
Continuous
 62
              30
100
AcDbLine
 10
-333.99999999999994
 20
221.34999999999997
 30
0.0
 11
-343.99999999999994
 21
221.34999999999997
 31
0.0
  0
LINE
  5
13B
100
AcDbEntity
  8
0
370
               0
390
0
  6
Continuous
 62
              30
100
AcDbLine
 10
-343.34999999999997
 20
221.99999999999997
 30
0.0
 11
-334.64999999999998
 21
221.99999999999997
 31
0.0
  0
LINE
  5
13C
100
AcDbEntity
  8
0
370
               0
390
0
  6
Continuous
 62
              30
100
AcDbLine
 10
-343.99999999999994
 20
212.49999999999997
 30
0.0
 11
-333.99999999999994
 21
212.49999999999997
 31
0.0
  0
LINE
  5
13D
100
AcDbEntity
  8
0
370
               0
390
0
  6
Continuous
 62
              30
100
AcDbLine
 10
-334.49999999999994
 20
211.99999999999997
 30
0.0
 11
-343.49999999999994
 21
211.99999999999997
 31
0.0
  0
LINE
  5
13E
100
AcDbEntity
  8
0
370
               0
390
0
  6
Continuous
 62
              30
100
AcDbLine
 10
-245.0
 20
257.0
 30
0.0
 11
-257.0
 21
257.0
 31
0.0
  0
LINE
  5
13F
100
AcDbEntity
  8
0
370
               0
390
0
  6
Continuous
 62
              30
100
AcDbLine
 10
-273.49999999999994
 20
292.0
 30
0.0
 11
-273.49999999999994
 21
353.0
 31
0.0
  0
LINE
  5
140
100
AcDbEntity
  8
0
370
               0
390
0
  6
Continuous
 62
              30
100
AcDbLine
 10
-273.49999999999994
 20
287.0
 30
0.0
 11
-273.49999999999994
 21
292.0
 31
0.0
  0
ARC
  5
141
100
AcDbEntity
  8
0
370
               0
390
0
  6
Continuous
 62
              30
100
AcDbCircle
 10
-269.49999999999994
 20
287.0
 30
0.0
 40
4.0000000000000711
100
AcDbArc
 50
180.0
 51
270.0000000000008
  0
LINE
  5
142
100
AcDbEntity
  8
0
370
               0
390
0
  6
Continuous
 62
              30
100
AcDbLine
 10
-246.0
 20
282.99999999999994
 30
0.0
 11
-269.49999999999994
 21
282.99999999999994
 31
0.0
  0
LINE
  5
143
100
AcDbEntity
  8
0
370
               0
390
0
  6
Continuous
 62
              30
100
AcDbLine
 10
-241.0
 20
275.99999999999994
 30
0.0
 11
-241.0
 21
277.99999999999994
 31
0.0
  0
LINE
  5
144
100
AcDbEntity
  8
0
370
               0
390
0
  6
Continuous
 62
              30
100
AcDbLine
 10
-363.0
 20
247.64360147529084
 30
0.0
 11
-363.0
 21
247.0
 31
0.0
  0
ARC
  5
145
100
AcDbEntity
  8
0
370
               0
390
0
  6
Continuous
 62
              30
100
AcDbCircle
 10
-359.0
 20
247.64360147529084
 30
0.0
 40
4.0000000000000098
100
AcDbArc
 50
99.999999999999346
 51
180.0
  0
LINE
  5
146
100
AcDbEntity
  8
0
370
               0
390
0
  6
Continuous
 62
              30
100
AcDbLine
 10
-311.24086502986017
 20
260.12653199336626
 30
0.0
 11
-359.69459271066768
 21
251.58283248733966
 31
0.0
  0
ARC
  5
147
100
AcDbEntity
  8
0
370
               0
390
0
  6
Continuous
 62
              30
100
AcDbCircle
 10
-283.40215966804988
 20
342.99999999999994
 30
0.0
 40
10.000000000000057
100
AcDbArc
 50
90.0
 51
168.00000000000051
  0
LINE
  5
148
100
AcDbEntity
  8
0
370
               0
390
0
  6
Continuous
 62
              30
100
AcDbLine
 10
-273.49999999999994
 20
353.0
 30
0.0
 11
-283.40215966804988
 21
353.0
 31
0.0
  0
LINE
  5
149
100
AcDbEntity
  8
0
370
               0
390
0
  6
Continuous
 62
              30
100
AcDbLine
 10
-293.18363567538796
 20
345.07911690817747
 30
0.0
 11
-311.24086502986017
 21
260.12653199336626
 31
0.0
  0
ARC
  5
14A
100
AcDbEntity
  8
0
370
               0
390
0
  6
Continuous
 62
              30
100
AcDbCircle
 10
-246.0
 20
277.99999999999994
 30
0.0
 40
5.0
100
AcDbArc
 50
0.0
 51
90.0
  0
LINE
  5
14B
100
AcDbEntity
  8
0
370
               0
390
0
  6
Continuous
 62
              30
100
AcDbLine
 10
-289.0
 20
275.99999999999994
 30
0.0
 11
-289.0
 21
272.0
 31
0.0
  0
LINE
  5
14C
100
AcDbEntity
  8
0
370
               0
390
0
  6
Continuous
 62
              30
100
AcDbLine
 10
-289.0
 20
275.99999999999994
 30
0.0
 11
-245.0
 21
275.99999999999994
 31
0.0
  0
LINE
  5
14D
100
AcDbEntity
  8
0
370
               0
390
0
  6
Continuous
 62
              30
100
AcDbLine
 10
-245.0
 20
272.0
 30
0.0
 11
-245.0
 21
275.99999999999994
 31
0.0
  0
LINE
  5
14E
100
AcDbEntity
  8
0
370
               0
390
0
  6
Continuous
 62
              30
100
AcDbLine
 10
-289.0
 20
272.0
 30
0.0
 11
-245.0
 21
272.0
 31
0.0
  0
LINE
  5
14F
100
AcDbEntity
  8
0
370
               0
390
0
  6
Continuous
 62
              30
100
AcDbLine
 10
-297.0
 20
243.0
 30
0.0
 11
-297.0
 21
247.0
 31
0.0
  0
LINE
  5
150
100
AcDbEntity
  8
0
370
               0
390
0
  6
Continuous
 62
              30
100
AcDbLine
 10
-359.0
 20
243.0
 30
0.0
 11
-297.0
 21
243.0
 31
0.0
  0
LINE
  5
151
100
AcDbEntity
  8
0
370
               0
390
0
  6
Continuous
 62
              30
100
AcDbLine
 10
-359.0
 20
247.0
 30
0.0
 11
-359.0
 21
243.0
 31
0.0
  0
LINE
  5
152
100
AcDbEntity
  8
0
370
               0
390
0
  6
Continuous
 62
              30
100
AcDbLine
 10
-359.0
 20
247.0
 30
0.0
 11
-297.0
 21
247.0
 31
0.0
  0
LINE
  5
153
100
AcDbEntity
  8
0
370
               0
390
0
  6
Continuous
 62
              30
100
AcDbLine
 10
-363.0
 20
243.0
 30
0.0
 11
-363.0
 21
247.0
 31
0.0
  0
LINE
  5
154
100
AcDbEntity
  8
0
370
               0
390
0
  6
Continuous
 62
              30
100
AcDbLine
 10
-363.0
 20
247.0
 30
0.0
 11
-359.0
 21
247.0
 31
0.0
  0
LINE
  5
155
100
AcDbEntity
  8
0
370
               0
390
0
  6
Continuous
 62
              30
100
AcDbLine
 10
-359.0
 20
243.0
 30
0.0
 11
-363.0
 21
243.0
 31
0.0
  0
LINE
  5
156
100
AcDbEntity
  8
0
370
               0
390
0
  6
Continuous
 62
              30
100
AcDbLine
 10
-291.0
 20
269.99999999999994
 30
0.0
 11
-295.0
 21
269.99999999999994
 31
0.0
  0
ARC
  5
157
100
AcDbEntity
  8
0
370
               0
390
0
  6
Continuous
 62
              30
100
AcDbCircle
 10
-289.0
 20
269.99999999999994
 30
0.0
 40
6.0000000000000355
100
AcDbArc
 50
90.0
 51
180.0
  0
ARC
  5
158
100
AcDbEntity
  8
0
370
               0
390
0
  6
Continuous
 62
              30
100
AcDbCircle
 10
-289.0
 20
269.99999999999994
 30
0.0
 40
2.0000000000000071
100
AcDbArc
 50
90.0
 51
180.0
  0
LINE
  5
159
100
AcDbEntity
  8
0
370
               0
390
0
  6
Continuous
 62
              30
100
AcDbLine
 10
-295.0
 20
249.0
 30
0.0
 11
-291.0
 21
249.0
 31
0.0
  0
ARC
  5
15A
100
AcDbEntity
  8
0
370
               0
390
0
  6
Continuous
 62
              30
100
AcDbCircle
 10
-297.0
 20
249.0
 30
0.0
 40
6.0
100
AcDbArc
 50
270.00000000000051
 51
0.0
  0
ARC
  5
15B
100
AcDbEntity
  8
0
370
               0
390
0
  6
Continuous
 62
              30
100
AcDbCircle
 10
-297.0
 20
249.0
 30
0.0
 40
2.0
100
AcDbArc
 50
270.0
 51
0.0
  0
LINE
  5
15C
100
AcDbEntity
  8
0
370
               0
390
0
  6
Continuous
 62
              30
100
AcDbLine
 10
-295.0
 20
249.0
 30
0.0
 11
-295.0
 21
269.99999999999994
 31
0.0
  0
LINE
  5
15D
100
AcDbEntity
  8
0
370
               0
390
0
  6
Continuous
 62
              30
100
AcDbLine
 10
-291.0
 20
249.0
 30
0.0
 11
-291.0
 21
269.99999999999994
 31
0.0
  0
LINE
  5
15E
100
AcDbEntity
  8
0
370
               0
390
0
  6
Continuous
 62
              30
100
AcDbLine
 10
-241.0
 20
275.99999999999994
 30
0.0
 11
-241.0
 21
272.0
 31
0.0
  0
LINE
  5
15F
100
AcDbEntity
  8
0
370
               0
390
0
  6
Continuous
 62
              30
100
AcDbLine
 10
-241.0
 20
272.0
 30
0.0
 11
-245.0
 21
272.0
 31
0.0
  0
LINE
  5
160
100
AcDbEntity
  8
0
370
               0
390
0
  6
Continuous
 62
              30
100
AcDbLine
 10
-245.0
 20
275.99999999999994
 30
0.0
 11
-241.0
 21
275.99999999999994
 31
0.0
  0
LINE
  5
161
100
AcDbEntity
  8
0
370
               0
390
0
  6
Continuous
 62
              30
100
AcDbLine
 10
-314.63529606303626
 20
279.26146722824296
 30
0.0
 11
-363.36470393696374
 21
279.26146722824296
 31
0.0
  0
LINE
  5
162
100
AcDbEntity
  8
0
370
               0
390
0
  6
Continuous
 62
              30
100
AcDbLine
 10
-258.5
 20
258.49999999999994
 30
0.0
 11
-243.5
 21
258.49999999999994
 31
0.0
  0
LINE
  5
163
100
AcDbEntity
  8
0
370
               0
390
0
  6
Continuous
 62
              30
100
AcDbLine
 10
-435.94753508134278
 20
212.49999999999997
 30
0.0
 11
-435.44753508134278
 21
211.99999999999997
 31
0.0
  0
LINE
  5
164
100
AcDbEntity
  8
0
370
               0
390
0
  6
Continuous
 62
              30
100
AcDbLine
 10
-426.44753508134278
 20
211.99999999999997
 30
0.0
 11
-425.94753508134278
 21
212.49999999999997
 31
0.0
  0
LINE
  5
165
100
AcDbEntity
  8
0
370
               0
390
0
  6
Continuous
 62
              30
100
AcDbLine
 10
-435.94753508134278
 20
221.34999999999997
 30
0.0
 11
-435.94753508134278
 21
212.49999999999997
 31
0.0
  0
LINE
  5
166
100
AcDbEntity
  8
0
370
               0
390
0
  6
Continuous
 62
              30
100
AcDbLine
 10
-425.94753508134278
 20
212.49999999999997
 30
0.0
 11
-425.94753508134278
 21
221.34999999999997
 31
0.0
  0
LINE
  5
167
100
AcDbEntity
  8
0
370
               0
390
0
  6
Continuous
 62
              30
100
AcDbLine
 10
-425.94753508134278
 20
221.34999999999997
 30
0.0
 11
-426.59753508134276
 21
221.99999999999997
 31
0.0
  0
LINE
  5
168
100
AcDbEntity
  8
0
370
               0
390
0
  6
Continuous
 62
              30
100
AcDbLine
 10
-435.29753508134269
 20
221.99999999999997
 30
0.0
 11
-435.94753508134278
 21
221.34999999999997
 31
0.0
  0
LINE
  5
169
100
AcDbEntity
  8
0
370
               0
390
0
  6
Continuous
 62
              30
100
AcDbLine
 10
-426.94753508134278
 20
221.99999999999997
 30
0.0
 11
-426.94753508134278
 21
243.0
 31
0.0
  0
LINE
  5
16A
100
AcDbEntity
  8
0
370
               0
390
0
  6
Continuous
 62
              30
100
AcDbLine
 10
-434.94753508134278
 20
243.0
 30
0.0
 11
-434.94753508134278
 21
221.99999999999997
 31
0.0
  0
ARC
  5
16B
100
AcDbEntity
  8
0
370
               0
390
0
  6
Continuous
 62
              30
100
AcDbCircle
 10
-424.94753508134278
 20
258.49999999999994
 30
0.0
 40
1.5000000000001066
100
AcDbArc
 50
270.0
 51
0.0
  0
ARC
  5
16C
100
AcDbEntity
  8
0
370
               0
390
0
  6
Continuous
 62
              30
100
AcDbCircle
 10
-436.94753508134278
 20
258.49999999999994
 30
0.0
 40
1.5
100
AcDbArc
 50
180.0
 51
270.0
  0
LINE
  5
16D
100
AcDbEntity
  8
0
370
               0
390
0
  6
Continuous
 62
              30
100
AcDbLine
 10
-438.44753508134278
 20
272.0
 30
0.0
 11
-438.44753508134278
 21
258.49999999999994
 31
0.0
  0
LINE
  5
16E
100
AcDbEntity
  8
0
370
               0
390
0
  6
Continuous
 62
              30
100
AcDbLine
 10
-423.44753508134266
 20
258.49999999999994
 30
0.0
 11
-423.44753508134266
 21
272.0
 31
0.0
  0
LINE
  5
16F
100
AcDbEntity
  8
0
370
               0
390
0
  6
Continuous
 62
              30
100
AcDbLine
 10
-426.56994956374996
 20
211.99999999999997
 30
0.0
 11
-435.44753508134278
 21
211.99999999999997
 31
0.0
  0
LINE
  5
170
100
AcDbEntity
  8
0
370
               0
390
0
  6
Continuous
 62
              30
100
AcDbLine
 10
-426.44753508134278
 20
211.99999999999997
 30
0.0
 11
-426.56994956374996
 21
211.99999999999997
 31
0.0
  0
LINE
  5
171
100
AcDbEntity
  8
0
370
               0
390
0
  6
Continuous
 62
              30
100
AcDbLine
 10
-426.08355117290631
 20
212.49999999999997
 30
0.0
 11
-425.94753508134278
 21
212.49999999999997
 31
0.0
  0
LINE
  5
172
100
AcDbEntity
  8
0
370
               0
390
0
  6
Continuous
 62
              30
100
AcDbLine
 10
-435.94753508134278
 20
212.49999999999997
 30
0.0
 11
-426.08355117290631
 21
212.49999999999997
 31
0.0
  0
LINE
  5
173
100
AcDbEntity
  8
0
370
               0
390
0
  6
Continuous
 62
              30
100
AcDbLine
 10
-426.08355117290631
 20
221.34999999999997
 30
0.0
 11
-435.94753508134278
 21
221.34999999999997
 31
0.0
  0
LINE
  5
174
100
AcDbEntity
  8
0
370
               0
390
0
  6
Continuous
 62
              30
100
AcDbLine
 10
-425.94753508134278
 20
221.34999999999997
 30
0.0
 11
-426.08355117290631
 21
221.34999999999997
 31
0.0
  0
LINE
  5
175
100
AcDbEntity
  8
0
370
               0
390
0
  6
Continuous
 62
              30
100
AcDbLine
 10
-426.71586908100318
 20
221.99999999999997
 30
0.0
 11
-426.59753508134276
 21
221.99999999999997
 31
0.0
  0
LINE
  5
176
100
AcDbEntity
  8
0
370
               0
390
0
  6
Continuous
 62
              30
100
AcDbLine
 10
-435.29753508134269
 20
221.99999999999997
 30
0.0
 11
-426.71586908100318
 21
221.99999999999997
 31
0.0
  0
LINE
  5
177
100
AcDbEntity
  8
0
370
               0
390
0
  6
Continuous
 62
              30
100
AcDbLine
 10
-425.08803369424851
 20
257.0
 30
0.0
 11
-436.94753508134278
 21
257.0
 31
0.0
  0
LINE
  5
178
100
AcDbEntity
  8
0
370
               0
390
0
  6
Continuous
 62
              30
100
AcDbLine
 10
-424.94753508134278
 20
257.0
 30
0.0
 11
-425.08803369424851
 21
257.0
 31
0.0
  0
LINE
  5
179
100
AcDbEntity
  8
0
370
               0
390
0
  6
Continuous
 62
              30
100
AcDbLine
 10
-458.94753508134278
 20
282.99999999999994
 30
0.0
 11
-458.94753508134278
 21
336.99999999999994
 31
0.0
  0
LINE
  5
17A
100
AcDbEntity
  8
0
370
               0
390
0
  6
Continuous
 62
              30
100
AcDbLine
 10
-455.94753508134278
 20
353.0
 30
0.0
 11
-405.94753508134278
 21
353.0
 31
0.0
  0
LINE
  5
17B
100
AcDbEntity
  8
0
370
               0
390
0
  6
Continuous
 62
              30
100
AcDbLine
 10
-402.94753508134278
 20
336.99999999999994
 30
0.0
 11
-402.94753508134278
 21
282.99999999999994
 31
0.0
  0
LINE
  5
17C
100
AcDbEntity
  8
0
370
               0
390
0
  6
Continuous
 62
              30
100
AcDbLine
 10
-458.94753508134278
 20
277.99999999999994
 30
0.0
 11
-458.94753508134278
 21
282.99999999999994
 31
0.0
  0
LINE
  5
17D
100
AcDbEntity
  8
0
370
               0
390
0
  6
Continuous
 62
              30
100
AcDbLine
 10
-458.94753508134278
 20
275.99999999999994
 30
0.0
 11
-458.94753508134278
 21
277.99999999999994
 31
0.0
  0
LINE
  5
17E
100
AcDbEntity
  8
0
370
               0
390
0
  6
Continuous
 62
              30
100
AcDbLine
 10
-458.94753508134278
 20
275.99999999999994
 30
0.0
 11
-455.94753508134278
 21
275.99999999999994
 31
0.0
  0
LINE
  5
17F
100
AcDbEntity
  8
0
370
               0
390
0
  6
Continuous
 62
              30
100
AcDbLine
 10
-458.94753508134278
 20
353.0
 30
0.0
 11
-455.94753508134278
 21
353.0
 31
0.0
  0
LINE
  5
180
100
AcDbEntity
  8
0
370
               0
390
0
  6
Continuous
 62
              30
100
AcDbLine
 10
-458.94753508134278
 20
336.99999999999994
 30
0.0
 11
-458.94753508134278
 21
353.0
 31
0.0
  0
LINE
  5
181
100
AcDbEntity
  8
0
370
               0
390
0
  6
Continuous
 62
              30
100
AcDbLine
 10
-405.94753508134278
 20
275.99999999999994
 30
0.0
 11
-402.94753508134278
 21
275.99999999999994
 31
0.0
  0
LINE
  5
182
100
AcDbEntity
  8
0
370
               0
390
0
  6
Continuous
 62
              30
100
AcDbLine
 10
-402.94753508134278
 20
275.99999999999994
 30
0.0
 11
-402.94753508134278
 21
277.99999999999994
 31
0.0
  0
LINE
  5
183
100
AcDbEntity
  8
0
370
               0
390
0
  6
Continuous
 62
              30
100
AcDbLine
 10
-402.94753508134278
 20
282.99999999999994
 30
0.0
 11
-402.94753508134278
 21
277.99999999999994
 31
0.0
  0
LINE
  5
184
100
AcDbEntity
  8
0
370
               0
390
0
  6
Continuous
 62
              30
100
AcDbLine
 10
-405.94753508134278
 20
353.0
 30
0.0
 11
-402.94753508134278
 21
353.0
 31
0.0
  0
LINE
  5
185
100
AcDbEntity
  8
0
370
               0
390
0
  6
Continuous
 62
              30
100
AcDbLine
 10
-402.94753508134278
 20
336.99999999999994
 30
0.0
 11
-402.94753508134278
 21
353.0
 31
0.0
  0
LINE
  5
186
100
AcDbEntity
  8
0
370
               0
390
0
  6
Continuous
 62
              30
100
AcDbLine
 10
-398.94753508134272
 20
275.99999999999994
 30
0.0
 11
-398.94753508134272
 21
272.0
 31
0.0
  0
LINE
  5
187
100
AcDbEntity
  8
0
370
               0
390
0
  6
Continuous
 62
              30
100
AcDbLine
 10
-398.94753508134272
 20
272.0
 30
0.0
 11
-402.94753508134278
 21
272.0
 31
0.0
  0
LINE
  5
188
100
AcDbEntity
  8
0
370
               0
390
0
  6
Continuous
 62
              30
100
AcDbLine
 10
-402.94753508134278
 20
272.0
 30
0.0
 11
-402.94753508134278
 21
275.99999999999994
 31
0.0
  0
LINE
  5
189
100
AcDbEntity
  8
0
370
               0
390
0
  6
Continuous
 62
              30
100
AcDbLine
 10
-402.94753508134278
 20
275.99999999999994
 30
0.0
 11
-398.94753508134272
 21
275.99999999999994
 31
0.0
  0
LINE
  5
18A
100
AcDbEntity
  8
0
370
               0
390
0
  6
Continuous
 62
              30
100
AcDbLine
 10
-458.94753508134278
 20
275.99999999999994
 30
0.0
 11
-458.94753508134278
 21
272.0
 31
0.0
  0
LINE
  5
18B
100
AcDbEntity
  8
0
370
               0
390
0
  6
Continuous
 62
              30
100
AcDbLine
 10
-458.94753508134278
 20
275.99999999999994
 30
0.0
 11
-402.94753508134278
 21
275.99999999999994
 31
0.0
  0
LINE
  5
18C
100
AcDbEntity
  8
0
370
               0
390
0
  6
Continuous
 62
              30
100
AcDbLine
 10
-458.94753508134278
 20
272.0
 30
0.0
 11
-402.94753508134278
 21
272.0
 31
0.0
  0
LINE
  5
18D
100
AcDbEntity
  8
0
370
               0
390
0
  6
Continuous
 62
              30
100
AcDbLine
 10
-462.94753508134278
 20
272.0
 30
0.0
 11
-462.94753508134278
 21
275.99999999999994
 31
0.0
  0
LINE
  5
18E
100
AcDbEntity
  8
0
370
               0
390
0
  6
Continuous
 62
              30
100
AcDbLine
 10
-462.94753508134278
 20
275.99999999999994
 30
0.0
 11
-458.94753508134278
 21
275.99999999999994
 31
0.0
  0
LINE
  5
18F
100
AcDbEntity
  8
0
370
               0
390
0
  6
Continuous
 62
              30
100
AcDbLine
 10
-458.94753508134278
 20
272.0
 30
0.0
 11
-462.94753508134278
 21
272.0
 31
0.0
  0
LINE
  5
190
100
AcDbEntity
  8
0
370
               0
390
0
  6
Continuous
 62
              30
100
AcDbLine
 10
-462.94753508134278
 20
269.99999999999994
 30
0.0
 11
-462.94753508134278
 21
272.0
 31
0.0
  0
LINE
  5
191
100
AcDbEntity
  8
0
370
               0
390
0
  6
Continuous
 62
              30
100
AcDbLine
 10
-398.94753508134272
 20
269.99999999999994
 30
0.0
 11
-398.94753508134272
 21
272.0
 31
0.0
  0
LINE
  5
192
100
AcDbEntity
  8
0
370
               0
390
0
  6
Continuous
 62
              30
100
AcDbLine
 10
-462.94753508134278
 20
249.0
 30
0.0
 11
-398.94753508134272
 21
249.0
 31
0.0
  0
LINE
  5
193
100
AcDbEntity
  8
0
370
               0
390
0
  6
Continuous
 62
              30
100
AcDbLine
 10
-462.94753508134278
 20
249.0
 30
0.0
 11
-462.94753508134278
 21
269.99999999999994
 31
0.0
  0
LINE
  5
194
100
AcDbEntity
  8
0
370
               0
390
0
  6
Continuous
 62
              30
100
AcDbLine
 10
-398.94753508134272
 20
249.0
 30
0.0
 11
-398.94753508134272
 21
269.99999999999994
 31
0.0
  0
LINE
  5
195
100
AcDbEntity
  8
0
370
               0
390
0
  6
Continuous
 62
              30
100
AcDbLine
 10
-462.94753508134278
 20
243.0
 30
0.0
 11
-398.94753508134272
 21
243.0
 31
0.0
  0
LINE
  5
196
100
AcDbEntity
  8
0
370
               0
390
0
  6
Continuous
 62
              30
100
AcDbLine
 10
-462.94753508134278
 20
243.0
 30
0.0
 11
-462.94753508134278
 21
249.0
 31
0.0
  0
LINE
  5
197
100
AcDbEntity
  8
0
370
               0
390
0
  6
Continuous
 62
              30
100
AcDbLine
 10
-398.94753508134272
 20
243.0
 30
0.0
 11
-398.94753508134272
 21
249.0
 31
0.0
  0
LINE
  5
198
100
AcDbEntity
  8
0
370
               0
390
0
  6
Continuous
 62
              30
100
AcDbLine
 10
-423.623158347475
 20
258.49999999999994
 30
0.0
 11
-423.44753508134266
 21
258.49999999999994
 31
0.0
  0
LINE
  5
199
100
AcDbEntity
  8
0
370
               0
390
0
  6
Continuous
 62
              30
100
AcDbLine
 10
-438.44753508134278
 20
258.49999999999994
 30
0.0
 11
-423.623158347475
 21
258.49999999999994
 31
0.0
  0
LINE
  5
19A
100
AcDbEntity
  8
0
370
               0
390
0
  6
Continuous
 62
              30
100
AcDbLine
 10
-462.94753508134278
 20
269.99999999999994
 30
0.0
 11
-438.44753508134289
 21
269.99999999999994
 31
0.0
  0
LINE
  5
19B
100
AcDbEntity
  8
0
370
               0
390
0
  6
Continuous
 62
              30
100
AcDbLine
 10
-423.44753508134289
 20
269.99999999999994
 30
0.0
 11
-398.94753508134272
 21
269.99999999999994
 31
0.0
  0
CIRCLE
  5
19C
100
AcDbEntity
  8
0
370
               0
390
0
  6
Continuous
 62
              30
100
AcDbCircle
 10
-338.99999999999994
 20
120.81822007589037
 30
0.0
 40
21.376119842688468
  0
CIRCLE
  5
19D
100
AcDbEntity
  8
0
370
               0
390
0
  6
Continuous
 62
              30
100
AcDbCircle
 10
-338.99999999999994
 20
120.81822007589037
 30
0.0
 40
24.364703936963735
  0
CIRCLE
  5
19E
100
AcDbEntity
  8
0
370
               0
390
0
  6
Continuous
 62
              30
100
AcDbCircle
 10
-338.99999999999994
 20
120.81822007589037
 30
0.0
 40
25.0
  0
CIRCLE
  5
19F
100
AcDbEntity
  8
0
370
               0
390
0
  6
Continuous
 62
              30
100
AcDbCircle
 10
-251.0
 20
120.81822007589039
 30
0.0
 40
6.0
  0
LINE
  5
1A0
100
AcDbEntity
  8
0
370
               0
390
0
  6
Continuous
 62
              30
100
AcDbLine
 10
-253.0
 20
119.6635206142696
 30
0.0
 11
-251.0
 21
118.50882007589038
 31
0.0
  0
LINE
  5
1A1
100
AcDbEntity
  8
0
370
               0
390
0
  6
Continuous
 62
              30
100
AcDbLine
 10
-251.0
 20
118.50882007589038
 30
0.0
 11
-249.0
 21
119.6635206142696
 31
0.0
  0
LINE
  5
1A2
100
AcDbEntity
  8
0
370
               0
390
0
  6
Continuous
 62
              30
100
AcDbLine
 10
-249.0
 20
119.6635206142696
 30
0.0
 11
-249.0
 21
121.97291953751113
 31
0.0
  0
LINE
  5
1A3
100
AcDbEntity
  8
0
370
               0
390
0
  6
Continuous
 62
              30
100
AcDbLine
 10
-249.0
 20
121.97291953751113
 30
0.0
 11
-251.0
 21
123.12762007589038
 31
0.0
  0
LINE
  5
1A4
100
AcDbEntity
  8
0
370
               0
390
0
  6
Continuous
 62
              30
100
AcDbLine
 10
-251.0
 20
123.12762007589038
 30
0.0
 11
-253.0
 21
121.97291953751113
 31
0.0
  0
LINE
  5
1A5
100
AcDbEntity
  8
0
370
               0
390
0
  6
Continuous
 62
              30
100
AcDbLine
 10
-253.0
 20
121.97291953751113
 30
0.0
 11
-253.0
 21
119.6635206142696
 31
0.0
  0
LINE
  5
1A6
100
AcDbEntity
  8
0
370
               0
390
0
  6
Continuous
 62
              30
100
AcDbLine
 10
-276.49999999999994
 20
95.818220075890395
 30
0.0
 11
-273.49999999999994
 21
95.818220075890395
 31
0.0
  0
LINE
  5
1A7
100
AcDbEntity
  8
0
370
               0
390
0
  6
Continuous
 62
              30
100
AcDbLine
 10
-276.49999999999994
 20
145.81822007589039
 30
0.0
 11
-273.49999999999994
 21
145.81822007589039
 31
0.0
  0
LINE
  5
1A8
100
AcDbEntity
  8
0
370
               0
390
0
  6
Continuous
 62
              30
100
AcDbLine
 10
-273.49999999999994
 20
95.818220075890395
 30
0.0
 11
-273.49999999999994
 21
145.81822007589039
 31
0.0
  0
LINE
  5
1A9
100
AcDbEntity
  8
0
370
               0
390
0
  6
Continuous
 62
              30
100
AcDbLine
 10
-276.49999999999994
 20
95.818220075890395
 30
0.0
 11
-276.49999999999994
 21
145.81822007589039
 31
0.0
  0
LINE
  5
1AA
100
AcDbEntity
  8
0
370
               0
390
0
  6
Continuous
 62
              30
100
AcDbLine
 10
-283.40215966804988
 20
95.818220075890395
 30
0.0
 11
-283.40215966804988
 21
92.818220075890395
 31
0.0
  0
LINE
  5
1AB
100
AcDbEntity
  8
0
370
               0
390
0
  6
Continuous
 62
              30
100
AcDbLine
 10
-273.49999999999994
 20
95.818220075890395
 30
0.0
 11
-283.40215966804988
 21
95.818220075890395
 31
0.0
  0
LINE
  5
1AC
100
AcDbEntity
  8
0
370
               0
390
0
  6
Continuous
 62
              30
100
AcDbLine
 10
-273.49999999999994
 20
92.818220075890395
 30
0.0
 11
-273.49999999999994
 21
95.818220075890395
 31
0.0
  0
LINE
  5
1AD
100
AcDbEntity
  8
0
370
               0
390
0
  6
Continuous
 62
              30
100
AcDbLine
 10
-273.49999999999994
 20
92.818220075890395
 30
0.0
 11
-283.40215966804988
 21
92.818220075890395
 31
0.0
  0
LINE
  5
1AE
100
AcDbEntity
  8
0
370
               0
390
0
  6
Continuous
 62
              30
100
AcDbLine
 10
-293.18363567538796
 20
92.818220075890395
 30
0.0
 11
-293.18363567538796
 21
95.818220075890395
 31
0.0
  0
LINE
  5
1AF
100
AcDbEntity
  8
0
370
               0
390
0
  6
Continuous
 62
              30
100
AcDbLine
 10
-293.18363567538796
 20
95.818220075890395
 30
0.0
 11
-283.40215966804988
 21
95.818220075890395
 31
0.0
  0
LINE
  5
1B0
100
AcDbEntity
  8
0
370
               0
390
0
  6
Continuous
 62
              30
100
AcDbLine
 10
-283.40215966804988
 20
92.818220075890395
 30
0.0
 11
-293.18363567538796
 21
92.818220075890395
 31
0.0
  0
LINE
  5
1B1
100
AcDbEntity
  8
0
370
               0
390
0
  6
Continuous
 62
              30
100
AcDbLine
 10
-311.24086502986017
 20
92.818220075890395
 30
0.0
 11
-311.24086502986017
 21
95.818220075890395
 31
0.0
  0
LINE
  5
1B2
100
AcDbEntity
  8
0
370
               0
390
0
  6
Continuous
 62
              30
100
AcDbLine
 10
-293.18363567538796
 20
95.818220075890395
 30
0.0
 11
-311.24086502986017
 21
95.818220075890395
 31
0.0
  0
LINE
  5
1B3
100
AcDbEntity
  8
0
370
               0
390
0
  6
Continuous
 62
              30
100
AcDbLine
 10
-293.18363567538796
 20
92.818220075890395
 30
0.0
 11
-311.24086502986017
 21
92.818220075890395
 31
0.0
  0
LINE
  5
1B4
100
AcDbEntity
  8
0
370
               0
390
0
  6
Continuous
 62
              30
100
AcDbLine
 10
-269.49999999999994
 20
95.818220075890395
 30
0.0
 11
-269.49999999999994
 21
92.818220075890395
 31
0.0
  0
LINE
  5
1B5
100
AcDbEntity
  8
0
370
               0
390
0
  6
Continuous
 62
              30
100
AcDbLine
 10
-273.49999999999994
 20
95.818220075890395
 30
0.0
 11
-269.49999999999994
 21
95.818220075890395
 31
0.0
  0
LINE
  5
1B6
100
AcDbEntity
  8
0
370
               0
390
0
  6
Continuous
 62
              30
100
AcDbLine
 10
-269.49999999999994
 20
92.818220075890395
 30
0.0
 11
-273.49999999999994
 21
92.818220075890395
 31
0.0
  0
LINE
  5
1B7
100
AcDbEntity
  8
0
370
               0
390
0
  6
Continuous
 62
              30
100
AcDbLine
 10
-246.0
 20
92.818220075890395
 30
0.0
 11
-246.0
 21
95.818220075890395
 31
0.0
  0
LINE
  5
1B8
100
AcDbEntity
  8
0
370
               0
390
0
  6
Continuous
 62
              30
100
AcDbLine
 10
-246.0
 20
95.818220075890395
 30
0.0
 11
-269.49999999999994
 21
95.818220075890395
 31
0.0
  0
LINE
  5
1B9
100
AcDbEntity
  8
0
370
               0
390
0
  6
Continuous
 62
              30
100
AcDbLine
 10
-246.0
 20
92.818220075890395
 30
0.0
 11
-269.49999999999994
 21
92.818220075890395
 31
0.0
  0
LINE
  5
1BA
100
AcDbEntity
  8
0
370
               0
390
0
  6
Continuous
 62
              30
100
AcDbLine
 10
-241.0
 20
95.818220075890395
 30
0.0
 11
-241.0
 21
92.818220075890395
 31
0.0
  0
LINE
  5
1BB
100
AcDbEntity
  8
0
370
               0
390
0
  6
Continuous
 62
              30
100
AcDbLine
 10
-246.0
 20
95.818220075890395
 30
0.0
 11
-241.0
 21
95.818220075890395
 31
0.0
  0
LINE
  5
1BC
100
AcDbEntity
  8
0
370
               0
390
0
  6
Continuous
 62
              30
100
AcDbLine
 10
-241.0
 20
92.818220075890395
 30
0.0
 11
-246.0
 21
92.818220075890395
 31
0.0
  0
LINE
  5
1BD
100
AcDbEntity
  8
0
370
               0
390
0
  6
Continuous
 62
              30
100
AcDbLine
 10
-359.69459271066768
 20
95.818220075890395
 30
0.0
 11
-359.69459271066768
 21
92.818220075890395
 31
0.0
  0
LINE
  5
1BE
100
AcDbEntity
  8
0
370
               0
390
0
  6
Continuous
 62
              30
100
AcDbLine
 10
-311.24086502986017
 20
95.818220075890395
 30
0.0
 11
-359.69459271066768
 21
95.818220075890395
 31
0.0
  0
LINE
  5
1BF
100
AcDbEntity
  8
0
370
               0
390
0
  6
Continuous
 62
              30
100
AcDbLine
 10
-311.24086502986017
 20
92.818220075890395
 30
0.0
 11
-359.69459271066768
 21
92.818220075890395
 31
0.0
  0
LINE
  5
1C0
100
AcDbEntity
  8
0
370
               0
390
0
  6
Continuous
 62
              30
100
AcDbLine
 10
-363.0
 20
92.818220075890395
 30
0.0
 11
-363.0
 21
95.818220075890395
 31
0.0
  0
LINE
  5
1C1
100
AcDbEntity
  8
0
370
               0
390
0
  6
Continuous
 62
              30
100
AcDbLine
 10
-363.0
 20
95.818220075890395
 30
0.0
 11
-359.69459271066768
 21
95.818220075890395
 31
0.0
  0
LINE
  5
1C2
100
AcDbEntity
  8
0
370
               0
390
0
  6
Continuous
 62
              30
100
AcDbLine
 10
-359.69459271066768
 20
92.818220075890395
 30
0.0
 11
-363.0
 21
92.818220075890395
 31
0.0
  0
LINE
  5
1C3
100
AcDbEntity
  8
0
370
               0
390
0
  6
Continuous
 62
              30
100
AcDbLine
 10
-273.49999999999994
 20
145.81822007589037
 30
0.0
 11
-273.49999999999994
 21
148.81822007589037
 31
0.0
  0
LINE
  5
1C4
100
AcDbEntity
  8
0
370
               0
390
0
  6
Continuous
 62
              30
100
AcDbLine
 10
-273.49999999999994
 20
145.81822007589037
 30
0.0
 11
-283.40215966804988
 21
145.81822007589037
 31
0.0
  0
LINE
  5
1C5
100
AcDbEntity
  8
0
370
               0
390
0
  6
Continuous
 62
              30
100
AcDbLine
 10
-283.40215966804988
 20
148.81822007589037
 30
0.0
 11
-283.40215966804988
 21
145.81822007589037
 31
0.0
  0
LINE
  5
1C6
100
AcDbEntity
  8
0
370
               0
390
0
  6
Continuous
 62
              30
100
AcDbLine
 10
-273.49999999999994
 20
148.81822007589037
 30
0.0
 11
-283.40215966804988
 21
148.81822007589037
 31
0.0
  0
LINE
  5
1C7
100
AcDbEntity
  8
0
370
               0
390
0
  6
Continuous
 62
              30
100
AcDbLine
 10
-293.18363567538796
 20
145.81822007589037
 30
0.0
 11
-293.18363567538796
 21
148.81822007589037
 31
0.0
  0
LINE
  5
1C8
100
AcDbEntity
  8
0
370
               0
390
0
  6
Continuous
 62
              30
100
AcDbLine
 10
-283.40215966804988
 20
145.81822007589037
 30
0.0
 11
-293.18363567538796
 21
145.81822007589037
 31
0.0
  0
LINE
  5
1C9
100
AcDbEntity
  8
0
370
               0
390
0
  6
Continuous
 62
              30
100
AcDbLine
 10
-293.18363567538796
 20
148.81822007589037
 30
0.0
 11
-283.40215966804988
 21
148.81822007589037
 31
0.0
  0
LINE
  5
1CA
100
AcDbEntity
  8
0
370
               0
390
0
  6
Continuous
 62
              30
100
AcDbLine
 10
-311.24086502986017
 20
145.81822007589037
 30
0.0
 11
-311.24086502986017
 21
148.81822007589037
 31
0.0
  0
LINE
  5
1CB
100
AcDbEntity
  8
0
370
               0
390
0
  6
Continuous
 62
              30
100
AcDbLine
 10
-293.18363567538796
 20
145.81822007589037
 30
0.0
 11
-311.24086502986017
 21
145.81822007589037
 31
0.0
  0
LINE
  5
1CC
100
AcDbEntity
  8
0
370
               0
390
0
  6
Continuous
 62
              30
100
AcDbLine
 10
-293.18363567538796
 20
148.81822007589037
 30
0.0
 11
-311.24086502986017
 21
148.81822007589037
 31
0.0
  0
LINE
  5
1CD
100
AcDbEntity
  8
0
370
               0
390
0
  6
Continuous
 62
              30
100
AcDbLine
 10
-269.49999999999994
 20
148.81822007589037
 30
0.0
 11
-269.49999999999994
 21
145.81822007589037
 31
0.0
  0
LINE
  5
1CE
100
AcDbEntity
  8
0
370
               0
390
0
  6
Continuous
 62
              30
100
AcDbLine
 10
-269.49999999999994
 20
145.81822007589037
 30
0.0
 11
-273.49999999999994
 21
145.81822007589037
 31
0.0
  0
LINE
  5
1CF
100
AcDbEntity
  8
0
370
               0
390
0
  6
Continuous
 62
              30
100
AcDbLine
 10
-273.49999999999994
 20
148.81822007589037
 30
0.0
 11
-269.49999999999994
 21
148.81822007589037
 31
0.0
  0
LINE
  5
1D0
100
AcDbEntity
  8
0
370
               0
390
0
  6
Continuous
 62
              30
100
AcDbLine
 10
-246.0
 20
145.81822007589037
 30
0.0
 11
-246.0
 21
148.81822007589037
 31
0.0
  0
LINE
  5
1D1
100
AcDbEntity
  8
0
370
               0
390
0
  6
Continuous
 62
              30
100
AcDbLine
 10
-246.0
 20
145.81822007589037
 30
0.0
 11
-269.49999999999994
 21
145.81822007589037
 31
0.0
  0
LINE
  5
1D2
100
AcDbEntity
  8
0
370
               0
390
0
  6
Continuous
 62
              30
100
AcDbLine
 10
-246.0
 20
148.81822007589037
 30
0.0
 11
-269.49999999999994
 21
148.81822007589037
 31
0.0
  0
LINE
  5
1D3
100
AcDbEntity
  8
0
370
               0
390
0
  6
Continuous
 62
              30
100
AcDbLine
 10
-241.0
 20
148.81822007589037
 30
0.0
 11
-241.0
 21
145.81822007589037
 31
0.0
  0
LINE
  5
1D4
100
AcDbEntity
  8
0
370
               0
390
0
  6
Continuous
 62
              30
100
AcDbLine
 10
-241.0
 20
145.81822007589037
 30
0.0
 11
-246.0
 21
145.81822007589037
 31
0.0
  0
LINE
  5
1D5
100
AcDbEntity
  8
0
370
               0
390
0
  6
Continuous
 62
              30
100
AcDbLine
 10
-246.0
 20
148.81822007589037
 30
0.0
 11
-241.0
 21
148.81822007589037
 31
0.0
  0
LINE
  5
1D6
100
AcDbEntity
  8
0
370
               0
390
0
  6
Continuous
 62
              30
100
AcDbLine
 10
-359.69459271066768
 20
148.81822007589037
 30
0.0
 11
-359.69459271066768
 21
145.81822007589037
 31
0.0
  0
LINE
  5
1D7
100
AcDbEntity
  8
0
370
               0
390
0
  6
Continuous
 62
              30
100
AcDbLine
 10
-311.24086502986017
 20
145.81822007589037
 30
0.0
 11
-359.69459271066768
 21
145.81822007589037
 31
0.0
  0
LINE
  5
1D8
100
AcDbEntity
  8
0
370
               0
390
0
  6
Continuous
 62
              30
100
AcDbLine
 10
-311.24086502986017
 20
148.81822007589037
 30
0.0
 11
-359.69459271066768
 21
148.81822007589037
 31
0.0
  0
LINE
  5
1D9
100
AcDbEntity
  8
0
370
               0
390
0
  6
Continuous
 62
              30
100
AcDbLine
 10
-363.0
 20
145.81822007589037
 30
0.0
 11
-363.0
 21
148.81822007589037
 31
0.0
  0
LINE
  5
1DA
100
AcDbEntity
  8
0
370
               0
390
0
  6
Continuous
 62
              30
100
AcDbLine
 10
-359.69459271066768
 20
145.81822007589037
 30
0.0
 11
-363.0
 21
145.81822007589037
 31
0.0
  0
LINE
  5
1DB
100
AcDbEntity
  8
0
370
               0
390
0
  6
Continuous
 62
              30
100
AcDbLine
 10
-363.0
 20
148.81822007589037
 30
0.0
 11
-359.69459271066768
 21
148.81822007589037
 31
0.0
  0
LINE
  5
1DC
100
AcDbEntity
  8
0
370
               0
390
0
  6
Continuous
 62
              30
100
AcDbLine
 10
-241.0
 20
95.818220075890395
 30
0.0
 11
-241.0
 21
145.81822007589034
 31
0.0
  0
ARC
  5
1DD
100
AcDbEntity
  8
0
370
               0
390
0
  6
Continuous
 62
              30
100
AcDbCircle
 10
-245.0
 20
92.818220075890395
 30
0.0
 40
4.0
100
AcDbArc
 50
270.0000000000008
 51
0.0
  0
LINE
  5
1DE
100
AcDbEntity
  8
0
370
               0
390
0
  6
Continuous
 62
              30
100
AcDbLine
 10
-289.0
 20
88.818220075890395
 30
0.0
 11
-245.0
 21
88.818220075890395
 31
0.0
  0
CIRCLE
  5
1DF
100
AcDbEntity
  8
0
370
               0
390
0
  6
Continuous
 62
              30
100
AcDbCircle
 10
-251.0
 20
120.81822007589039
 30
0.0
 40
6.5999999999999659
  0
LINE
  5
1E0
100
AcDbEntity
  8
0
370
               0
390
0
  6
Continuous
 62
              30
100
AcDbLine
 10
-289.0
 20
152.81822007589037
 30
0.0
 11
-245.0
 21
152.81822007589037
 31
0.0
  0
ARC
  5
1E1
100
AcDbEntity
  8
0
370
               0
390
0
  6
Continuous
 62
              30
100
AcDbCircle
 10
-245.0
 20
148.81822007589037
 30
0.0
 40
4.0
100
AcDbArc
 50
0.0
 51
90.0
  0
LINE
  5
1E2
100
AcDbEntity
  8
0
370
               0
390
0
  6
Continuous
 62
              30
100
AcDbLine
 10
-295.0
 20
88.818220075890395
 30
0.0
 11
-289.0
 21
88.818220075890395
 31
0.0
  0
LINE
  5
1E3
100
AcDbEntity
  8
0
370
               0
390
0
  6
Continuous
 62
              30
100
AcDbLine
 10
-295.0
 20
88.818220075890395
 30
0.0
 11
-295.0
 21
92.818220075890167
 31
0.0
  0
LINE
  5
1E4
100
AcDbEntity
  8
0
370
               0
390
0
  6
Continuous
 62
              30
100
AcDbLine
 10
-295.0
 20
95.818220075890167
 30
0.0
 11
-295.0
 21
145.81822007589014
 31
0.0
  0
LINE
  5
1E5
100
AcDbEntity
  8
0
370
               0
390
0
  6
Continuous
 62
              30
100
AcDbLine
 10
-295.0
 20
148.81822007589011
 30
0.0
 11
-295.0
 21
152.81822007589037
 31
0.0
  0
LINE
  5
1E6
100
AcDbEntity
  8
0
370
               0
390
0
  6
Continuous
 62
              30
100
AcDbLine
 10
-295.0
 20
152.81822007589037
 30
0.0
 11
-289.0
 21
152.81822007589037
 31
0.0
  0
LINE
  5
1E7
100
AcDbEntity
  8
0
370
               0
390
0
  6
Continuous
 62
              30
100
AcDbLine
 10
-297.0
 20
88.818220075890395
 30
0.0
 11
-295.0
 21
88.818220075890395
 31
0.0
  0
LINE
  5
1E8
100
AcDbEntity
  8
0
370
               0
390
0
  6
Continuous
 62
              30
100
AcDbLine
 10
-297.0
 20
152.81822007589037
 30
0.0
 11
-295.0
 21
152.81822007589037
 31
0.0
  0
LINE
  5
1E9
100
AcDbEntity
  8
0
370
               0
390
0
  6
Continuous
 62
              30
100
AcDbLine
 10
-359.0
 20
88.818220075890395
 30
0.0
 11
-297.0
 21
88.818220075890395
 31
0.0
  0
ARC
  5
1EA
100
AcDbEntity
  8
0
370
               0
390
0
  6
Continuous
 62
              30
100
AcDbCircle
 10
-359.0
 20
92.818220075890395
 30
0.0
 40
4.0
100
AcDbArc
 50
180.0
 51
270.0000000000008
  0
LINE
  5
1EB
100
AcDbEntity
  8
0
370
               0
390
0
  6
Continuous
 62
              30
100
AcDbLine
 10
-363.0
 20
95.818220075890395
 30
0.0
 11
-363.0
 21
113.81822007589031
 31
0.0
  0
LINE
  5
1EC
100
AcDbEntity
  8
0
370
               0
390
0
  6
Continuous
 62
              30
100
AcDbLine
 10
-363.0
 20
127.81822007589025
 30
0.0
 11
-363.0
 21
145.81822007589037
 31
0.0
  0
ARC
  5
1ED
100
AcDbEntity
  8
0
370
               0
390
0
  6
Continuous
 62
              30
100
AcDbCircle
 10
-359.0
 20
148.81822007589037
 30
0.0
 40
4.0
100
AcDbArc
 50
90.0
 51
180.0
  0
LINE
  5
1EE
100
AcDbEntity
  8
0
370
               0
390
0
  6
Continuous
 62
              30
100
AcDbLine
 10
-359.0
 20
152.81822007589037
 30
0.0
 11
-297.0
 21
152.81822007589037
 31
0.0
  0
LINE
  5
1EF
100
AcDbEntity
  8
0
370
               0
390
0
  6
Continuous
 62
              30
100
AcDbLine
 10
-289.0
 20
88.818220075890395
 30
0.0
 11
-289.0
 21
92.81822007589011
 31
0.0
  0
LINE
  5
1F0
100
AcDbEntity
  8
0
370
               0
390
0
  6
Continuous
 62
              30
100
AcDbLine
 10
-289.0
 20
95.81822007589011
 30
0.0
 11
-289.0
 21
145.81822007589011
 31
0.0
  0
LINE
  5
1F1
100
AcDbEntity
  8
0
370
               0
390
0
  6
Continuous
 62
              30
100
AcDbLine
 10
-289.0
 20
148.81822007589011
 30
0.0
 11
-289.0
 21
152.81822007589037
 31
0.0
  0
LINE
  5
1F2
100
AcDbEntity
  8
0
370
               0
390
0
  6
Continuous
 62
              30
100
AcDbLine
 10
-297.0
 20
88.818220075890395
 30
0.0
 11
-297.0
 21
92.81822007589011
 31
0.0
  0
LINE
  5
1F3
100
AcDbEntity
  8
0
370
               0
390
0
  6
Continuous
 62
              30
100
AcDbLine
 10
-297.0
 20
95.81822007589011
 30
0.0
 11
-297.0
 21
145.81822007589008
 31
0.0
  0
LINE
  5
1F4
100
AcDbEntity
  8
0
370
               0
390
0
  6
Continuous
 62
              30
100
AcDbLine
 10
-297.0
 20
148.81822007589008
 30
0.0
 11
-297.0
 21
152.81822007589037
 31
0.0
  0
INSERT
  5
1F5
100
AcDbEntity
  8
0
390
0
 62
               1
100
AcDbBlockReference
  2
グループ
 10
-305.79607390036381
 20
206.54411953857561
 30
0.0
  0
DIMENSION
  5
1F6
100
AcDbEntity
  8
寸法
370
               0
390
0
  6
Continuous
 62
               1
100
AcDbDimension
  2
*D2
 10
-398.0
 20
152.81822007589037
 30
0.0
 11
-398.0
 21
120.81822007589038
 31
0.0
 71
               5
 72
               1
 41
1.0
 42
0.0
  3
HIBINO
100
AcDbAlignedDimension
 13
-358.99999999999994
 23
88.818220075890395
 33
0.0
 14
-359.0
 24
152.81822007589037
 34
0.0
 50
-90.0
100
AcDbRotatedDimension
1001
ACAD
1000
DSTYLE
1002
{
1070
             279
1070
               2
1070
             340
1005
28
1070
             147
1040
0.9999999999999999
1002
}
  0
DIMENSION
  5
1F7
100
AcDbEntity
  8
寸法
370
               0
390
0
  6
Continuous
 62
               1
100
AcDbDimension
  2
*D3
 10
-363.0
 20
60.5
 30
0.0
 11
-302.0
 21
60.5
 31
0.0
 71
               5
 72
               1
 41
1.0
 42
0.0
  3
HIBINO
100
AcDbAlignedDimension
 13
-241.0
 23
92.818220075890395
 33
0.0
 14
-363.0
 24
92.818220075890395
 34
0.0
100
AcDbRotatedDimension
1001
ACAD
1000
DSTYLE
1002
{
1070
             279
1070
               2
1070
             340
1005
28
1070
             147
1040
0.9999999999999999
1002
}
  0
DIMENSION
  5
1F8
100
AcDbEntity
  8
寸法
370
               0
390
0
  6
Continuous
 62
               1
100
AcDbDimension
  2
*D4
 10
-379.0
 20
353.0
 30
0.0
 11
-379.0
 21
298.0
 31
0.0
 71
               5
 72
               1
 41
1.0
 42
0.0
  3
HIBINO
100
AcDbAlignedDimension
 13
-363.0
 23
243.0
 33
0.0
 14
-273.49999999999994
 24
353.0
 34
0.0
 50
-90.0
100
AcDbRotatedDimension
1001
ACAD
1000
DSTYLE
1002
{
1070
             279
1070
               2
1070
             340
1005
28
1070
             147
1040
0.9999999999999999
1002
}
  0
ENDSEC
  0
SECTION
  2
OBJECTS
  0
DICTIONARY
  5
19
100
AcDbDictionary
280
               0
281
               1
  3
ACAD_GROUP
350
1A
  3
ACAD_MLINESTYLE
350
1B
  3
ACAD_LAYOUT
350
1E
  3
ACAD_PLOTSETTINGS
350
22
  3
ACAD_PLOTSTYLENAME
350
1F
  3
ACAD_WIPEOUT_VARS
350
23
  0
DICTIONARY
  5
1A
102
{ACAD_REACTORS
330
19
102
}
100
AcDbDictionary
280
               0
281
               1
  0
DICTIONARY
  5
1B
102
{ACAD_REACTORS
330
19
102
}
100
AcDbDictionary
280
               0
281
               1
  3
Standard
350
1C
  0
MLINESTYLE
  5
1C
102
{ACAD_REACTORS
330
1B
102
}
100
AcDbMlineStyle
  2
Standard
 70
               0
  3

 62
               0
 51
90.0
 52
90.0
 71
               2
 49
0.5
 62
             256
  6
ByLayer
 49
-0.5
 62
             256
  6
ByLayer
  0
ACDBDICTIONARYWDFLT
  5
1F
102
{ACAD_REACTORS
330
19
102
}
100
AcDbDictionary
281
               1
  3
Normal
350
1D
100
AcDbDictionaryWithDefault
340
1D
  0
ACDBPLACEHOLDER
  5
1D
102
{ACAD_REACTORS
330
1F
102
}
  0
LAYOUT
  5
20
102
{ACAD_REACTORS
330
1E
102
}
100
AcDbPlotSettings
  1

  2

  4

  6

 40
0.0
 41
0.0
 42
0.0
 43
0.0
 44
0.0
 45
0.0
 46
0.0
 47
0.0
 48
0.0
 49
0.0
140
0.0
141
0.0
142
1.0
143
1.0
 70
            1024
 72
               0
 73
               0
 74
               0
  7
GAH-APS.ctb
 75
               0
147
1.0
148
0.0
149
0.0
100
AcDbLayout
  1
Model
 70
               0
 71
               0
 10
0.0
 20
0.0
 11
0.0
 21
0.0
 12
0.0
 22
0.0
 32
0.0
 14
0.0
 24
0.0
 34
0.0
 15
0.0
 25
0.0
 35
0.0
146
0.0
 13
0.0
 23
0.0
 33
0.0
 16
0.0
 26
0.0
 36
0.0
 17
0.0
 27
0.0
 37
0.0
 76
               0
330
A
331
0
345
0
346
0
  0
LAYOUT
  5
21
102
{ACAD_REACTORS
330
1E
102
}
100
AcDbPlotSettings
  1

  2

  4

  6

 40
0.0
 41
0.0
 42
0.0
 43
0.0
 44
0.0
 45
0.0
 46
0.0
 47
0.0
 48
0.0
 49
0.0
140
0.0
141
0.0
142
1.0
143
1.0
 70
               0
 72
               0
 73
               0
 74
               0
  7

 75
               0
147
1.0
148
0.0
149
0.0
100
AcDbLayout
  1
Layout1
 70
               0
 71
               0
 10
0.0
 20
0.0
 11
0.0
 21
0.0
 12
0.0
 22
0.0
 32
0.0
 14
0.0
 24
0.0
 34
0.0
 15
0.0
 25
0.0
 35
0.0
146
0.0
 13
0.0
 23
0.0
 33
0.0
 16
0.0
 26
0.0
 36
0.0
 17
0.0
 27
0.0
 37
0.0
 76
               0
330
B
331
0
345
0
346
0
  0
DICTIONARY
  5
1E
102
{ACAD_REACTORS
330
19
102
}
100
AcDbDictionary
280
               0
281
               1
  3
Layout1
350
21
  3
Model
350
20
  0
DICTIONARY
  5
22
102
{ACAD_REACTORS
330
19
102
}
100
AcDbDictionary
280
               0
281
               1
  0
WIPEOUTVARIABLES
  5
23
100
AcDbWipeoutVariables
 70
               0
  0
ENDSEC
  0
EOF
