  0
SECTION
  2
HEADER
  9
$ACADVER
  1
AC1015
  9
$ACADMAINTVER
 70
               6
  9
$DWGCODEPAGE
  3
ANSI_932
  9
$INSBASE
 10
0.0
 20
0.0
 30
0.0
  9
$EXTMIN
 10
17591.351343236769
 20
-560.4406022811977
 30
-29.701066666666666
  9
$EXTMAX
 10
21368.0
 20
4789.2033083051047
 30
29.701066666666666
  9
$LIMMIN
 10
0.0
 20
0.0
  9
$LIMMAX
 10
0.0
 20
0.0
  9
$ORTHOMODE
 70
               0
  9
$REGENMODE
 70
               1
  9
$FILLMODE
 70
               1
  9
$QTEXTMODE
 70
               0
  9
$MIRRTEXT
 70
               1
  9
$LTSCALE
 40
101.59999999999999
  9
$ATTMODE
 70
               1
  9
$TEXTSIZE
 40
0.2
  9
$TRACEWID
 40
1.0
  9
$TEXTSTYLE
  7
Standard
  9
$CLAYER
  8
0
  9
$CELTYPE
  6
Continuous
  9
$CECOLOR
 62
             256
  9
$CELTSCALE
 40
1.0
  9
$DISPSILH
 70
               0
  9
$DIMSCALE
 40
1.0
  9
$DIMASZ
 40
50.012451171875
  9
$DIMEXO
 40
39.999999999999993
  9
$DIMDLI
 40
4.9999999999999991
  9
$DIMRND
 40
0.0
  9
$DIMDLE
 40
0.0
  9
$DIMEXE
 40
39.999999999999993
  9
$DIMTP
 40
0.0
  9
$DIMTM
 40
0.0
  9
$DIMTXT
 40
76.012586805556552
  9
$DIMCEN
 40
0.0
  9
$DIMTSZ
 40
0.0
  9
$DIMTOL
 70
               0
  9
$DIMLIM
 70
               0
  9
$DIMTIH
 70
               0
  9
$DIMTOH
 70
               0
  9
$DIMSE1
 70
               0
  9
$DIMSE2
 70
               0
  9
$DIMTAD
 70
               1
  9
$DIMZIN
 70
              11
  9
$DIMBLK
  1
VW_EMPTYARROW
  9
$DIMASO
 70
               1
  9
$DIMSHO
 70
               1
  9
$DIMPOST
  1
<>
  9
$DIMAPOST
  1
[]
  9
$DIMALT
 70
               0
  9
$DIMALTD
 70
               2
  9
$DIMALTF
 40
1.0
  9
$DIMLFAC
 40
1.0
  9
$DIMTOFL
 70
               1
  9
$DIMTVP
 40
0.0
  9
$DIMTIX
 70
               1
  9
$DIMSOXD
 70
               0
  9
$DIMSAH
 70
               0
  9
$DIMBLK1
  1

  9
$DIMBLK2
  1

  9
$DIMSTYLE
  2
HIBINO
  9
$DIMCLRD
 70
               0
  9
$DIMCLRE
 70
               0
  9
$DIMCLRT
 70
               0
  9
$DIMTFAC
 40
1.0
  9
$DIMGAP
 40
0.4999999999999999
  9
$DIMJUST
 70
               0
  9
$DIMSD1
 70
               0
  9
$DIMSD2
 70
               0
  9
$DIMTOLJ
 70
               1
  9
$DIMTZIN
 70
              11
  9
$DIMALTZ
 70
              11
  9
$DIMALTTZ
 70
              11
  9
$DIMUPT
 70
               0
  9
$DIMDEC
 70
               2
  9
$DIMTDEC
 70
               2
  9
$DIMALTU
 70
               2
  9
$DIMALTTD
 70
               2
  9
$DIMTXSTY
  7
ＭＳ ゴシック
  9
$DIMAUNIT
 70
               0
  9
$DIMADEC
 70
               0
  9
$DIMALTRND
 40
0.0
  9
$DIMAZIN
 70
               0
  9
$DIMDSEP
 70
              46
  9
$DIMATFIT
 70
               0
  9
$DIMFRAC
 70
               2
  9
$DIMLDRBLK
  1

  9
$DIMLUNIT
 70
               2
  9
$DIMLWD
 70
              -2
  9
$DIMLWE
 70
              -2
  9
$DIMTMOVE
 70
               0
  9
$LUNITS
 70
               2
  9
$LUPREC
 70
               4
  9
$SKETCHINC
 40
0.1
  9
$FILLETRAD
 40
0.0
  9
$AUNITS
 70
               0
  9
$AUPREC
 70
               0
  9
$MENU
  1
acad
  9
$ELEVATION
 40
0.0
  9
$PELEVATION
 40
0.0
  9
$THICKNESS
 40
0.0
  9
$LIMCHECK
 70
               0
  9
$CHAMFERA
 40
0.0
  9
$CHAMFERB
 40
0.0
  9
$CHAMFERC
 40
0.0
  9
$CHAMFERD
 40
0.0
  9
$SKPOLY
 70
               0
  9
$TDCREATE
 40
2458985.166770834
  9
$TDUCREATE
 40
0.000000000
  9
$TDUPDATE
 40
2458985.166770834
  9
$TDUUPDATE
 40
0.000000000
  9
$TDINDWG
 40
0.0000000000
  9
$TDUSRTIMER
 40
0.0000000000
  9
$USRTIMER
 70
               1
  9
$ANGBASE
 50
0.0
  9
$ANGDIR
 70
               0
  9
$PDMODE
 70
               1
  9
$PDSIZE
 40
-2.0
  9
$PLINEWID
 40
0.0
  9
$SPLFRAME
 70
               0
  9
$SPLINETYPE
 70
               6
  9
$SPLINESEGS
 70
               8
  9
$HANDSEED
  5
558
  9
$SURFTAB1
 70
               6
  9
$SURFTAB2
 70
               6
  9
$SURFTYPE
 70
               6
  9
$SURFU
 70
               6
  9
$SURFV
 70
               6
  9
$UCSBASE
  2

  9
$UCSNAME
  2

  9
$UCSORG
 10
0.0
 20
0.0
 30
0.0
  9
$UCSXDIR
 10
1.0
 20
0.0
 30
0.0
  9
$UCSYDIR
 10
0.0
 20
1.0
 30
0.0
  9
$UCSORTHOREF
  2

  9
$UCSORTHOVIEW
 70
               0
  9
$UCSORGTOP
 10
0.0
 20
0.0
 30
0.0
  9
$UCSORGBOTTOM
 10
0.0
 20
0.0
 30
0.0
  9
$UCSORGLEFT
 10
0.0
 20
0.0
 30
0.0
  9
$UCSORGRIGHT
 10
0.0
 20
0.0
 30
0.0
  9
$UCSORGFRONT
 10
0.0
 20
0.0
 30
0.0
  9
$UCSORGBACK
 10
0.0
 20
0.0
 30
0.0
  9
$PUCSBASE
  2

  9
$PUCSNAME
  2

  9
$PUCSORG
 10
0.0
 20
0.0
 30
0.0
  9
$PUCSXDIR
 10
1.0
 20
0.0
 30
0.0
  9
$PUCSYDIR
 10
0.0
 20
1.0
 30
0.0
  9
$PUCSORTHOREF
  2

  9
$PUCSORTHOVIEW
 70
               0
  9
$PUCSORGTOP
 10
0.0
 20
0.0
 30
0.0
  9
$PUCSORGBOTTOM
 10
0.0
 20
0.0
 30
0.0
  9
$PUCSORGLEFT
 10
0.0
 20
0.0
 30
0.0
  9
$PUCSORGRIGHT
 10
0.0
 20
0.0
 30
0.0
  9
$PUCSORGFRONT
 10
0.0
 20
0.0
 30
0.0
  9
$PUCSORGBACK
 10
0.0
 20
0.0
 30
0.0
  9
$USERI1
 70
               0
  9
$USERI2
 70
               0
  9
$USERI3
 70
               0
  9
$USERI4
 70
               0
  9
$USERI5
 70
               0
  9
$USERR1
 40
0.0
  9
$USERR2
 40
0.0
  9
$USERR3
 40
0.0
  9
$USERR4
 40
0.0
  9
$USERR5
 40
0.0
  9
$WORLDVIEW
 70
               1
  9
$SHADEDGE
 70
               3
  9
$SHADEDIF
 70
              70
  9
$TILEMODE
 70
               1
  9
$MAXACTVP
 70
              64
  9
$PINSBASE
 10
0.0
 20
0.0
 30
0.0
  9
$PLIMCHECK
 70
               0
  9
$PEXTMIN
 10
1.0000000000000000E+20
 20
1.0000000000000000E+20
 30
1.0000000000000000E+20
  9
$PEXTMAX
 10
-1.0000000000000000E+20
 20
-1.0000000000000000E+20
 30
-1.0000000000000000E+20
  9
$PLIMMIN
 10
0.0
 20
0.0
  9
$PLIMMAX
 10
12.0
 20
9.0
  9
$UNITMODE
 70
               0
  9
$VISRETAIN
 70
               0
  9
$PLINEGEN
 70
               1
  9
$PSLTSCALE
 70
               0
  9
$TREEDEPTH
 70
            3020
  9
$CMLSTYLE
  2
Standard
  9
$CMLJUST
 70
               0
  9
$CMLSCALE
 40
1.0
  9
$PROXYGRAPHICS
 70
               0
  9
$MEASUREMENT
 70
               1
  9
$CELWEIGHT
370
               0
  9
$ENDCAPS
280
               0
  9
$JOINSTYLE
280
               0
  9
$LWDISPLAY
290
               0
  9
$INSUNITS
 70
               4
  9
$HYPERLINKBASE
  1

  9
$STYLESHEET
  1

  9
$XEDIT
290
               1
  9
$CEPSNTYPE
380
               0
  9
$PSTYLEMODE
290
               1
  9
$FINGERPRINTGUID
  2

  9
$VERSIONGUID
  2

  9
$EXTNAMES
290
               1
  9
$PSVPSCALE
 40
0.0
  0
ENDSEC
  0
SECTION
  2
CLASSES
  0
CLASS
  1
LWPOLYLINE
  2
AcDbPolyline
  3
AutoCAD 2000
 90
        0
280
               0
281
               1
  0
CLASS
  1
IMAGE
  2
AcDbRasterImage
  3
ISM
 90
      127
280
               0
281
               1
  0
CLASS
  1
OLE2FRAME
  2
AcDbOle2Frame
  3
AutoCAD 2000
 90
        0
280
               0
281
               1
  0
CLASS
  1
HATCH
  2
AcDbHatch
  3
AutoCAD 2000
 90
        0
280
               0
281
               1
  0
CLASS
  1
DICTIONARYVAR
  2
AcDbDictionaryVar
  3
AutoCAD 2000
 90
        0
280
               0
281
               0
  0
CLASS
  1
RASTERVARIABLES
  2
AcDbRasterVariables
  3
ISM
 90
        0
280
               0
281
               0
  0
CLASS
  1
IMAGEDEF
  2
AcDbRasterImageDef
  3
ISM
 90
        0
280
               0
281
               0
  0
CLASS
  1
IMAGEDEF_REACTOR
  2
AcDbRasterImageDefReactor
  3
ISM
 90
        1
280
               0
281
               0
  0
CLASS
  1
IDBUFFER
  2
AcDbIdBuffer
  3
AutoCAD 2000
 90
        0
280
               0
281
               0
  0
CLASS
  1
SPATIAL_FILTER
  2
AcDbSpatialFilter
  3
AutoCAD 2000
 90
        0
280
               0
281
               0
  0
CLASS
  1
XRECORD
  2
AcDbXrecord
  3
AutoCAD 2000
 90
        0
280
               0
281
               0
  0
CLASS
  1
SORTENTSTABLE
  2
AcDbSortentsTable
  3
AutoCAD 2000
 90
        0
280
               0
281
               0
  0
CLASS
  1
LAYER_INDEX
  2
AcDbLayerIndex
  3
AutoCAD 2000
 90
        0
280
               0
281
               0
  0
CLASS
  1
SPATIAL_INDEX
  2
AcDbSpatialIndex
  3
AutoCAD 2000
 90
        0
280
               0
281
               0
  0
CLASS
  1
OBJECT_PTR
  2
CAseDLPNTableRecord
  3
"ASE-LPNTableRecord"
 90
        1
280
               0
281
               0
  0
CLASS
  1
LAYOUT
  2
AcDbLayout
  3
AutoCAD 2000
 90
        0
280
               0
281
               0
  0
CLASS
  1
PLOTSETTINGS
  2
AcDbPlotSettings
  3
AutoCAD 2000
 90
        0
280
               0
281
               0
  0
CLASS
  1
ACDBDICTIONARYWDFLT
  2
AcDbDictionaryWithDefault
  3
AutoCAD 2000
 90
        0
280
               0
281
               0
  0
CLASS
  1
ACDBPLACEHOLDER
  2
AcDbPlaceHolder
  3
AutoCAD 2000
 90
        0
280
               0
281
               0
  0
CLASS
  1
VBA_PROJECT
  2
AcDbVbaProject
  3
acadvba
 90
        0
280
               0
281
               0
  0
CLASS
  1
WIPEOUT
  2
AcDbWipeout
  3
WipeOut|AutoCAD Express Tool|expresstools@autodesk.com
 90
      127
280
               0
281
               1
  0
CLASS
  1
WIPEOUTVARIABLES
  2
AcDbWipeoutVariables
  3
WipeOut|AutoCAD Express Tool|expresstools@autodesk.com
 90
        0
280
               0
281
               0
  0
CLASS
  1
RTEXT
  2
RText
  3
RText|AutoCAD Express Tool|expresstools@autodesk.com
 90
        0
280
               0
281
               1
  0
CLASS
  1
ARCALIGNEDTEXT
  2
AcDbArcAlignedText
  3
ATEXT|AutoCAD Express Tool|expresstools@autodesk.com
 90
        0
280
               0
281
               1
  0
ENDSEC
  0
SECTION
  2
TABLES
  0
TABLE
  2
VPORT
  5
7
100
AcDbSymbolTable
 70
               1
  0
VPORT
  5
15
100
AcDbSymbolTableRecord
100
AcDbViewportTableRecord
  2
*ACTIVE
 70
               0
 10
0.0
 20
0.0
 11
1.0
 21
1.0
 12
19479.675671618385
 22
2114.3813530119537
 13
0.0
 23
0.0
 14
1.0
 24
1.0
 15
0.0
 25
0.0
 16
0.0
 26
0.0
 36
1.0
 17
0.0
 27
0.0
 37
0.0
 40
5349.6439105863028
 41
0.688564
 42
50.0
 43
0.0
 44
0.0
 50
0.0
 51
0.0
 71
               0
 72
            2000
 73
               1
 74
               1
 75
               0
 76
               0
 77
               0
 78
               0
281
               0
 65
               0
110
0.0
120
0.0
130
0.0
111
1.0
121
0.0
131
0.0
112
0.0
122
1.0
132
0.0
345
0
346
0
 79
               0
146
0.0
  0
ENDTAB
  0
TABLE
  2
LTYPE
  5
4
100
AcDbSymbolTable
 70
              13
  0
LTYPE
  5
11
100
AcDbSymbolTableRecord
100
AcDbLinetypeTableRecord
  2
ByBlock
 70
              64
  3

 72
              65
 73
               0
 40
0.0
  0
LTYPE
  5
12
100
AcDbSymbolTableRecord
100
AcDbLinetypeTableRecord
  2
ByLayer
 70
              64
  3

 72
              65
 73
               0
 40
0.0
  0
LTYPE
  5
13
100
AcDbSymbolTableRecord
100
AcDbLinetypeTableRecord
  2
Continuous
 70
              64
  3
Solid line
 72
              65
 73
               0
 40
0.0
  0
LTYPE
  5
33
100
AcDbSymbolTableRecord
100
AcDbLinetypeTableRecord
  2
STYLE_01
 70
               0
  3

 72
              65
 73
               4
 40
0.2
 49
0.125
 74
               0
 49
-0.025
 74
               0
 49
0.025
 74
               0
 49
-0.025
 74
               0
  0
LTYPE
  5
34
100
AcDbSymbolTableRecord
100
AcDbLinetypeTableRecord
  2
STYLE_02
 70
               0
  3

 72
              65
 73
               2
 40
0.694427490234375
 49
0.4860687255859375
 74
               0
 49
-0.2083587646484375
 74
               0
  0
LTYPE
  5
35
100
AcDbSymbolTableRecord
100
AcDbLinetypeTableRecord
  2
STYLE_03
 70
               0
  3

 72
              65
 73
               2
 40
1.25
 49
1.0416412353515625
 74
               0
 49
-0.2083587646484375
 74
               0
  0
LTYPE
  5
36
100
AcDbSymbolTableRecord
100
AcDbLinetypeTableRecord
  2
STYLE_04
 70
               0
  3

 72
              65
 73
               2
 40
1.5277099609375
 49
1.319427490234375
 74
               0
 49
-0.208282470703125
 74
               0
  0
LTYPE
  5
37
100
AcDbSymbolTableRecord
100
AcDbLinetypeTableRecord
  2
STYLE_05
 70
               0
  3

 72
              65
 73
               2
 40
0.208282470703125
 49
0.069427490234375
 74
               0
 49
-0.13885498046875
 74
               0
  0
LTYPE
  5
38
100
AcDbSymbolTableRecord
100
AcDbLinetypeTableRecord
  2
STYLE_06
 70
               0
  3

 72
              65
 73
               4
 40
1.0416412353515625
 49
0.625
 74
               0
 49
-0.208282470703125
 74
               0
 49
0.069427490234375
 74
               0
 49
-0.1389312744140625
 74
               0
  0
LTYPE
  5
39
100
AcDbSymbolTableRecord
100
AcDbLinetypeTableRecord
  2
STYLE_07
 70
               0
  3

 72
              65
 73
               6
 40
1.875
 49
0.625
 74
               0
 49
-0.208282470703125
 74
               0
 49
0.625
 74
               0
 49
-0.2083587646484375
 74
               0
 49
0.069427490234375
 74
               0
 49
-0.1389312744140625
 74
               0
  0
LTYPE
  5
3A
100
AcDbSymbolTableRecord
100
AcDbLinetypeTableRecord
  2
STYLE_08
 70
               0
  3

 72
              65
 73
               6
 40
1.25
 49
0.625
 74
               0
 49
-0.208282470703125
 74
               0
 49
0.069427490234375
 74
               0
 49
-0.1389312744140625
 74
               0
 49
0.069427490234375
 74
               0
 49
-0.1389312744140625
 74
               0
  0
LTYPE
  5
3B
100
AcDbSymbolTableRecord
100
AcDbLinetypeTableRecord
  2
STYLE_09
 70
               0
  3

 72
              65
 73
               4
 40
5.0
 49
3.75
 74
               0
 49
-0.2777862548828125
 74
               0
 49
0.694427490234375
 74
               0
 49
-0.2777862548828125
 74
               0
  0
LTYPE
  5
3C
100
AcDbSymbolTableRecord
100
AcDbLinetypeTableRecord
  2
STYLE_10
 70
               0
  3

 72
              65
 73
               6
 40
5.9375
 49
3.75
 74
               0
 49
-0.2777862548828125
 74
               0
 49
0.694427490234375
 74
               0
 49
-0.2777862548828125
 74
               0
 49
0.625
 74
               0
 49
-0.3125
 74
               0
  0
ENDTAB
  0
TABLE
  2
LAYER
  5
2
100
AcDbSymbolTable
 70
              15
  0
LAYER
  5
14
100
AcDbSymbolTableRecord
100
AcDbLayerTableRecord
  2
0
 70
               0
 62
               7
  6
Continuous
290
               1
370
               0
390
1D
  0
LAYER
  5
3D
100
AcDbSymbolTableRecord
100
AcDbLayerTableRecord
  2
DATA
 70
               0
 62
               7
  6
Continuous
290
               1
370
               0
390
1D
  0
LAYER
  5
3E
100
AcDbSymbolTableRecord
100
AcDbLayerTableRecord
  2
一般
 70
               0
 62
               7
  6
Continuous
290
               1
370
               0
390
1D
  0
LAYER
  5
3F
100
AcDbSymbolTableRecord
100
AcDbLayerTableRecord
  2
寸法
 70
               0
 62
               7
  6
Continuous
290
               1
370
               0
390
1D
  0
LAYER
  5
40
100
AcDbSymbolTableRecord
100
AcDbLayerTableRecord
  2
HIBINO-BASE
 70
               0
 62
               7
  6
Continuous
290
               1
370
               0
390
1D
  0
LAYER
  5
41
100
AcDbSymbolTableRecord
100
AcDbLayerTableRecord
  2
SPEC
 70
               0
 62
               7
  6
Continuous
290
               1
370
               0
390
1D
  0
LAYER
  5
42
100
AcDbSymbolTableRecord
100
AcDbLayerTableRecord
  2
DIMNSIONS
 70
               0
 62
               7
  6
Continuous
290
               1
370
               0
390
1D
  0
LAYER
  5
43
100
AcDbSymbolTableRecord
100
AcDbLayerTableRecord
  2
Layer1
 70
               0
 62
               3
  6
Continuous
290
               1
370
               0
390
1D
  0
LAYER
  5
44
100
AcDbSymbolTableRecord
100
AcDbLayerTableRecord
  2
2D
 70
               0
 62
              82
  6
Continuous
290
               1
370
               0
390
1D
  0
LAYER
  5
45
100
AcDbSymbolTableRecord
100
AcDbLayerTableRecord
  2
FORMAT
 70
               0
 62
               7
  6
Continuous
290
               1
370
               0
390
1D
  0
LAYER
  5
46
100
AcDbSymbolTableRecord
100
AcDbLayerTableRecord
  2
Defpoints
 70
               0
 62
               7
  6
Continuous
290
               0
370
               0
390
1D
  0
LAYER
  5
47
100
AcDbSymbolTableRecord
100
AcDbLayerTableRecord
  2
5in
 70
               0
 62
               7
  6
Continuous
290
               1
370
               0
390
1D
  0
LAYER
  5
48
100
AcDbSymbolTableRecord
100
AcDbLayerTableRecord
  2
AM_0
 70
               0
 62
               7
  6
Continuous
290
               1
370
               0
390
1D
  0
LAYER
  5
49
100
AcDbSymbolTableRecord
100
AcDbLayerTableRecord
  2
MD_Visible
 70
               0
 62
               7
  6
Continuous
290
               1
370
               0
390
1D
  0
LAYER
  5
4A
100
AcDbSymbolTableRecord
100
AcDbLayerTableRecord
  2
MD_Visible Narrow
 70
               0
 62
               7
  6
Continuous
290
               1
370
               0
390
1D
  0
ENDTAB
  0
TABLE
  2
STYLE
  5
3
100
AcDbSymbolTable
 70
               2
  0
STYLE
  5
17
100
AcDbSymbolTableRecord
100
AcDbTextStyleTableRecord
  2
Standard
 70
               0
 40
0.0
 41
1.0
 50
0.0
 71
               0
 42
0.0
  3
txt
  4
BIGFONT.SHX
  0
STYLE
  5
32
100
AcDbSymbolTableRecord
100
AcDbTextStyleTableRecord
  2
ＭＳ ゴシック
 70
               0
 40
0.0
 41
1.0
 50
0.0
 71
               0
 42
0.0
  3

  4
ＭＳ ゴシック
1001
ACAD
1000
ＭＳ ゴシック
1071
        0
  0
ENDTAB
  0
TABLE
  2
VIEW
  5
5
100
AcDbSymbolTable
 70
               0
  0
ENDTAB
  0
TABLE
  2
UCS
  5
6
100
AcDbSymbolTable
 70
               0
  0
ENDTAB
  0
TABLE
  2
APPID
  5
8
100
AcDbSymbolTable
 70
               1
  0
APPID
  5
16
100
AcDbSymbolTableRecord
100
AcDbRegAppTableRecord
  2
ACAD
 70
               0
  0
ENDTAB
  0
TABLE
  2
DIMSTYLE
  5
9
100
AcDbSymbolTable
 70
               2
100
AcDbDimStyleTable
 71
               0
  0
DIMSTYLE
105
18
100
AcDbSymbolTableRecord
100
AcDbDimStyleTableRecord
  2
Standard
 70
               0
  3

  4

 40
1.0
 41
0.18
 42
0.0625
 43
0.38
 44
0.18
 45
0.0
 46
0.0
 47
0.0
 48
0.0
 71
               0
 72
               0
 73
               1
 74
               1
 75
               0
 76
               0
 77
               0
 78
               0
 79
               0
140
0.18
141
0.09
142
0.0
143
25.399999999999999
144
1.0
145
0.0
146
1.0
147
0.09
148
0.0
170
               0
171
               2
172
               0
173
               0
174
               0
175
               0
176
               0
177
               0
178
               0
179
               0
271
               4
272
               4
273
               2
274
               2
275
               0
276
               0
277
               2
278
              46
279
               0
280
               0
281
               0
282
               0
283
               1
284
               0
285
               0
286
               0
288
               0
289
               3
340
17
341
0
342
0
343
0
344
0
371
              -2
372
              -2
  0
DIMSTYLE
105
54
100
AcDbSymbolTableRecord
100
AcDbDimStyleTableRecord
  2
HIBINO
 70
               0
  3
<>
  4
[]
 40
1.0
 41
50.012451171875
 42
39.999999999999993
 43
4.9999999999999991
 44
39.999999999999993
 45
0.0
 46
0.0
 47
0.0
 48
0.0
 71
               0
 72
               0
 73
               0
 74
               0
 75
               0
 76
               0
 77
               1
 78
              11
 79
               0
140
76.012586805556552
141
0.0
142
0.0
143
1.0
144
1.0
145
0.0
146
1.0
147
0.4999999999999999
148
0.0
170
               0
171
               2
172
               1
173
               0
174
               1
175
               0
176
               0
177
               0
178
               0
179
               0
271
               2
272
               2
273
               2
274
               2
275
               0
276
               2
277
               2
278
              46
279
               0
280
               0
281
               0
282
               0
283
               1
284
              11
285
              11
286
              11
288
               0
289
               0
340
32
341
4B
342
4B
343
0
344
0
371
              -2
372
              -2
  0
ENDTAB
  0
TABLE
  2
BLOCK_RECORD
  5
1
100
AcDbSymbolTable
 70
              15
  0
BLOCK_RECORD
  5
A
100
AcDbSymbolTableRecord
100
AcDbBlockTableRecord
  2
*MODEL_SPACE
340
20
  0
BLOCK_RECORD
  5
B
100
AcDbSymbolTableRecord
100
AcDbBlockTableRecord
  2
*PAPER_SPACE
340
21
  0
BLOCK_RECORD
  5
4B
100
AcDbSymbolTableRecord
100
AcDbBlockTableRecord
  2
VW_EMPTYARROW
340
0
  0
BLOCK_RECORD
  5
24
100
AcDbSymbolTableRecord
100
AcDbBlockTableRecord
  2
グループ
340
0
102
{BLKREFS
331
65
102
}
  0
BLOCK_RECORD
  5
25
100
AcDbSymbolTableRecord
100
AcDbBlockTableRecord
  2
グループ-1
340
0
102
{BLKREFS
331
62
102
}
  0
BLOCK_RECORD
  5
26
100
AcDbSymbolTableRecord
100
AcDbBlockTableRecord
  2
グループ-2
340
0
102
{BLKREFS
331
66
102
}
  0
BLOCK_RECORD
  5
27
100
AcDbSymbolTableRecord
100
AcDbBlockTableRecord
  2
グループ-3
340
0
102
{BLKREFS
331
54B
102
}
  0
BLOCK_RECORD
  5
28
100
AcDbSymbolTableRecord
100
AcDbBlockTableRecord
  2
グループ-4
340
0
102
{BLKREFS
331
54D
102
}
  0
BLOCK_RECORD
  5
29
100
AcDbSymbolTableRecord
100
AcDbBlockTableRecord
  2
グループ-5
340
0
102
{BLKREFS
331
54E
102
}
  0
BLOCK_RECORD
  5
2A
100
AcDbSymbolTableRecord
100
AcDbBlockTableRecord
  2
グループ-6
340
0
102
{BLKREFS
331
54F
102
}
  0
BLOCK_RECORD
  5
2B
100
AcDbSymbolTableRecord
100
AcDbBlockTableRecord
  2
グループ-7
340
0
102
{BLKREFS
331
550
102
}
  0
BLOCK_RECORD
  5
2C
100
AcDbSymbolTableRecord
100
AcDbBlockTableRecord
  2
グループ-8
340
0
102
{BLKREFS
331
551
102
}
  0
BLOCK_RECORD
  5
2D
100
AcDbSymbolTableRecord
100
AcDbBlockTableRecord
  2
グループ-9
340
0
102
{BLKREFS
331
552
102
}
  0
BLOCK_RECORD
  5
2E
100
AcDbSymbolTableRecord
100
AcDbBlockTableRecord
  2
*D11
340
0
  0
BLOCK_RECORD
  5
2F
100
AcDbSymbolTableRecord
100
AcDbBlockTableRecord
  2
*D12
340
0
  0
BLOCK_RECORD
  5
30
100
AcDbSymbolTableRecord
100
AcDbBlockTableRecord
  2
*D13
340
0
  0
BLOCK_RECORD
  5
31
100
AcDbSymbolTableRecord
100
AcDbBlockTableRecord
  2
Callout
340
0
102
{BLKREFS
331
556
102
}
  0
ENDTAB
  0
ENDSEC
  0
SECTION
  2
BLOCKS
  0
BLOCK
  5
D
100
AcDbEntity
  8
0
390
0
100
AcDbBlockBegin
  2
*MODEL_SPACE
 70
               0
 10
0.0
 20
0.0
 30
0.0
  3
*MODEL_SPACE
  1

  0
ENDBLK
  5
E
100
AcDbEntity
  8
0
390
0
100
AcDbBlockEnd
  0
BLOCK
  5
F
100
AcDbEntity
 67
               1
  8
0
390
0
100
AcDbBlockBegin
  2
*PAPER_SPACE
 70
               0
 10
0.0
 20
0.0
 30
0.0
  3
*PAPER_SPACE
  1

  0
ENDBLK
  5
10
100
AcDbEntity
 67
               1
  8
0
390
0
100
AcDbBlockEnd
  0
BLOCK
  5
4C
100
AcDbEntity
  8
0
370
              -2
390
0
  6
ByBlock
 62
               0
100
AcDbBlockBegin
  2
VW_EMPTYARROW
 70
               0
 10
0.0
 20
0.0
 30
0.0
  3
VW_EMPTYARROW
  1

  0
LINE
  5
4D
100
AcDbEntity
  8
0
370
              -2
390
0
  6
ByBlock
 62
               0
100
AcDbLine
 10
0.0
 20
0.0
 30
0.0
 11
-1.0
 21
0.0
 31
0.0
  0
POLYLINE
  5
4E
100
AcDbEntity
  8
0
370
              -2
390
0
  6
Continuous
 62
               0
100
AcDb2dPolyline
 66
               1
 10
0.0
 20
0.0
 30
0.0
 75
               5
  0
VERTEX
  5
4F
100
AcDbEntity
  8
0
370
              -2
390
0
  6
Continuous
 62
               0
100
AcDbVertex
100
AcDb2dVertex
 10
-0.9921875
 20
0.2658558393652546
 30
0.0
  0
VERTEX
  5
50
100
AcDbEntity
  8
0
370
              -2
390
0
  6
Continuous
 62
               0
100
AcDbVertex
100
AcDb2dVertex
 10
0.0
 20
0.0
 30
0.0
  0
VERTEX
  5
51
100
AcDbEntity
  8
0
370
              -2
390
0
  6
Continuous
 62
               0
100
AcDbVertex
100
AcDb2dVertex
 10
-0.9921874999999999
 20
-0.2658558393652548
 30
0.0
  0
SEQEND
  5
52
100
AcDbEntity
  8
0
370
              -2
390
0
  6
Continuous
 62
               0
  0
ENDBLK
  5
53
100
AcDbEntity
  8
0
390
0
100
AcDbBlockEnd
  0
BLOCK
  5
55
100
AcDbEntity
  8
0
390
0
100
AcDbBlockBegin
  2
グループ
 70
               0
 10
0.0
 20
0.0
 30
0.0
  3
グループ
  1

  0
LINE
  5
56
100
AcDbEntity
  8
0
370
               0
390
0
  6
Continuous
 62
               1
100
AcDbLine
 10
279.83138299464906
 20
-2144.3813530119533
 30
0.0
 11
279.83138299464906
 21
-2184.3813530119533
 31
0.0
  0
LINE
  5
57
100
AcDbEntity
  8
0
370
               0
390
0
  6
Continuous
 62
               1
100
AcDbLine
 10
220.45638299464906
 20
-2154.3813530119533
 30
0.0
 11
220.45638299464906
 21
-2174.3813530119533
 31
0.0
  0
LINE
  5
58
100
AcDbEntity
  8
0
370
               0
390
0
  6
Continuous
 62
               1
100
AcDbLine
 10
220.45638299464906
 20
-2154.3813530119533
 30
0.0
 11
279.83138299464906
 21
-2144.3813530119533
 31
0.0
  0
LINE
  5
59
100
AcDbEntity
  8
0
370
               0
390
0
  6
Continuous
 62
               1
100
AcDbLine
 10
220.45638299464906
 20
-2174.3813530119533
 30
0.0
 11
279.83138299464906
 21
-2184.3813530119533
 31
0.0
  0
ENDBLK
  5
5A
100
AcDbEntity
  8
0
390
0
100
AcDbBlockEnd
  0
BLOCK
  5
5B
100
AcDbEntity
  8
寸法
390
0
100
AcDbBlockBegin
  2
グループ-1
 70
               0
 10
0.0
 20
0.0
 30
0.0
  3
グループ-1
  1

  0
LINE
  5
5C
100
AcDbEntity
  8
0
370
               0
390
0
  6
STYLE_06
 62
               1
100
AcDbLine
 10
161.08138299464906
 20
-2164.3813530119533
 30
0.0
 11
211.08138299464906
 21
-2164.3813530119533
 31
0.0
  0
LINE
  5
5D
100
AcDbEntity
  8
0
370
               0
390
0
  6
STYLE_06
 62
               1
100
AcDbLine
 10
186.08138299464906
 20
-2189.3813530119533
 30
0.0
 11
186.08138299464906
 21
-2139.3813530119533
 31
0.0
  0
ENDBLK
  5
5E
100
AcDbEntity
  8
寸法
390
0
100
AcDbBlockEnd
  0
BLOCK
  5
5F
100
AcDbEntity
  8
0
390
0
100
AcDbBlockBegin
  2
グループ-2
 70
               0
 10
0.0
 20
0.0
 30
0.0
  3
グループ-2
  1

  0
CIRCLE
  5
60
100
AcDbEntity
  8
0
370
               0
390
0
  6
Continuous
 62
               1
100
AcDbCircle
 10
186.08138299464906
 20
-2164.3813530119533
 30
0.0
 40
20.000000000000057
  0
CIRCLE
  5
61
100
AcDbEntity
  8
0
370
               0
390
0
  6
Continuous
 62
               1
100
AcDbCircle
 10
186.08138299464906
 20
-2164.3813530119533
 30
0.0
 40
9.9999999999998792
  0
INSERT
  5
62
100
AcDbEntity
  8
寸法
390
0
 62
               1
100
AcDbBlockReference
  2
グループ-1
 10
0.0
 20
0.0
 30
0.0
  0
ENDBLK
  5
63
100
AcDbEntity
  8
0
390
0
100
AcDbBlockEnd
  0
BLOCK
  5
64
100
AcDbEntity
  8
0
390
0
100
AcDbBlockBegin
  2
グループ-3
 70
               0
 10
0.0
 20
0.0
 30
0.0
  3
グループ-3
  1

  0
INSERT
  5
65
100
AcDbEntity
  8
0
390
0
 62
               1
100
AcDbBlockReference
  2
グループ
 10
0.0
 20
0.0
 30
0.0
  0
INSERT
  5
66
100
AcDbEntity
  8
0
390
0
 62
               1
100
AcDbBlockReference
  2
グループ-2
 10
0.0
 20
0.0
 30
0.0
  0
LINE
  5
67
100
AcDbEntity
  8
0
370
               0
390
0
  6
STYLE_06
 62
               1
100
AcDbLine
 10
186.08138299464906
 20
-2164.3813530119533
 30
0.0
 11
292.33138299464906
 21
-2164.3813530119533
 31
0.0
  0
LINE
  5
68
100
AcDbEntity
  8
0
370
               0
390
0
  6
Continuous
 62
               1
100
AcDbLine
 10
186.08138299464906
 20
-2184.3813530119533
 30
0.0
 11
186.08138299464906
 21
-2154.3813530119533
 31
0.0
  0
ENDBLK
  5
69
100
AcDbEntity
  8
0
390
0
100
AcDbBlockEnd
  0
BLOCK
  5
6A
100
AcDbEntity
  8
0
390
0
100
AcDbBlockBegin
  2
グループ-4
 70
               0
 10
0.0
 20
0.0
 30
0.0
  3
グループ-4
  1

  0
LINE
  5
6B
100
AcDbEntity
  8
MD_Visible
370
               0
390
0
 62
               7
100
AcDbLine
 10
83.148656763234612
 20
568.54917005733796
 30
0.0
 11
-412.35134323676539
 21
568.54917005733796
 31
0.0
  0
LINE
  5
6C
100
AcDbEntity
  8
MD_Visible
370
               0
390
0
 62
               7
100
AcDbLine
 10
149.64865676323461
 20
568.54917005733796
 30
0.0
 11
124.14865676323461
 21
568.54917005733796
 31
0.0
  0
LINE
  5
6D
100
AcDbEntity
  8
MD_Visible
370
               0
390
0
 62
               7
100
AcDbLine
 10
-412.35134323676539
 20
599.19209272137914
 30
0.0
 11
-412.35134323676539
 21
625.04917005733796
 31
0.0
  0
POLYLINE
  5
6E
100
AcDbEntity
  8
MD_Visible
370
               0
390
0
 62
               7
100
AcDb3dPolyline
 66
               1
 10
0.0
 20
0.0
 30
0.0
 70
               8
  0
VERTEX
  5
6F
100
AcDbEntity
  8
MD_Visible
370
               0
390
0
 62
               7
100
AcDbVertex
100
AcDb3dPolylineVertex
 10
118.64865676323461
 20
611.04917005733068
 30
0.0
 70
              32
  0
VERTEX
  5
70
100
AcDbEntity
  8
MD_Visible
370
               0
390
0
 62
               7
100
AcDbVertex
100
AcDb3dPolylineVertex
 10
118.94270818422228
 20
611.06361587731408
 30
0.0
 70
              32
  0
VERTEX
  5
71
100
AcDbEntity
  8
MD_Visible
370
               0
390
0
 62
               7
100
AcDbVertex
100
AcDb3dPolylineVertex
 10
119.23392772928128
 20
611.10681421612094
 30
0.0
 70
              32
  0
VERTEX
  5
72
100
AcDbEntity
  8
MD_Visible
370
               0
390
0
 62
               7
100
AcDbVertex
100
AcDb3dPolylineVertex
 10
119.5195107949985
 20
611.17834905013387
 30
0.0
 70
              32
  0
VERTEX
  5
73
100
AcDbEntity
  8
MD_Visible
370
               0
390
0
 62
               7
100
AcDbVertex
100
AcDb3dPolylineVertex
 10
119.79670706032994
 20
611.27753145979682
 30
0.0
 70
              32
  0
VERTEX
  5
74
100
AcDbEntity
  8
MD_Visible
370
               0
390
0
 62
               7
100
AcDbVertex
100
AcDb3dPolylineVertex
 10
120.06284697371302
 20
611.40340626428542
 30
0.0
 70
              32
  0
VERTEX
  5
75
100
AcDbEntity
  8
MD_Visible
370
               0
390
0
 62
               7
100
AcDbVertex
100
AcDb3dPolylineVertex
 10
120.31536746229176
 20
611.55476122042296
 30
0.0
 70
              32
  0
VERTEX
  5
76
100
AcDbEntity
  8
MD_Visible
370
               0
390
0
 62
               7
100
AcDbVertex
100
AcDb3dPolylineVertex
 10
120.55183661572664
 20
611.73013869724241
 30
0.0
 70
              32
  0
VERTEX
  5
77
100
AcDbEntity
  8
MD_Visible
370
               0
390
0
 62
               7
100
AcDbVertex
100
AcDb3dPolylineVertex
 10
120.76997710679279
 20
611.92784971377091
 30
0.0
 70
              32
  0
VERTEX
  5
78
100
AcDbEntity
  8
MD_Visible
370
               0
390
0
 62
               7
100
AcDbVertex
100
AcDb3dPolylineVertex
 10
120.96768812332448
 20
612.14599020483956
 30
0.0
 70
              32
  0
VERTEX
  5
79
100
AcDbEntity
  8
MD_Visible
370
               0
390
0
 62
               7
100
AcDbVertex
100
AcDb3dPolylineVertex
 10
121.14306560014302
 20
612.38245935827172
 30
0.0
 70
              32
  0
VERTEX
  5
7A
100
AcDbEntity
  8
MD_Visible
370
               0
390
0
 62
               7
100
AcDbVertex
100
AcDb3dPolylineVertex
 10
121.29442055627806
 20
612.63497984685273
 30
0.0
 70
              32
  0
VERTEX
  5
7B
100
AcDbEntity
  8
MD_Visible
370
               0
390
0
 62
               7
100
AcDbVertex
100
AcDb3dPolylineVertex
 10
121.42029536076734
 20
612.90111976023536
 30
0.0
 70
              32
  0
VERTEX
  5
7C
100
AcDbEntity
  8
MD_Visible
370
               0
390
0
 62
               7
100
AcDbVertex
100
AcDb3dPolylineVertex
 10
121.51947777043097
 20
613.17831602556726
 30
0.0
 70
              32
  0
VERTEX
  5
7D
100
AcDbEntity
  8
MD_Visible
370
               0
390
0
 62
               7
100
AcDbVertex
100
AcDb3dPolylineVertex
 10
121.59101260444368
 20
613.4638990912822
 30
0.0
 70
              32
  0
VERTEX
  5
7E
100
AcDbEntity
  8
MD_Visible
370
               0
390
0
 62
               7
100
AcDbVertex
100
AcDb3dPolylineVertex
 10
121.63421094325167
 20
613.7551186363421
 30
0.0
 70
              32
  0
VERTEX
  5
7F
100
AcDbEntity
  8
MD_Visible
370
               0
390
0
 62
               7
100
AcDbVertex
100
AcDb3dPolylineVertex
 10
121.64865676323461
 20
614.04917005733068
 30
0.0
 70
              32
  0
VERTEX
  5
80
100
AcDbEntity
  8
MD_Visible
370
               0
390
0
 62
               7
100
AcDbVertex
100
AcDb3dPolylineVertex
 10
121.63421094325167
 20
614.34322147831926
 30
0.0
 70
              32
  0
VERTEX
  5
81
100
AcDbEntity
  8
MD_Visible
370
               0
390
0
 62
               7
100
AcDbVertex
100
AcDb3dPolylineVertex
 10
121.59101260444368
 20
614.63444102337917
 30
0.0
 70
              32
  0
VERTEX
  5
82
100
AcDbEntity
  8
MD_Visible
370
               0
390
0
 62
               7
100
AcDbVertex
100
AcDb3dPolylineVertex
 10
121.51947777043097
 20
614.92002408909411
 30
0.0
 70
              32
  0
VERTEX
  5
83
100
AcDbEntity
  8
MD_Visible
370
               0
390
0
 62
               7
100
AcDbVertex
100
AcDb3dPolylineVertex
 10
121.42029536076734
 20
615.19722035442601
 30
0.0
 70
              32
  0
VERTEX
  5
84
100
AcDbEntity
  8
MD_Visible
370
               0
390
0
 62
               7
100
AcDbVertex
100
AcDb3dPolylineVertex
 10
121.29442055627806
 20
615.46336026780864
 30
0.0
 70
              32
  0
VERTEX
  5
85
100
AcDbEntity
  8
MD_Visible
370
               0
390
0
 62
               7
100
AcDbVertex
100
AcDb3dPolylineVertex
 10
121.14306560014302
 20
615.71588075638965
 30
0.0
 70
              32
  0
VERTEX
  5
86
100
AcDbEntity
  8
MD_Visible
370
               0
390
0
 62
               7
100
AcDbVertex
100
AcDb3dPolylineVertex
 10
120.96768812332448
 20
615.95234990982181
 30
0.0
 70
              32
  0
VERTEX
  5
87
100
AcDbEntity
  8
MD_Visible
370
               0
390
0
 62
               7
100
AcDbVertex
100
AcDb3dPolylineVertex
 10
120.76997710679279
 20
616.17049040089046
 30
0.0
 70
              32
  0
VERTEX
  5
88
100
AcDbEntity
  8
MD_Visible
370
               0
390
0
 62
               7
100
AcDbVertex
100
AcDb3dPolylineVertex
 10
120.55183661572664
 20
616.36820141741896
 30
0.0
 70
              32
  0
VERTEX
  5
89
100
AcDbEntity
  8
MD_Visible
370
               0
390
0
 62
               7
100
AcDbVertex
100
AcDb3dPolylineVertex
 10
120.31536746229176
 20
616.54357889423841
 30
0.0
 70
              32
  0
VERTEX
  5
8A
100
AcDbEntity
  8
MD_Visible
370
               0
390
0
 62
               7
100
AcDbVertex
100
AcDb3dPolylineVertex
 10
120.06284697371302
 20
616.69493385037595
 30
0.0
 70
              32
  0
VERTEX
  5
8B
100
AcDbEntity
  8
MD_Visible
370
               0
390
0
 62
               7
100
AcDbVertex
100
AcDb3dPolylineVertex
 10
119.79670706032994
 20
616.82080865486455
 30
0.0
 70
              32
  0
VERTEX
  5
8C
100
AcDbEntity
  8
MD_Visible
370
               0
390
0
 62
               7
100
AcDbVertex
100
AcDb3dPolylineVertex
 10
119.5195107949985
 20
616.91999106452749
 30
0.0
 70
              32
  0
VERTEX
  5
8D
100
AcDbEntity
  8
MD_Visible
370
               0
390
0
 62
               7
100
AcDbVertex
100
AcDb3dPolylineVertex
 10
119.23392772928128
 20
616.99152589854043
 30
0.0
 70
              32
  0
VERTEX
  5
8E
100
AcDbEntity
  8
MD_Visible
370
               0
390
0
 62
               7
100
AcDbVertex
100
AcDb3dPolylineVertex
 10
118.94270818422228
 20
617.03472423734729
 30
0.0
 70
              32
  0
VERTEX
  5
8F
100
AcDbEntity
  8
MD_Visible
370
               0
390
0
 62
               7
100
AcDbVertex
100
AcDb3dPolylineVertex
 10
118.64865676323461
 20
617.04917005733068
 30
0.0
 70
              32
  0
SEQEND
  5
90
100
AcDbEntity
  8
MD_Visible
370
               0
390
0
 62
               7
  0
POLYLINE
  5
91
100
AcDbEntity
  8
MD_Visible
370
               0
390
0
 62
               7
100
AcDb3dPolyline
 66
               1
 10
0.0
 20
0.0
 30
0.0
 70
               8
  0
VERTEX
  5
92
100
AcDbEntity
  8
MD_Visible
370
               0
390
0
 62
               7
100
AcDbVertex
100
AcDb3dPolylineVertex
 10
-381.35134323676539
 20
611.04917005733068
 30
0.0
 70
              32
  0
VERTEX
  5
93
100
AcDbEntity
  8
MD_Visible
370
               0
390
0
 62
               7
100
AcDbVertex
100
AcDb3dPolylineVertex
 10
-381.05729181577772
 20
611.06361587731408
 30
0.0
 70
              32
  0
VERTEX
  5
94
100
AcDbEntity
  8
MD_Visible
370
               0
390
0
 62
               7
100
AcDbVertex
100
AcDb3dPolylineVertex
 10
-380.76607227071872
 20
611.10681421612094
 30
0.0
 70
              32
  0
VERTEX
  5
95
100
AcDbEntity
  8
MD_Visible
370
               0
390
0
 62
               7
100
AcDbVertex
100
AcDb3dPolylineVertex
 10
-380.4804892050015
 20
611.1783490501341
 30
0.0
 70
              32
  0
VERTEX
  5
96
100
AcDbEntity
  8
MD_Visible
370
               0
390
0
 62
               7
100
AcDbVertex
100
AcDb3dPolylineVertex
 10
-380.20329293967006
 20
611.27753145979682
 30
0.0
 70
              32
  0
VERTEX
  5
97
100
AcDbEntity
  8
MD_Visible
370
               0
390
0
 62
               7
100
AcDbVertex
100
AcDb3dPolylineVertex
 10
-379.93715302628698
 20
611.40340626428565
 30
0.0
 70
              32
  0
VERTEX
  5
98
100
AcDbEntity
  8
MD_Visible
370
               0
390
0
 62
               7
100
AcDbVertex
100
AcDb3dPolylineVertex
 10
-379.68463253770824
 20
611.55476122042296
 30
0.0
 70
              32
  0
VERTEX
  5
99
100
AcDbEntity
  8
MD_Visible
370
               0
390
0
 62
               7
100
AcDbVertex
100
AcDb3dPolylineVertex
 10
-379.44816338427336
 20
611.73013869724241
 30
0.0
 70
              32
  0
VERTEX
  5
9A
100
AcDbEntity
  8
MD_Visible
370
               0
390
0
 62
               7
100
AcDbVertex
100
AcDb3dPolylineVertex
 10
-379.23002289320721
 20
611.92784971377114
 30
0.0
 70
              32
  0
VERTEX
  5
9B
100
AcDbEntity
  8
MD_Visible
370
               0
390
0
 62
               7
100
AcDbVertex
100
AcDb3dPolylineVertex
 10
-379.03231187667552
 20
612.14599020483979
 30
0.0
 70
              32
  0
VERTEX
  5
9C
100
AcDbEntity
  8
MD_Visible
370
               0
390
0
 62
               7
100
AcDbVertex
100
AcDb3dPolylineVertex
 10
-378.85693439985698
 20
612.38245935827194
 30
0.0
 70
              32
  0
VERTEX
  5
9D
100
AcDbEntity
  8
MD_Visible
370
               0
390
0
 62
               7
100
AcDbVertex
100
AcDb3dPolylineVertex
 10
-378.70557944372194
 20
612.63497984685273
 30
0.0
 70
              32
  0
VERTEX
  5
9E
100
AcDbEntity
  8
MD_Visible
370
               0
390
0
 62
               7
100
AcDbVertex
100
AcDb3dPolylineVertex
 10
-378.57970463923266
 20
612.90111976023536
 30
0.0
 70
              32
  0
VERTEX
  5
9F
100
AcDbEntity
  8
MD_Visible
370
               0
390
0
 62
               7
100
AcDbVertex
100
AcDb3dPolylineVertex
 10
-378.48052222956903
 20
613.17831602556726
 30
0.0
 70
              32
  0
VERTEX
  5
A0
100
AcDbEntity
  8
MD_Visible
370
               0
390
0
 62
               7
100
AcDbVertex
100
AcDb3dPolylineVertex
 10
-378.40898739555632
 20
613.4638990912822
 30
0.0
 70
              32
  0
VERTEX
  5
A1
100
AcDbEntity
  8
MD_Visible
370
               0
390
0
 62
               7
100
AcDbVertex
100
AcDb3dPolylineVertex
 10
-378.36578905674833
 20
613.7551186363421
 30
0.0
 70
              32
  0
VERTEX
  5
A2
100
AcDbEntity
  8
MD_Visible
370
               0
390
0
 62
               7
100
AcDbVertex
100
AcDb3dPolylineVertex
 10
-378.35134323676539
 20
614.04917005733068
 30
0.0
 70
              32
  0
VERTEX
  5
A3
100
AcDbEntity
  8
MD_Visible
370
               0
390
0
 62
               7
100
AcDbVertex
100
AcDb3dPolylineVertex
 10
-378.36578905674833
 20
614.34322147831926
 30
0.0
 70
              32
  0
VERTEX
  5
A4
100
AcDbEntity
  8
MD_Visible
370
               0
390
0
 62
               7
100
AcDbVertex
100
AcDb3dPolylineVertex
 10
-378.40898739555632
 20
614.63444102337917
 30
0.0
 70
              32
  0
VERTEX
  5
A5
100
AcDbEntity
  8
MD_Visible
370
               0
390
0
 62
               7
100
AcDbVertex
100
AcDb3dPolylineVertex
 10
-378.48052222956903
 20
614.92002408909411
 30
0.0
 70
              32
  0
VERTEX
  5
A6
100
AcDbEntity
  8
MD_Visible
370
               0
390
0
 62
               7
100
AcDbVertex
100
AcDb3dPolylineVertex
 10
-378.57970463923266
 20
615.19722035442601
 30
0.0
 70
              32
  0
VERTEX
  5
A7
100
AcDbEntity
  8
MD_Visible
370
               0
390
0
 62
               7
100
AcDbVertex
100
AcDb3dPolylineVertex
 10
-378.70557944372194
 20
615.46336026780864
 30
0.0
 70
              32
  0
VERTEX
  5
A8
100
AcDbEntity
  8
MD_Visible
370
               0
390
0
 62
               7
100
AcDbVertex
100
AcDb3dPolylineVertex
 10
-378.85693439985698
 20
615.71588075638942
 30
0.0
 70
              32
  0
VERTEX
  5
A9
100
AcDbEntity
  8
MD_Visible
370
               0
390
0
 62
               7
100
AcDbVertex
100
AcDb3dPolylineVertex
 10
-379.03231187667552
 20
615.95234990982158
 30
0.0
 70
              32
  0
VERTEX
  5
AA
100
AcDbEntity
  8
MD_Visible
370
               0
390
0
 62
               7
100
AcDbVertex
100
AcDb3dPolylineVertex
 10
-379.23002289320721
 20
616.17049040089023
 30
0.0
 70
              32
  0
VERTEX
  5
AB
100
AcDbEntity
  8
MD_Visible
370
               0
390
0
 62
               7
100
AcDbVertex
100
AcDb3dPolylineVertex
 10
-379.44816338427336
 20
616.36820141741896
 30
0.0
 70
              32
  0
VERTEX
  5
AC
100
AcDbEntity
  8
MD_Visible
370
               0
390
0
 62
               7
100
AcDbVertex
100
AcDb3dPolylineVertex
 10
-379.68463253770824
 20
616.54357889423841
 30
0.0
 70
              32
  0
VERTEX
  5
AD
100
AcDbEntity
  8
MD_Visible
370
               0
390
0
 62
               7
100
AcDbVertex
100
AcDb3dPolylineVertex
 10
-379.93715302628698
 20
616.69493385037572
 30
0.0
 70
              32
  0
VERTEX
  5
AE
100
AcDbEntity
  8
MD_Visible
370
               0
390
0
 62
               7
100
AcDbVertex
100
AcDb3dPolylineVertex
 10
-380.20329293967006
 20
616.82080865486455
 30
0.0
 70
              32
  0
VERTEX
  5
AF
100
AcDbEntity
  8
MD_Visible
370
               0
390
0
 62
               7
100
AcDbVertex
100
AcDb3dPolylineVertex
 10
-380.4804892050015
 20
616.91999106452727
 30
0.0
 70
              32
  0
VERTEX
  5
B0
100
AcDbEntity
  8
MD_Visible
370
               0
390
0
 62
               7
100
AcDbVertex
100
AcDb3dPolylineVertex
 10
-380.76607227071872
 20
616.99152589854043
 30
0.0
 70
              32
  0
VERTEX
  5
B1
100
AcDbEntity
  8
MD_Visible
370
               0
390
0
 62
               7
100
AcDbVertex
100
AcDb3dPolylineVertex
 10
-381.05729181577772
 20
617.03472423734729
 30
0.0
 70
              32
  0
VERTEX
  5
B2
100
AcDbEntity
  8
MD_Visible
370
               0
390
0
 62
               7
100
AcDbVertex
100
AcDb3dPolylineVertex
 10
-381.35134323676539
 20
617.04917005733068
 30
0.0
 70
              32
  0
SEQEND
  5
B3
100
AcDbEntity
  8
MD_Visible
370
               0
390
0
 62
               7
  0
LINE
  5
B4
100
AcDbEntity
  8
MD_Visible
370
               0
390
0
 62
               7
100
AcDbLine
 10
149.64865676323461
 20
625.04917005733796
 30
0.0
 11
-412.35134323676539
 21
625.04917005733796
 31
0.0
  0
LINE
  5
B5
100
AcDbEntity
  8
MD_Visible
370
               0
390
0
 62
               7
100
AcDbLine
 10
149.64865676323461
 20
599.19209272137914
 30
0.0
 11
149.64865676323461
 21
625.04917005733796
 31
0.0
  0
LINE
  5
B6
100
AcDbEntity
  8
MD_Visible
370
               0
390
0
 62
               7
100
AcDbLine
 10
83.148656763234612
 20
568.75931621292284
 30
0.0
 11
124.14865676323461
 21
568.75931621292284
 31
0.0
  0
POLYLINE
  5
B7
100
AcDbEntity
  8
MD_Visible
370
               0
390
0
 62
               7
100
AcDb3dPolyline
 66
               1
 10
0.0
 20
0.0
 30
0.0
 70
               8
  0
VERTEX
  5
B8
100
AcDbEntity
  8
MD_Visible
370
               0
390
0
 62
               7
100
AcDbVertex
100
AcDb3dPolylineVertex
 10
-131.35134323676533
 20
611.04917005733068
 30
0.0
 70
              32
  0
VERTEX
  5
B9
100
AcDbEntity
  8
MD_Visible
370
               0
390
0
 62
               7
100
AcDbVertex
100
AcDb3dPolylineVertex
 10
-131.05729181577766
 20
611.06361587731408
 30
0.0
 70
              32
  0
VERTEX
  5
BA
100
AcDbEntity
  8
MD_Visible
370
               0
390
0
 62
               7
100
AcDbVertex
100
AcDb3dPolylineVertex
 10
-130.76607227071867
 20
611.10681421612094
 30
0.0
 70
              32
  0
VERTEX
  5
BB
100
AcDbEntity
  8
MD_Visible
370
               0
390
0
 62
               7
100
AcDbVertex
100
AcDb3dPolylineVertex
 10
-130.48048920500145
 20
611.1783490501341
 30
0.0
 70
              32
  0
VERTEX
  5
BC
100
AcDbEntity
  8
MD_Visible
370
               0
390
0
 62
               7
100
AcDbVertex
100
AcDb3dPolylineVertex
 10
-130.20329293967001
 20
611.27753145979682
 30
0.0
 70
              32
  0
VERTEX
  5
BD
100
AcDbEntity
  8
MD_Visible
370
               0
390
0
 62
               7
100
AcDbVertex
100
AcDb3dPolylineVertex
 10
-129.93715302628692
 20
611.40340626428565
 30
0.0
 70
              32
  0
VERTEX
  5
BE
100
AcDbEntity
  8
MD_Visible
370
               0
390
0
 62
               7
100
AcDbVertex
100
AcDb3dPolylineVertex
 10
-129.68463253770818
 20
611.55476122042296
 30
0.0
 70
              32
  0
VERTEX
  5
BF
100
AcDbEntity
  8
MD_Visible
370
               0
390
0
 62
               7
100
AcDbVertex
100
AcDb3dPolylineVertex
 10
-129.4481633842733
 20
611.73013869724241
 30
0.0
 70
              32
  0
VERTEX
  5
C0
100
AcDbEntity
  8
MD_Visible
370
               0
390
0
 62
               7
100
AcDbVertex
100
AcDb3dPolylineVertex
 10
-129.23002289320715
 20
611.92784971377114
 30
0.0
 70
              32
  0
VERTEX
  5
C1
100
AcDbEntity
  8
MD_Visible
370
               0
390
0
 62
               7
100
AcDbVertex
100
AcDb3dPolylineVertex
 10
-129.03231187667546
 20
612.14599020483979
 30
0.0
 70
              32
  0
VERTEX
  5
C2
100
AcDbEntity
  8
MD_Visible
370
               0
390
0
 62
               7
100
AcDbVertex
100
AcDb3dPolylineVertex
 10
-128.85693439985693
 20
612.38245935827194
 30
0.0
 70
              32
  0
VERTEX
  5
C3
100
AcDbEntity
  8
MD_Visible
370
               0
390
0
 62
               7
100
AcDbVertex
100
AcDb3dPolylineVertex
 10
-128.70557944372189
 20
612.63497984685273
 30
0.0
 70
              32
  0
VERTEX
  5
C4
100
AcDbEntity
  8
MD_Visible
370
               0
390
0
 62
               7
100
AcDbVertex
100
AcDb3dPolylineVertex
 10
-128.5797046392326
 20
612.90111976023536
 30
0.0
 70
              32
  0
VERTEX
  5
C5
100
AcDbEntity
  8
MD_Visible
370
               0
390
0
 62
               7
100
AcDbVertex
100
AcDb3dPolylineVertex
 10
-128.48052222956898
 20
613.17831602556726
 30
0.0
 70
              32
  0
VERTEX
  5
C6
100
AcDbEntity
  8
MD_Visible
370
               0
390
0
 62
               7
100
AcDbVertex
100
AcDb3dPolylineVertex
 10
-128.40898739555627
 20
613.4638990912822
 30
0.0
 70
              32
  0
VERTEX
  5
C7
100
AcDbEntity
  8
MD_Visible
370
               0
390
0
 62
               7
100
AcDbVertex
100
AcDb3dPolylineVertex
 10
-128.36578905674827
 20
613.7551186363421
 30
0.0
 70
              32
  0
VERTEX
  5
C8
100
AcDbEntity
  8
MD_Visible
370
               0
390
0
 62
               7
100
AcDbVertex
100
AcDb3dPolylineVertex
 10
-128.35134323676533
 20
614.04917005733068
 30
0.0
 70
              32
  0
VERTEX
  5
C9
100
AcDbEntity
  8
MD_Visible
370
               0
390
0
 62
               7
100
AcDbVertex
100
AcDb3dPolylineVertex
 10
-128.36578905674827
 20
614.34322147831926
 30
0.0
 70
              32
  0
VERTEX
  5
CA
100
AcDbEntity
  8
MD_Visible
370
               0
390
0
 62
               7
100
AcDbVertex
100
AcDb3dPolylineVertex
 10
-128.40898739555627
 20
614.63444102337917
 30
0.0
 70
              32
  0
VERTEX
  5
CB
100
AcDbEntity
  8
MD_Visible
370
               0
390
0
 62
               7
100
AcDbVertex
100
AcDb3dPolylineVertex
 10
-128.48052222956898
 20
614.92002408909411
 30
0.0
 70
              32
  0
VERTEX
  5
CC
100
AcDbEntity
  8
MD_Visible
370
               0
390
0
 62
               7
100
AcDbVertex
100
AcDb3dPolylineVertex
 10
-128.5797046392326
 20
615.19722035442601
 30
0.0
 70
              32
  0
VERTEX
  5
CD
100
AcDbEntity
  8
MD_Visible
370
               0
390
0
 62
               7
100
AcDbVertex
100
AcDb3dPolylineVertex
 10
-128.70557944372189
 20
615.46336026780864
 30
0.0
 70
              32
  0
VERTEX
  5
CE
100
AcDbEntity
  8
MD_Visible
370
               0
390
0
 62
               7
100
AcDbVertex
100
AcDb3dPolylineVertex
 10
-128.85693439985693
 20
615.71588075638942
 30
0.0
 70
              32
  0
VERTEX
  5
CF
100
AcDbEntity
  8
MD_Visible
370
               0
390
0
 62
               7
100
AcDbVertex
100
AcDb3dPolylineVertex
 10
-129.03231187667546
 20
615.95234990982158
 30
0.0
 70
              32
  0
VERTEX
  5
D0
100
AcDbEntity
  8
MD_Visible
370
               0
390
0
 62
               7
100
AcDbVertex
100
AcDb3dPolylineVertex
 10
-129.23002289320715
 20
616.17049040089023
 30
0.0
 70
              32
  0
VERTEX
  5
D1
100
AcDbEntity
  8
MD_Visible
370
               0
390
0
 62
               7
100
AcDbVertex
100
AcDb3dPolylineVertex
 10
-129.4481633842733
 20
616.36820141741896
 30
0.0
 70
              32
  0
VERTEX
  5
D2
100
AcDbEntity
  8
MD_Visible
370
               0
390
0
 62
               7
100
AcDbVertex
100
AcDb3dPolylineVertex
 10
-129.68463253770818
 20
616.54357889423841
 30
0.0
 70
              32
  0
VERTEX
  5
D3
100
AcDbEntity
  8
MD_Visible
370
               0
390
0
 62
               7
100
AcDbVertex
100
AcDb3dPolylineVertex
 10
-129.93715302628692
 20
616.69493385037572
 30
0.0
 70
              32
  0
VERTEX
  5
D4
100
AcDbEntity
  8
MD_Visible
370
               0
390
0
 62
               7
100
AcDbVertex
100
AcDb3dPolylineVertex
 10
-130.20329293967001
 20
616.82080865486455
 30
0.0
 70
              32
  0
VERTEX
  5
D5
100
AcDbEntity
  8
MD_Visible
370
               0
390
0
 62
               7
100
AcDbVertex
100
AcDb3dPolylineVertex
 10
-130.48048920500145
 20
616.91999106452727
 30
0.0
 70
              32
  0
VERTEX
  5
D6
100
AcDbEntity
  8
MD_Visible
370
               0
390
0
 62
               7
100
AcDbVertex
100
AcDb3dPolylineVertex
 10
-130.76607227071867
 20
616.99152589854043
 30
0.0
 70
              32
  0
VERTEX
  5
D7
100
AcDbEntity
  8
MD_Visible
370
               0
390
0
 62
               7
100
AcDbVertex
100
AcDb3dPolylineVertex
 10
-131.05729181577766
 20
617.03472423734729
 30
0.0
 70
              32
  0
VERTEX
  5
D8
100
AcDbEntity
  8
MD_Visible
370
               0
390
0
 62
               7
100
AcDbVertex
100
AcDb3dPolylineVertex
 10
-131.35134323676533
 20
617.04917005733068
 30
0.0
 70
              32
  0
SEQEND
  5
D9
100
AcDbEntity
  8
MD_Visible
370
               0
390
0
 62
               7
  0
LINE
  5
DA
100
AcDbEntity
  8
MD_Visible
370
               0
390
0
 62
               7
100
AcDbLine
 10
-409.35134323676175
 20
626.04917005732523
 30
0.0
 11
-409.35134323676175
 21
917.54917005732523
 31
0.0
  0
LINE
  5
DB
100
AcDbEntity
  8
MD_Visible
370
               0
390
0
 62
               7
100
AcDbLine
 10
146.64865676323825
 20
917.54917005732523
 30
0.0
 11
-409.35134323676175
 21
917.54917005732523
 31
0.0
  0
LINE
  5
DC
100
AcDbEntity
  8
MD_Visible
370
               0
390
0
 62
               7
100
AcDbLine
 10
146.64865676323825
 20
626.04917005732523
 30
0.0
 11
146.64865676323825
 21
917.54917005732523
 31
0.0
  0
LINE
  5
DD
100
AcDbEntity
  8
MD_Visible
370
               0
390
0
 62
               7
100
AcDbLine
 10
146.64865676323825
 20
626.04917005732523
 30
0.0
 11
-409.35134323676175
 21
626.04917005732523
 31
0.0
  0
LINE
  5
DE
100
AcDbEntity
  8
MD_Visible
370
               0
390
0
 62
               7
100
AcDbLine
 10
-409.35134323676175
 20
626.04917005732523
 30
0.0
 11
-409.35134323676175
 21
625.04917005733796
 31
0.0
  0
LINE
  5
DF
100
AcDbEntity
  8
MD_Visible
370
               0
390
0
 62
               7
100
AcDbLine
 10
146.64865676323825
 20
625.04917005733796
 30
0.0
 11
146.64865676323825
 21
626.04917005732523
 31
0.0
  0
LINE
  5
E0
100
AcDbEntity
  8
MD_Visible
370
               0
390
0
 62
               7
100
AcDbLine
 10
158.64865676323825
 20
567.54917005732523
 30
0.0
 11
150.64865676323825
 21
567.54917005732523
 31
0.0
  0
LINE
  5
E1
100
AcDbEntity
  8
MD_Visible
370
               0
390
0
 62
               7
100
AcDbLine
 10
150.64865676323825
 20
571.54917005732523
 30
0.0
 11
149.64865676323461
 21
571.54917005732523
 31
0.0
  0
POLYLINE
  5
E2
100
AcDbEntity
  8
MD_Visible
370
               0
390
0
 62
               7
100
AcDb3dPolyline
 66
               1
 10
0.0
 20
0.0
 30
0.0
 70
               8
  0
VERTEX
  5
E3
100
AcDbEntity
  8
MD_Visible
370
               0
390
0
 62
               7
100
AcDbVertex
100
AcDb3dPolylineVertex
 10
118.64865676323461
 20
617.04917005733068
 30
0.0
 70
              32
  0
VERTEX
  5
E4
100
AcDbEntity
  8
MD_Visible
370
               0
390
0
 62
               7
100
AcDbVertex
100
AcDb3dPolylineVertex
 10
118.35460534224694
 20
617.03472423734729
 30
0.0
 70
              32
  0
VERTEX
  5
E5
100
AcDbEntity
  8
MD_Visible
370
               0
390
0
 62
               7
100
AcDbVertex
100
AcDb3dPolylineVertex
 10
118.06338579718795
 20
616.99152589854043
 30
0.0
 70
              32
  0
VERTEX
  5
E6
100
AcDbEntity
  8
MD_Visible
370
               0
390
0
 62
               7
100
AcDbVertex
100
AcDb3dPolylineVertex
 10
117.77780273147073
 20
616.91999106452749
 30
0.0
 70
              32
  0
VERTEX
  5
E7
100
AcDbEntity
  8
MD_Visible
370
               0
390
0
 62
               7
100
AcDbVertex
100
AcDb3dPolylineVertex
 10
117.50060646613929
 20
616.82080865486455
 30
0.0
 70
              32
  0
VERTEX
  5
E8
100
AcDbEntity
  8
MD_Visible
370
               0
390
0
 62
               7
100
AcDbVertex
100
AcDb3dPolylineVertex
 10
117.2344665527562
 20
616.69493385037595
 30
0.0
 70
              32
  0
VERTEX
  5
E9
100
AcDbEntity
  8
MD_Visible
370
               0
390
0
 62
               7
100
AcDbVertex
100
AcDb3dPolylineVertex
 10
116.98194606417746
 20
616.54357889423841
 30
0.0
 70
              32
  0
VERTEX
  5
EA
100
AcDbEntity
  8
MD_Visible
370
               0
390
0
 62
               7
100
AcDbVertex
100
AcDb3dPolylineVertex
 10
116.74547691074258
 20
616.36820141741896
 30
0.0
 70
              32
  0
VERTEX
  5
EB
100
AcDbEntity
  8
MD_Visible
370
               0
390
0
 62
               7
100
AcDbVertex
100
AcDb3dPolylineVertex
 10
116.52733641967643
 20
616.17049040089046
 30
0.0
 70
              32
  0
VERTEX
  5
EC
100
AcDbEntity
  8
MD_Visible
370
               0
390
0
 62
               7
100
AcDbVertex
100
AcDb3dPolylineVertex
 10
116.32962540314475
 20
615.95234990982181
 30
0.0
 70
              32
  0
VERTEX
  5
ED
100
AcDbEntity
  8
MD_Visible
370
               0
390
0
 62
               7
100
AcDbVertex
100
AcDb3dPolylineVertex
 10
116.15424792632621
 20
615.71588075638965
 30
0.0
 70
              32
  0
VERTEX
  5
EE
100
AcDbEntity
  8
MD_Visible
370
               0
390
0
 62
               7
100
AcDbVertex
100
AcDb3dPolylineVertex
 10
116.00289297019117
 20
615.46336026780864
 30
0.0
 70
              32
  0
VERTEX
  5
EF
100
AcDbEntity
  8
MD_Visible
370
               0
390
0
 62
               7
100
AcDbVertex
100
AcDb3dPolylineVertex
 10
115.87701816570188
 20
615.19722035442601
 30
0.0
 70
              32
  0
VERTEX
  5
F0
100
AcDbEntity
  8
MD_Visible
370
               0
390
0
 62
               7
100
AcDbVertex
100
AcDb3dPolylineVertex
 10
115.77783575603826
 20
614.92002408909411
 30
0.0
 70
              32
  0
VERTEX
  5
F1
100
AcDbEntity
  8
MD_Visible
370
               0
390
0
 62
               7
100
AcDbVertex
100
AcDb3dPolylineVertex
 10
115.70630092202555
 20
614.63444102337917
 30
0.0
 70
              32
  0
VERTEX
  5
F2
100
AcDbEntity
  8
MD_Visible
370
               0
390
0
 62
               7
100
AcDbVertex
100
AcDb3dPolylineVertex
 10
115.66310258321755
 20
614.34322147831926
 30
0.0
 70
              32
  0
VERTEX
  5
F3
100
AcDbEntity
  8
MD_Visible
370
               0
390
0
 62
               7
100
AcDbVertex
100
AcDb3dPolylineVertex
 10
115.64865676323461
 20
614.04917005733068
 30
0.0
 70
              32
  0
VERTEX
  5
F4
100
AcDbEntity
  8
MD_Visible
370
               0
390
0
 62
               7
100
AcDbVertex
100
AcDb3dPolylineVertex
 10
115.66310258321755
 20
613.7551186363421
 30
0.0
 70
              32
  0
VERTEX
  5
F5
100
AcDbEntity
  8
MD_Visible
370
               0
390
0
 62
               7
100
AcDbVertex
100
AcDb3dPolylineVertex
 10
115.70630092202555
 20
613.4638990912822
 30
0.0
 70
              32
  0
VERTEX
  5
F6
100
AcDbEntity
  8
MD_Visible
370
               0
390
0
 62
               7
100
AcDbVertex
100
AcDb3dPolylineVertex
 10
115.77783575603826
 20
613.17831602556726
 30
0.0
 70
              32
  0
VERTEX
  5
F7
100
AcDbEntity
  8
MD_Visible
370
               0
390
0
 62
               7
100
AcDbVertex
100
AcDb3dPolylineVertex
 10
115.87701816570188
 20
612.90111976023536
 30
0.0
 70
              32
  0
VERTEX
  5
F8
100
AcDbEntity
  8
MD_Visible
370
               0
390
0
 62
               7
100
AcDbVertex
100
AcDb3dPolylineVertex
 10
116.00289297019117
 20
612.63497984685273
 30
0.0
 70
              32
  0
VERTEX
  5
F9
100
AcDbEntity
  8
MD_Visible
370
               0
390
0
 62
               7
100
AcDbVertex
100
AcDb3dPolylineVertex
 10
116.15424792632621
 20
612.38245935827172
 30
0.0
 70
              32
  0
VERTEX
  5
FA
100
AcDbEntity
  8
MD_Visible
370
               0
390
0
 62
               7
100
AcDbVertex
100
AcDb3dPolylineVertex
 10
116.32962540314475
 20
612.14599020483956
 30
0.0
 70
              32
  0
VERTEX
  5
FB
100
AcDbEntity
  8
MD_Visible
370
               0
390
0
 62
               7
100
AcDbVertex
100
AcDb3dPolylineVertex
 10
116.52733641967643
 20
611.92784971377091
 30
0.0
 70
              32
  0
VERTEX
  5
FC
100
AcDbEntity
  8
MD_Visible
370
               0
390
0
 62
               7
100
AcDbVertex
100
AcDb3dPolylineVertex
 10
116.74547691074258
 20
611.73013869724241
 30
0.0
 70
              32
  0
VERTEX
  5
FD
100
AcDbEntity
  8
MD_Visible
370
               0
390
0
 62
               7
100
AcDbVertex
100
AcDb3dPolylineVertex
 10
116.98194606417746
 20
611.55476122042296
 30
0.0
 70
              32
  0
VERTEX
  5
FE
100
AcDbEntity
  8
MD_Visible
370
               0
390
0
 62
               7
100
AcDbVertex
100
AcDb3dPolylineVertex
 10
117.2344665527562
 20
611.40340626428542
 30
0.0
 70
              32
  0
VERTEX
  5
FF
100
AcDbEntity
  8
MD_Visible
370
               0
390
0
 62
               7
100
AcDbVertex
100
AcDb3dPolylineVertex
 10
117.50060646613929
 20
611.27753145979682
 30
0.0
 70
              32
  0
VERTEX
  5
100
100
AcDbEntity
  8
MD_Visible
370
               0
390
0
 62
               7
100
AcDbVertex
100
AcDb3dPolylineVertex
 10
117.77780273147073
 20
611.17834905013387
 30
0.0
 70
              32
  0
VERTEX
  5
101
100
AcDbEntity
  8
MD_Visible
370
               0
390
0
 62
               7
100
AcDbVertex
100
AcDb3dPolylineVertex
 10
118.06338579718795
 20
611.10681421612094
 30
0.0
 70
              32
  0
VERTEX
  5
102
100
AcDbEntity
  8
MD_Visible
370
               0
390
0
 62
               7
100
AcDbVertex
100
AcDb3dPolylineVertex
 10
118.35460534224694
 20
611.06361587731408
 30
0.0
 70
              32
  0
VERTEX
  5
103
100
AcDbEntity
  8
MD_Visible
370
               0
390
0
 62
               7
100
AcDbVertex
100
AcDb3dPolylineVertex
 10
118.64865676323461
 20
611.04917005733068
 30
0.0
 70
              32
  0
SEQEND
  5
104
100
AcDbEntity
  8
MD_Visible
370
               0
390
0
 62
               7
  0
LINE
  5
105
100
AcDbEntity
  8
MD_Visible
370
               0
390
0
 62
               7
100
AcDbLine
 10
158.64865676323461
 20
917.54917005732523
 30
0.0
 11
146.64865676323461
 21
917.54917005732523
 31
0.0
  0
POLYLINE
  5
106
100
AcDbEntity
  8
MD_Visible
370
               0
390
0
 62
               7
100
AcDb3dPolyline
 66
               1
 10
0.0
 20
0.0
 30
0.0
 70
               8
  0
VERTEX
  5
107
100
AcDbEntity
  8
MD_Visible
370
               0
390
0
 62
               7
100
AcDbVertex
100
AcDb3dPolylineVertex
 10
-381.35134323676539
 20
617.04917005733068
 30
0.0
 70
              32
  0
VERTEX
  5
108
100
AcDbEntity
  8
MD_Visible
370
               0
390
0
 62
               7
100
AcDbVertex
100
AcDb3dPolylineVertex
 10
-381.64539465775306
 20
617.03472423734729
 30
0.0
 70
              32
  0
VERTEX
  5
109
100
AcDbEntity
  8
MD_Visible
370
               0
390
0
 62
               7
100
AcDbVertex
100
AcDb3dPolylineVertex
 10
-381.93661420281205
 20
616.99152589854043
 30
0.0
 70
              32
  0
VERTEX
  5
10A
100
AcDbEntity
  8
MD_Visible
370
               0
390
0
 62
               7
100
AcDbVertex
100
AcDb3dPolylineVertex
 10
-382.22219726852927
 20
616.91999106452727
 30
0.0
 70
              32
  0
VERTEX
  5
10B
100
AcDbEntity
  8
MD_Visible
370
               0
390
0
 62
               7
100
AcDbVertex
100
AcDb3dPolylineVertex
 10
-382.49939353386071
 20
616.82080865486455
 30
0.0
 70
              32
  0
VERTEX
  5
10C
100
AcDbEntity
  8
MD_Visible
370
               0
390
0
 62
               7
100
AcDbVertex
100
AcDb3dPolylineVertex
 10
-382.7655334472438
 20
616.69493385037572
 30
0.0
 70
              32
  0
VERTEX
  5
10D
100
AcDbEntity
  8
MD_Visible
370
               0
390
0
 62
               7
100
AcDbVertex
100
AcDb3dPolylineVertex
 10
-383.01805393582254
 20
616.54357889423841
 30
0.0
 70
              32
  0
VERTEX
  5
10E
100
AcDbEntity
  8
MD_Visible
370
               0
390
0
 62
               7
100
AcDbVertex
100
AcDb3dPolylineVertex
 10
-383.25452308925742
 20
616.36820141741896
 30
0.0
 70
              32
  0
VERTEX
  5
10F
100
AcDbEntity
  8
MD_Visible
370
               0
390
0
 62
               7
100
AcDbVertex
100
AcDb3dPolylineVertex
 10
-383.47266358032357
 20
616.17049040089023
 30
0.0
 70
              32
  0
VERTEX
  5
110
100
AcDbEntity
  8
MD_Visible
370
               0
390
0
 62
               7
100
AcDbVertex
100
AcDb3dPolylineVertex
 10
-383.67037459685525
 20
615.95234990982158
 30
0.0
 70
              32
  0
VERTEX
  5
111
100
AcDbEntity
  8
MD_Visible
370
               0
390
0
 62
               7
100
AcDbVertex
100
AcDb3dPolylineVertex
 10
-383.84575207367379
 20
615.71588075638942
 30
0.0
 70
              32
  0
VERTEX
  5
112
100
AcDbEntity
  8
MD_Visible
370
               0
390
0
 62
               7
100
AcDbVertex
100
AcDb3dPolylineVertex
 10
-383.99710702980883
 20
615.46336026780864
 30
0.0
 70
              32
  0
VERTEX
  5
113
100
AcDbEntity
  8
MD_Visible
370
               0
390
0
 62
               7
100
AcDbVertex
100
AcDb3dPolylineVertex
 10
-384.12298183429812
 20
615.19722035442601
 30
0.0
 70
              32
  0
VERTEX
  5
114
100
AcDbEntity
  8
MD_Visible
370
               0
390
0
 62
               7
100
AcDbVertex
100
AcDb3dPolylineVertex
 10
-384.22216424396174
 20
614.92002408909411
 30
0.0
 70
              32
  0
VERTEX
  5
115
100
AcDbEntity
  8
MD_Visible
370
               0
390
0
 62
               7
100
AcDbVertex
100
AcDb3dPolylineVertex
 10
-384.29369907797445
 20
614.63444102337917
 30
0.0
 70
              32
  0
VERTEX
  5
116
100
AcDbEntity
  8
MD_Visible
370
               0
390
0
 62
               7
100
AcDbVertex
100
AcDb3dPolylineVertex
 10
-384.33689741678245
 20
614.34322147831926
 30
0.0
 70
              32
  0
VERTEX
  5
117
100
AcDbEntity
  8
MD_Visible
370
               0
390
0
 62
               7
100
AcDbVertex
100
AcDb3dPolylineVertex
 10
-384.35134323676539
 20
614.04917005733068
 30
0.0
 70
              32
  0
VERTEX
  5
118
100
AcDbEntity
  8
MD_Visible
370
               0
390
0
 62
               7
100
AcDbVertex
100
AcDb3dPolylineVertex
 10
-384.33689741678245
 20
613.7551186363421
 30
0.0
 70
              32
  0
VERTEX
  5
119
100
AcDbEntity
  8
MD_Visible
370
               0
390
0
 62
               7
100
AcDbVertex
100
AcDb3dPolylineVertex
 10
-384.29369907797445
 20
613.4638990912822
 30
0.0
 70
              32
  0
VERTEX
  5
11A
100
AcDbEntity
  8
MD_Visible
370
               0
390
0
 62
               7
100
AcDbVertex
100
AcDb3dPolylineVertex
 10
-384.22216424396174
 20
613.17831602556726
 30
0.0
 70
              32
  0
VERTEX
  5
11B
100
AcDbEntity
  8
MD_Visible
370
               0
390
0
 62
               7
100
AcDbVertex
100
AcDb3dPolylineVertex
 10
-384.12298183429812
 20
612.90111976023536
 30
0.0
 70
              32
  0
VERTEX
  5
11C
100
AcDbEntity
  8
MD_Visible
370
               0
390
0
 62
               7
100
AcDbVertex
100
AcDb3dPolylineVertex
 10
-383.99710702980883
 20
612.63497984685273
 30
0.0
 70
              32
  0
VERTEX
  5
11D
100
AcDbEntity
  8
MD_Visible
370
               0
390
0
 62
               7
100
AcDbVertex
100
AcDb3dPolylineVertex
 10
-383.84575207367379
 20
612.38245935827194
 30
0.0
 70
              32
  0
VERTEX
  5
11E
100
AcDbEntity
  8
MD_Visible
370
               0
390
0
 62
               7
100
AcDbVertex
100
AcDb3dPolylineVertex
 10
-383.67037459685525
 20
612.14599020483979
 30
0.0
 70
              32
  0
VERTEX
  5
11F
100
AcDbEntity
  8
MD_Visible
370
               0
390
0
 62
               7
100
AcDbVertex
100
AcDb3dPolylineVertex
 10
-383.47266358032357
 20
611.92784971377114
 30
0.0
 70
              32
  0
VERTEX
  5
120
100
AcDbEntity
  8
MD_Visible
370
               0
390
0
 62
               7
100
AcDbVertex
100
AcDb3dPolylineVertex
 10
-383.25452308925742
 20
611.73013869724241
 30
0.0
 70
              32
  0
VERTEX
  5
121
100
AcDbEntity
  8
MD_Visible
370
               0
390
0
 62
               7
100
AcDbVertex
100
AcDb3dPolylineVertex
 10
-383.01805393582254
 20
611.55476122042296
 30
0.0
 70
              32
  0
VERTEX
  5
122
100
AcDbEntity
  8
MD_Visible
370
               0
390
0
 62
               7
100
AcDbVertex
100
AcDb3dPolylineVertex
 10
-382.7655334472438
 20
611.40340626428565
 30
0.0
 70
              32
  0
VERTEX
  5
123
100
AcDbEntity
  8
MD_Visible
370
               0
390
0
 62
               7
100
AcDbVertex
100
AcDb3dPolylineVertex
 10
-382.49939353386071
 20
611.27753145979682
 30
0.0
 70
              32
  0
VERTEX
  5
124
100
AcDbEntity
  8
MD_Visible
370
               0
390
0
 62
               7
100
AcDbVertex
100
AcDb3dPolylineVertex
 10
-382.22219726852927
 20
611.1783490501341
 30
0.0
 70
              32
  0
VERTEX
  5
125
100
AcDbEntity
  8
MD_Visible
370
               0
390
0
 62
               7
100
AcDbVertex
100
AcDb3dPolylineVertex
 10
-381.93661420281205
 20
611.10681421612094
 30
0.0
 70
              32
  0
VERTEX
  5
126
100
AcDbEntity
  8
MD_Visible
370
               0
390
0
 62
               7
100
AcDbVertex
100
AcDb3dPolylineVertex
 10
-381.64539465775306
 20
611.06361587731408
 30
0.0
 70
              32
  0
VERTEX
  5
127
100
AcDbEntity
  8
MD_Visible
370
               0
390
0
 62
               7
100
AcDbVertex
100
AcDb3dPolylineVertex
 10
-381.35134323676539
 20
611.04917005733068
 30
0.0
 70
              32
  0
SEQEND
  5
128
100
AcDbEntity
  8
MD_Visible
370
               0
390
0
 62
               7
  0
POLYLINE
  5
129
100
AcDbEntity
  8
MD_Visible
370
               0
390
0
 62
               7
100
AcDb3dPolyline
 66
               1
 10
0.0
 20
0.0
 30
0.0
 70
               8
  0
VERTEX
  5
12A
100
AcDbEntity
  8
MD_Visible
370
               0
390
0
 62
               7
100
AcDbVertex
100
AcDb3dPolylineVertex
 10
-131.35134323676533
 20
617.04917005733068
 30
0.0
 70
              32
  0
VERTEX
  5
12B
100
AcDbEntity
  8
MD_Visible
370
               0
390
0
 62
               7
100
AcDbVertex
100
AcDb3dPolylineVertex
 10
-131.645394657753
 20
617.03472423734729
 30
0.0
 70
              32
  0
VERTEX
  5
12C
100
AcDbEntity
  8
MD_Visible
370
               0
390
0
 62
               7
100
AcDbVertex
100
AcDb3dPolylineVertex
 10
-131.936614202812
 20
616.99152589854043
 30
0.0
 70
              32
  0
VERTEX
  5
12D
100
AcDbEntity
  8
MD_Visible
370
               0
390
0
 62
               7
100
AcDbVertex
100
AcDb3dPolylineVertex
 10
-132.22219726852921
 20
616.91999106452727
 30
0.0
 70
              32
  0
VERTEX
  5
12E
100
AcDbEntity
  8
MD_Visible
370
               0
390
0
 62
               7
100
AcDbVertex
100
AcDb3dPolylineVertex
 10
-132.49939353386065
 20
616.82080865486455
 30
0.0
 70
              32
  0
VERTEX
  5
12F
100
AcDbEntity
  8
MD_Visible
370
               0
390
0
 62
               7
100
AcDbVertex
100
AcDb3dPolylineVertex
 10
-132.76553344724374
 20
616.69493385037572
 30
0.0
 70
              32
  0
VERTEX
  5
130
100
AcDbEntity
  8
MD_Visible
370
               0
390
0
 62
               7
100
AcDbVertex
100
AcDb3dPolylineVertex
 10
-133.01805393582248
 20
616.54357889423841
 30
0.0
 70
              32
  0
VERTEX
  5
131
100
AcDbEntity
  8
MD_Visible
370
               0
390
0
 62
               7
100
AcDbVertex
100
AcDb3dPolylineVertex
 10
-133.25452308925736
 20
616.36820141741896
 30
0.0
 70
              32
  0
VERTEX
  5
132
100
AcDbEntity
  8
MD_Visible
370
               0
390
0
 62
               7
100
AcDbVertex
100
AcDb3dPolylineVertex
 10
-133.47266358032351
 20
616.17049040089023
 30
0.0
 70
              32
  0
VERTEX
  5
133
100
AcDbEntity
  8
MD_Visible
370
               0
390
0
 62
               7
100
AcDbVertex
100
AcDb3dPolylineVertex
 10
-133.6703745968552
 20
615.95234990982158
 30
0.0
 70
              32
  0
VERTEX
  5
134
100
AcDbEntity
  8
MD_Visible
370
               0
390
0
 62
               7
100
AcDbVertex
100
AcDb3dPolylineVertex
 10
-133.84575207367374
 20
615.71588075638942
 30
0.0
 70
              32
  0
VERTEX
  5
135
100
AcDbEntity
  8
MD_Visible
370
               0
390
0
 62
               7
100
AcDbVertex
100
AcDb3dPolylineVertex
 10
-133.99710702980877
 20
615.46336026780864
 30
0.0
 70
              32
  0
VERTEX
  5
136
100
AcDbEntity
  8
MD_Visible
370
               0
390
0
 62
               7
100
AcDbVertex
100
AcDb3dPolylineVertex
 10
-134.12298183429806
 20
615.19722035442601
 30
0.0
 70
              32
  0
VERTEX
  5
137
100
AcDbEntity
  8
MD_Visible
370
               0
390
0
 62
               7
100
AcDbVertex
100
AcDb3dPolylineVertex
 10
-134.22216424396169
 20
614.92002408909411
 30
0.0
 70
              32
  0
VERTEX
  5
138
100
AcDbEntity
  8
MD_Visible
370
               0
390
0
 62
               7
100
AcDbVertex
100
AcDb3dPolylineVertex
 10
-134.2936990779744
 20
614.63444102337917
 30
0.0
 70
              32
  0
VERTEX
  5
139
100
AcDbEntity
  8
MD_Visible
370
               0
390
0
 62
               7
100
AcDbVertex
100
AcDb3dPolylineVertex
 10
-134.33689741678239
 20
614.34322147831926
 30
0.0
 70
              32
  0
VERTEX
  5
13A
100
AcDbEntity
  8
MD_Visible
370
               0
390
0
 62
               7
100
AcDbVertex
100
AcDb3dPolylineVertex
 10
-134.35134323676533
 20
614.04917005733068
 30
0.0
 70
              32
  0
VERTEX
  5
13B
100
AcDbEntity
  8
MD_Visible
370
               0
390
0
 62
               7
100
AcDbVertex
100
AcDb3dPolylineVertex
 10
-134.33689741678239
 20
613.7551186363421
 30
0.0
 70
              32
  0
VERTEX
  5
13C
100
AcDbEntity
  8
MD_Visible
370
               0
390
0
 62
               7
100
AcDbVertex
100
AcDb3dPolylineVertex
 10
-134.2936990779744
 20
613.4638990912822
 30
0.0
 70
              32
  0
VERTEX
  5
13D
100
AcDbEntity
  8
MD_Visible
370
               0
390
0
 62
               7
100
AcDbVertex
100
AcDb3dPolylineVertex
 10
-134.22216424396169
 20
613.17831602556726
 30
0.0
 70
              32
  0
VERTEX
  5
13E
100
AcDbEntity
  8
MD_Visible
370
               0
390
0
 62
               7
100
AcDbVertex
100
AcDb3dPolylineVertex
 10
-134.12298183429806
 20
612.90111976023536
 30
0.0
 70
              32
  0
VERTEX
  5
13F
100
AcDbEntity
  8
MD_Visible
370
               0
390
0
 62
               7
100
AcDbVertex
100
AcDb3dPolylineVertex
 10
-133.99710702980877
 20
612.63497984685273
 30
0.0
 70
              32
  0
VERTEX
  5
140
100
AcDbEntity
  8
MD_Visible
370
               0
390
0
 62
               7
100
AcDbVertex
100
AcDb3dPolylineVertex
 10
-133.84575207367374
 20
612.38245935827194
 30
0.0
 70
              32
  0
VERTEX
  5
141
100
AcDbEntity
  8
MD_Visible
370
               0
390
0
 62
               7
100
AcDbVertex
100
AcDb3dPolylineVertex
 10
-133.6703745968552
 20
612.14599020483979
 30
0.0
 70
              32
  0
VERTEX
  5
142
100
AcDbEntity
  8
MD_Visible
370
               0
390
0
 62
               7
100
AcDbVertex
100
AcDb3dPolylineVertex
 10
-133.47266358032351
 20
611.92784971377114
 30
0.0
 70
              32
  0
VERTEX
  5
143
100
AcDbEntity
  8
MD_Visible
370
               0
390
0
 62
               7
100
AcDbVertex
100
AcDb3dPolylineVertex
 10
-133.25452308925736
 20
611.73013869724241
 30
0.0
 70
              32
  0
VERTEX
  5
144
100
AcDbEntity
  8
MD_Visible
370
               0
390
0
 62
               7
100
AcDbVertex
100
AcDb3dPolylineVertex
 10
-133.01805393582248
 20
611.55476122042296
 30
0.0
 70
              32
  0
VERTEX
  5
145
100
AcDbEntity
  8
MD_Visible
370
               0
390
0
 62
               7
100
AcDbVertex
100
AcDb3dPolylineVertex
 10
-132.76553344724374
 20
611.40340626428565
 30
0.0
 70
              32
  0
VERTEX
  5
146
100
AcDbEntity
  8
MD_Visible
370
               0
390
0
 62
               7
100
AcDbVertex
100
AcDb3dPolylineVertex
 10
-132.49939353386065
 20
611.27753145979682
 30
0.0
 70
              32
  0
VERTEX
  5
147
100
AcDbEntity
  8
MD_Visible
370
               0
390
0
 62
               7
100
AcDbVertex
100
AcDb3dPolylineVertex
 10
-132.22219726852921
 20
611.1783490501341
 30
0.0
 70
              32
  0
VERTEX
  5
148
100
AcDbEntity
  8
MD_Visible
370
               0
390
0
 62
               7
100
AcDbVertex
100
AcDb3dPolylineVertex
 10
-131.936614202812
 20
611.10681421612094
 30
0.0
 70
              32
  0
VERTEX
  5
149
100
AcDbEntity
  8
MD_Visible
370
               0
390
0
 62
               7
100
AcDbVertex
100
AcDb3dPolylineVertex
 10
-131.645394657753
 20
611.06361587731408
 30
0.0
 70
              32
  0
VERTEX
  5
14A
100
AcDbEntity
  8
MD_Visible
370
               0
390
0
 62
               7
100
AcDbVertex
100
AcDb3dPolylineVertex
 10
-131.35134323676533
 20
611.04917005733068
 30
0.0
 70
              32
  0
SEQEND
  5
14B
100
AcDbEntity
  8
MD_Visible
370
               0
390
0
 62
               7
  0
LINE
  5
14C
100
AcDbEntity
  8
MD_Visible
370
               0
390
0
 62
               7
100
AcDbLine
 10
150.64865676323825
 20
599.19209272136641
 30
0.0
 11
150.64865676323825
 21
626.04917005732523
 31
0.0
  0
LINE
  5
14D
100
AcDbEntity
  8
MD_Visible
370
               0
390
0
 62
               7
100
AcDbLine
 10
150.64865676323825
 20
626.04917005732523
 30
0.0
 11
146.64865676323461
 21
626.04917005732523
 31
0.0
  0
LINE
  5
14E
100
AcDbEntity
  8
MD_Visible
370
               0
390
0
 62
               7
100
AcDbLine
 10
146.64865676323461
 20
626.04917005732523
 30
0.0
 11
146.64865676323461
 21
917.54917005732523
 31
0.0
  0
LINE
  5
14F
100
AcDbEntity
  8
MD_Visible
370
               0
390
0
 62
               7
100
AcDbLine
 10
146.64865676323461
 20
626.04917005732523
 30
0.0
 11
146.64865676323461
 21
625.04917005733796
 31
0.0
  0
LINE
  5
150
100
AcDbEntity
  8
MD_Visible
370
               0
390
0
 62
               7
100
AcDbLine
 10
158.64865676323461
 20
917.54917005732523
 30
0.0
 11
158.64865676323461
 21
599.19209272136641
 31
0.0
  0
LINE
  5
151
100
AcDbEntity
  8
MD_Visible
370
               0
390
0
 62
               7
100
AcDbLine
 10
-413.35134323676175
 20
567.54917005732523
 30
0.0
 11
-421.35134323676539
 21
567.54917005732523
 31
0.0
  0
LINE
  5
152
100
AcDbEntity
  8
MD_Visible
370
               0
390
0
 62
               7
100
AcDbLine
 10
-412.35134323676539
 20
571.54917005732523
 30
0.0
 11
-413.35134323676175
 21
571.54917005732523
 31
0.0
  0
LINE
  5
153
100
AcDbEntity
  8
MD_Visible
370
               0
390
0
 62
               7
100
AcDbLine
 10
-421.35134323676539
 20
917.54917005732523
 30
0.0
 11
-409.35134323676539
 21
917.54917005732523
 31
0.0
  0
LINE
  5
154
100
AcDbEntity
  8
MD_Visible
370
               0
390
0
 62
               7
100
AcDbLine
 10
-409.35134323676539
 20
626.04917005732523
 30
0.0
 11
-409.35134323676539
 21
917.54917005732523
 31
0.0
  0
LINE
  5
155
100
AcDbEntity
  8
MD_Visible
370
               0
390
0
 62
               7
100
AcDbLine
 10
-413.35134323676175
 20
626.04917005732523
 30
0.0
 11
-413.35134323676175
 21
599.19209272136641
 31
0.0
  0
LINE
  5
156
100
AcDbEntity
  8
MD_Visible
370
               0
390
0
 62
               7
100
AcDbLine
 10
-409.35134323676539
 20
626.04917005732523
 30
0.0
 11
-413.35134323676175
 21
626.04917005732523
 31
0.0
  0
LINE
  5
157
100
AcDbEntity
  8
MD_Visible
370
               0
390
0
 62
               7
100
AcDbLine
 10
-409.35134323676539
 20
625.04917005733796
 30
0.0
 11
-409.35134323676539
 21
626.04917005732523
 31
0.0
  0
LINE
  5
158
100
AcDbEntity
  8
MD_Visible
370
               0
390
0
 62
               7
100
AcDbLine
 10
-421.35134323676539
 20
917.54917005732523
 30
0.0
 11
-421.35134323676539
 21
599.19209272136641
 31
0.0
  0
LINE
  5
159
100
AcDbEntity
  8
MD_Visible
370
               0
390
0
 62
               7
100
AcDbLine
 10
-412.35134323676539
 20
599.19209272137914
 30
0.0
 11
-412.35134323676539
 21
580.41667701642064
 31
0.0
  0
LINE
  5
15A
100
AcDbEntity
  8
MD_Visible
370
               0
390
0
 62
               7
100
AcDbLine
 10
149.64865676323461
 20
599.19209272137914
 30
0.0
 11
149.64865676323461
 21
580.41667701642064
 31
0.0
  0
LINE
  5
15B
100
AcDbEntity
  8
MD_Visible
370
               0
390
0
 62
               7
100
AcDbLine
 10
124.14865676323461
 20
568.54917005733796
 30
0.0
 11
124.14865676323461
 21
568.75931621292284
 31
0.0
  0
LINE
  5
15C
100
AcDbEntity
  8
MD_Visible
370
               0
390
0
 62
               7
100
AcDbLine
 10
83.148656763234612
 20
568.75931621292284
 30
0.0
 11
83.148656763234612
 21
568.54917005733796
 31
0.0
  0
LINE
  5
15D
100
AcDbEntity
  8
MD_Visible
370
               0
390
0
 62
               7
100
AcDbLine
 10
149.64865676323461
 20
580.416677016417
 30
0.0
 11
149.64865676323461
 21
568.54917005733978
 31
0.0
  0
LINE
  5
15E
100
AcDbEntity
  8
MD_Visible
370
               0
390
0
 62
               7
100
AcDbLine
 10
-412.35134323676539
 20
580.416677016417
 30
0.0
 11
-412.35134323676539
 21
568.54917005733978
 31
0.0
  0
LINE
  5
15F
100
AcDbEntity
  8
MD_Visible
370
               0
390
0
 62
               7
100
AcDbLine
 10
150.64865676323825
 20
599.19209272136641
 30
0.0
 11
150.64865676323825
 21
579.42849724246253
 31
0.0
  0
LINE
  5
160
100
AcDbEntity
  8
MD_Visible
370
               0
390
0
 62
               7
100
AcDbLine
 10
150.64865676323825
 20
579.42849724245889
 30
0.0
 11
150.64865676323825
 21
567.54917005732523
 31
0.0
  0
LINE
  5
161
100
AcDbEntity
  8
MD_Visible
370
               0
390
0
 62
               7
100
AcDbLine
 10
158.64865676323461
 20
567.54917005732523
 30
0.0
 11
158.64865676323461
 21
579.42849724245707
 31
0.0
  0
LINE
  5
162
100
AcDbEntity
  8
MD_Visible
370
               0
390
0
 62
               7
100
AcDbLine
 10
158.64865676323461
 20
599.19209272136641
 30
0.0
 11
158.64865676323461
 21
579.42849724246253
 31
0.0
  0
LINE
  5
163
100
AcDbEntity
  8
MD_Visible
370
               0
390
0
 62
               7
100
AcDbLine
 10
-413.35134323676175
 20
567.54917005732523
 30
0.0
 11
-413.35134323676175
 21
579.42849724245889
 31
0.0
  0
LINE
  5
164
100
AcDbEntity
  8
MD_Visible
370
               0
390
0
 62
               7
100
AcDbLine
 10
-413.35134323676175
 20
579.42849724246435
 30
0.0
 11
-413.35134323676175
 21
599.19209272136641
 31
0.0
  0
LINE
  5
165
100
AcDbEntity
  8
MD_Visible
370
               0
390
0
 62
               7
100
AcDbLine
 10
-421.35134323676539
 20
599.19209272136641
 30
0.0
 11
-421.35134323676539
 21
579.42849724246435
 31
0.0
  0
LINE
  5
166
100
AcDbEntity
  8
MD_Visible
370
               0
390
0
 62
               7
100
AcDbLine
 10
-421.35134323676539
 20
567.54917005732523
 30
0.0
 11
-421.35134323676539
 21
579.42849724245889
 31
0.0
  0
ENDBLK
  5
167
100
AcDbEntity
  8
0
390
0
100
AcDbBlockEnd
  0
BLOCK
  5
168
100
AcDbEntity
  8
0
390
0
100
AcDbBlockBegin
  2
グループ-5
 70
               0
 10
0.0
 20
0.0
 30
0.0
  3
グループ-5
  1

  0
ARC
  5
169
100
AcDbEntity
  8
MD_Visible
370
               0
390
0
 62
               7
100
AcDbCircle
 10
118.64865676323097
 20
-585.82106009824247
 30
0.0
 40
3.0
100
AcDbArc
 50
270.0
 51
90.0
  0
ARC
  5
16A
100
AcDbEntity
  8
MD_Visible
370
               0
390
0
 62
               7
100
AcDbCircle
 10
-381.35134323676903
 20
-585.82106009824429
 30
0.0
 40
3.0
100
AcDbArc
 50
270.0
 51
90.0
  0
POLYLINE
  5
16B
100
AcDbEntity
  8
MD_Visible
370
               0
390
0
 62
               7
100
AcDb3dPolyline
 66
               1
 10
0.0
 20
0.0
 30
0.0
 70
               8
  0
VERTEX
  5
16C
100
AcDbEntity
  8
MD_Visible
370
               0
390
0
 62
               7
100
AcDbVertex
100
AcDb3dPolylineVertex
 10
83.148656763230974
 20
-540.32106009819336
 30
0.0
 70
              32
  0
VERTEX
  5
16D
100
AcDbEntity
  8
MD_Visible
370
               0
390
0
 62
               7
100
AcDbVertex
100
AcDb3dPolylineVertex
 10
-412.35134323676903
 20
-540.32106009819336
 30
0.0
 70
              32
  0
SEQEND
  5
16E
100
AcDbEntity
  8
MD_Visible
370
               0
390
0
 62
               7
  0
POLYLINE
  5
16F
100
AcDbEntity
  8
MD_Visible
370
               0
390
0
 62
               7
100
AcDb3dPolyline
 66
               1
 10
0.0
 20
0.0
 30
0.0
 70
               8
  0
VERTEX
  5
170
100
AcDbEntity
  8
MD_Visible
370
               0
390
0
 62
               7
100
AcDbVertex
100
AcDb3dPolylineVertex
 10
149.64865676323097
 20
-540.32106009819154
 30
0.0
 70
              32
  0
VERTEX
  5
171
100
AcDbEntity
  8
MD_Visible
370
               0
390
0
 62
               7
100
AcDbVertex
100
AcDb3dPolylineVertex
 10
124.14865676323097
 20
-540.32106009819154
 30
0.0
 70
              32
  0
SEQEND
  5
172
100
AcDbEntity
  8
MD_Visible
370
               0
390
0
 62
               7
  0
POLYLINE
  5
173
100
AcDbEntity
  8
MD_Visible
370
               0
390
0
 62
               7
100
AcDb3dPolyline
 66
               1
 10
0.0
 20
0.0
 30
0.0
 70
               8
  0
VERTEX
  5
174
100
AcDbEntity
  8
MD_Visible
370
               0
390
0
 62
               7
100
AcDbVertex
100
AcDb3dPolylineVertex
 10
149.64865676323097
 20
-596.82106009824247
 30
0.0
 70
              32
  0
VERTEX
  5
175
100
AcDbEntity
  8
MD_Visible
370
               0
390
0
 62
               7
100
AcDbVertex
100
AcDb3dPolylineVertex
 10
149.64865676323097
 20
-570.96398276228365
 30
0.0
 70
              32
  0
SEQEND
  5
176
100
AcDbEntity
  8
MD_Visible
370
               0
390
0
 62
               7
  0
ARC
  5
177
100
AcDbEntity
  8
MD_Visible
370
               0
390
0
 62
               7
100
AcDbCircle
 10
-131.35134323676897
 20
-585.82106009824429
 30
0.0
 40
3.0
100
AcDbArc
 50
270.0
 51
90.0
  0
POLYLINE
  5
178
100
AcDbEntity
  8
MD_Visible
370
               0
390
0
 62
               7
100
AcDb3dPolyline
 66
               1
 10
0.0
 20
0.0
 30
0.0
 70
               8
  0
VERTEX
  5
179
100
AcDbEntity
  8
MD_Visible
370
               0
390
0
 62
               7
100
AcDbVertex
100
AcDb3dPolylineVertex
 10
149.64865676323097
 20
-596.82106009824247
 30
0.0
 70
              32
  0
VERTEX
  5
17A
100
AcDbEntity
  8
MD_Visible
370
               0
390
0
 62
               7
100
AcDbVertex
100
AcDb3dPolylineVertex
 10
-412.35134323676903
 20
-596.82106009824429
 30
0.0
 70
              32
  0
SEQEND
  5
17B
100
AcDbEntity
  8
MD_Visible
370
               0
390
0
 62
               7
  0
POLYLINE
  5
17C
100
AcDbEntity
  8
MD_Visible
370
               0
390
0
 62
               7
100
AcDb3dPolyline
 66
               1
 10
0.0
 20
0.0
 30
0.0
 70
               8
  0
VERTEX
  5
17D
100
AcDbEntity
  8
MD_Visible
370
               0
390
0
 62
               7
100
AcDbVertex
100
AcDb3dPolylineVertex
 10
-412.35134323676903
 20
-596.82106009824429
 30
0.0
 70
              32
  0
VERTEX
  5
17E
100
AcDbEntity
  8
MD_Visible
370
               0
390
0
 62
               7
100
AcDbVertex
100
AcDb3dPolylineVertex
 10
-412.35134323676903
 20
-570.96398276228547
 30
0.0
 70
              32
  0
SEQEND
  5
17F
100
AcDbEntity
  8
MD_Visible
370
               0
390
0
 62
               7
  0
POLYLINE
  5
180
100
AcDbEntity
  8
MD_Visible
370
               0
390
0
 62
               7
100
AcDb3dPolyline
 66
               1
 10
0.0
 20
0.0
 30
0.0
 70
               8
  0
VERTEX
  5
181
100
AcDbEntity
  8
MD_Visible
370
               0
390
0
 62
               7
100
AcDbVertex
100
AcDb3dPolylineVertex
 10
124.14865676323097
 20
-540.53120625378187
 30
0.0000000000002274
 70
              32
  0
VERTEX
  5
182
100
AcDbEntity
  8
MD_Visible
370
               0
390
0
 62
               7
100
AcDbVertex
100
AcDb3dPolylineVertex
 10
83.148656763230974
 20
-540.53120625378369
 30
0.0000000000002274
 70
              32
  0
SEQEND
  5
183
100
AcDbEntity
  8
MD_Visible
370
               0
390
0
 62
               7
  0
POLYLINE
  5
184
100
AcDbEntity
  8
MD_Visible
370
               0
390
0
 62
               7
100
AcDb3dPolyline
 66
               1
 10
0.0
 20
0.0
 30
0.0
 70
               8
  0
VERTEX
  5
185
100
AcDbEntity
  8
MD_Visible
370
               0
390
0
 62
               7
100
AcDbVertex
100
AcDb3dPolylineVertex
 10
146.64865676323461
 20
-596.82106009824065
 30
0.0
 70
              32
  0
VERTEX
  5
186
100
AcDbEntity
  8
MD_Visible
370
               0
390
0
 62
               7
100
AcDbVertex
100
AcDb3dPolylineVertex
 10
146.64865676323461
 20
-597.82106009822792
 30
0.0
 70
              32
  0
SEQEND
  5
187
100
AcDbEntity
  8
MD_Visible
370
               0
390
0
 62
               7
  0
POLYLINE
  5
188
100
AcDbEntity
  8
MD_Visible
370
               0
390
0
 62
               7
100
AcDb3dPolyline
 66
               1
 10
0.0
 20
0.0
 30
0.0
 70
               8
  0
VERTEX
  5
189
100
AcDbEntity
  8
MD_Visible
370
               0
390
0
 62
               7
100
AcDbVertex
100
AcDb3dPolylineVertex
 10
-409.35134323676539
 20
-597.82106009822974
 30
0.0
 70
              32
  0
VERTEX
  5
18A
100
AcDbEntity
  8
MD_Visible
370
               0
390
0
 62
               7
100
AcDbVertex
100
AcDb3dPolylineVertex
 10
-409.35134323676539
 20
-596.82106009824247
 30
0.0
 70
              32
  0
SEQEND
  5
18B
100
AcDbEntity
  8
MD_Visible
370
               0
390
0
 62
               7
  0
POLYLINE
  5
18C
100
AcDbEntity
  8
MD_Visible
370
               0
390
0
 62
               7
100
AcDb3dPolyline
 66
               1
 10
0.0
 20
0.0
 30
0.0
 70
               8
  0
VERTEX
  5
18D
100
AcDbEntity
  8
MD_Visible
370
               0
390
0
 62
               7
100
AcDbVertex
100
AcDb3dPolylineVertex
 10
146.64865676323461
 20
-597.82106009822974
 30
0.0
 70
              32
  0
VERTEX
  5
18E
100
AcDbEntity
  8
MD_Visible
370
               0
390
0
 62
               7
100
AcDbVertex
100
AcDb3dPolylineVertex
 10
146.64865676323461
 20
-889.32106009822974
 30
0.0
 70
              32
  0
SEQEND
  5
18F
100
AcDbEntity
  8
MD_Visible
370
               0
390
0
 62
               7
  0
POLYLINE
  5
190
100
AcDbEntity
  8
MD_Visible
370
               0
390
0
 62
               7
100
AcDb3dPolyline
 66
               1
 10
0.0
 20
0.0
 30
0.0
 70
               8
  0
VERTEX
  5
191
100
AcDbEntity
  8
MD_Visible
370
               0
390
0
 62
               7
100
AcDbVertex
100
AcDb3dPolylineVertex
 10
-409.35134323676539
 20
-597.82106009823156
 30
0.0
 70
              32
  0
VERTEX
  5
192
100
AcDbEntity
  8
MD_Visible
370
               0
390
0
 62
               7
100
AcDbVertex
100
AcDb3dPolylineVertex
 10
-409.35134323676539
 20
-889.32106009823156
 30
0.0
 70
              32
  0
SEQEND
  5
193
100
AcDbEntity
  8
MD_Visible
370
               0
390
0
 62
               7
  0
POLYLINE
  5
194
100
AcDbEntity
  8
MD_Visible
370
               0
390
0
 62
               7
100
AcDb3dPolyline
 66
               1
 10
0.0
 20
0.0
 30
0.0
 70
               8
  0
VERTEX
  5
195
100
AcDbEntity
  8
MD_Visible
370
               0
390
0
 62
               7
100
AcDbVertex
100
AcDb3dPolylineVertex
 10
146.64865676323461
 20
-597.82106009822974
 30
0.0
 70
              32
  0
VERTEX
  5
196
100
AcDbEntity
  8
MD_Visible
370
               0
390
0
 62
               7
100
AcDbVertex
100
AcDb3dPolylineVertex
 10
-409.35134323676539
 20
-597.82106009823156
 30
0.0
 70
              32
  0
SEQEND
  5
197
100
AcDbEntity
  8
MD_Visible
370
               0
390
0
 62
               7
  0
POLYLINE
  5
198
100
AcDbEntity
  8
MD_Visible
370
               0
390
0
 62
               7
100
AcDb3dPolyline
 66
               1
 10
0.0
 20
0.0
 30
0.0
 70
               8
  0
VERTEX
  5
199
100
AcDbEntity
  8
MD_Visible
370
               0
390
0
 62
               7
100
AcDbVertex
100
AcDb3dPolylineVertex
 10
146.64865676323461
 20
-889.32106009822974
 30
0.0
 70
              32
  0
VERTEX
  5
19A
100
AcDbEntity
  8
MD_Visible
370
               0
390
0
 62
               7
100
AcDbVertex
100
AcDb3dPolylineVertex
 10
-409.35134323676539
 20
-889.32106009823156
 30
0.0
 70
              32
  0
SEQEND
  5
19B
100
AcDbEntity
  8
MD_Visible
370
               0
390
0
 62
               7
  0
POLYLINE
  5
19C
100
AcDbEntity
  8
MD_Visible
370
               0
390
0
 62
               7
100
AcDb3dPolyline
 66
               1
 10
0.0
 20
0.0
 30
0.0
 70
               8
  0
VERTEX
  5
19D
100
AcDbEntity
  8
MD_Visible
370
               0
390
0
 62
               7
100
AcDbVertex
100
AcDb3dPolylineVertex
 10
158.64865676323461
 20
-539.3210600981788
 30
0.0
 70
              32
  0
VERTEX
  5
19E
100
AcDbEntity
  8
MD_Visible
370
               0
390
0
 62
               7
100
AcDbVertex
100
AcDb3dPolylineVertex
 10
150.64865676323461
 20
-539.3210600981788
 30
0.0
 70
              32
  0
SEQEND
  5
19F
100
AcDbEntity
  8
MD_Visible
370
               0
390
0
 62
               7
  0
POLYLINE
  5
1A0
100
AcDbEntity
  8
MD_Visible
370
               0
390
0
 62
               7
100
AcDb3dPolyline
 66
               1
 10
0.0
 20
0.0
 30
0.0
 70
               8
  0
VERTEX
  5
1A1
100
AcDbEntity
  8
MD_Visible
370
               0
390
0
 62
               7
100
AcDbVertex
100
AcDb3dPolylineVertex
 10
150.64865676323461
 20
-543.3210600981788
 30
0.0
 70
              32
  0
VERTEX
  5
1A2
100
AcDbEntity
  8
MD_Visible
370
               0
390
0
 62
               7
100
AcDbVertex
100
AcDb3dPolylineVertex
 10
149.64865676323097
 20
-543.3210600981788
 30
0.0
 70
              32
  0
SEQEND
  5
1A3
100
AcDbEntity
  8
MD_Visible
370
               0
390
0
 62
               7
  0
ARC
  5
1A4
100
AcDbEntity
  8
MD_Visible
370
               0
390
0
 62
               7
100
AcDbCircle
 10
118.64865676323097
 20
-585.82106009824247
 30
0.0
 40
3.0
100
AcDbArc
 50
90.0
 51
270.0
  0
ARC
  5
1A5
100
AcDbEntity
  8
MD_Visible
370
               0
390
0
 62
               7
100
AcDbCircle
 10
-381.35134323676903
 20
-585.82106009824429
 30
0.0
 40
3.0
100
AcDbArc
 50
90.0
 51
270.0
  0
POLYLINE
  5
1A6
100
AcDbEntity
  8
MD_Visible
370
               0
390
0
 62
               7
100
AcDb3dPolyline
 66
               1
 10
0.0
 20
0.0
 30
0.0
 70
               8
  0
VERTEX
  5
1A7
100
AcDbEntity
  8
MD_Visible
370
               0
390
0
 62
               7
100
AcDbVertex
100
AcDb3dPolylineVertex
 10
158.64865676323097
 20
-889.32106009822974
 30
0.0
 70
              32
  0
VERTEX
  5
1A8
100
AcDbEntity
  8
MD_Visible
370
               0
390
0
 62
               7
100
AcDbVertex
100
AcDb3dPolylineVertex
 10
146.64865676323097
 20
-889.32106009822974
 30
0.0
 70
              32
  0
SEQEND
  5
1A9
100
AcDbEntity
  8
MD_Visible
370
               0
390
0
 62
               7
  0
ARC
  5
1AA
100
AcDbEntity
  8
MD_Visible
370
               0
390
0
 62
               7
100
AcDbCircle
 10
-131.35134323676897
 20
-585.82106009824429
 30
0.0
 40
3.0
100
AcDbArc
 50
90.0
 51
270.0
  0
POLYLINE
  5
1AB
100
AcDbEntity
  8
MD_Visible
370
               0
390
0
 62
               7
100
AcDb3dPolyline
 66
               1
 10
0.0
 20
0.0
 30
0.0
 70
               8
  0
VERTEX
  5
1AC
100
AcDbEntity
  8
MD_Visible
370
               0
390
0
 62
               7
100
AcDbVertex
100
AcDb3dPolylineVertex
 10
150.64865676323461
 20
-597.82106009822974
 30
0.0
 70
              32
  0
VERTEX
  5
1AD
100
AcDbEntity
  8
MD_Visible
370
               0
390
0
 62
               7
100
AcDbVertex
100
AcDb3dPolylineVertex
 10
150.64865676323461
 20
-570.96398276227092
 30
0.0
 70
              32
  0
SEQEND
  5
1AE
100
AcDbEntity
  8
MD_Visible
370
               0
390
0
 62
               7
  0
POLYLINE
  5
1AF
100
AcDbEntity
  8
MD_Visible
370
               0
390
0
 62
               7
100
AcDb3dPolyline
 66
               1
 10
0.0
 20
0.0
 30
0.0
 70
               8
  0
VERTEX
  5
1B0
100
AcDbEntity
  8
MD_Visible
370
               0
390
0
 62
               7
100
AcDbVertex
100
AcDb3dPolylineVertex
 10
146.64865676323097
 20
-597.82106009822974
 30
0.0
 70
              32
  0
VERTEX
  5
1B1
100
AcDbEntity
  8
MD_Visible
370
               0
390
0
 62
               7
100
AcDbVertex
100
AcDb3dPolylineVertex
 10
150.64865676323461
 20
-597.82106009822974
 30
0.0
 70
              32
  0
SEQEND
  5
1B2
100
AcDbEntity
  8
MD_Visible
370
               0
390
0
 62
               7
  0
POLYLINE
  5
1B3
100
AcDbEntity
  8
MD_Visible
370
               0
390
0
 62
               7
100
AcDb3dPolyline
 66
               1
 10
0.0
 20
0.0
 30
0.0
 70
               8
  0
VERTEX
  5
1B4
100
AcDbEntity
  8
MD_Visible
370
               0
390
0
 62
               7
100
AcDbVertex
100
AcDb3dPolylineVertex
 10
146.64865676323097
 20
-596.82106009824065
 30
0.0
 70
              32
  0
VERTEX
  5
1B5
100
AcDbEntity
  8
MD_Visible
370
               0
390
0
 62
               7
100
AcDbVertex
100
AcDb3dPolylineVertex
 10
146.64865676323097
 20
-597.82106009822792
 30
0.0
 70
              32
  0
SEQEND
  5
1B6
100
AcDbEntity
  8
MD_Visible
370
               0
390
0
 62
               7
  0
POLYLINE
  5
1B7
100
AcDbEntity
  8
MD_Visible
370
               0
390
0
 62
               7
100
AcDb3dPolyline
 66
               1
 10
0.0
 20
0.0
 30
0.0
 70
               8
  0
VERTEX
  5
1B8
100
AcDbEntity
  8
MD_Visible
370
               0
390
0
 62
               7
100
AcDbVertex
100
AcDb3dPolylineVertex
 10
146.64865676323097
 20
-889.32106009822974
 30
0.0
 70
              32
  0
VERTEX
  5
1B9
100
AcDbEntity
  8
MD_Visible
370
               0
390
0
 62
               7
100
AcDbVertex
100
AcDb3dPolylineVertex
 10
146.64865676323097
 20
-597.82106009822974
 30
0.0
 70
              32
  0
SEQEND
  5
1BA
100
AcDbEntity
  8
MD_Visible
370
               0
390
0
 62
               7
  0
POLYLINE
  5
1BB
100
AcDbEntity
  8
MD_Visible
370
               0
390
0
 62
               7
100
AcDb3dPolyline
 66
               1
 10
0.0
 20
0.0
 30
0.0
 70
               8
  0
VERTEX
  5
1BC
100
AcDbEntity
  8
MD_Visible
370
               0
390
0
 62
               7
100
AcDbVertex
100
AcDb3dPolylineVertex
 10
158.64865676323097
 20
-570.96398276227092
 30
0.0
 70
              32
  0
VERTEX
  5
1BD
100
AcDbEntity
  8
MD_Visible
370
               0
390
0
 62
               7
100
AcDbVertex
100
AcDb3dPolylineVertex
 10
158.64865676323097
 20
-889.32106009822974
 30
0.0
 70
              32
  0
SEQEND
  5
1BE
100
AcDbEntity
  8
MD_Visible
370
               0
390
0
 62
               7
  0
POLYLINE
  5
1BF
100
AcDbEntity
  8
MD_Visible
370
               0
390
0
 62
               7
100
AcDb3dPolyline
 66
               1
 10
0.0
 20
0.0
 30
0.0
 70
               8
  0
VERTEX
  5
1C0
100
AcDbEntity
  8
MD_Visible
370
               0
390
0
 62
               7
100
AcDbVertex
100
AcDb3dPolylineVertex
 10
-413.35134323676539
 20
-539.32106009818062
 30
0.0
 70
              32
  0
VERTEX
  5
1C1
100
AcDbEntity
  8
MD_Visible
370
               0
390
0
 62
               7
100
AcDbVertex
100
AcDb3dPolylineVertex
 10
-421.35134323676903
 20
-539.32106009818062
 30
0.0
 70
              32
  0
SEQEND
  5
1C2
100
AcDbEntity
  8
MD_Visible
370
               0
390
0
 62
               7
  0
POLYLINE
  5
1C3
100
AcDbEntity
  8
MD_Visible
370
               0
390
0
 62
               7
100
AcDb3dPolyline
 66
               1
 10
0.0
 20
0.0
 30
0.0
 70
               8
  0
VERTEX
  5
1C4
100
AcDbEntity
  8
MD_Visible
370
               0
390
0
 62
               7
100
AcDbVertex
100
AcDb3dPolylineVertex
 10
-412.35134323676903
 20
-543.32106009818062
 30
0.0
 70
              32
  0
VERTEX
  5
1C5
100
AcDbEntity
  8
MD_Visible
370
               0
390
0
 62
               7
100
AcDbVertex
100
AcDb3dPolylineVertex
 10
-413.35134323676539
 20
-543.32106009818062
 30
0.0
 70
              32
  0
SEQEND
  5
1C6
100
AcDbEntity
  8
MD_Visible
370
               0
390
0
 62
               7
  0
POLYLINE
  5
1C7
100
AcDbEntity
  8
MD_Visible
370
               0
390
0
 62
               7
100
AcDb3dPolyline
 66
               1
 10
0.0
 20
0.0
 30
0.0
 70
               8
  0
VERTEX
  5
1C8
100
AcDbEntity
  8
MD_Visible
370
               0
390
0
 62
               7
100
AcDbVertex
100
AcDb3dPolylineVertex
 10
-421.35134323676903
 20
-889.32106009823156
 30
0.0
 70
              32
  0
VERTEX
  5
1C9
100
AcDbEntity
  8
MD_Visible
370
               0
390
0
 62
               7
100
AcDbVertex
100
AcDb3dPolylineVertex
 10
-409.35134323676903
 20
-889.32106009823156
 30
0.0
 70
              32
  0
SEQEND
  5
1CA
100
AcDbEntity
  8
MD_Visible
370
               0
390
0
 62
               7
  0
POLYLINE
  5
1CB
100
AcDbEntity
  8
MD_Visible
370
               0
390
0
 62
               7
100
AcDb3dPolyline
 66
               1
 10
0.0
 20
0.0
 30
0.0
 70
               8
  0
VERTEX
  5
1CC
100
AcDbEntity
  8
MD_Visible
370
               0
390
0
 62
               7
100
AcDbVertex
100
AcDb3dPolylineVertex
 10
-409.35134323676903
 20
-889.32106009823156
 30
0.0
 70
              32
  0
VERTEX
  5
1CD
100
AcDbEntity
  8
MD_Visible
370
               0
390
0
 62
               7
100
AcDbVertex
100
AcDb3dPolylineVertex
 10
-409.35134323676903
 20
-597.82106009823156
 30
0.0
 70
              32
  0
SEQEND
  5
1CE
100
AcDbEntity
  8
MD_Visible
370
               0
390
0
 62
               7
  0
POLYLINE
  5
1CF
100
AcDbEntity
  8
MD_Visible
370
               0
390
0
 62
               7
100
AcDb3dPolyline
 66
               1
 10
0.0
 20
0.0
 30
0.0
 70
               8
  0
VERTEX
  5
1D0
100
AcDbEntity
  8
MD_Visible
370
               0
390
0
 62
               7
100
AcDbVertex
100
AcDb3dPolylineVertex
 10
-409.35134323676903
 20
-597.82106009822974
 30
0.0
 70
              32
  0
VERTEX
  5
1D1
100
AcDbEntity
  8
MD_Visible
370
               0
390
0
 62
               7
100
AcDbVertex
100
AcDb3dPolylineVertex
 10
-409.35134323676903
 20
-596.82106009824247
 30
0.0
 70
              32
  0
SEQEND
  5
1D2
100
AcDbEntity
  8
MD_Visible
370
               0
390
0
 62
               7
  0
POLYLINE
  5
1D3
100
AcDbEntity
  8
MD_Visible
370
               0
390
0
 62
               7
100
AcDb3dPolyline
 66
               1
 10
0.0
 20
0.0
 30
0.0
 70
               8
  0
VERTEX
  5
1D4
100
AcDbEntity
  8
MD_Visible
370
               0
390
0
 62
               7
100
AcDbVertex
100
AcDb3dPolylineVertex
 10
-413.35134323676539
 20
-597.82106009823156
 30
0.0
 70
              32
  0
VERTEX
  5
1D5
100
AcDbEntity
  8
MD_Visible
370
               0
390
0
 62
               7
100
AcDbVertex
100
AcDb3dPolylineVertex
 10
-409.35134323676903
 20
-597.82106009823156
 30
0.0
 70
              32
  0
SEQEND
  5
1D6
100
AcDbEntity
  8
MD_Visible
370
               0
390
0
 62
               7
  0
POLYLINE
  5
1D7
100
AcDbEntity
  8
MD_Visible
370
               0
390
0
 62
               7
100
AcDb3dPolyline
 66
               1
 10
0.0
 20
0.0
 30
0.0
 70
               8
  0
VERTEX
  5
1D8
100
AcDbEntity
  8
MD_Visible
370
               0
390
0
 62
               7
100
AcDbVertex
100
AcDb3dPolylineVertex
 10
-413.35134323676539
 20
-570.96398276227274
 30
0.0
 70
              32
  0
VERTEX
  5
1D9
100
AcDbEntity
  8
MD_Visible
370
               0
390
0
 62
               7
100
AcDbVertex
100
AcDb3dPolylineVertex
 10
-413.35134323676539
 20
-597.82106009823156
 30
0.0
 70
              32
  0
SEQEND
  5
1DA
100
AcDbEntity
  8
MD_Visible
370
               0
390
0
 62
               7
  0
POLYLINE
  5
1DB
100
AcDbEntity
  8
MD_Visible
370
               0
390
0
 62
               7
100
AcDb3dPolyline
 66
               1
 10
0.0
 20
0.0
 30
0.0
 70
               8
  0
VERTEX
  5
1DC
100
AcDbEntity
  8
MD_Visible
370
               0
390
0
 62
               7
100
AcDbVertex
100
AcDb3dPolylineVertex
 10
-421.35134323676903
 20
-570.96398276227274
 30
0.0
 70
              32
  0
VERTEX
  5
1DD
100
AcDbEntity
  8
MD_Visible
370
               0
390
0
 62
               7
100
AcDbVertex
100
AcDb3dPolylineVertex
 10
-421.35134323676903
 20
-889.32106009823156
 30
0.0
 70
              32
  0
SEQEND
  5
1DE
100
AcDbEntity
  8
MD_Visible
370
               0
390
0
 62
               7
  0
POLYLINE
  5
1DF
100
AcDbEntity
  8
MD_Visible
370
               0
390
0
 62
               7
100
AcDb3dPolyline
 66
               1
 10
0.0
 20
0.0
 30
0.0
 70
               8
  0
VERTEX
  5
1E0
100
AcDbEntity
  8
MD_Visible
370
               0
390
0
 62
               7
100
AcDbVertex
100
AcDb3dPolylineVertex
 10
-412.35134323676903
 20
-552.18856705732151
 30
0.0000000000002274
 70
              32
  0
VERTEX
  5
1E1
100
AcDbEntity
  8
MD_Visible
370
               0
390
0
 62
               7
100
AcDbVertex
100
AcDb3dPolylineVertex
 10
-412.35134323676903
 20
-570.96398276228547
 30
0.0
 70
              32
  0
SEQEND
  5
1E2
100
AcDbEntity
  8
MD_Visible
370
               0
390
0
 62
               7
  0
POLYLINE
  5
1E3
100
AcDbEntity
  8
MD_Visible
370
               0
390
0
 62
               7
100
AcDb3dPolyline
 66
               1
 10
0.0
 20
0.0
 30
0.0
 70
               8
  0
VERTEX
  5
1E4
100
AcDbEntity
  8
MD_Visible
370
               0
390
0
 62
               7
100
AcDbVertex
100
AcDb3dPolylineVertex
 10
149.64865676323097
 20
-552.18856705731969
 30
0.0000000000002274
 70
              32
  0
VERTEX
  5
1E5
100
AcDbEntity
  8
MD_Visible
370
               0
390
0
 62
               7
100
AcDbVertex
100
AcDb3dPolylineVertex
 10
149.64865676323097
 20
-570.96398276228365
 30
0.0
 70
              32
  0
SEQEND
  5
1E6
100
AcDbEntity
  8
MD_Visible
370
               0
390
0
 62
               7
  0
POLYLINE
  5
1E7
100
AcDbEntity
  8
MD_Visible
370
               0
390
0
 62
               7
100
AcDb3dPolyline
 66
               1
 10
0.0
 20
0.0
 30
0.0
 70
               8
  0
VERTEX
  5
1E8
100
AcDbEntity
  8
MD_Visible
370
               0
390
0
 62
               7
100
AcDbVertex
100
AcDb3dPolylineVertex
 10
124.14865676323097
 20
-540.53120625378187
 30
0.0000000000002274
 70
              32
  0
VERTEX
  5
1E9
100
AcDbEntity
  8
MD_Visible
370
               0
390
0
 62
               7
100
AcDbVertex
100
AcDb3dPolylineVertex
 10
124.14865676323097
 20
-540.32106009819154
 30
0.0
 70
              32
  0
SEQEND
  5
1EA
100
AcDbEntity
  8
MD_Visible
370
               0
390
0
 62
               7
  0
POLYLINE
  5
1EB
100
AcDbEntity
  8
MD_Visible
370
               0
390
0
 62
               7
100
AcDb3dPolyline
 66
               1
 10
0.0
 20
0.0
 30
0.0
 70
               8
  0
VERTEX
  5
1EC
100
AcDbEntity
  8
MD_Visible
370
               0
390
0
 62
               7
100
AcDbVertex
100
AcDb3dPolylineVertex
 10
83.148656763230974
 20
-540.32106009819336
 30
0.0
 70
              32
  0
VERTEX
  5
1ED
100
AcDbEntity
  8
MD_Visible
370
               0
390
0
 62
               7
100
AcDbVertex
100
AcDb3dPolylineVertex
 10
83.148656763230974
 20
-540.53120625378369
 30
0.0000000000002274
 70
              32
  0
SEQEND
  5
1EE
100
AcDbEntity
  8
MD_Visible
370
               0
390
0
 62
               7
  0
POLYLINE
  5
1EF
100
AcDbEntity
  8
MD_Visible
370
               0
390
0
 62
               7
100
AcDb3dPolyline
 66
               1
 10
0.0
 20
0.0
 30
0.0
 70
               8
  0
VERTEX
  5
1F0
100
AcDbEntity
  8
MD_Visible
370
               0
390
0
 62
               7
100
AcDbVertex
100
AcDb3dPolylineVertex
 10
149.64865676323097
 20
-540.32106009819154
 30
0.0
 70
              32
  0
VERTEX
  5
1F1
100
AcDbEntity
  8
MD_Visible
370
               0
390
0
 62
               7
100
AcDbVertex
100
AcDb3dPolylineVertex
 10
149.64865676323097
 20
-552.18856705731423
 30
0.0000000000002274
 70
              32
  0
SEQEND
  5
1F2
100
AcDbEntity
  8
MD_Visible
370
               0
390
0
 62
               7
  0
POLYLINE
  5
1F3
100
AcDbEntity
  8
MD_Visible
370
               0
390
0
 62
               7
100
AcDb3dPolyline
 66
               1
 10
0.0
 20
0.0
 30
0.0
 70
               8
  0
VERTEX
  5
1F4
100
AcDbEntity
  8
MD_Visible
370
               0
390
0
 62
               7
100
AcDbVertex
100
AcDb3dPolylineVertex
 10
-412.35134323676903
 20
-540.32106009819336
 30
0.0
 70
              32
  0
VERTEX
  5
1F5
100
AcDbEntity
  8
MD_Visible
370
               0
390
0
 62
               7
100
AcDbVertex
100
AcDb3dPolylineVertex
 10
-412.35134323676903
 20
-552.18856705731605
 30
0.0000000000002274
 70
              32
  0
SEQEND
  5
1F6
100
AcDbEntity
  8
MD_Visible
370
               0
390
0
 62
               7
  0
POLYLINE
  5
1F7
100
AcDbEntity
  8
MD_Visible
370
               0
390
0
 62
               7
100
AcDb3dPolyline
 66
               1
 10
0.0
 20
0.0
 30
0.0
 70
               8
  0
VERTEX
  5
1F8
100
AcDbEntity
  8
MD_Visible
370
               0
390
0
 62
               7
100
AcDbVertex
100
AcDb3dPolylineVertex
 10
150.64865676323461
 20
-539.3210600981788
 30
0.0
 70
              32
  0
VERTEX
  5
1F9
100
AcDbEntity
  8
MD_Visible
370
               0
390
0
 62
               7
100
AcDbVertex
100
AcDb3dPolylineVertex
 10
150.64865676323461
 20
-551.20038728335794
 30
0.0
 70
              32
  0
SEQEND
  5
1FA
100
AcDbEntity
  8
MD_Visible
370
               0
390
0
 62
               7
  0
POLYLINE
  5
1FB
100
AcDbEntity
  8
MD_Visible
370
               0
390
0
 62
               7
100
AcDb3dPolyline
 66
               1
 10
0.0
 20
0.0
 30
0.0
 70
               8
  0
VERTEX
  5
1FC
100
AcDbEntity
  8
MD_Visible
370
               0
390
0
 62
               7
100
AcDbVertex
100
AcDb3dPolylineVertex
 10
150.64865676323461
 20
-551.2003872833634
 30
0.0
 70
              32
  0
VERTEX
  5
1FD
100
AcDbEntity
  8
MD_Visible
370
               0
390
0
 62
               7
100
AcDbVertex
100
AcDb3dPolylineVertex
 10
150.64865676323461
 20
-570.96398276227092
 30
0.0
 70
              32
  0
SEQEND
  5
1FE
100
AcDbEntity
  8
MD_Visible
370
               0
390
0
 62
               7
  0
POLYLINE
  5
1FF
100
AcDbEntity
  8
MD_Visible
370
               0
390
0
 62
               7
100
AcDb3dPolyline
 66
               1
 10
0.0
 20
0.0
 30
0.0
 70
               8
  0
VERTEX
  5
200
100
AcDbEntity
  8
MD_Visible
370
               0
390
0
 62
               7
100
AcDbVertex
100
AcDb3dPolylineVertex
 10
158.64865676323097
 20
-551.20038728335794
 30
0.0
 70
              32
  0
VERTEX
  5
201
100
AcDbEntity
  8
MD_Visible
370
               0
390
0
 62
               7
100
AcDbVertex
100
AcDb3dPolylineVertex
 10
158.64865676323097
 20
-539.3210600981788
 30
0.0
 70
              32
  0
SEQEND
  5
202
100
AcDbEntity
  8
MD_Visible
370
               0
390
0
 62
               7
  0
POLYLINE
  5
203
100
AcDbEntity
  8
MD_Visible
370
               0
390
0
 62
               7
100
AcDb3dPolyline
 66
               1
 10
0.0
 20
0.0
 30
0.0
 70
               8
  0
VERTEX
  5
204
100
AcDbEntity
  8
MD_Visible
370
               0
390
0
 62
               7
100
AcDbVertex
100
AcDb3dPolylineVertex
 10
158.64865676323097
 20
-551.2003872833634
 30
0.0
 70
              32
  0
VERTEX
  5
205
100
AcDbEntity
  8
MD_Visible
370
               0
390
0
 62
               7
100
AcDbVertex
100
AcDb3dPolylineVertex
 10
158.64865676323097
 20
-570.96398276227092
 30
0.0
 70
              32
  0
SEQEND
  5
206
100
AcDbEntity
  8
MD_Visible
370
               0
390
0
 62
               7
  0
POLYLINE
  5
207
100
AcDbEntity
  8
MD_Visible
370
               0
390
0
 62
               7
100
AcDb3dPolyline
 66
               1
 10
0.0
 20
0.0
 30
0.0
 70
               8
  0
VERTEX
  5
208
100
AcDbEntity
  8
MD_Visible
370
               0
390
0
 62
               7
100
AcDbVertex
100
AcDb3dPolylineVertex
 10
-413.35134323676539
 20
-570.96398276227274
 30
0.0
 70
              32
  0
VERTEX
  5
209
100
AcDbEntity
  8
MD_Visible
370
               0
390
0
 62
               7
100
AcDbVertex
100
AcDb3dPolylineVertex
 10
-413.35134323676539
 20
-551.20038728336522
 30
0.0
 70
              32
  0
SEQEND
  5
20A
100
AcDbEntity
  8
MD_Visible
370
               0
390
0
 62
               7
  0
POLYLINE
  5
20B
100
AcDbEntity
  8
MD_Visible
370
               0
390
0
 62
               7
100
AcDb3dPolyline
 66
               1
 10
0.0
 20
0.0
 30
0.0
 70
               8
  0
VERTEX
  5
20C
100
AcDbEntity
  8
MD_Visible
370
               0
390
0
 62
               7
100
AcDbVertex
100
AcDb3dPolylineVertex
 10
-413.35134323676539
 20
-551.20038728335976
 30
0.0
 70
              32
  0
VERTEX
  5
20D
100
AcDbEntity
  8
MD_Visible
370
               0
390
0
 62
               7
100
AcDbVertex
100
AcDb3dPolylineVertex
 10
-413.35134323676539
 20
-539.32106009818062
 30
0.0
 70
              32
  0
SEQEND
  5
20E
100
AcDbEntity
  8
MD_Visible
370
               0
390
0
 62
               7
  0
POLYLINE
  5
20F
100
AcDbEntity
  8
MD_Visible
370
               0
390
0
 62
               7
100
AcDb3dPolyline
 66
               1
 10
0.0
 20
0.0
 30
0.0
 70
               8
  0
VERTEX
  5
210
100
AcDbEntity
  8
MD_Visible
370
               0
390
0
 62
               7
100
AcDbVertex
100
AcDb3dPolylineVertex
 10
-421.35134323676903
 20
-551.20038728335976
 30
0.0
 70
              32
  0
VERTEX
  5
211
100
AcDbEntity
  8
MD_Visible
370
               0
390
0
 62
               7
100
AcDbVertex
100
AcDb3dPolylineVertex
 10
-421.35134323676903
 20
-539.32106009818062
 30
0.0
 70
              32
  0
SEQEND
  5
212
100
AcDbEntity
  8
MD_Visible
370
               0
390
0
 62
               7
  0
POLYLINE
  5
213
100
AcDbEntity
  8
MD_Visible
370
               0
390
0
 62
               7
100
AcDb3dPolyline
 66
               1
 10
0.0
 20
0.0
 30
0.0
 70
               8
  0
VERTEX
  5
214
100
AcDbEntity
  8
MD_Visible
370
               0
390
0
 62
               7
100
AcDbVertex
100
AcDb3dPolylineVertex
 10
-421.35134323676903
 20
-551.20038728336522
 30
0.0
 70
              32
  0
VERTEX
  5
215
100
AcDbEntity
  8
MD_Visible
370
               0
390
0
 62
               7
100
AcDbVertex
100
AcDb3dPolylineVertex
 10
-421.35134323676903
 20
-570.96398276227274
 30
0.0
 70
              32
  0
SEQEND
  5
216
100
AcDbEntity
  8
MD_Visible
370
               0
390
0
 62
               7
  0
ENDBLK
  5
217
100
AcDbEntity
  8
0
390
0
100
AcDbBlockEnd
  0
BLOCK
  5
218
100
AcDbEntity
  8
0
390
0
100
AcDbBlockBegin
  2
グループ-6
 70
               0
 10
0.0
 20
0.0
 30
0.0
  3
グループ-6
  1

  0
POLYLINE
  5
219
100
AcDbEntity
  8
MD_Visible
370
               0
390
0
 62
               7
100
AcDb3dPolyline
 66
               1
 10
0.0
 20
0.0
 30
0.0
 70
               8
  0
VERTEX
  5
21A
100
AcDbEntity
  8
MD_Visible
370
               0
390
0
 62
               7
100
AcDbVertex
100
AcDb3dPolylineVertex
 10
1619.1163658935584
 20
178.93194643392374
 30
-0.0000000038880899
 70
              32
  0
VERTEX
  5
21B
100
AcDbEntity
  8
MD_Visible
370
               0
390
0
 62
               7
100
AcDbVertex
100
AcDb3dPolylineVertex
 10
1175.1163658935584
 20
178.9319464339242
 30
-0.0000000036252459
 70
              32
  0
SEQEND
  5
21C
100
AcDbEntity
  8
MD_Visible
370
               0
390
0
 62
               7
  0
POLYLINE
  5
21D
100
AcDbEntity
  8
MD_Visible
370
               0
390
0
 62
               7
100
AcDb3dPolyline
 66
               1
 10
0.0
 20
0.0
 30
0.0
 70
               8
  0
VERTEX
  5
21E
100
AcDbEntity
  8
MD_Visible
370
               0
390
0
 62
               7
100
AcDbVertex
100
AcDb3dPolylineVertex
 10
1619.1163658935584
 20
-139.06805356607808
 30
-0.0000000038880899
 70
              32
  0
VERTEX
  5
21F
100
AcDbEntity
  8
MD_Visible
370
               0
390
0
 62
               7
100
AcDbVertex
100
AcDb3dPolylineVertex
 10
1619.1163658935584
 20
178.93194643392374
 30
-0.0000000038880899
 70
              32
  0
SEQEND
  5
220
100
AcDbEntity
  8
MD_Visible
370
               0
390
0
 62
               7
  0
POLYLINE
  5
221
100
AcDbEntity
  8
MD_Visible
370
               0
390
0
 62
               7
100
AcDb3dPolyline
 66
               1
 10
0.0
 20
0.0
 30
0.0
 70
               8
  0
VERTEX
  5
222
100
AcDbEntity
  8
MD_Visible
370
               0
390
0
 62
               7
100
AcDbVertex
100
AcDb3dPolylineVertex
 10
1619.1163658935584
 20
-139.06805356607808
 30
-0.0000000038880899
 70
              32
  0
VERTEX
  5
223
100
AcDbEntity
  8
MD_Visible
370
               0
390
0
 62
               7
100
AcDbVertex
100
AcDb3dPolylineVertex
 10
1063.1163658935584
 20
-139.06805356607762
 30
-0.0000000035588528
 70
              32
  0
SEQEND
  5
224
100
AcDbEntity
  8
MD_Visible
370
               0
390
0
 62
               7
  0
POLYLINE
  5
225
100
AcDbEntity
  8
MD_Visible
370
               0
390
0
 62
               7
100
AcDb3dPolyline
 66
               1
 10
0.0
 20
0.0
 30
0.0
 70
               8
  0
VERTEX
  5
226
100
AcDbEntity
  8
MD_Visible
370
               0
390
0
 62
               7
100
AcDbVertex
100
AcDb3dPolylineVertex
 10
1063.1163658935584
 20
86.931946433924196
 30
-0.0000000035588528
 70
              32
  0
VERTEX
  5
227
100
AcDbEntity
  8
MD_Visible
370
               0
390
0
 62
               7
100
AcDbVertex
100
AcDb3dPolylineVertex
 10
1063.1163658935584
 20
-139.06805356607762
 30
-0.0000000035588528
 70
              32
  0
SEQEND
  5
228
100
AcDbEntity
  8
MD_Visible
370
               0
390
0
 62
               7
  0
POLYLINE
  5
229
100
AcDbEntity
  8
MD_Visible
370
               0
390
0
 62
               7
100
AcDb3dPolyline
 66
               1
 10
0.0
 20
0.0
 30
0.0
 70
               8
  0
VERTEX
  5
22A
100
AcDbEntity
  8
MD_Visible
370
               0
390
0
 62
               7
100
AcDbVertex
100
AcDb3dPolylineVertex
 10
1175.1163658935548
 20
86.931946433924196
 30
-0.0000000036252459
 70
              32
  0
VERTEX
  5
22B
100
AcDbEntity
  8
MD_Visible
370
               0
390
0
 62
               7
100
AcDbVertex
100
AcDb3dPolylineVertex
 10
1175.1163658935584
 20
178.9319464339242
 30
-0.0000000036252459
 70
              32
  0
SEQEND
  5
22C
100
AcDbEntity
  8
MD_Visible
370
               0
390
0
 62
               7
  0
POLYLINE
  5
22D
100
AcDbEntity
  8
MD_Visible
370
               0
390
0
 62
               7
100
AcDb3dPolyline
 66
               1
 10
0.0
 20
0.0
 30
0.0
 70
               8
  0
VERTEX
  5
22E
100
AcDbEntity
  8
MD_Visible
370
               0
390
0
 62
               7
100
AcDbVertex
100
AcDb3dPolylineVertex
 10
1163.1163658935657
 20
178.93194643392374
 30
-0.0000000036179699
 70
              32
  0
VERTEX
  5
22F
100
AcDbEntity
  8
MD_Visible
370
               0
390
0
 62
               7
100
AcDbVertex
100
AcDb3dPolylineVertex
 10
1163.1163658935657
 20
98.931946433924196
 30
-0.0000000036179699
 70
              32
  0
SEQEND
  5
230
100
AcDbEntity
  8
MD_Visible
370
               0
390
0
 62
               7
  0
POLYLINE
  5
231
100
AcDbEntity
  8
MD_Visible
370
               0
390
0
 62
               7
100
AcDb3dPolyline
 66
               1
 10
0.0
 20
0.0
 30
0.0
 70
               8
  0
VERTEX
  5
232
100
AcDbEntity
  8
MD_Visible
370
               0
390
0
 62
               7
100
AcDbVertex
100
AcDb3dPolylineVertex
 10
1163.1163658935657
 20
98.931946433924196
 30
-0.0000000036179699
 70
              32
  0
VERTEX
  5
233
100
AcDbEntity
  8
MD_Visible
370
               0
390
0
 62
               7
100
AcDbVertex
100
AcDb3dPolylineVertex
 10
1175.1163658935548
 20
86.931946433924196
 30
-0.0000000036252459
 70
              32
  0
SEQEND
  5
234
100
AcDbEntity
  8
MD_Visible
370
               0
390
0
 62
               7
  0
POLYLINE
  5
235
100
AcDbEntity
  8
MD_Visible
370
               0
390
0
 62
               7
100
AcDb3dPolyline
 66
               1
 10
0.0
 20
0.0
 30
0.0
 70
               8
  0
VERTEX
  5
236
100
AcDbEntity
  8
MD_Visible
370
               0
390
0
 62
               7
100
AcDbVertex
100
AcDb3dPolylineVertex
 10
1063.1163658935584
 20
86.931946433924196
 30
-0.0000000035588528
 70
              32
  0
VERTEX
  5
237
100
AcDbEntity
  8
MD_Visible
370
               0
390
0
 62
               7
100
AcDbVertex
100
AcDb3dPolylineVertex
 10
1175.1163658935548
 20
86.931946433924196
 30
-0.0000000036252459
 70
              32
  0
SEQEND
  5
238
100
AcDbEntity
  8
MD_Visible
370
               0
390
0
 62
               7
  0
POLYLINE
  5
239
100
AcDbEntity
  8
MD_Visible
370
               0
390
0
 62
               7
100
AcDb3dPolyline
 66
               1
 10
0.0
 20
0.0
 30
0.0
 70
               8
  0
VERTEX
  5
23A
100
AcDbEntity
  8
MD_Visible
370
               0
390
0
 62
               7
100
AcDbVertex
100
AcDb3dPolylineVertex
 10
1163.1163658935657
 20
98.931946433924196
 30
-0.0000000036179699
 70
              32
  0
VERTEX
  5
23B
100
AcDbEntity
  8
MD_Visible
370
               0
390
0
 62
               7
100
AcDbVertex
100
AcDb3dPolylineVertex
 10
1063.1163658935657
 20
98.931946433924196
 30
-0.0000000035588528
 70
              32
  0
SEQEND
  5
23C
100
AcDbEntity
  8
MD_Visible
370
               0
390
0
 62
               7
  0
POLYLINE
  5
23D
100
AcDbEntity
  8
MD_Visible
370
               0
390
0
 62
               7
100
AcDb3dPolyline
 66
               1
 10
0.0
 20
0.0
 30
0.0
 70
               8
  0
VERTEX
  5
23E
100
AcDbEntity
  8
MD_Visible
370
               0
390
0
 62
               7
100
AcDbVertex
100
AcDb3dPolylineVertex
 10
1063.1163658935584
 20
-151.06805356608263
 30
-0.0000000035588528
 70
              32
  0
VERTEX
  5
23F
100
AcDbEntity
  8
MD_Visible
370
               0
390
0
 62
               7
100
AcDbVertex
100
AcDb3dPolylineVertex
 10
1619.1163658935584
 20
-151.06805356608217
 30
-0.0000000038880899
 70
              32
  0
SEQEND
  5
240
100
AcDbEntity
  8
MD_Visible
370
               0
390
0
 62
               7
  0
POLYLINE
  5
241
100
AcDbEntity
  8
MD_Visible
370
               0
390
0
 62
               7
100
AcDb3dPolyline
 66
               1
 10
0.0
 20
0.0
 30
0.0
 70
               8
  0
VERTEX
  5
242
100
AcDbEntity
  8
MD_Visible
370
               0
390
0
 62
               7
100
AcDbVertex
100
AcDb3dPolylineVertex
 10
1063.1163658935584
 20
-151.06805356608263
 30
-0.0000000035588528
 70
              32
  0
VERTEX
  5
243
100
AcDbEntity
  8
MD_Visible
370
               0
390
0
 62
               7
100
AcDbVertex
100
AcDb3dPolylineVertex
 10
1063.1163658935584
 20
-139.06805356608263
 30
-0.0000000035588528
 70
              32
  0
SEQEND
  5
244
100
AcDbEntity
  8
MD_Visible
370
               0
390
0
 62
               7
  0
POLYLINE
  5
245
100
AcDbEntity
  8
MD_Visible
370
               0
390
0
 62
               7
100
AcDb3dPolyline
 66
               1
 10
0.0
 20
0.0
 30
0.0
 70
               8
  0
VERTEX
  5
246
100
AcDbEntity
  8
MD_Visible
370
               0
390
0
 62
               7
100
AcDbVertex
100
AcDb3dPolylineVertex
 10
1063.1163658935584
 20
-139.06805356608263
 30
-0.0000000035588528
 70
              32
  0
VERTEX
  5
247
100
AcDbEntity
  8
MD_Visible
370
               0
390
0
 62
               7
100
AcDbVertex
100
AcDb3dPolylineVertex
 10
1619.1163658935584
 20
-139.06805356608217
 30
-0.0000000038880899
 70
              32
  0
SEQEND
  5
248
100
AcDbEntity
  8
MD_Visible
370
               0
390
0
 62
               7
  0
POLYLINE
  5
249
100
AcDbEntity
  8
MD_Visible
370
               0
390
0
 62
               7
100
AcDb3dPolyline
 66
               1
 10
0.0
 20
0.0
 30
0.0
 70
               8
  0
VERTEX
  5
24A
100
AcDbEntity
  8
MD_Visible
370
               0
390
0
 62
               7
100
AcDbVertex
100
AcDb3dPolylineVertex
 10
1619.1163658935584
 20
-151.06805356608217
 30
-0.0000000038880899
 70
              32
  0
VERTEX
  5
24B
100
AcDbEntity
  8
MD_Visible
370
               0
390
0
 62
               7
100
AcDbVertex
100
AcDb3dPolylineVertex
 10
1619.1163658935584
 20
-139.06805356608217
 30
-0.0000000038880899
 70
              32
  0
SEQEND
  5
24C
100
AcDbEntity
  8
MD_Visible
370
               0
390
0
 62
               7
  0
POLYLINE
  5
24D
100
AcDbEntity
  8
MD_Visible
370
               0
390
0
 62
               7
100
AcDb3dPolyline
 66
               1
 10
0.0
 20
0.0
 30
0.0
 70
               8
  0
VERTEX
  5
24E
100
AcDbEntity
  8
MD_Visible
370
               0
390
0
 62
               7
100
AcDbVertex
100
AcDb3dPolylineVertex
 10
1063.1163658935584
 20
178.93194643392511
 30
-0.0000000035588528
 70
              32
  0
VERTEX
  5
24F
100
AcDbEntity
  8
MD_Visible
370
               0
390
0
 62
               7
100
AcDbVertex
100
AcDb3dPolylineVertex
 10
1619.1163658935584
 20
178.93194643392511
 30
-0.0000000038880899
 70
              32
  0
SEQEND
  5
250
100
AcDbEntity
  8
MD_Visible
370
               0
390
0
 62
               7
  0
POLYLINE
  5
251
100
AcDbEntity
  8
MD_Visible
370
               0
390
0
 62
               7
100
AcDb3dPolyline
 66
               1
 10
0.0
 20
0.0
 30
0.0
 70
               8
  0
VERTEX
  5
252
100
AcDbEntity
  8
MD_Visible
370
               0
390
0
 62
               7
100
AcDbVertex
100
AcDb3dPolylineVertex
 10
1063.1163658935584
 20
190.93194643392511
 30
-0.0000000035588528
 70
              32
  0
VERTEX
  5
253
100
AcDbEntity
  8
MD_Visible
370
               0
390
0
 62
               7
100
AcDbVertex
100
AcDb3dPolylineVertex
 10
1063.1163658935584
 20
178.93194643392511
 30
-0.0000000035588528
 70
              32
  0
SEQEND
  5
254
100
AcDbEntity
  8
MD_Visible
370
               0
390
0
 62
               7
  0
POLYLINE
  5
255
100
AcDbEntity
  8
MD_Visible
370
               0
390
0
 62
               7
100
AcDb3dPolyline
 66
               1
 10
0.0
 20
0.0
 30
0.0
 70
               8
  0
VERTEX
  5
256
100
AcDbEntity
  8
MD_Visible
370
               0
390
0
 62
               7
100
AcDbVertex
100
AcDb3dPolylineVertex
 10
1619.1163658935584
 20
190.93194643392511
 30
-0.0000000038880899
 70
              32
  0
VERTEX
  5
257
100
AcDbEntity
  8
MD_Visible
370
               0
390
0
 62
               7
100
AcDbVertex
100
AcDb3dPolylineVertex
 10
1619.1163658935584
 20
178.93194643392511
 30
-0.0000000038880899
 70
              32
  0
SEQEND
  5
258
100
AcDbEntity
  8
MD_Visible
370
               0
390
0
 62
               7
  0
POLYLINE
  5
259
100
AcDbEntity
  8
MD_Visible
370
               0
390
0
 62
               7
100
AcDb3dPolyline
 66
               1
 10
0.0
 20
0.0
 30
0.0
 70
               8
  0
VERTEX
  5
25A
100
AcDbEntity
  8
MD_Visible
370
               0
390
0
 62
               7
100
AcDbVertex
100
AcDb3dPolylineVertex
 10
1063.1163658935584
 20
190.93194643392511
 30
-0.0000000035588528
 70
              32
  0
VERTEX
  5
25B
100
AcDbEntity
  8
MD_Visible
370
               0
390
0
 62
               7
100
AcDbVertex
100
AcDb3dPolylineVertex
 10
1619.1163658935584
 20
190.93194643392511
 30
-0.0000000038880899
 70
              32
  0
SEQEND
  5
25C
100
AcDbEntity
  8
MD_Visible
370
               0
390
0
 62
               7
  0
POLYLINE
  5
25D
100
AcDbEntity
  8
MD_Visible
370
               0
390
0
 62
               7
100
AcDb3dPolyline
 66
               1
 10
0.0
 20
0.0
 30
0.0
 70
               8
  0
VERTEX
  5
25E
100
AcDbEntity
  8
MD_Visible
370
               0
390
0
 62
               7
100
AcDbVertex
100
AcDb3dPolylineVertex
 10
1051.1163658935584
 20
190.9319464339242
 30
-0.0000000035515768
 70
              32
  0
VERTEX
  5
25F
100
AcDbEntity
  8
MD_Visible
370
               0
390
0
 62
               7
100
AcDbVertex
100
AcDb3dPolylineVertex
 10
1063.1163658935584
 20
190.9319464339242
 30
-0.0000000035588528
 70
              32
  0
SEQEND
  5
260
100
AcDbEntity
  8
MD_Visible
370
               0
390
0
 62
               7
  0
POLYLINE
  5
261
100
AcDbEntity
  8
MD_Visible
370
               0
390
0
 62
               7
100
AcDb3dPolyline
 66
               1
 10
0.0
 20
0.0
 30
0.0
 70
               8
  0
VERTEX
  5
262
100
AcDbEntity
  8
MD_Visible
370
               0
390
0
 62
               7
100
AcDbVertex
100
AcDb3dPolylineVertex
 10
1051.1163658935584
 20
-151.06805356608172
 30
-0.0000000035515768
 70
              32
  0
VERTEX
  5
263
100
AcDbEntity
  8
MD_Visible
370
               0
390
0
 62
               7
100
AcDbVertex
100
AcDb3dPolylineVertex
 10
1063.1163658935584
 20
-151.06805356608172
 30
-0.0000000035588528
 70
              32
  0
SEQEND
  5
264
100
AcDbEntity
  8
MD_Visible
370
               0
390
0
 62
               7
  0
POLYLINE
  5
265
100
AcDbEntity
  8
MD_Visible
370
               0
390
0
 62
               7
100
AcDb3dPolyline
 66
               1
 10
0.0
 20
0.0
 30
0.0
 70
               8
  0
VERTEX
  5
266
100
AcDbEntity
  8
MD_Visible
370
               0
390
0
 62
               7
100
AcDbVertex
100
AcDb3dPolylineVertex
 10
1063.1163658935584
 20
190.9319464339242
 30
-0.0000000035588528
 70
              32
  0
VERTEX
  5
267
100
AcDbEntity
  8
MD_Visible
370
               0
390
0
 62
               7
100
AcDbVertex
100
AcDb3dPolylineVertex
 10
1063.1163658935584
 20
-151.06805356608172
 30
-0.0000000035588528
 70
              32
  0
SEQEND
  5
268
100
AcDbEntity
  8
MD_Visible
370
               0
390
0
 62
               7
  0
POLYLINE
  5
269
100
AcDbEntity
  8
MD_Visible
370
               0
390
0
 62
               7
100
AcDb3dPolyline
 66
               1
 10
0.0
 20
0.0
 30
0.0
 70
               8
  0
VERTEX
  5
26A
100
AcDbEntity
  8
MD_Visible
370
               0
390
0
 62
               7
100
AcDbVertex
100
AcDb3dPolylineVertex
 10
1051.1163658935584
 20
-151.06805356608172
 30
-0.0000000035515768
 70
              32
  0
VERTEX
  5
26B
100
AcDbEntity
  8
MD_Visible
370
               0
390
0
 62
               7
100
AcDbVertex
100
AcDb3dPolylineVertex
 10
1051.1163658935584
 20
190.9319464339242
 30
-0.0000000035515768
 70
              32
  0
SEQEND
  5
26C
100
AcDbEntity
  8
MD_Visible
370
               0
390
0
 62
               7
  0
POLYLINE
  5
26D
100
AcDbEntity
  8
MD_Visible
370
               0
390
0
 62
               7
100
AcDb3dPolyline
 66
               1
 10
0.0
 20
0.0
 30
0.0
 70
               8
  0
VERTEX
  5
26E
100
AcDbEntity
  8
MD_Visible
370
               0
390
0
 62
               7
100
AcDbVertex
100
AcDb3dPolylineVertex
 10
1631.1163658935584
 20
-151.0680535660799
 30
-0.0000000038953658
 70
              32
  0
VERTEX
  5
26F
100
AcDbEntity
  8
MD_Visible
370
               0
390
0
 62
               7
100
AcDbVertex
100
AcDb3dPolylineVertex
 10
1619.1163658935584
 20
-151.0680535660799
 30
-0.0000000038880899
 70
              32
  0
SEQEND
  5
270
100
AcDbEntity
  8
MD_Visible
370
               0
390
0
 62
               7
  0
POLYLINE
  5
271
100
AcDbEntity
  8
MD_Visible
370
               0
390
0
 62
               7
100
AcDb3dPolyline
 66
               1
 10
0.0
 20
0.0
 30
0.0
 70
               8
  0
VERTEX
  5
272
100
AcDbEntity
  8
MD_Visible
370
               0
390
0
 62
               7
100
AcDbVertex
100
AcDb3dPolylineVertex
 10
1619.1163658935584
 20
190.93194643392556
 30
-0.0000000038880899
 70
              32
  0
VERTEX
  5
273
100
AcDbEntity
  8
MD_Visible
370
               0
390
0
 62
               7
100
AcDbVertex
100
AcDb3dPolylineVertex
 10
1619.1163658935584
 20
-151.06805356608012
 30
-0.0000000038880899
 70
              32
  0
SEQEND
  5
274
100
AcDbEntity
  8
MD_Visible
370
               0
390
0
 62
               7
  0
POLYLINE
  5
275
100
AcDbEntity
  8
MD_Visible
370
               0
390
0
 62
               7
100
AcDb3dPolyline
 66
               1
 10
0.0
 20
0.0
 30
0.0
 70
               8
  0
VERTEX
  5
276
100
AcDbEntity
  8
MD_Visible
370
               0
390
0
 62
               7
100
AcDbVertex
100
AcDb3dPolylineVertex
 10
1631.1163658935584
 20
190.93194643392556
 30
-0.0000000038953658
 70
              32
  0
VERTEX
  5
277
100
AcDbEntity
  8
MD_Visible
370
               0
390
0
 62
               7
100
AcDbVertex
100
AcDb3dPolylineVertex
 10
1619.1163658935584
 20
190.93194643392556
 30
-0.0000000038880899
 70
              32
  0
SEQEND
  5
278
100
AcDbEntity
  8
MD_Visible
370
               0
390
0
 62
               7
  0
POLYLINE
  5
279
100
AcDbEntity
  8
MD_Visible
370
               0
390
0
 62
               7
100
AcDb3dPolyline
 66
               1
 10
0.0
 20
0.0
 30
0.0
 70
               8
  0
VERTEX
  5
27A
100
AcDbEntity
  8
MD_Visible
370
               0
390
0
 62
               7
100
AcDbVertex
100
AcDb3dPolylineVertex
 10
1631.1163658935584
 20
-151.0680535660799
 30
-0.0000000038953658
 70
              32
  0
VERTEX
  5
27B
100
AcDbEntity
  8
MD_Visible
370
               0
390
0
 62
               7
100
AcDbVertex
100
AcDb3dPolylineVertex
 10
1631.1163658935584
 20
190.93194643392602
 30
-0.0000000038953658
 70
              32
  0
SEQEND
  5
27C
100
AcDbEntity
  8
MD_Visible
370
               0
390
0
 62
               7
  0
POLYLINE
  5
27D
100
AcDbEntity
  8
MD_Visible
370
               0
390
0
 62
               7
100
AcDb3dPolyline
 66
               1
 10
0.0
 20
0.0
 30
0.0
 70
               8
  0
VERTEX
  5
27E
100
AcDbEntity
  8
MD_Visible
370
               0
390
0
 62
               7
100
AcDbVertex
100
AcDb3dPolylineVertex
 10
1101.3597650236261
 20
118.42474509014485
 30
-0.0000000035815901
 70
              32
  0
VERTEX
  5
27F
100
AcDbEntity
  8
MD_Visible
370
               0
390
0
 62
               7
100
AcDbVertex
100
AcDb3dPolylineVertex
 10
1101.3597650236261
 20
117.01053152777243
 30
-0.0000000035815901
 70
              32
  0
SEQEND
  5
280
100
AcDbEntity
  8
MD_Visible
370
               0
390
0
 62
               7
  0
POLYLINE
  5
281
100
AcDbEntity
  8
MD_Visible
370
               0
390
0
 62
               7
100
AcDb3dPolyline
 66
               1
 10
0.0
 20
0.0
 30
0.0
 70
               8
  0
VERTEX
  5
282
100
AcDbEntity
  8
MD_Visible
370
               0
390
0
 62
               7
100
AcDbVertex
100
AcDb3dPolylineVertex
 10
1124.8597650236261
 20
118.42474509014394
 30
-0.0000000035952326
 70
              32
  0
VERTEX
  5
283
100
AcDbEntity
  8
MD_Visible
370
               0
390
0
 62
               7
100
AcDbVertex
100
AcDb3dPolylineVertex
 10
1124.8597650236297
 20
117.01053152777152
 30
-0.0000000035952326
 70
              32
  0
SEQEND
  5
284
100
AcDbEntity
  8
MD_Visible
370
               0
390
0
 62
               7
  0
POLYLINE
  5
285
100
AcDbEntity
  8
MD_Visible
370
               0
390
0
 62
               7
100
AcDb3dPolyline
 66
               1
 10
0.0
 20
0.0
 30
0.0
 70
               8
  0
VERTEX
  5
286
100
AcDbEntity
  8
MD_Visible
370
               0
390
0
 62
               7
100
AcDbVertex
100
AcDb3dPolylineVertex
 10
1107.1097650236261
 20
118.42474509014485
 30
-0.0000000035852281
 70
              32
  0
VERTEX
  5
287
100
AcDbEntity
  8
MD_Visible
370
               0
390
0
 62
               7
100
AcDbVertex
100
AcDb3dPolylineVertex
 10
1107.1097650236297
 20
113.68132859989194
 30
-0.0000000035852281
 70
              32
  0
SEQEND
  5
288
100
AcDbEntity
  8
MD_Visible
370
               0
390
0
 62
               7
  0
POLYLINE
  5
289
100
AcDbEntity
  8
MD_Visible
370
               0
390
0
 62
               7
100
AcDb3dPolyline
 66
               1
 10
0.0
 20
0.0
 30
0.0
 70
               8
  0
VERTEX
  5
28A
100
AcDbEntity
  8
MD_Visible
370
               0
390
0
 62
               7
100
AcDbVertex
100
AcDb3dPolylineVertex
 10
1119.1097650236261
 20
118.4247450901444
 30
-0.0000000035915946
 70
              32
  0
VERTEX
  5
28B
100
AcDbEntity
  8
MD_Visible
370
               0
390
0
 62
               7
100
AcDbVertex
100
AcDb3dPolylineVertex
 10
1119.1097650236297
 20
113.68132859989149
 30
-0.0000000035915946
 70
              32
  0
SEQEND
  5
28C
100
AcDbEntity
  8
MD_Visible
370
               0
390
0
 62
               7
  0
POLYLINE
  5
28D
100
AcDbEntity
  8
MD_Visible
370
               0
390
0
 62
               7
100
AcDb3dPolyline
 66
               1
 10
0.0
 20
0.0
 30
0.0
 70
               8
  0
VERTEX
  5
28E
100
AcDbEntity
  8
MD_Visible
370
               0
390
0
 62
               7
100
AcDbVertex
100
AcDb3dPolylineVertex
 10
1103.1097650236261
 20
117.36408491836485
 30
-0.0000000035824996
 70
              32
  0
VERTEX
  5
28F
100
AcDbEntity
  8
MD_Visible
370
               0
390
0
 62
               7
100
AcDbVertex
100
AcDb3dPolylineVertex
 10
1103.1097650236297
 20
119.48540526192576
 30
-0.0000000035824996
 70
              32
  0
SEQEND
  5
290
100
AcDbEntity
  8
MD_Visible
370
               0
390
0
 62
               7
  0
POLYLINE
  5
291
100
AcDbEntity
  8
MD_Visible
370
               0
390
0
 62
               7
100
AcDb3dPolyline
 66
               1
 10
0.0
 20
0.0
 30
0.0
 70
               8
  0
VERTEX
  5
292
100
AcDbEntity
  8
MD_Visible
370
               0
390
0
 62
               7
100
AcDbVertex
100
AcDb3dPolylineVertex
 10
1104.2356453489774
 20
117.36408491836485
 30
-0.0000000035834091
 70
              32
  0
VERTEX
  5
293
100
AcDbEntity
  8
MD_Visible
370
               0
390
0
 62
               7
100
AcDbVertex
100
AcDb3dPolylineVertex
 10
1103.1097650236261
 20
117.36408491836485
 30
-0.0000000035824996
 70
              32
  0
SEQEND
  5
294
100
AcDbEntity
  8
MD_Visible
370
               0
390
0
 62
               7
  0
POLYLINE
  5
295
100
AcDbEntity
  8
MD_Visible
370
               0
390
0
 62
               7
100
AcDb3dPolyline
 66
               1
 10
0.0
 20
0.0
 30
0.0
 70
               8
  0
VERTEX
  5
296
100
AcDbEntity
  8
MD_Visible
370
               0
390
0
 62
               7
100
AcDbVertex
100
AcDb3dPolylineVertex
 10
1103.1097650236297
 20
119.48540526192576
 30
-0.0000000035824996
 70
              32
  0
VERTEX
  5
297
100
AcDbEntity
  8
MD_Visible
370
               0
390
0
 62
               7
100
AcDbVertex
100
AcDb3dPolylineVertex
 10
1104.2356453489774
 20
119.48540526192576
 30
-0.0000000035834091
 70
              32
  0
SEQEND
  5
298
100
AcDbEntity
  8
MD_Visible
370
               0
390
0
 62
               7
  0
POLYLINE
  5
299
100
AcDbEntity
  8
MD_Visible
370
               0
390
0
 62
               7
100
AcDb3dPolyline
 66
               1
 10
0.0
 20
0.0
 30
0.0
 70
               8
  0
VERTEX
  5
29A
100
AcDbEntity
  8
MD_Visible
370
               0
390
0
 62
               7
100
AcDbVertex
100
AcDb3dPolylineVertex
 10
1104.2356453489774
 20
119.48540526192576
 30
-0.0000000035834091
 70
              32
  0
VERTEX
  5
29B
100
AcDbEntity
  8
MD_Visible
370
               0
390
0
 62
               7
100
AcDbVertex
100
AcDb3dPolylineVertex
 10
1104.2356453489811
 20
117.36408491836485
 30
-0.0000000035834091
 70
              32
  0
SEQEND
  5
29C
100
AcDbEntity
  8
MD_Visible
370
               0
390
0
 62
               7
  0
POLYLINE
  5
29D
100
AcDbEntity
  8
MD_Visible
370
               0
390
0
 62
               7
100
AcDb3dPolyline
 66
               1
 10
0.0
 20
0.0
 30
0.0
 70
               8
  0
VERTEX
  5
29E
100
AcDbEntity
  8
MD_Visible
370
               0
390
0
 62
               7
100
AcDbVertex
100
AcDb3dPolylineVertex
 10
1123.1097650236297
 20
120.19251204311107
 30
-0.0000000035943231
 70
              32
  0
VERTEX
  5
29F
100
AcDbEntity
  8
MD_Visible
370
               0
390
0
 62
               7
100
AcDbVertex
100
AcDb3dPolylineVertex
 10
1123.1097650236261
 20
116.65697813717819
 30
-0.0000000035943231
 70
              32
  0
SEQEND
  5
2A0
100
AcDbEntity
  8
MD_Visible
370
               0
390
0
 62
               7
  0
POLYLINE
  5
2A1
100
AcDbEntity
  8
MD_Visible
370
               0
390
0
 62
               7
100
AcDb3dPolyline
 66
               1
 10
0.0
 20
0.0
 30
0.0
 70
               8
  0
VERTEX
  5
2A2
100
AcDbEntity
  8
MD_Visible
370
               0
390
0
 62
               7
100
AcDbVertex
100
AcDb3dPolylineVertex
 10
1121.7555732565233
 20
120.19251204311107
 30
-0.0000000035934136
 70
              32
  0
VERTEX
  5
2A3
100
AcDbEntity
  8
MD_Visible
370
               0
390
0
 62
               7
100
AcDbVertex
100
AcDb3dPolylineVertex
 10
1123.1097650236297
 20
120.19251204311107
 30
-0.0000000035943231
 70
              32
  0
SEQEND
  5
2A4
100
AcDbEntity
  8
MD_Visible
370
               0
390
0
 62
               7
  0
POLYLINE
  5
2A5
100
AcDbEntity
  8
MD_Visible
370
               0
390
0
 62
               7
100
AcDb3dPolyline
 66
               1
 10
0.0
 20
0.0
 30
0.0
 70
               8
  0
VERTEX
  5
2A6
100
AcDbEntity
  8
MD_Visible
370
               0
390
0
 62
               7
100
AcDbVertex
100
AcDb3dPolylineVertex
 10
1121.755573256527
 20
116.65697813717773
 30
-0.0000000035934136
 70
              32
  0
VERTEX
  5
2A7
100
AcDbEntity
  8
MD_Visible
370
               0
390
0
 62
               7
100
AcDbVertex
100
AcDb3dPolylineVertex
 10
1121.7555732565233
 20
120.19251204311107
 30
-0.0000000035934136
 70
              32
  0
SEQEND
  5
2A8
100
AcDbEntity
  8
MD_Visible
370
               0
390
0
 62
               7
  0
POLYLINE
  5
2A9
100
AcDbEntity
  8
MD_Visible
370
               0
390
0
 62
               7
100
AcDb3dPolyline
 66
               1
 10
0.0
 20
0.0
 30
0.0
 70
               8
  0
VERTEX
  5
2AA
100
AcDbEntity
  8
MD_Visible
370
               0
390
0
 62
               7
100
AcDbVertex
100
AcDb3dPolylineVertex
 10
1123.1097650236261
 20
116.65697813717819
 30
-0.0000000035943231
 70
              32
  0
VERTEX
  5
2AB
100
AcDbEntity
  8
MD_Visible
370
               0
390
0
 62
               7
100
AcDbVertex
100
AcDb3dPolylineVertex
 10
1121.7555732565233
 20
116.65697813717819
 30
-0.0000000035934136
 70
              32
  0
SEQEND
  5
2AC
100
AcDbEntity
  8
MD_Visible
370
               0
390
0
 62
               7
  0
POLYLINE
  5
2AD
100
AcDbEntity
  8
MD_Visible
370
               0
390
0
 62
               7
100
AcDb3dPolyline
 66
               1
 10
0.0
 20
0.0
 30
0.0
 70
               8
  0
VERTEX
  5
2AE
100
AcDbEntity
  8
MD_Visible
370
               0
390
0
 62
               7
100
AcDbVertex
100
AcDb3dPolylineVertex
 10
1163.1163658935657
 20
98.931946433924196
 30
-0.0000000036179699
 70
              32
  0
VERTEX
  5
2AF
100
AcDbEntity
  8
MD_Visible
370
               0
390
0
 62
               7
100
AcDbVertex
100
AcDb3dPolylineVertex
 10
1063.1163658935657
 20
98.931946433924196
 30
-0.0000000035588528
 70
              32
  0
SEQEND
  5
2B0
100
AcDbEntity
  8
MD_Visible
370
               0
390
0
 62
               7
  0
POLYLINE
  5
2B1
100
AcDbEntity
  8
MD_Visible
370
               0
390
0
 62
               7
100
AcDb3dPolyline
 66
               1
 10
0.0
 20
0.0
 30
0.0
 70
               8
  0
VERTEX
  5
2B2
100
AcDbEntity
  8
MD_Visible
370
               0
390
0
 62
               7
100
AcDbVertex
100
AcDb3dPolylineVertex
 10
1127.1163658935438
 20
102.1623938122066
 30
-0.0000000035961421
 70
              32
  0
VERTEX
  5
2B3
100
AcDbEntity
  8
MD_Visible
370
               0
390
0
 62
               7
100
AcDbVertex
100
AcDb3dPolylineVertex
 10
1099.1163658935693
 20
102.1623938122066
 30
-0.0000000035797711
 70
              32
  0
SEQEND
  5
2B4
100
AcDbEntity
  8
MD_Visible
370
               0
390
0
 62
               7
  0
POLYLINE
  5
2B5
100
AcDbEntity
  8
MD_Visible
370
               0
390
0
 62
               7
100
AcDb3dPolyline
 66
               1
 10
0.0
 20
0.0
 30
0.0
 70
               8
  0
VERTEX
  5
2B6
100
AcDbEntity
  8
MD_Visible
370
               0
390
0
 62
               7
100
AcDbVertex
100
AcDb3dPolylineVertex
 10
1079.1163658935766
 20
116.30452943593721
 30
-0.0000000035679477
 70
              32
  0
VERTEX
  5
2B7
100
AcDbEntity
  8
MD_Visible
370
               0
390
0
 62
               7
100
AcDbVertex
100
AcDb3dPolylineVertex
 10
1079.1163658935984
 20
154.48829562004542
 30
-0.0000000035679477
 70
              32
  0
SEQEND
  5
2B8
100
AcDbEntity
  8
MD_Visible
370
               0
390
0
 62
               7
  0
POLYLINE
  5
2B9
100
AcDbEntity
  8
MD_Visible
370
               0
390
0
 62
               7
100
AcDb3dPolyline
 66
               1
 10
0.0
 20
0.0
 30
0.0
 70
               8
  0
VERTEX
  5
2BA
100
AcDbEntity
  8
MD_Visible
370
               0
390
0
 62
               7
100
AcDbVertex
100
AcDb3dPolylineVertex
 10
1099.1163658936057
 20
168.63043124377694
 30
-0.0000000035797711
 70
              32
  0
VERTEX
  5
2BB
100
AcDbEntity
  8
MD_Visible
370
               0
390
0
 62
               7
100
AcDbVertex
100
AcDb3dPolylineVertex
 10
1127.1163658935839
 20
168.63043124377694
 30
-0.0000000035961421
 70
              32
  0
SEQEND
  5
2BC
100
AcDbEntity
  8
MD_Visible
370
               0
390
0
 62
               7
  0
POLYLINE
  5
2BD
100
AcDbEntity
  8
MD_Visible
370
               0
390
0
 62
               7
100
AcDb3dPolyline
 66
               1
 10
0.0
 20
0.0
 30
0.0
 70
               8
  0
VERTEX
  5
2BE
100
AcDbEntity
  8
MD_Visible
370
               0
390
0
 62
               7
100
AcDbVertex
100
AcDb3dPolylineVertex
 10
1147.1163658935729
 20
154.48829562004542
 30
-0.000000003608875
 70
              32
  0
VERTEX
  5
2BF
100
AcDbEntity
  8
MD_Visible
370
               0
390
0
 62
               7
100
AcDbVertex
100
AcDb3dPolylineVertex
 10
1147.1163658935511
 20
116.30452943593721
 30
-0.000000003608875
 70
              32
  0
SEQEND
  5
2C0
100
AcDbEntity
  8
MD_Visible
370
               0
390
0
 62
               7
  0
POLYLINE
  5
2C1
100
AcDbEntity
  8
MD_Visible
370
               0
390
0
 62
               7
100
AcDb3dPolyline
 66
               1
 10
0.0
 20
0.0
 30
0.0
 70
               8
  0
VERTEX
  5
2C2
100
AcDbEntity
  8
MD_Visible
370
               0
390
0
 62
               7
100
AcDbVertex
100
AcDb3dPolylineVertex
 10
1127.1163658935875
 20
160.14514986953785
 30
-0.0000000035961421
 70
              32
  0
VERTEX
  5
2C3
100
AcDbEntity
  8
MD_Visible
370
               0
390
0
 62
               7
100
AcDbVertex
100
AcDb3dPolylineVertex
 10
1099.116365893613
 20
160.14514986953785
 30
-0.0000000035797711
 70
              32
  0
SEQEND
  5
2C4
100
AcDbEntity
  8
MD_Visible
370
               0
390
0
 62
               7
  0
POLYLINE
  5
2C5
100
AcDbEntity
  8
MD_Visible
370
               0
390
0
 62
               7
100
AcDb3dPolyline
 66
               1
 10
0.0
 20
0.0
 30
0.0
 70
               8
  0
VERTEX
  5
2C6
100
AcDbEntity
  8
MD_Visible
370
               0
390
0
 62
               7
100
AcDbVertex
100
AcDb3dPolylineVertex
 10
1163.1163658935402
 20
98.931946433924196
 30
-0.0000000036179699
 70
              32
  0
VERTEX
  5
2C7
100
AcDbEntity
  8
MD_Visible
370
               0
390
0
 62
               7
100
AcDbVertex
100
AcDb3dPolylineVertex
 10
1163.1163658935402
 20
178.93194643392465
 30
-0.0000000036179699
 70
              32
  0
SEQEND
  5
2C8
100
AcDbEntity
  8
MD_Visible
370
               0
390
0
 62
               7
  0
SPLINE
  5
2C9
100
AcDbEntity
  8
MD_Visible
370
               0
390
0
  6
Continuous
 62
               7
100
AcDbSpline
210
0.0
220
0.0
230
1.0
 70
               4
 71
               2
 72
               8
 73
               5
 74
               0
 42
0.000001
 43
0.000001
 40
0.0
 40
0.0
 40
0.0
 40
0.5
 40
0.5
 40
1.0
 40
1.0
 40
1.0
 10
1104.2356453489774
 20
119.48540526192758
 30
-0.0000000035826948
 41
1.0
 10
1105.4317761707098
 20
124.48917948715874
 30
-0.000000003583404
 41
0.7818516210830154
 10
1112.5968990288384
 20
124.7783648643904
 30
-0.0000000035876525
 41
1.0
 10
1119.762021886967
 20
125.06755024162253
 30
-0.000000003591901
 41
0.7818516210830154
 10
1121.7555732565197
 20
120.19251204311516
 30
-0.000000003593083
 41
1.0
  0
SPLINE
  5
2CA
100
AcDbEntity
  8
MD_Visible
370
               0
390
0
  6
Continuous
 62
               7
100
AcDbSpline
210
0.0
220
0.0
230
1.0
 70
               4
 71
               2
 72
               8
 73
               5
 74
               0
 42
0.000001
 43
0.000001
 40
0.0
 40
0.0
 40
0.0
 40
0.5
 40
0.5
 40
1.0
 40
1.0
 40
1.0
 10
1121.755573256527
 20
116.65697813719183
 30
-0.000000003593083
 41
1.0
 10
1119.7620218869888
 20
111.7819399386722
 30
-0.000000003591901
 41
0.7818516210825574
 10
1112.5968990288529
 20
112.07112531589749
 30
-0.0000000035876525
 41
1.0
 10
1105.4317761707134
 20
112.36031069312278
 30
-0.000000003583404
 41
0.7818516210825574
 10
1104.2356453489774
 20
117.36408491836121
 30
-0.0000000035826948
 41
1.0
  0
SPLINE
  5
2CB
100
AcDbEntity
  8
MD_Visible
370
               0
390
0
  6
Continuous
 62
               7
100
AcDbSpline
210
0.0
220
0.0
230
1.0
 70
              12
 71
               2
 72
               6
 73
               3
 74
               0
 42
0.000001
 43
0.000001
 40
0.0
 40
0.0
 40
0.0
 40
1.0
 40
1.0
 40
1.0
 10
1101.3697530619938
 20
116.66802668062067
 30
-0.0000000035809955
 41
1.0
 10
1101.3597650298689
 20
116.83920618013465
 30
-0.0000000035809896
 41
0.9997874662255042
 10
1101.3597650236297
 20
117.01053131382471
 30
-0.0000000035809896
 41
1.0
  0
SPLINE
  5
2CC
100
AcDbEntity
  8
MD_Visible
370
               0
390
0
  6
Continuous
 62
               7
100
AcDbSpline
210
0.0
220
0.0
230
1.0
 70
               4
 71
               2
 72
               6
 73
               3
 74
               0
 42
0.000001
 43
0.000001
 40
0.0
 40
0.0
 40
0.0
 40
1.0
 40
1.0
 40
1.0
 10
1124.8597650236261
 20
117.01053499655612
 30
-0.0000000035949236
 41
1.0
 10
1124.8597651247837
 20
116.83920802072274
 30
-0.0000000035949236
 41
0.9997874616565171
 10
1124.8497769852656
 20
116.66802668066842
 30
-0.0000000035949177
 41
1.0
  0
SPLINE
  5
2CD
100
AcDbEntity
  8
MD_Visible
370
               0
390
0
  6
Continuous
 62
               7
100
AcDbSpline
210
0.0
220
0.0
230
1.0
 70
               4
 71
               2
 72
               8
 73
               5
 74
               0
 42
0.000001
 43
0.000001
 40
0.0
 40
0.0
 40
0.0
 40
0.5
 40
0.5
 40
1.0
 40
1.0
 40
1.0
 10
1099.8657873341799
 20
110.88568881501899
 30
-0.0000000035808525
 41
1.0
 10
1100.3112870020414
 20
111.35322559761565
 30
-0.0000000035811167
 41
0.8830175565571653
 10
1101.1085641388054
 20
111.35367693836682
 30
-0.0000000035815894
 41
1.0
 10
1101.905841275573
 20
111.35412827911799
 30
-0.0000000035820622
 41
0.8830175565571653
 10
1102.3523990670401
 20
110.88709649267096
 30
-0.0000000035823269
 41
1.0
  0
SPLINE
  5
2CE
100
AcDbEntity
  8
MD_Visible
370
               0
390
0
  6
Continuous
 62
               7
100
AcDbSpline
210
0.0
220
0.0
230
1.0
 70
               4
 71
               2
 72
               8
 73
               5
 74
               0
 42
0.000001
 43
0.000001
 40
0.0
 40
0.0
 40
0.0
 40
0.5
 40
0.5
 40
1.0
 40
1.0
 40
1.0
 10
1123.8658686055132
 20
124.32080294014034
 30
-0.000000003594495
 41
1.0
 10
1124.3113906048238
 20
124.78826534671092
 30
-0.0000000035947592
 41
0.8830357926348466
 10
1125.108593005094
 20
124.78870579705656
 30
-0.0000000035952319
 41
1.0
 10
1125.9057954053569
 20
124.78914624740221
 30
-0.0000000035957046
 41
0.8830357926348466
 10
1126.352349942641
 20
124.32217670866433
 30
-0.0000000035959693
 41
1.0
  0
SPLINE
  5
2CF
100
AcDbEntity
  8
MD_Visible
370
               0
390
0
  6
Continuous
 62
               7
100
AcDbSpline
210
0.0
220
0.0
230
1.0
 70
               4
 71
               2
 72
               6
 73
               3
 74
               0
 42
0.000001
 43
0.000001
 40
0.0
 40
0.0
 40
0.0
 40
1.0
 40
1.0
 40
1.0
 10
1147.1163658935511
 20
116.3045294359363
 30
-0.0000000036080008
 41
1.0
 10
1147.1163658935511
 20
102.16239381223116
 30
-0.0000000036080008
 41
0.7071067811871908
 10
1127.1163658935875
 20
102.16239381220569
 30
-0.0000000035961421
 41
1.0
  0
SPLINE
  5
2D0
100
AcDbEntity
  8
MD_Visible
370
               0
390
0
  6
Continuous
 62
               7
100
AcDbSpline
210
0.0
220
0.0
230
1.0
 70
               4
 71
               2
 72
               8
 73
               5
 74
               0
 42
0.000001
 43
0.000001
 40
0.0
 40
0.0
 40
0.0
 40
0.5
 40
0.5
 40
1.0
 40
1.0
 40
1.0
 10
1099.116365893613
 20
102.16239381220615
 30
-0.0000000035797711
 41
1.0
 10
1090.8320946461354
 20
102.16239381219569
 30
-0.0000000035748591
 41
0.9238795325111127
 10
1084.9742302698578
 20
106.30452943592812
 30
-0.0000000035713858
 41
1.0
 10
1079.1163658935766
 20
110.44666505965964
 30
-0.0000000035679124
 41
0.9238795325111127
 10
1079.1163658935766
 20
116.30452943593721
 30
-0.0000000035679124
 41
1.0
  0
SPLINE
  5
2D1
100
AcDbEntity
  8
MD_Visible
370
               0
390
0
  6
Continuous
 62
               7
100
AcDbSpline
210
0.0
220
0.0
230
1.0
 70
               5
 71
               2
 72
              12
 73
               9
 74
               0
 42
0.000001
 43
0.000001
 40
0.0
 40
0.0
 40
0.0
 40
0.25
 40
0.25
 40
0.5
 40
0.5
 40
0.75
 40
0.75
 40
1.0
 40
1.0
 40
1.0
 10
1107.1097650236261
 20
118.42474491133001
 30
-0.000000003584399
 41
1.0
 10
1107.1097647707466
 20
122.66738559844956
 30
-0.000000003584399
 41
0.7071067811865476
 10
1113.1097647707466
 20
122.66738577726349
 30
-0.0000000035879566
 41
1.0
 10
1119.1097647707466
 20
122.66738595607697
 30
-0.0000000035915142
 41
0.7071067811865476
 10
1119.1097650236261
 20
118.42474526895788
 30
-0.0000000035915142
 41
1.0
 10
1119.1097652765056
 20
114.18210458183835
 30
-0.0000000035915142
 41
0.7071067811865476
 10
1113.1097652765056
 20
114.1821044030244
 30
-0.0000000035879566
 41
1.0
 10
1107.1097652765056
 20
114.18210422421046
 30
-0.000000003584399
 41
0.7071067811865476
 10
1107.1097650236261
 20
118.42474491133001
 30
-0.000000003584399
 41
1.0
  0
SPLINE
  5
2D2
100
AcDbEntity
  8
MD_Visible
370
               0
390
0
  6
Continuous
 62
               7
100
AcDbSpline
210
0.0
220
0.0
230
1.0
 70
               4
 71
               2
 72
               6
 73
               3
 74
               0
 42
0.000001
 43
0.000001
 40
0.0
 40
0.0
 40
0.0
 40
1.0
 40
1.0
 40
1.0
 10
1079.1163658935984
 20
154.48829562004542
 30
-0.0000000035679124
 41
1.0
 10
1079.1163658935984
 20
168.63043124375329
 30
-0.0000000035679124
 41
0.7071067811871263
 10
1099.1163658935657
 20
168.63043124377648
 30
-0.0000000035797711
 41
1.0
  0
SPLINE
  5
2D3
100
AcDbEntity
  8
MD_Visible
370
               0
390
0
  6
Continuous
 62
               7
100
AcDbSpline
210
0.0
220
0.0
230
1.0
 70
               4
 71
               2
 72
               8
 73
               5
 74
               0
 42
0.000001
 43
0.000001
 40
0.0
 40
0.0
 40
0.0
 40
0.5
 40
0.5
 40
1.0
 40
1.0
 40
1.0
 10
1127.1163658935402
 20
168.63043124377648
 30
-0.0000000035961421
 41
1.0
 10
1135.4006371410144
 20
168.6304312437874
 30
-0.0000000036010541
 41
0.9238795325111128
 10
1141.2585015172954
 20
164.48829562005452
 30
-0.0000000036045274
 41
1.0
 10
1147.1163658935766
 20
160.34615999632209
 30
-0.0000000036080008
 41
0.9238795325111128
 10
1147.1163658935766
 20
154.48829562004542
 30
-0.0000000036080008
 41
1.0
  0
SPLINE
  5
2D4
100
AcDbEntity
  8
MD_Visible
370
               0
390
0
  6
Continuous
 62
               7
100
AcDbSpline
210
0.0
220
0.0
230
1.0
 70
               4
 71
               2
 72
               8
 73
               5
 74
               0
 42
0.000001
 43
0.000001
 40
0.0
 40
0.0
 40
0.0
 40
0.5
 40
0.5
 40
1.0
 40
1.0
 40
1.0
 10
1147.1163658935766
 20
146.00301424580815
 30
-0.0000000036080008
 41
1.0
 10
1147.1163658935766
 20
151.86087862208527
 30
-0.0000000036080008
 41
0.9238795325111128
 10
1141.2585015172954
 20
156.00301424581724
 30
-0.0000000036045274
 41
1.0
 10
1135.4006371410144
 20
160.14514986955012
 30
-0.0000000036010541
 41
0.9238795325111128
 10
1127.1163658935402
 20
160.14514986953921
 30
-0.0000000035961421
 41
1.0
  0
SPLINE
  5
2D5
100
AcDbEntity
  8
MD_Visible
370
               0
390
0
  6
Continuous
 62
               7
100
AcDbSpline
210
0.0
220
0.0
230
1.0
 70
               4
 71
               2
 72
               6
 73
               3
 74
               0
 42
0.000001
 43
0.000001
 40
0.0
 40
0.0
 40
0.0
 40
1.0
 40
1.0
 40
1.0
 10
1099.1163658935729
 20
160.14514986953876
 30
-0.0000000035797711
 41
1.0
 10
1079.1163658936057
 20
160.14514986951602
 30
-0.0000000035679124
 41
0.7071067811871264
 10
1079.1163658936057
 20
146.00301424580815
 30
-0.0000000035679124
 41
1.0
  0
SPLINE
  5
2D6
100
AcDbEntity
  8
MD_Visible
370
               0
390
0
  6
Continuous
 62
               7
100
AcDbSpline
210
0.0
220
0.0
230
1.0
 70
               4
 71
               2
 72
               6
 73
               3
 74
               0
 42
0.000001
 43
0.000001
 40
0.0
 40
0.0
 40
0.0
 40
1.0
 40
1.0
 40
1.0
 10
1124.8497769852656
 20
118.76724993728342
 30
-0.0000000035949177
 41
1.0
 10
1125.0053893451441
 20
118.24727731206488
 30
-0.0000000035950099
 41
0.998044092707061
 10
1125.06802576673
 20
117.7176383089591
 30
-0.0000000035950471
 41
1.0
  0
SPLINE
  5
2D7
100
AcDbEntity
  8
MD_Visible
370
               0
390
0
  6
Continuous
 62
               7
100
AcDbSpline
210
0.0
220
0.0
230
1.0
 70
              12
 71
               2
 72
               6
 73
               3
 74
               0
 42
0.000001
 43
0.000001
 40
0.0
 40
0.0
 40
0.0
 40
1.0
 40
1.0
 40
1.0
 10
1101.1515042805258
 20
117.71763830895182
 30
-0.0000000035808661
 41
1.0
 10
1101.2141407021081
 20
118.24727731203441
 30
-0.0000000035809033
 41
0.9980440927070606
 10
1101.3697530619902
 20
118.7672499372766
 30
-0.0000000035809955
 41
1.0
  0
SPLINE
  5
2D8
100
AcDbEntity
  8
MD_Visible
370
               0
390
0
  6
Continuous
 62
               7
100
AcDbSpline
210
0.0
220
0.0
230
1.0
 70
               4
 71
               2
 72
               8
 73
               5
 74
               0
 42
0.000001
 43
0.000001
 40
0.0
 40
0.0
 40
0.0
 40
0.5
 40
0.5
 40
1.0
 40
1.0
 40
1.0
 10
1102.4835595745935
 20
110.99962132886461
 30
-0.0000000035824057
 41
1.0
 10
1101.9742489192395
 20
111.49495204133657
 30
-0.0000000035821037
 41
0.8910839340026271
 10
1101.1081644123478
 20
111.4949520413343
 30
-0.0000000035815901
 41
1.0
 10
1100.2420799054526
 20
111.49495204133204
 30
-0.0000000035810766
 41
0.8910839340026271
 10
1099.7327692501094
 20
110.99962132885733
 30
-0.0000000035807746
 41
1.0
  0
SPLINE
  5
2D9
100
AcDbEntity
  8
MD_Visible
370
               0
390
0
  6
Continuous
 62
               7
100
AcDbSpline
210
0.0
220
0.0
230
1.0
 70
              12
 71
               2
 72
               8
 73
               5
 74
               0
 42
0.000001
 43
0.000001
 40
0.0
 40
0.0
 40
0.0
 40
0.5
 40
0.5
 40
1.0
 40
1.0
 40
1.0
 10
1126.4835979192103
 20
124.43476793062203
 30
-0.0000000035960481
 41
1.0
 10
1125.9742872638635
 20
124.93009864309263
 30
-0.0000000035957461
 41
0.8910839340030072
 10
1125.1082027569682
 20
124.93009864309172
 30
-0.0000000035952326
 41
1.0
 10
1124.242118250073
 20
124.93009864309082
 30
-0.000000003594719
 41
0.8910839340030072
 10
1123.7328075947298
 20
124.43476793061839
 30
-0.000000003594417
 41
1.0
  0
SPLINE
  5
2DA
100
AcDbEntity
  8
MD_Visible
370
               0
390
0
  6
Continuous
 62
               7
100
AcDbSpline
210
0.0
220
0.0
230
1.0
 70
               5
 71
               2
 72
              12
 73
               9
 74
               0
 42
0.000001
 43
0.000001
 40
0.0
 40
0.0
 40
0.0
 40
0.25
 40
0.25
 40
0.5
 40
0.5
 40
0.75
 40
0.75
 40
1.0
 40
1.0
 40
1.0
 10
1110.3597650236261
 20
118.42474502535154
 30
-0.000000003586326
 41
1.0
 10
1110.3597649319963
 20
120.36928867361488
 30
-0.000000003586326
 41
0.7071067811865476
 10
1113.1097649319963
 20
120.36928873840682
 30
-0.0000000035879566
 41
1.0
 10
1115.8597649319963
 20
120.36928880319923
 30
-0.0000000035895872
 41
0.7071067811865476
 10
1115.8597650236261
 20
118.42474515493635
 30
-0.0000000035895872
 41
1.0
 10
1115.8597651152559
 20
116.48020150667303
 30
-0.0000000035895872
 41
0.7071067811865476
 10
1113.1097651152559
 20
116.48020144188106
 30
-0.0000000035879566
 41
1.0
 10
1110.3597651152559
 20
116.48020137708866
 30
-0.000000003586326
 41
0.7071067811865476
 10
1110.3597650236261
 20
118.42474502535154
 30
-0.000000003586326
 41
1.0
  0
SPLINE
  5
2DB
100
AcDbEntity
  8
MD_Visible
370
               0
390
0
  6
Continuous
 62
               7
100
AcDbSpline
210
0.0
220
0.0
230
1.0
 70
               5
 71
               2
 72
              12
 73
               9
 74
               0
 42
0.000001
 43
0.000001
 40
0.0
 40
0.0
 40
0.0
 40
0.25
 40
0.25
 40
0.5
 40
0.5
 40
0.75
 40
0.75
 40
1.0
 40
1.0
 40
1.0
 10
1101.3597650236261
 20
118.4247448757051
 30
-0.0000000035809896
 41
1.0
 10
1101.3597647203642
 20
126.73324955464707
 30
-0.0000000035809896
 41
0.7071067811865474
 10
1113.1097647203642
 20
126.73324976908637
 30
-0.0000000035879566
 41
1.0
 10
1124.8597647203642
 20
126.73324998352521
 30
-0.0000000035949236
 41
0.7071067811865474
 10
1124.8597650236261
 20
118.42474530458279
 30
-0.0000000035949236
 41
1.0
 10
1124.859765326888
 20
110.11624062564081
 30
-0.0000000035949236
 41
0.7071067811865474
 10
1113.109765326888
 20
110.11624041120152
 30
-0.0000000035879566
 41
1.0
 10
1101.359765326888
 20
110.11624019676269
 30
-0.0000000035809896
 41
0.7071067811865474
 10
1101.3597650236261
 20
118.4247448757051
 30
-0.0000000035809896
 41
1.0
  0
SPLINE
  5
2DC
100
AcDbEntity
  8
MD_Visible
370
               0
390
0
  6
Continuous
 62
               7
100
AcDbSpline
210
0.0
220
0.0
230
1.0
 70
              13
 71
               2
 72
              12
 73
               9
 74
               0
 42
0.000001
 43
0.000001
 40
0.0
 40
0.0
 40
0.0
 40
0.25
 40
0.25
 40
0.5
 40
0.5
 40
0.75
 40
0.75
 40
1.0
 40
1.0
 40
1.0
 10
1125.1097650236297
 20
118.42474509014394
 30
-0.0000000035950718
 41
1.0
 10
1125.1097650236297
 20
126.9100264643826
 30
-0.0000000035950718
 41
0.7071067811865476
 10
1113.1097650236297
 20
126.91002646438258
 30
-0.0000000035879566
 41
1.0
 10
1101.1097650236297
 20
126.9100264643826
 30
-0.0000000035808414
 41
0.7071067811865476
 10
1101.1097650236297
 20
118.42474509014394
 30
-0.0000000035808414
 41
1.0
 10
1101.1097650236297
 20
109.9394637159053
 30
-0.0000000035808414
 41
0.7071067811865476
 10
1113.1097650236297
 20
109.9394637159053
 30
-0.0000000035879566
 41
1.0
 10
1125.1097650236297
 20
109.9394637159053
 30
-0.0000000035950718
 41
0.7071067811865476
 10
1125.1097650236297
 20
118.42474509014394
 30
-0.0000000035950718
 41
1.0
  0
SPLINE
  5
2DD
100
AcDbEntity
  8
MD_Visible
370
               0
390
0
  6
Continuous
 62
               7
100
AcDbSpline
210
0.0
220
0.0
230
1.0
 70
               5
 71
               2
 72
              12
 73
               9
 74
               0
 42
0.000001
 43
0.000001
 40
0.0
 40
0.0
 40
0.0
 40
0.25
 40
0.25
 40
0.5
 40
0.5
 40
0.75
 40
0.75
 40
1.0
 40
1.0
 40
1.0
 10
1099.4076610009142
 20
111.70672811004627
 30
-0.0000000035805818
 41
1.0
 10
1099.4076610009142
 20
112.90916560370626
 30
-0.0000000035805818
 41
0.7071067811865476
 10
1101.1081644123551
 20
112.90916560370627
 30
-0.0000000035815901
 41
1.0
 10
1102.808667823796
 20
112.90916560370626
 30
-0.0000000035825984
 41
0.7071067811865476
 10
1102.808667823796
 20
111.70672811004627
 30
-0.0000000035825984
 41
1.0
 10
1102.808667823796
 20
110.50429061638627
 30
-0.0000000035825984
 41
0.7071067811865476
 10
1101.1081644123551
 20
110.50429061638627
 30
-0.0000000035815901
 41
1.0
 10
1099.4076610009142
 20
110.50429061638627
 30
-0.0000000035805818
 41
0.7071067811865476
 10
1099.4076610009142
 20
111.70672811004627
 30
-0.0000000035805818
 41
1.0
  0
SPLINE
  5
2DE
100
AcDbEntity
  8
MD_Visible
370
               0
390
0
  6
Continuous
 62
               7
100
AcDbSpline
210
0.0
220
0.0
230
1.0
 70
               5
 71
               2
 72
              12
 73
               9
 74
               0
 42
0.000001
 43
0.000001
 40
0.0
 40
0.0
 40
0.0
 40
0.25
 40
0.25
 40
0.5
 40
0.5
 40
0.75
 40
0.75
 40
1.0
 40
1.0
 40
1.0
 10
1123.407699345531
 20
125.14187471180506
 30
-0.0000000035942243
 41
1.0
 10
1123.407699345531
 20
126.34431220546504
 30
-0.0000000035942243
 41
0.7071067811865476
 10
1125.1082027569719
 20
126.34431220546506
 30
-0.0000000035952326
 41
1.0
 10
1126.8087061684128
 20
126.34431220546504
 30
-0.0000000035962408
 41
0.7071067811865476
 10
1126.8087061684128
 20
125.14187471180506
 30
-0.0000000035962408
 41
1.0
 10
1126.8087061684128
 20
123.93943721814506
 30
-0.0000000035962408
 41
0.7071067811865476
 10
1125.1082027569719
 20
123.93943721814506
 30
-0.0000000035952326
 41
1.0
 10
1123.407699345531
 20
123.93943721814506
 30
-0.0000000035942243
 41
0.7071067811865476
 10
1123.407699345531
 20
125.14187471180506
 30
-0.0000000035942243
 41
1.0
  0
ENDBLK
  5
2DF
100
AcDbEntity
  8
0
390
0
100
AcDbBlockEnd
  0
BLOCK
  5
2E0
100
AcDbEntity
  8
0
390
0
100
AcDbBlockBegin
  2
グループ-7
 70
               0
 10
0.0
 20
0.0
 30
0.0
  3
グループ-7
  1

  0
POLYLINE
  5
2E1
100
AcDbEntity
  8
MD_Visible
370
               0
390
0
 62
               7
100
AcDb3dPolyline
 66
               1
 10
0.0
 20
0.0
 30
0.0
 70
               8
  0
VERTEX
  5
2E2
100
AcDbEntity
  8
MD_Visible
370
               0
390
0
 62
               7
100
AcDbVertex
100
AcDb3dPolylineVertex
 10
-847.35994273762481
 20
-151.06805356607967
 30
0.000000000003638
 70
              32
  0
VERTEX
  5
2E3
100
AcDbEntity
  8
MD_Visible
370
               0
390
0
 62
               7
100
AcDbVertex
100
AcDb3dPolylineVertex
 10
-1165.7170200735854
 20
-151.06805356607967
 30
0.000000000003638
 70
              32
  0
SEQEND
  5
2E4
100
AcDbEntity
  8
MD_Visible
370
               0
390
0
 62
               7
  0
ARC
  5
2E5
100
AcDbEntity
  8
MD_Visible
370
               0
390
0
 62
               7
100
AcDbCircle
 10
-847.35994273762481
 20
170.93194643392602
 30
0.0
 40
19.999999999998092
100
AcDbArc
 50
8.8181856876675795
 51
90.0
  0
POLYLINE
  5
2E6
100
AcDbEntity
  8
MD_Visible
370
               0
390
0
 62
               7
100
AcDb3dPolyline
 66
               1
 10
0.0
 20
0.0
 30
0.0
 70
               8
  0
VERTEX
  5
2E7
100
AcDbEntity
  8
MD_Visible
370
               0
390
0
 62
               7
100
AcDbVertex
100
AcDb3dPolylineVertex
 10
-827.59634725875003
 20
-134.13404341395923
 30
0.000000000004041
 70
              32
  0
VERTEX
  5
2E8
100
AcDbEntity
  8
MD_Visible
370
               0
390
0
 62
               7
100
AcDbVertex
100
AcDb3dPolylineVertex
 10
-826.16033188240908
 20
-124.57408795287071
 30
0.0000000000040416
 70
              32
  0
VERTEX
  5
2E9
100
AcDbEntity
  8
MD_Visible
370
               0
390
0
 62
               7
100
AcDbVertex
100
AcDb3dPolylineVertex
 10
-824.81634015348027
 20
-115.00076173824365
 30
0.0000000000040421
 70
              32
  0
VERTEX
  5
2EA
100
AcDbEntity
  8
MD_Visible
370
               0
390
0
 62
               7
100
AcDbVertex
100
AcDb3dPolylineVertex
 10
-823.56449642789812
 20
-105.41495056412893
 30
0.0000000000040426
 70
              32
  0
VERTEX
  5
2EB
100
AcDbEntity
  8
MD_Visible
370
               0
390
0
 62
               7
100
AcDbVertex
100
AcDb3dPolylineVertex
 10
-822.40491653538265
 20
-95.817541379772109
 30
0.0000000000040431
 70
              32
  0
VERTEX
  5
2EC
100
AcDbEntity
  8
MD_Visible
370
               0
390
0
 62
               7
100
AcDbVertex
100
AcDb3dPolylineVertex
 10
-821.33770776873644
 20
-86.209422207558617
 30
0.0000000000040435
 70
              32
  0
VERTEX
  5
2ED
100
AcDbEntity
  8
MD_Visible
370
               0
390
0
 62
               7
100
AcDbVertex
100
AcDb3dPolylineVertex
 10
-820.36296887390199
 20
-76.591482060832703
 30
0.0000000000040439
 70
              32
  0
VERTEX
  5
2EE
100
AcDbEntity
  8
MD_Visible
370
               0
390
0
 62
               7
100
AcDbVertex
100
AcDb3dPolylineVertex
 10
-819.48079004084502
 20
-66.964610861654336
 30
0.0000000000040443
 70
              32
  0
VERTEX
  5
2EF
100
AcDbEntity
  8
MD_Visible
370
               0
390
0
 62
               7
100
AcDbVertex
100
AcDb3dPolylineVertex
 10
-818.69125289518706
 20
-57.329699358443087
 30
0.0000000000040446
 70
              32
  0
VERTEX
  5
2F0
100
AcDbEntity
  8
MD_Visible
370
               0
390
0
 62
               7
100
AcDbVertex
100
AcDb3dPolylineVertex
 10
-817.9944304906785
 20
-47.687639043569526
 30
0.0000000000040449
 70
              32
  0
VERTEX
  5
2F1
100
AcDbEntity
  8
MD_Visible
370
               0
390
0
 62
               7
100
AcDbVertex
100
AcDb3dPolylineVertex
 10
-817.39038730241009
 20
-38.039322070864237
 30
0.0000000000040451
 70
              32
  0
VERTEX
  5
2F2
100
AcDbEntity
  8
MD_Visible
370
               0
390
0
 62
               7
100
AcDbVertex
100
AcDb3dPolylineVertex
 10
-816.87917922086854
 20
-28.385641173069153
 30
0.0000000000040453
 70
              32
  0
VERTEX
  5
2F3
100
AcDbEntity
  8
MD_Visible
370
               0
390
0
 62
               7
100
AcDbVertex
100
AcDb3dPolylineVertex
 10
-816.46085354676325
 20
-18.727489579235872
 30
0.0000000000040455
 70
              32
  0
VERTEX
  5
2F4
100
AcDbEntity
  8
MD_Visible
370
               0
390
0
 62
               7
100
AcDbVertex
100
AcDb3dPolylineVertex
 10
-816.13544898663895
 20
-9.0657609320766923
 30
0.0000000000040456
 70
              32
  0
VERTEX
  5
2F5
100
AcDbEntity
  8
MD_Visible
370
               0
390
0
 62
               7
100
AcDbVertex
100
AcDb3dPolylineVertex
 10
-815.90299564929956
 20
0.5986507947200508
 30
0.0000000000040457
 70
              32
  0
VERTEX
  5
2F6
100
AcDbEntity
  8
MD_Visible
370
               0
390
0
 62
               7
100
AcDbVertex
100
AcDb3dPolylineVertex
 10
-815.76351504302875
 20
10.264851379208302
 30
0.0000000000040458
 70
              32
  0
VERTEX
  5
2F7
100
AcDbEntity
  8
MD_Visible
370
               0
390
0
 62
               7
100
AcDbVertex
100
AcDb3dPolylineVertex
 10
-815.71702007358545
 20
19.931946433922384
 30
0.0000000000040458
 70
              32
  0
VERTEX
  5
2F8
100
AcDbEntity
  8
MD_Visible
370
               0
390
0
 62
               7
100
AcDbVertex
100
AcDb3dPolylineVertex
 10
-815.76351504302875
 20
29.59904148863874
 30
0.0000000000040458
 70
              32
  0
VERTEX
  5
2F9
100
AcDbEntity
  8
MD_Visible
370
               0
390
0
 62
               7
100
AcDbVertex
100
AcDb3dPolylineVertex
 10
-815.90299564929956
 20
39.265242073125627
 30
0.0000000000040457
 70
              32
  0
VERTEX
  5
2FA
100
AcDbEntity
  8
MD_Visible
370
               0
390
0
 62
               7
100
AcDbVertex
100
AcDb3dPolylineVertex
 10
-816.13544898663895
 20
48.929653799922598
 30
0.0000000000040456
 70
              32
  0
VERTEX
  5
2FB
100
AcDbEntity
  8
MD_Visible
370
               0
390
0
 62
               7
100
AcDbVertex
100
AcDb3dPolylineVertex
 10
-816.46085354676325
 20
58.591382447081322
 30
0.0000000000040455
 70
              32
  0
VERTEX
  5
2FC
100
AcDbEntity
  8
MD_Visible
370
               0
390
0
 62
               7
100
AcDbVertex
100
AcDb3dPolylineVertex
 10
-816.87917922086854
 20
68.249534040915051
 30
0.0000000000040453
 70
              32
  0
VERTEX
  5
2FD
100
AcDbEntity
  8
MD_Visible
370
               0
390
0
 62
               7
100
AcDbVertex
100
AcDb3dPolylineVertex
 10
-817.39038730241009
 20
77.903214938710363
 30
0.0000000000040451
 70
              32
  0
VERTEX
  5
2FE
100
AcDbEntity
  8
MD_Visible
370
               0
390
0
 62
               7
100
AcDbVertex
100
AcDb3dPolylineVertex
 10
-817.9944304906785
 20
87.551531911414287
 30
0.0000000000040449
 70
              32
  0
VERTEX
  5
2FF
100
AcDbEntity
  8
MD_Visible
370
               0
390
0
 62
               7
100
AcDbVertex
100
AcDb3dPolylineVertex
 10
-818.69125289518706
 20
97.193592226288757
 30
0.0000000000040446
 70
              32
  0
VERTEX
  5
300
100
AcDbEntity
  8
MD_Visible
370
               0
390
0
 62
               7
100
AcDbVertex
100
AcDb3dPolylineVertex
 10
-819.48079004084502
 20
106.82850372949909
 30
0.0000000000040443
 70
              32
  0
VERTEX
  5
301
100
AcDbEntity
  8
MD_Visible
370
               0
390
0
 62
               7
100
AcDbVertex
100
AcDb3dPolylineVertex
 10
-820.36296887390199
 20
116.45537492867837
 30
0.0000000000040439
 70
              32
  0
VERTEX
  5
302
100
AcDbEntity
  8
MD_Visible
370
               0
390
0
 62
               7
100
AcDbVertex
100
AcDb3dPolylineVertex
 10
-821.33770776873644
 20
126.07331507540314
 30
0.0000000000040435
 70
              32
  0
VERTEX
  5
303
100
AcDbEntity
  8
MD_Visible
370
               0
390
0
 62
               7
100
AcDbVertex
100
AcDb3dPolylineVertex
 10
-822.40491653538265
 20
135.68143424761777
 30
0.0000000000040431
 70
              32
  0
VERTEX
  5
304
100
AcDbEntity
  8
MD_Visible
370
               0
390
0
 62
               7
100
AcDbVertex
100
AcDb3dPolylineVertex
 10
-823.56449642789812
 20
145.27884343197368
 30
0.0000000000040426
 70
              32
  0
VERTEX
  5
305
100
AcDbEntity
  8
MD_Visible
370
               0
390
0
 62
               7
100
AcDbVertex
100
AcDb3dPolylineVertex
 10
-824.81634015348027
 20
154.86465460608954
 30
0.0000000000040421
 70
              32
  0
VERTEX
  5
306
100
AcDbEntity
  8
MD_Visible
370
               0
390
0
 62
               7
100
AcDbVertex
100
AcDb3dPolylineVertex
 10
-826.16033188240908
 20
164.43798082071638
 30
0.0000000000040416
 70
              32
  0
VERTEX
  5
307
100
AcDbEntity
  8
MD_Visible
370
               0
390
0
 62
               7
100
AcDbVertex
100
AcDb3dPolylineVertex
 10
-827.59634725875003
 20
173.9979362818049
 30
0.000000000004041
 70
              32
  0
SEQEND
  5
308
100
AcDbEntity
  8
MD_Visible
370
               0
390
0
 62
               7
  0
ARC
  5
309
100
AcDbEntity
  8
MD_Visible
370
               0
390
0
 62
               7
100
AcDbCircle
 10
-847.35994273762481
 20
-131.06805356607967
 30
0.0
 40
20.0
100
AcDbArc
 50
270.0
 51
351.18181431233467
  0
POLYLINE
  5
30A
100
AcDbEntity
  8
MD_Visible
370
               0
390
0
 62
               7
100
AcDb3dPolyline
 66
               1
 10
0.0
 20
0.0
 30
0.0
 70
               8
  0
VERTEX
  5
30B
100
AcDbEntity
  8
MD_Visible
370
               0
390
0
 62
               7
100
AcDbVertex
100
AcDb3dPolylineVertex
 10
-1165.7170200735854
 20
-151.06805356607967
 30
0.000000000003638
 70
              32
  0
VERTEX
  5
30C
100
AcDbEntity
  8
MD_Visible
370
               0
390
0
 62
               7
100
AcDbVertex
100
AcDb3dPolylineVertex
 10
-1165.7170200735854
 20
190.93194643392602
 30
0.000000000003638
 70
              32
  0
SEQEND
  5
30D
100
AcDbEntity
  8
MD_Visible
370
               0
390
0
 62
               7
  0
POLYLINE
  5
30E
100
AcDbEntity
  8
MD_Visible
370
               0
390
0
 62
               7
100
AcDb3dPolyline
 66
               1
 10
0.0
 20
0.0
 30
0.0
 70
               8
  0
VERTEX
  5
30F
100
AcDbEntity
  8
MD_Visible
370
               0
390
0
 62
               7
100
AcDbVertex
100
AcDb3dPolylineVertex
 10
-1165.7170200735854
 20
190.93194643392602
 30
0.000000000003638
 70
              32
  0
VERTEX
  5
310
100
AcDbEntity
  8
MD_Visible
370
               0
390
0
 62
               7
100
AcDbVertex
100
AcDb3dPolylineVertex
 10
-847.35994273762481
 20
190.93194643392602
 30
0.000000000003638
 70
              32
  0
SEQEND
  5
311
100
AcDbEntity
  8
MD_Visible
370
               0
390
0
 62
               7
  0
POLYLINE
  5
312
100
AcDbEntity
  8
MD_Visible
370
               0
390
0
 62
               7
100
AcDb3dPolyline
 66
               1
 10
0.0
 20
0.0
 30
0.0
 70
               8
  0
VERTEX
  5
313
100
AcDbEntity
  8
MD_Visible
370
               0
390
0
 62
               7
100
AcDbVertex
100
AcDb3dPolylineVertex
 10
-969.71702007358545
 20
56.931946433922384
 30
0.0000000000036364
 70
              32
  0
VERTEX
  5
314
100
AcDbEntity
  8
MD_Visible
370
               0
390
0
 62
               7
100
AcDbVertex
100
AcDb3dPolylineVertex
 10
-969.64016119519874
 20
56.151585145858043
 30
0.0000000000036364
 70
              32
  0
VERTEX
  5
315
100
AcDbEntity
  8
MD_Visible
370
               0
390
0
 62
               7
100
AcDbVertex
100
AcDb3dPolylineVertex
 10
-969.41253820362908
 20
55.401212704462104
 30
0.0000000000036365
 70
              32
  0
VERTEX
  5
316
100
AcDbEntity
  8
MD_Visible
370
               0
390
0
 62
               7
100
AcDbVertex
100
AcDb3dPolylineVertex
 10
-969.04289852279544
 20
54.709665501844064
 30
0.0000000000036366
 70
              32
  0
VERTEX
  5
317
100
AcDbEntity
  8
MD_Visible
370
               0
390
0
 62
               7
100
AcDbVertex
100
AcDb3dPolylineVertex
 10
-968.54544719833211
 20
54.103519309176171
 30
0.0000000000036368
 70
              32
  0
VERTEX
  5
318
100
AcDbEntity
  8
MD_Visible
370
               0
390
0
 62
               7
100
AcDbVertex
100
AcDb3dPolylineVertex
 10
-967.93930100566286
 20
53.606067984712389
 30
0.0000000000036371
 70
              32
  0
VERTEX
  5
319
100
AcDbEntity
  8
MD_Visible
370
               0
390
0
 62
               7
100
AcDbVertex
100
AcDb3dPolylineVertex
 10
-967.24775380304709
 20
53.236428303877382
 30
0.0000000000036374
 70
              32
  0
VERTEX
  5
31A
100
AcDbEntity
  8
MD_Visible
370
               0
390
0
 62
               7
100
AcDbVertex
100
AcDb3dPolylineVertex
 10
-966.49738136164888
 20
53.008805312309541
 30
0.0000000000036377
 70
              32
  0
VERTEX
  5
31B
100
AcDbEntity
  8
MD_Visible
370
               0
390
0
 62
               7
100
AcDbVertex
100
AcDb3dPolylineVertex
 10
-965.71702007358545
 20
52.931946433922384
 30
0.000000000003638
 70
              32
  0
VERTEX
  5
31C
100
AcDbEntity
  8
MD_Visible
370
               0
390
0
 62
               7
100
AcDbVertex
100
AcDb3dPolylineVertex
 10
-964.93665878552201
 20
53.008805312309541
 30
0.0000000000036383
 70
              32
  0
VERTEX
  5
31D
100
AcDbEntity
  8
MD_Visible
370
               0
390
0
 62
               7
100
AcDbVertex
100
AcDb3dPolylineVertex
 10
-964.1862863441238
 20
53.236428303877382
 30
0.0000000000036386
 70
              32
  0
VERTEX
  5
31E
100
AcDbEntity
  8
MD_Visible
370
               0
390
0
 62
               7
100
AcDbVertex
100
AcDb3dPolylineVertex
 10
-963.49473914150803
 20
53.606067984712389
 30
0.0000000000036389
 70
              32
  0
VERTEX
  5
31F
100
AcDbEntity
  8
MD_Visible
370
               0
390
0
 62
               7
100
AcDbVertex
100
AcDb3dPolylineVertex
 10
-962.88859294883878
 20
54.103519309176171
 30
0.0000000000036391
 70
              32
  0
VERTEX
  5
320
100
AcDbEntity
  8
MD_Visible
370
               0
390
0
 62
               7
100
AcDbVertex
100
AcDb3dPolylineVertex
 10
-962.39114162437545
 20
54.709665501844064
 30
0.0000000000036393
 70
              32
  0
VERTEX
  5
321
100
AcDbEntity
  8
MD_Visible
370
               0
390
0
 62
               7
100
AcDbVertex
100
AcDb3dPolylineVertex
 10
-962.02150194354181
 20
55.401212704462104
 30
0.0000000000036395
 70
              32
  0
VERTEX
  5
322
100
AcDbEntity
  8
MD_Visible
370
               0
390
0
 62
               7
100
AcDbVertex
100
AcDb3dPolylineVertex
 10
-961.79387895197215
 20
56.151585145858043
 30
0.0000000000036396
 70
              32
  0
VERTEX
  5
323
100
AcDbEntity
  8
MD_Visible
370
               0
390
0
 62
               7
100
AcDbVertex
100
AcDb3dPolylineVertex
 10
-961.71702007358545
 20
56.931946433922384
 30
0.0000000000036396
 70
              32
  0
VERTEX
  5
324
100
AcDbEntity
  8
MD_Visible
370
               0
390
0
 62
               7
100
AcDbVertex
100
AcDb3dPolylineVertex
 10
-961.79387895197215
 20
57.712307721986726
 30
0.0000000000036396
 70
              32
  0
VERTEX
  5
325
100
AcDbEntity
  8
MD_Visible
370
               0
390
0
 62
               7
100
AcDbVertex
100
AcDb3dPolylineVertex
 10
-962.02150194354181
 20
58.462680163382664
 30
0.0000000000036395
 70
              32
  0
VERTEX
  5
326
100
AcDbEntity
  8
MD_Visible
370
               0
390
0
 62
               7
100
AcDbVertex
100
AcDb3dPolylineVertex
 10
-962.39114162437545
 20
59.154227366000704
 30
0.0000000000036393
 70
              32
  0
VERTEX
  5
327
100
AcDbEntity
  8
MD_Visible
370
               0
390
0
 62
               7
100
AcDbVertex
100
AcDb3dPolylineVertex
 10
-962.88859294883878
 20
59.760373558668597
 30
0.0000000000036391
 70
              32
  0
VERTEX
  5
328
100
AcDbEntity
  8
MD_Visible
370
               0
390
0
 62
               7
100
AcDbVertex
100
AcDb3dPolylineVertex
 10
-963.49473914150803
 20
60.257824883132379
 30
0.0000000000036389
 70
              32
  0
VERTEX
  5
329
100
AcDbEntity
  8
MD_Visible
370
               0
390
0
 62
               7
100
AcDbVertex
100
AcDb3dPolylineVertex
 10
-964.1862863441238
 20
60.627464563967386
 30
0.0000000000036386
 70
              32
  0
VERTEX
  5
32A
100
AcDbEntity
  8
MD_Visible
370
               0
390
0
 62
               7
100
AcDbVertex
100
AcDb3dPolylineVertex
 10
-964.93665878552201
 20
60.855087555535228
 30
0.0000000000036383
 70
              32
  0
VERTEX
  5
32B
100
AcDbEntity
  8
MD_Visible
370
               0
390
0
 62
               7
100
AcDbVertex
100
AcDb3dPolylineVertex
 10
-965.71702007358545
 20
60.931946433922384
 30
0.000000000003638
 70
              32
  0
VERTEX
  5
32C
100
AcDbEntity
  8
MD_Visible
370
               0
390
0
 62
               7
100
AcDbVertex
100
AcDb3dPolylineVertex
 10
-966.49738136164888
 20
60.855087555535228
 30
0.0000000000036377
 70
              32
  0
VERTEX
  5
32D
100
AcDbEntity
  8
MD_Visible
370
               0
390
0
 62
               7
100
AcDbVertex
100
AcDb3dPolylineVertex
 10
-967.24775380304709
 20
60.627464563967386
 30
0.0000000000036374
 70
              32
  0
VERTEX
  5
32E
100
AcDbEntity
  8
MD_Visible
370
               0
390
0
 62
               7
100
AcDbVertex
100
AcDb3dPolylineVertex
 10
-967.93930100566286
 20
60.257824883132379
 30
0.0000000000036371
 70
              32
  0
VERTEX
  5
32F
100
AcDbEntity
  8
MD_Visible
370
               0
390
0
 62
               7
100
AcDbVertex
100
AcDb3dPolylineVertex
 10
-968.54544719833211
 20
59.760373558668597
 30
0.0000000000036368
 70
              32
  0
VERTEX
  5
330
100
AcDbEntity
  8
MD_Visible
370
               0
390
0
 62
               7
100
AcDbVertex
100
AcDb3dPolylineVertex
 10
-969.04289852279544
 20
59.154227366000704
 30
0.0000000000036366
 70
              32
  0
VERTEX
  5
331
100
AcDbEntity
  8
MD_Visible
370
               0
390
0
 62
               7
100
AcDbVertex
100
AcDb3dPolylineVertex
 10
-969.41253820362908
 20
58.462680163382664
 30
0.0000000000036365
 70
              32
  0
VERTEX
  5
332
100
AcDbEntity
  8
MD_Visible
370
               0
390
0
 62
               7
100
AcDbVertex
100
AcDb3dPolylineVertex
 10
-969.64016119519874
 20
57.712307721986726
 30
0.0000000000036364
 70
              32
  0
VERTEX
  5
333
100
AcDbEntity
  8
MD_Visible
370
               0
390
0
 62
               7
100
AcDbVertex
100
AcDb3dPolylineVertex
 10
-969.71702007358545
 20
56.931946433922384
 30
0.0000000000036364
 70
              32
  0
SEQEND
  5
334
100
AcDbEntity
  8
MD_Visible
370
               0
390
0
 62
               7
  0
CIRCLE
  5
335
100
AcDbEntity
  8
MD_Visible
370
               0
390
0
 62
               7
100
AcDbCircle
 10
-965.71702007358545
 20
56.931946433922384
 30
0.0
 40
7.5
  0
CIRCLE
  5
336
100
AcDbEntity
  8
MD_Visible
370
               0
390
0
 62
               7
100
AcDbCircle
 10
-965.71702007358545
 20
-17.068053566075115
 30
0.0
 40
7.5
  0
POLYLINE
  5
337
100
AcDbEntity
  8
MD_Visible
370
               0
390
0
 62
               7
100
AcDb3dPolyline
 66
               1
 10
0.0
 20
0.0
 30
0.0
 70
               8
  0
VERTEX
  5
338
100
AcDbEntity
  8
MD_Visible
370
               0
390
0
 62
               7
100
AcDbVertex
100
AcDb3dPolylineVertex
 10
-969.71702007358545
 20
-17.068053566075115
 30
0.0000000000036364
 70
              32
  0
VERTEX
  5
339
100
AcDbEntity
  8
MD_Visible
370
               0
390
0
 62
               7
100
AcDbVertex
100
AcDb3dPolylineVertex
 10
-969.64016119519874
 20
-17.848414854139683
 30
0.0000000000036364
 70
              32
  0
VERTEX
  5
33A
100
AcDbEntity
  8
MD_Visible
370
               0
390
0
 62
               7
100
AcDbVertex
100
AcDb3dPolylineVertex
 10
-969.41253820362908
 20
-18.598787295535395
 30
0.0000000000036365
 70
              32
  0
VERTEX
  5
33B
100
AcDbEntity
  8
MD_Visible
370
               0
390
0
 62
               7
100
AcDbVertex
100
AcDb3dPolylineVertex
 10
-969.04289852279544
 20
-19.290334498153435
 30
0.0000000000036366
 70
              32
  0
VERTEX
  5
33C
100
AcDbEntity
  8
MD_Visible
370
               0
390
0
 62
               7
100
AcDbVertex
100
AcDb3dPolylineVertex
 10
-968.54544719833211
 20
-19.896480690821328
 30
0.0000000000036368
 70
              32
  0
VERTEX
  5
33D
100
AcDbEntity
  8
MD_Visible
370
               0
390
0
 62
               7
100
AcDbVertex
100
AcDb3dPolylineVertex
 10
-967.93930100566286
 20
-20.393932015285337
 30
0.0000000000036371
 70
              32
  0
VERTEX
  5
33E
100
AcDbEntity
  8
MD_Visible
370
               0
390
0
 62
               7
100
AcDbVertex
100
AcDb3dPolylineVertex
 10
-967.24775380304709
 20
-20.763571696120344
 30
0.0000000000036374
 70
              32
  0
VERTEX
  5
33F
100
AcDbEntity
  8
MD_Visible
370
               0
390
0
 62
               7
100
AcDbVertex
100
AcDb3dPolylineVertex
 10
-966.49738136164888
 20
-20.991194687687958
 30
0.0000000000036377
 70
              32
  0
VERTEX
  5
340
100
AcDbEntity
  8
MD_Visible
370
               0
390
0
 62
               7
100
AcDbVertex
100
AcDb3dPolylineVertex
 10
-965.71702007358545
 20
-21.068053566075115
 30
0.000000000003638
 70
              32
  0
VERTEX
  5
341
100
AcDbEntity
  8
MD_Visible
370
               0
390
0
 62
               7
100
AcDbVertex
100
AcDb3dPolylineVertex
 10
-964.93665878552201
 20
-20.991194687687958
 30
0.0000000000036383
 70
              32
  0
VERTEX
  5
342
100
AcDbEntity
  8
MD_Visible
370
               0
390
0
 62
               7
100
AcDbVertex
100
AcDb3dPolylineVertex
 10
-964.1862863441238
 20
-20.763571696120344
 30
0.0000000000036386
 70
              32
  0
VERTEX
  5
343
100
AcDbEntity
  8
MD_Visible
370
               0
390
0
 62
               7
100
AcDbVertex
100
AcDb3dPolylineVertex
 10
-963.49473914150803
 20
-20.393932015285337
 30
0.0000000000036389
 70
              32
  0
VERTEX
  5
344
100
AcDbEntity
  8
MD_Visible
370
               0
390
0
 62
               7
100
AcDbVertex
100
AcDb3dPolylineVertex
 10
-962.88859294883878
 20
-19.896480690821328
 30
0.0000000000036391
 70
              32
  0
VERTEX
  5
345
100
AcDbEntity
  8
MD_Visible
370
               0
390
0
 62
               7
100
AcDbVertex
100
AcDb3dPolylineVertex
 10
-962.39114162437545
 20
-19.290334498153435
 30
0.0000000000036393
 70
              32
  0
VERTEX
  5
346
100
AcDbEntity
  8
MD_Visible
370
               0
390
0
 62
               7
100
AcDbVertex
100
AcDb3dPolylineVertex
 10
-962.02150194354181
 20
-18.598787295535395
 30
0.0000000000036395
 70
              32
  0
VERTEX
  5
347
100
AcDbEntity
  8
MD_Visible
370
               0
390
0
 62
               7
100
AcDbVertex
100
AcDb3dPolylineVertex
 10
-961.79387895197215
 20
-17.848414854139683
 30
0.0000000000036396
 70
              32
  0
VERTEX
  5
348
100
AcDbEntity
  8
MD_Visible
370
               0
390
0
 62
               7
100
AcDbVertex
100
AcDb3dPolylineVertex
 10
-961.71702007358545
 20
-17.068053566075115
 30
0.0000000000036396
 70
              32
  0
VERTEX
  5
349
100
AcDbEntity
  8
MD_Visible
370
               0
390
0
 62
               7
100
AcDbVertex
100
AcDb3dPolylineVertex
 10
-961.79387895197215
 20
-16.287692278010546
 30
0.0000000000036396
 70
              32
  0
VERTEX
  5
34A
100
AcDbEntity
  8
MD_Visible
370
               0
390
0
 62
               7
100
AcDbVertex
100
AcDb3dPolylineVertex
 10
-962.02150194354181
 20
-15.537319836614834
 30
0.0000000000036395
 70
              32
  0
VERTEX
  5
34B
100
AcDbEntity
  8
MD_Visible
370
               0
390
0
 62
               7
100
AcDbVertex
100
AcDb3dPolylineVertex
 10
-962.39114162437545
 20
-14.845772633996795
 30
0.0000000000036393
 70
              32
  0
VERTEX
  5
34C
100
AcDbEntity
  8
MD_Visible
370
               0
390
0
 62
               7
100
AcDbVertex
100
AcDb3dPolylineVertex
 10
-962.88859294883878
 20
-14.239626441328902
 30
0.0000000000036391
 70
              32
  0
VERTEX
  5
34D
100
AcDbEntity
  8
MD_Visible
370
               0
390
0
 62
               7
100
AcDbVertex
100
AcDb3dPolylineVertex
 10
-963.49473914150803
 20
-13.742175116864892
 30
0.0000000000036389
 70
              32
  0
VERTEX
  5
34E
100
AcDbEntity
  8
MD_Visible
370
               0
390
0
 62
               7
100
AcDbVertex
100
AcDb3dPolylineVertex
 10
-964.1862863441238
 20
-13.372535436029885
 30
0.0000000000036386
 70
              32
  0
VERTEX
  5
34F
100
AcDbEntity
  8
MD_Visible
370
               0
390
0
 62
               7
100
AcDbVertex
100
AcDb3dPolylineVertex
 10
-964.93665878552201
 20
-13.144912444462271
 30
0.0000000000036383
 70
              32
  0
VERTEX
  5
350
100
AcDbEntity
  8
MD_Visible
370
               0
390
0
 62
               7
100
AcDbVertex
100
AcDb3dPolylineVertex
 10
-965.71702007358545
 20
-13.068053566075115
 30
0.000000000003638
 70
              32
  0
VERTEX
  5
351
100
AcDbEntity
  8
MD_Visible
370
               0
390
0
 62
               7
100
AcDbVertex
100
AcDb3dPolylineVertex
 10
-966.49738136164888
 20
-13.144912444462271
 30
0.0000000000036377
 70
              32
  0
VERTEX
  5
352
100
AcDbEntity
  8
MD_Visible
370
               0
390
0
 62
               7
100
AcDbVertex
100
AcDb3dPolylineVertex
 10
-967.24775380304709
 20
-13.372535436029885
 30
0.0000000000036374
 70
              32
  0
VERTEX
  5
353
100
AcDbEntity
  8
MD_Visible
370
               0
390
0
 62
               7
100
AcDbVertex
100
AcDb3dPolylineVertex
 10
-967.93930100566286
 20
-13.742175116864892
 30
0.0000000000036371
 70
              32
  0
VERTEX
  5
354
100
AcDbEntity
  8
MD_Visible
370
               0
390
0
 62
               7
100
AcDbVertex
100
AcDb3dPolylineVertex
 10
-968.54544719833211
 20
-14.239626441328902
 30
0.0000000000036368
 70
              32
  0
VERTEX
  5
355
100
AcDbEntity
  8
MD_Visible
370
               0
390
0
 62
               7
100
AcDbVertex
100
AcDb3dPolylineVertex
 10
-969.04289852279544
 20
-14.845772633996795
 30
0.0000000000036366
 70
              32
  0
VERTEX
  5
356
100
AcDbEntity
  8
MD_Visible
370
               0
390
0
 62
               7
100
AcDbVertex
100
AcDb3dPolylineVertex
 10
-969.41253820362908
 20
-15.537319836614834
 30
0.0000000000036365
 70
              32
  0
VERTEX
  5
357
100
AcDbEntity
  8
MD_Visible
370
               0
390
0
 62
               7
100
AcDbVertex
100
AcDb3dPolylineVertex
 10
-969.64016119519874
 20
-16.287692278010546
 30
0.0000000000036364
 70
              32
  0
VERTEX
  5
358
100
AcDbEntity
  8
MD_Visible
370
               0
390
0
 62
               7
100
AcDbVertex
100
AcDb3dPolylineVertex
 10
-969.71702007358545
 20
-17.068053566075115
 30
0.0000000000036364
 70
              32
  0
SEQEND
  5
359
100
AcDbEntity
  8
MD_Visible
370
               0
390
0
 62
               7
  0
ENDBLK
  5
35A
100
AcDbEntity
  8
0
390
0
100
AcDbBlockEnd
  0
BLOCK
  5
35B
100
AcDbEntity
  8
0
390
0
100
AcDbBlockBegin
  2
グループ-8
 70
               0
 10
0.0
 20
0.0
 30
0.0
  3
グループ-8
  1

  0
POLYLINE
  5
35C
100
AcDbEntity
  8
MD_Visible
370
               0
390
0
 62
               7
100
AcDb3dPolyline
 66
               1
 10
0.0
 20
0.0
 30
0.0
 70
               8
  0
VERTEX
  5
35D
100
AcDbEntity
  8
MD_Visible
370
               0
390
0
 62
               7
100
AcDbVertex
100
AcDb3dPolylineVertex
 10
844.13635645985778
 20
190.93194643392329
 30
0.0
 70
              32
  0
VERTEX
  5
35E
100
AcDbEntity
  8
MD_Visible
370
               0
390
0
 62
               7
100
AcDbVertex
100
AcDb3dPolylineVertex
 10
525.77927912389714
 20
190.93194643392329
 30
0.0
 70
              32
  0
SEQEND
  5
35F
100
AcDbEntity
  8
MD_Visible
370
               0
390
0
 62
               7
  0
ARC
  5
360
100
AcDbEntity
  8
MD_Visible
370
               0
390
0
 62
               7
100
AcDbCircle
 10
1499.1363564598432
 20
19.931946433919656
 30
0.0
 40
1004.9999999999851
100
AcDbArc
 50
171.18181431233381
 51
188.81818568766616
  0
POLYLINE
  5
361
100
AcDbEntity
  8
MD_Visible
370
               0
390
0
 62
               7
100
AcDb3dPolyline
 66
               1
 10
0.0
 20
0.0
 30
0.0
 70
               8
  0
VERTEX
  5
362
100
AcDbEntity
  8
MD_Visible
370
               0
390
0
 62
               7
100
AcDbVertex
100
AcDb3dPolylineVertex
 10
525.77927912389714
 20
190.93194643392374
 30
0.0
 70
              32
  0
VERTEX
  5
363
100
AcDbEntity
  8
MD_Visible
370
               0
390
0
 62
               7
100
AcDbVertex
100
AcDb3dPolylineVertex
 10
524.8940122343447
 20
190.91234439127814
 30
0.0000000000000002
 70
              32
  0
VERTEX
  5
364
100
AcDbEntity
  8
MD_Visible
370
               0
390
0
 62
               7
100
AcDbVertex
100
AcDb3dPolylineVertex
 10
524.01048064872157
 20
190.85357668734972
 30
0.0000000000000003
 70
              32
  0
VERTEX
  5
365
100
AcDbEntity
  8
MD_Visible
370
               0
390
0
 62
               7
100
AcDbVertex
100
AcDb3dPolylineVertex
 10
523.13041626941413
 20
190.75575851884199
 30
0.0000000000000005
 70
              32
  0
VERTEX
  5
366
100
AcDbEntity
  8
MD_Visible
370
               0
390
0
 62
               7
100
AcDbVertex
100
AcDb3dPolylineVertex
 10
522.25554420237313
 20
190.61908162934563
 30
0.0000000000000006
 70
              32
  0
VERTEX
  5
367
100
AcDbEntity
  8
MD_Visible
370
               0
390
0
 62
               7
100
AcDbVertex
100
AcDb3dPolylineVertex
 10
521.38757937554692
 20
190.44381393348297
 30
0.0000000000000008
 70
              32
  0
VERTEX
  5
368
100
AcDbEntity
  8
MD_Visible
370
               0
390
0
 62
               7
100
AcDbVertex
100
AcDb3dPolylineVertex
 10
520.5282231773017
 20
190.23029899173847
 30
0.000000000000001
 70
              32
  0
VERTEX
  5
369
100
AcDbEntity
  8
MD_Visible
370
               0
390
0
 62
               7
100
AcDbVertex
100
AcDb3dPolylineVertex
 10
519.67916012131172
 20
189.97895533701151
 30
0.0000000000000011
 70
              32
  0
VERTEX
  5
36A
100
AcDbEntity
  8
MD_Visible
370
               0
390
0
 62
               7
100
AcDbVertex
100
AcDb3dPolylineVertex
 10
518.84205454460607
 20
189.69027565420586
 30
0.0000000000000013
 70
              32
  0
VERTEX
  5
36B
100
AcDbEntity
  8
MD_Visible
370
               0
390
0
 62
               7
100
AcDbVertex
100
AcDb3dPolylineVertex
 10
518.01854734510562
 20
189.3648258144672
 30
0.0000000000000014
 70
              32
  0
VERTEX
  5
36C
100
AcDbEntity
  8
MD_Visible
370
               0
390
0
 62
               7
100
AcDbVertex
100
AcDb3dPolylineVertex
 10
517.21025276513319
 20
189.0032437659593
 30
0.0000000000000016
 70
              32
  0
VERTEX
  5
36D
100
AcDbEntity
  8
MD_Visible
370
               0
390
0
 62
               7
100
AcDbVertex
100
AcDb3dPolylineVertex
 10
516.41875522717237
 20
188.60623828335522
 30
0.0000000000000017
 70
              32
  0
VERTEX
  5
36E
100
AcDbEntity
  8
MD_Visible
370
               0
390
0
 62
               7
100
AcDbVertex
100
AcDb3dPolylineVertex
 10
515.64560622807403
 20
188.17458757849502
 30
0.0000000000000019
 70
              32
  0
VERTEX
  5
36F
100
AcDbEntity
  8
MD_Visible
370
               0
390
0
 62
               7
100
AcDbVertex
100
AcDb3dPolylineVertex
 10
514.89232129780066
 20
187.70913777493163
 30
0.000000000000002
 70
              32
  0
VERTEX
  5
370
100
AcDbEntity
  8
MD_Visible
370
               0
390
0
 62
               7
100
AcDbVertex
100
AcDb3dPolylineVertex
 10
514.16037702868562
 20
187.21080124935409
 30
0.0000000000000021
 70
              32
  0
VERTEX
  5
371
100
AcDbEntity
  8
MD_Visible
370
               0
390
0
 62
               7
100
AcDbVertex
100
AcDb3dPolylineVertex
 10
513.45120818100622
 20
186.68055484314621
 30
0.0000000000000023
 70
              32
  0
VERTEX
  5
372
100
AcDbEntity
  8
MD_Visible
370
               0
390
0
 62
               7
100
AcDbVertex
100
AcDb3dPolylineVertex
 10
512.76620487056061
 20
186.11943794757374
 30
0.0000000000000024
 70
              32
  0
VERTEX
  5
373
100
AcDbEntity
  8
MD_Visible
370
               0
390
0
 62
               7
100
AcDbVertex
100
AcDb3dPolylineVertex
 10
512.10670984376338
 20
185.52855046636844
 30
0.0000000000000025
 70
              32
  0
VERTEX
  5
374
100
AcDbEntity
  8
MD_Visible
370
               0
390
0
 62
               7
100
AcDbVertex
100
AcDb3dPolylineVertex
 10
511.47401584557883
 20
184.90905065969085
 30
0.0000000000000026
 70
              32
  0
VERTEX
  5
375
100
AcDbEntity
  8
MD_Visible
370
               0
390
0
 62
               7
100
AcDbVertex
100
AcDb3dPolylineVertex
 10
510.86936308547229
 20
184.26215287370454
 30
0.0000000000000027
 70
              32
  0
VERTEX
  5
376
100
AcDbEntity
  8
MD_Visible
370
               0
390
0
 62
               7
100
AcDbVertex
100
AcDb3dPolylineVertex
 10
510.29393680637077
 20
183.58912516020703
 30
0.0000000000000028
 70
              32
  0
VERTEX
  5
377
100
AcDbEntity
  8
MD_Visible
370
               0
390
0
 62
               7
100
AcDbVertex
100
AcDb3dPolylineVertex
 10
509.74886496131876
 20
182.89128679099397
 30
0.0000000000000029
 70
              32
  0
VERTEX
  5
378
100
AcDbEntity
  8
MD_Visible
370
               0
390
0
 62
               7
100
AcDbVertex
100
AcDb3dPolylineVertex
 10
509.23521600247113
 20
182.17000567181142
 30
0.000000000000003
 70
              32
  0
VERTEX
  5
379
100
AcDbEntity
  8
MD_Visible
370
               0
390
0
 62
               7
100
AcDbVertex
100
AcDb3dPolylineVertex
 10
508.7539967867051
 20
181.42669566098587
 30
0.0000000000000031
 70
              32
  0
VERTEX
  5
37A
100
AcDbEntity
  8
MD_Visible
370
               0
390
0
 62
               7
100
AcDbVertex
100
AcDb3dPolylineVertex
 10
508.30615060198397
 20
180.66281379797013
 30
0.0000000000000032
 70
              32
  0
VERTEX
  5
37B
100
AcDbEntity
  8
MD_Visible
370
               0
390
0
 62
               7
100
AcDbVertex
100
AcDb3dPolylineVertex
 10
507.89255531830349
 20
179.87985744724986
 30
0.0000000000000033
 70
              32
  0
VERTEX
  5
37C
100
AcDbEntity
  8
MD_Visible
370
               0
390
0
 62
               7
100
AcDbVertex
100
AcDb3dPolylineVertex
 10
507.51402166690605
 20
179.07936136320225
 30
0.0000000000000034
 70
              32
  0
VERTEX
  5
37D
100
AcDbEntity
  8
MD_Visible
370
               0
390
0
 62
               7
100
AcDbVertex
100
AcDb3dPolylineVertex
 10
507.17129165106962
 20
178.26289468166581
 30
0.0000000000000034
 70
              32
  0
VERTEX
  5
37E
100
AcDbEntity
  8
MD_Visible
370
               0
390
0
 62
               7
100
AcDbVertex
100
AcDb3dPolylineVertex
 10
506.86503709162935
 20
177.43205784411069
 30
0.0000000000000035
 70
              32
  0
VERTEX
  5
37F
100
AcDbEntity
  8
MD_Visible
370
               0
390
0
 62
               7
100
AcDbVertex
100
AcDb3dPolylineVertex
 10
506.59585831008371
 20
176.58847946044901
 30
0.0000000000000035
 70
              32
  0
VERTEX
  5
380
100
AcDbEntity
  8
MD_Visible
370
               0
390
0
 62
               7
100
AcDbVertex
100
AcDb3dPolylineVertex
 10
506.36428295182486
 20
175.73381311662664
 30
0.0000000000000036
 70
              32
  0
VERTEX
  5
381
100
AcDbEntity
  8
MD_Visible
370
               0
390
0
 62
               7
100
AcDbVertex
100
AcDb3dPolylineVertex
 10
506.1707649518612
 20
174.86973413325498
 30
0.0000000000000036
 70
              32
  0
VERTEX
  5
382
100
AcDbEntity
  8
MD_Visible
370
               0
390
0
 62
               7
100
AcDbVertex
100
AcDb3dPolylineVertex
 10
506.01568364499326
 20
173.99793628164255
 30
0.0000000000000036
 70
              32
  0
SEQEND
  5
383
100
AcDbEntity
  8
MD_Visible
370
               0
390
0
 62
               7
  0
POLYLINE
  5
384
100
AcDbEntity
  8
MD_Visible
370
               0
390
0
 62
               7
100
AcDb3dPolyline
 66
               1
 10
0.0
 20
0.0
 30
0.0
 70
               8
  0
VERTEX
  5
385
100
AcDbEntity
  8
MD_Visible
370
               0
390
0
 62
               7
100
AcDbVertex
100
AcDb3dPolylineVertex
 10
844.13635645985778
 20
-151.06805356608217
 30
0.0
 70
              32
  0
VERTEX
  5
386
100
AcDbEntity
  8
MD_Visible
370
               0
390
0
 62
               7
100
AcDbVertex
100
AcDb3dPolylineVertex
 10
844.13635645985778
 20
190.93194643392329
 30
0.0
 70
              32
  0
SEQEND
  5
387
100
AcDbEntity
  8
MD_Visible
370
               0
390
0
 62
               7
  0
POLYLINE
  5
388
100
AcDbEntity
  8
MD_Visible
370
               0
390
0
 62
               7
100
AcDb3dPolyline
 66
               1
 10
0.0
 20
0.0
 30
0.0
 70
               8
  0
VERTEX
  5
389
100
AcDbEntity
  8
MD_Visible
370
               0
390
0
 62
               7
100
AcDbVertex
100
AcDb3dPolylineVertex
 10
525.77927912389714
 20
-151.06805356608217
 30
0.0
 70
              32
  0
VERTEX
  5
38A
100
AcDbEntity
  8
MD_Visible
370
               0
390
0
 62
               7
100
AcDbVertex
100
AcDb3dPolylineVertex
 10
844.13635645985778
 20
-151.06805356608217
 30
0.0
 70
              32
  0
SEQEND
  5
38B
100
AcDbEntity
  8
MD_Visible
370
               0
390
0
 62
               7
  0
POLYLINE
  5
38C
100
AcDbEntity
  8
MD_Visible
370
               0
390
0
 62
               7
100
AcDb3dPolyline
 66
               1
 10
0.0
 20
0.0
 30
0.0
 70
               8
  0
VERTEX
  5
38D
100
AcDbEntity
  8
MD_Visible
370
               0
390
0
 62
               7
100
AcDbVertex
100
AcDb3dPolylineVertex
 10
506.01568364499326
 20
-134.13404341380098
 30
0.0000000000000036
 70
              32
  0
VERTEX
  5
38E
100
AcDbEntity
  8
MD_Visible
370
               0
390
0
 62
               7
100
AcDbVertex
100
AcDb3dPolylineVertex
 10
506.1707649518612
 20
-135.00584126541364
 30
0.0000000000000036
 70
              32
  0
VERTEX
  5
38F
100
AcDbEntity
  8
MD_Visible
370
               0
390
0
 62
               7
100
AcDbVertex
100
AcDb3dPolylineVertex
 10
506.36428295182486
 20
-135.86992024878529
 30
0.0000000000000036
 70
              32
  0
VERTEX
  5
390
100
AcDbEntity
  8
MD_Visible
370
               0
390
0
 62
               7
100
AcDbVertex
100
AcDb3dPolylineVertex
 10
506.59585831008371
 20
-136.72458659260766
 30
0.0000000000000035
 70
              32
  0
VERTEX
  5
391
100
AcDbEntity
  8
MD_Visible
370
               0
390
0
 62
               7
100
AcDbVertex
100
AcDb3dPolylineVertex
 10
506.86503709162935
 20
-137.56816497626912
 30
0.0000000000000035
 70
              32
  0
VERTEX
  5
392
100
AcDbEntity
  8
MD_Visible
370
               0
390
0
 62
               7
100
AcDbVertex
100
AcDb3dPolylineVertex
 10
507.17129165106962
 20
-138.39900181382424
 30
0.0000000000000034
 70
              32
  0
VERTEX
  5
393
100
AcDbEntity
  8
MD_Visible
370
               0
390
0
 62
               7
100
AcDbVertex
100
AcDb3dPolylineVertex
 10
507.51402166690605
 20
-139.21546849536091
 30
0.0000000000000034
 70
              32
  0
VERTEX
  5
394
100
AcDbEntity
  8
MD_Visible
370
               0
390
0
 62
               7
100
AcDbVertex
100
AcDb3dPolylineVertex
 10
507.89255531830349
 20
-140.01596457940829
 30
0.0000000000000033
 70
              32
  0
VERTEX
  5
395
100
AcDbEntity
  8
MD_Visible
370
               0
390
0
 62
               7
100
AcDbVertex
100
AcDb3dPolylineVertex
 10
508.30615060198397
 20
-140.79892093012879
 30
0.0000000000000032
 70
              32
  0
VERTEX
  5
396
100
AcDbEntity
  8
MD_Visible
370
               0
390
0
 62
               7
100
AcDbVertex
100
AcDb3dPolylineVertex
 10
508.7539967867051
 20
-141.56280279314453
 30
0.0000000000000031
 70
              32
  0
VERTEX
  5
397
100
AcDbEntity
  8
MD_Visible
370
               0
390
0
 62
               7
100
AcDbVertex
100
AcDb3dPolylineVertex
 10
509.23521600247113
 20
-142.30611280397008
 30
0.000000000000003
 70
              32
  0
VERTEX
  5
398
100
AcDbEntity
  8
MD_Visible
370
               0
390
0
 62
               7
100
AcDbVertex
100
AcDb3dPolylineVertex
 10
509.74886496131876
 20
-143.0273939231524
 30
0.0000000000000029
 70
              32
  0
VERTEX
  5
399
100
AcDbEntity
  8
MD_Visible
370
               0
390
0
 62
               7
100
AcDbVertex
100
AcDb3dPolylineVertex
 10
510.2939368063744
 20
-143.72523229236569
 30
0.0000000000000028
 70
              32
  0
VERTEX
  5
39A
100
AcDbEntity
  8
MD_Visible
370
               0
390
0
 62
               7
100
AcDbVertex
100
AcDb3dPolylineVertex
 10
510.86936308547229
 20
-144.39826000586297
 30
0.0000000000000027
 70
              32
  0
VERTEX
  5
39B
100
AcDbEntity
  8
MD_Visible
370
               0
390
0
 62
               7
100
AcDbVertex
100
AcDb3dPolylineVertex
 10
511.47401584557883
 20
-145.0451577918495
 30
0.0000000000000026
 70
              32
  0
VERTEX
  5
39C
100
AcDbEntity
  8
MD_Visible
370
               0
390
0
 62
               7
100
AcDbVertex
100
AcDb3dPolylineVertex
 10
512.10670984376338
 20
-145.66465759852687
 30
0.0000000000000025
 70
              32
  0
VERTEX
  5
39D
100
AcDbEntity
  8
MD_Visible
370
               0
390
0
 62
               7
100
AcDbVertex
100
AcDb3dPolylineVertex
 10
512.76620487056061
 20
-146.25554507973195
 30
0.0000000000000024
 70
              32
  0
VERTEX
  5
39E
100
AcDbEntity
  8
MD_Visible
370
               0
390
0
 62
               7
100
AcDbVertex
100
AcDb3dPolylineVertex
 10
513.45120818100622
 20
-146.81666197530464
 30
0.0000000000000023
 70
              32
  0
VERTEX
  5
39F
100
AcDbEntity
  8
MD_Visible
370
               0
390
0
 62
               7
100
AcDbVertex
100
AcDb3dPolylineVertex
 10
514.16037702868562
 20
-147.34690838151275
 30
0.0000000000000021
 70
              32
  0
VERTEX
  5
3A0
100
AcDbEntity
  8
MD_Visible
370
               0
390
0
 62
               7
100
AcDbVertex
100
AcDb3dPolylineVertex
 10
514.89232129780066
 20
-147.84524490708984
 30
0.000000000000002
 70
              32
  0
VERTEX
  5
3A1
100
AcDbEntity
  8
MD_Visible
370
               0
390
0
 62
               7
100
AcDbVertex
100
AcDb3dPolylineVertex
 10
515.64560622807403
 20
-148.31069471065345
 30
0.0000000000000019
 70
              32
  0
VERTEX
  5
3A2
100
AcDbEntity
  8
MD_Visible
370
               0
390
0
 62
               7
100
AcDbVertex
100
AcDb3dPolylineVertex
 10
516.41875522717601
 20
-148.74234541551365
 30
0.0000000000000017
 70
              32
  0
VERTEX
  5
3A3
100
AcDbEntity
  8
MD_Visible
370
               0
390
0
 62
               7
100
AcDbVertex
100
AcDb3dPolylineVertex
 10
517.21025276513319
 20
-149.13935089811773
 30
0.0000000000000016
 70
              32
  0
VERTEX
  5
3A4
100
AcDbEntity
  8
MD_Visible
370
               0
390
0
 62
               7
100
AcDbVertex
100
AcDb3dPolylineVertex
 10
518.01854734510562
 20
-149.50093294662585
 30
0.0000000000000014
 70
              32
  0
VERTEX
  5
3A5
100
AcDbEntity
  8
MD_Visible
370
               0
390
0
 62
               7
100
AcDbVertex
100
AcDb3dPolylineVertex
 10
518.84205454460607
 20
-149.82638278636452
 30
0.0000000000000013
 70
              32
  0
VERTEX
  5
3A6
100
AcDbEntity
  8
MD_Visible
370
               0
390
0
 62
               7
100
AcDbVertex
100
AcDb3dPolylineVertex
 10
519.67916012131172
 20
-150.11506246916994
 30
0.0000000000000011
 70
              32
  0
VERTEX
  5
3A7
100
AcDbEntity
  8
MD_Visible
370
               0
390
0
 62
               7
100
AcDbVertex
100
AcDb3dPolylineVertex
 10
520.5282231773017
 20
-150.36640612389689
 30
0.000000000000001
 70
              32
  0
VERTEX
  5
3A8
100
AcDbEntity
  8
MD_Visible
370
               0
390
0
 62
               7
100
AcDbVertex
100
AcDb3dPolylineVertex
 10
521.38757937554692
 20
-150.5799210656414
 30
0.0000000000000008
 70
              32
  0
VERTEX
  5
3A9
100
AcDbEntity
  8
MD_Visible
370
               0
390
0
 62
               7
100
AcDbVertex
100
AcDb3dPolylineVertex
 10
522.25554420237313
 20
-150.75518876150406
 30
0.0000000000000006
 70
              32
  0
VERTEX
  5
3AA
100
AcDbEntity
  8
MD_Visible
370
               0
390
0
 62
               7
100
AcDbVertex
100
AcDb3dPolylineVertex
 10
523.13041626941413
 20
-150.89186565100019
 30
0.0000000000000005
 70
              32
  0
VERTEX
  5
3AB
100
AcDbEntity
  8
MD_Visible
370
               0
390
0
 62
               7
100
AcDbVertex
100
AcDb3dPolylineVertex
 10
524.01048064872157
 20
-150.98968381950814
 30
0.0000000000000003
 70
              32
  0
VERTEX
  5
3AC
100
AcDbEntity
  8
MD_Visible
370
               0
390
0
 62
               7
100
AcDbVertex
100
AcDb3dPolylineVertex
 10
524.8940122343447
 20
-151.0484515234368
 30
0.0000000000000002
 70
              32
  0
VERTEX
  5
3AD
100
AcDbEntity
  8
MD_Visible
370
               0
390
0
 62
               7
100
AcDbVertex
100
AcDb3dPolylineVertex
 10
525.77927912389714
 20
-151.06805356608217
 30
0.0
 70
              32
  0
SEQEND
  5
3AE
100
AcDbEntity
  8
MD_Visible
370
               0
390
0
 62
               7
  0
POLYLINE
  5
3AF
100
AcDbEntity
  8
MD_Visible
370
               0
390
0
 62
               7
100
AcDb3dPolyline
 66
               1
 10
0.0
 20
0.0
 30
0.0
 70
               8
  0
VERTEX
  5
3B0
100
AcDbEntity
  8
MD_Visible
370
               0
390
0
 62
               7
100
AcDbVertex
100
AcDb3dPolylineVertex
 10
640.13635645985778
 20
56.931946433921929
 30
0.0000000000000007
 70
              32
  0
VERTEX
  5
3B1
100
AcDbEntity
  8
MD_Visible
370
               0
390
0
 62
               7
100
AcDbVertex
100
AcDb3dPolylineVertex
 10
640.21321533824448
 20
56.151585145857588
 30
0.0000000000000007
 70
              32
  0
VERTEX
  5
3B2
100
AcDbEntity
  8
MD_Visible
370
               0
390
0
 62
               7
100
AcDbVertex
100
AcDb3dPolylineVertex
 10
640.44083832981414
 20
55.401212704461649
 30
0.0000000000000007
 70
              32
  0
VERTEX
  5
3B3
100
AcDbEntity
  8
MD_Visible
370
               0
390
0
 62
               7
100
AcDbVertex
100
AcDb3dPolylineVertex
 10
640.81047801064778
 20
54.70966550184361
 30
0.0000000000000006
 70
              32
  0
VERTEX
  5
3B4
100
AcDbEntity
  8
MD_Visible
370
               0
390
0
 62
               7
100
AcDbVertex
100
AcDb3dPolylineVertex
 10
641.30792933511111
 20
54.103519309175717
 30
0.0000000000000005
 70
              32
  0
VERTEX
  5
3B5
100
AcDbEntity
  8
MD_Visible
370
               0
390
0
 62
               7
100
AcDbVertex
100
AcDb3dPolylineVertex
 10
641.91407552778037
 20
53.606067984711935
 30
0.0000000000000004
 70
              32
  0
VERTEX
  5
3B6
100
AcDbEntity
  8
MD_Visible
370
               0
390
0
 62
               7
100
AcDbVertex
100
AcDb3dPolylineVertex
 10
642.60562273039614
 20
53.236428303876927
 30
0.0000000000000003
 70
              32
  0
VERTEX
  5
3B7
100
AcDbEntity
  8
MD_Visible
370
               0
390
0
 62
               7
100
AcDbVertex
100
AcDb3dPolylineVertex
 10
643.35599517179435
 20
53.008805312309086
 30
0.0000000000000001
 70
              32
  0
VERTEX
  5
3B8
100
AcDbEntity
  8
MD_Visible
370
               0
390
0
 62
               7
100
AcDbVertex
100
AcDb3dPolylineVertex
 10
644.13635645985778
 20
52.931946433921929
 30
-0.0
 70
              32
  0
VERTEX
  5
3B9
100
AcDbEntity
  8
MD_Visible
370
               0
390
0
 62
               7
100
AcDbVertex
100
AcDb3dPolylineVertex
 10
644.91671774792121
 20
53.008805312309086
 30
-0.0000000000000001
 70
              32
  0
VERTEX
  5
3BA
100
AcDbEntity
  8
MD_Visible
370
               0
390
0
 62
               7
100
AcDbVertex
100
AcDb3dPolylineVertex
 10
645.66709018931942
 20
53.236428303876927
 30
-0.0000000000000003
 70
              32
  0
VERTEX
  5
3BB
100
AcDbEntity
  8
MD_Visible
370
               0
390
0
 62
               7
100
AcDbVertex
100
AcDb3dPolylineVertex
 10
646.35863739193519
 20
53.606067984711935
 30
-0.0000000000000004
 70
              32
  0
VERTEX
  5
3BC
100
AcDbEntity
  8
MD_Visible
370
               0
390
0
 62
               7
100
AcDbVertex
100
AcDb3dPolylineVertex
 10
646.96478358460445
 20
54.103519309175717
 30
-0.0000000000000005
 70
              32
  0
VERTEX
  5
3BD
100
AcDbEntity
  8
MD_Visible
370
               0
390
0
 62
               7
100
AcDbVertex
100
AcDb3dPolylineVertex
 10
647.46223490906777
 20
54.70966550184361
 30
-0.0000000000000006
 70
              32
  0
VERTEX
  5
3BE
100
AcDbEntity
  8
MD_Visible
370
               0
390
0
 62
               7
100
AcDbVertex
100
AcDb3dPolylineVertex
 10
647.83187458990142
 20
55.401212704461649
 30
-0.0000000000000007
 70
              32
  0
VERTEX
  5
3BF
100
AcDbEntity
  8
MD_Visible
370
               0
390
0
 62
               7
100
AcDbVertex
100
AcDb3dPolylineVertex
 10
648.05949758147108
 20
56.151585145857588
 30
-0.0000000000000007
 70
              32
  0
VERTEX
  5
3C0
100
AcDbEntity
  8
MD_Visible
370
               0
390
0
 62
               7
100
AcDbVertex
100
AcDb3dPolylineVertex
 10
648.13635645985778
 20
56.931946433921929
 30
-0.0000000000000007
 70
              32
  0
VERTEX
  5
3C1
100
AcDbEntity
  8
MD_Visible
370
               0
390
0
 62
               7
100
AcDbVertex
100
AcDb3dPolylineVertex
 10
648.05949758147108
 20
57.712307721986271
 30
-0.0000000000000007
 70
              32
  0
VERTEX
  5
3C2
100
AcDbEntity
  8
MD_Visible
370
               0
390
0
 62
               7
100
AcDbVertex
100
AcDb3dPolylineVertex
 10
647.83187458990142
 20
58.46268016338221
 30
-0.0000000000000007
 70
              32
  0
VERTEX
  5
3C3
100
AcDbEntity
  8
MD_Visible
370
               0
390
0
 62
               7
100
AcDbVertex
100
AcDb3dPolylineVertex
 10
647.46223490906777
 20
59.154227366000249
 30
-0.0000000000000006
 70
              32
  0
VERTEX
  5
3C4
100
AcDbEntity
  8
MD_Visible
370
               0
390
0
 62
               7
100
AcDbVertex
100
AcDb3dPolylineVertex
 10
646.96478358460445
 20
59.760373558668142
 30
-0.0000000000000005
 70
              32
  0
VERTEX
  5
3C5
100
AcDbEntity
  8
MD_Visible
370
               0
390
0
 62
               7
100
AcDbVertex
100
AcDb3dPolylineVertex
 10
646.35863739193519
 20
60.257824883131924
 30
-0.0000000000000004
 70
              32
  0
VERTEX
  5
3C6
100
AcDbEntity
  8
MD_Visible
370
               0
390
0
 62
               7
100
AcDbVertex
100
AcDb3dPolylineVertex
 10
645.66709018931942
 20
60.627464563966932
 30
-0.0000000000000003
 70
              32
  0
VERTEX
  5
3C7
100
AcDbEntity
  8
MD_Visible
370
               0
390
0
 62
               7
100
AcDbVertex
100
AcDb3dPolylineVertex
 10
644.91671774792121
 20
60.855087555534773
 30
-0.0000000000000001
 70
              32
  0
VERTEX
  5
3C8
100
AcDbEntity
  8
MD_Visible
370
               0
390
0
 62
               7
100
AcDbVertex
100
AcDb3dPolylineVertex
 10
644.13635645985778
 20
60.931946433921929
 30
0.0
 70
              32
  0
VERTEX
  5
3C9
100
AcDbEntity
  8
MD_Visible
370
               0
390
0
 62
               7
100
AcDbVertex
100
AcDb3dPolylineVertex
 10
643.35599517179435
 20
60.855087555534773
 30
0.0000000000000001
 70
              32
  0
VERTEX
  5
3CA
100
AcDbEntity
  8
MD_Visible
370
               0
390
0
 62
               7
100
AcDbVertex
100
AcDb3dPolylineVertex
 10
642.60562273039614
 20
60.627464563966932
 30
0.0000000000000003
 70
              32
  0
VERTEX
  5
3CB
100
AcDbEntity
  8
MD_Visible
370
               0
390
0
 62
               7
100
AcDbVertex
100
AcDb3dPolylineVertex
 10
641.91407552778037
 20
60.257824883131924
 30
0.0000000000000004
 70
              32
  0
VERTEX
  5
3CC
100
AcDbEntity
  8
MD_Visible
370
               0
390
0
 62
               7
100
AcDbVertex
100
AcDb3dPolylineVertex
 10
641.30792933511111
 20
59.760373558668142
 30
0.0000000000000005
 70
              32
  0
VERTEX
  5
3CD
100
AcDbEntity
  8
MD_Visible
370
               0
390
0
 62
               7
100
AcDbVertex
100
AcDb3dPolylineVertex
 10
640.81047801064778
 20
59.154227366000249
 30
0.0000000000000006
 70
              32
  0
VERTEX
  5
3CE
100
AcDbEntity
  8
MD_Visible
370
               0
390
0
 62
               7
100
AcDbVertex
100
AcDb3dPolylineVertex
 10
640.44083832981414
 20
58.46268016338221
 30
0.0000000000000007
 70
              32
  0
VERTEX
  5
3CF
100
AcDbEntity
  8
MD_Visible
370
               0
390
0
 62
               7
100
AcDbVertex
100
AcDb3dPolylineVertex
 10
640.21321533824448
 20
57.712307721986271
 30
0.0000000000000007
 70
              32
  0
VERTEX
  5
3D0
100
AcDbEntity
  8
MD_Visible
370
               0
390
0
 62
               7
100
AcDbVertex
100
AcDb3dPolylineVertex
 10
640.13635645985778
 20
56.931946433921929
 30
0.0000000000000007
 70
              32
  0
SEQEND
  5
3D1
100
AcDbEntity
  8
MD_Visible
370
               0
390
0
 62
               7
  0
CIRCLE
  5
3D2
100
AcDbEntity
  8
MD_Visible
370
               0
390
0
 62
               7
100
AcDbCircle
 10
644.13635645985778
 20
56.931946433921929
 30
0.0
 40
7.5
  0
CIRCLE
  5
3D3
100
AcDbEntity
  8
MD_Visible
370
               0
390
0
 62
               7
100
AcDbCircle
 10
644.13635645985778
 20
-17.068053566075797
 30
0.0
 40
7.5
  0
POLYLINE
  5
3D4
100
AcDbEntity
  8
MD_Visible
370
               0
390
0
 62
               7
100
AcDb3dPolyline
 66
               1
 10
0.0
 20
0.0
 30
0.0
 70
               8
  0
VERTEX
  5
3D5
100
AcDbEntity
  8
MD_Visible
370
               0
390
0
 62
               7
100
AcDbVertex
100
AcDb3dPolylineVertex
 10
640.13635645985778
 20
-17.068053566075797
 30
0.0000000000000007
 70
              32
  0
VERTEX
  5
3D6
100
AcDbEntity
  8
MD_Visible
370
               0
390
0
 62
               7
100
AcDbVertex
100
AcDb3dPolylineVertex
 10
640.21321533824448
 20
-17.848414854140366
 30
0.0000000000000007
 70
              32
  0
VERTEX
  5
3D7
100
AcDbEntity
  8
MD_Visible
370
               0
390
0
 62
               7
100
AcDbVertex
100
AcDb3dPolylineVertex
 10
640.44083832981414
 20
-18.598787295536077
 30
0.0000000000000007
 70
              32
  0
VERTEX
  5
3D8
100
AcDbEntity
  8
MD_Visible
370
               0
390
0
 62
               7
100
AcDbVertex
100
AcDb3dPolylineVertex
 10
640.81047801064778
 20
-19.290334498154117
 30
0.0000000000000006
 70
              32
  0
VERTEX
  5
3D9
100
AcDbEntity
  8
MD_Visible
370
               0
390
0
 62
               7
100
AcDbVertex
100
AcDb3dPolylineVertex
 10
641.30792933511111
 20
-19.89648069082201
 30
0.0000000000000005
 70
              32
  0
VERTEX
  5
3DA
100
AcDbEntity
  8
MD_Visible
370
               0
390
0
 62
               7
100
AcDbVertex
100
AcDb3dPolylineVertex
 10
641.91407552778037
 20
-20.393932015286019
 30
0.0000000000000004
 70
              32
  0
VERTEX
  5
3DB
100
AcDbEntity
  8
MD_Visible
370
               0
390
0
 62
               7
100
AcDbVertex
100
AcDb3dPolylineVertex
 10
642.60562273039614
 20
-20.763571696121026
 30
0.0000000000000003
 70
              32
  0
VERTEX
  5
3DC
100
AcDbEntity
  8
MD_Visible
370
               0
390
0
 62
               7
100
AcDbVertex
100
AcDb3dPolylineVertex
 10
643.35599517179435
 20
-20.99119468768864
 30
0.0000000000000001
 70
              32
  0
VERTEX
  5
3DD
100
AcDbEntity
  8
MD_Visible
370
               0
390
0
 62
               7
100
AcDbVertex
100
AcDb3dPolylineVertex
 10
644.13635645985778
 20
-21.068053566075797
 30
-0.0
 70
              32
  0
VERTEX
  5
3DE
100
AcDbEntity
  8
MD_Visible
370
               0
390
0
 62
               7
100
AcDbVertex
100
AcDb3dPolylineVertex
 10
644.91671774792121
 20
-20.99119468768864
 30
-0.0000000000000001
 70
              32
  0
VERTEX
  5
3DF
100
AcDbEntity
  8
MD_Visible
370
               0
390
0
 62
               7
100
AcDbVertex
100
AcDb3dPolylineVertex
 10
645.66709018931942
 20
-20.763571696121026
 30
-0.0000000000000003
 70
              32
  0
VERTEX
  5
3E0
100
AcDbEntity
  8
MD_Visible
370
               0
390
0
 62
               7
100
AcDbVertex
100
AcDb3dPolylineVertex
 10
646.35863739193519
 20
-20.393932015286019
 30
-0.0000000000000004
 70
              32
  0
VERTEX
  5
3E1
100
AcDbEntity
  8
MD_Visible
370
               0
390
0
 62
               7
100
AcDbVertex
100
AcDb3dPolylineVertex
 10
646.96478358460445
 20
-19.89648069082201
 30
-0.0000000000000005
 70
              32
  0
VERTEX
  5
3E2
100
AcDbEntity
  8
MD_Visible
370
               0
390
0
 62
               7
100
AcDbVertex
100
AcDb3dPolylineVertex
 10
647.46223490906777
 20
-19.290334498154117
 30
-0.0000000000000006
 70
              32
  0
VERTEX
  5
3E3
100
AcDbEntity
  8
MD_Visible
370
               0
390
0
 62
               7
100
AcDbVertex
100
AcDb3dPolylineVertex
 10
647.83187458990142
 20
-18.598787295536077
 30
-0.0000000000000007
 70
              32
  0
VERTEX
  5
3E4
100
AcDbEntity
  8
MD_Visible
370
               0
390
0
 62
               7
100
AcDbVertex
100
AcDb3dPolylineVertex
 10
648.05949758147108
 20
-17.848414854140366
 30
-0.0000000000000007
 70
              32
  0
VERTEX
  5
3E5
100
AcDbEntity
  8
MD_Visible
370
               0
390
0
 62
               7
100
AcDbVertex
100
AcDb3dPolylineVertex
 10
648.13635645985778
 20
-17.068053566075797
 30
-0.0000000000000007
 70
              32
  0
VERTEX
  5
3E6
100
AcDbEntity
  8
MD_Visible
370
               0
390
0
 62
               7
100
AcDbVertex
100
AcDb3dPolylineVertex
 10
648.05949758147108
 20
-16.287692278011228
 30
-0.0000000000000007
 70
              32
  0
VERTEX
  5
3E7
100
AcDbEntity
  8
MD_Visible
370
               0
390
0
 62
               7
100
AcDbVertex
100
AcDb3dPolylineVertex
 10
647.83187458990142
 20
-15.537319836615517
 30
-0.0000000000000007
 70
              32
  0
VERTEX
  5
3E8
100
AcDbEntity
  8
MD_Visible
370
               0
390
0
 62
               7
100
AcDbVertex
100
AcDb3dPolylineVertex
 10
647.46223490906777
 20
-14.845772633997477
 30
-0.0000000000000006
 70
              32
  0
VERTEX
  5
3E9
100
AcDbEntity
  8
MD_Visible
370
               0
390
0
 62
               7
100
AcDbVertex
100
AcDb3dPolylineVertex
 10
646.96478358460445
 20
-14.239626441329584
 30
-0.0000000000000005
 70
              32
  0
VERTEX
  5
3EA
100
AcDbEntity
  8
MD_Visible
370
               0
390
0
 62
               7
100
AcDbVertex
100
AcDb3dPolylineVertex
 10
646.35863739193519
 20
-13.742175116865575
 30
-0.0000000000000004
 70
              32
  0
VERTEX
  5
3EB
100
AcDbEntity
  8
MD_Visible
370
               0
390
0
 62
               7
100
AcDbVertex
100
AcDb3dPolylineVertex
 10
645.66709018931942
 20
-13.372535436030567
 30
-0.0000000000000003
 70
              32
  0
VERTEX
  5
3EC
100
AcDbEntity
  8
MD_Visible
370
               0
390
0
 62
               7
100
AcDbVertex
100
AcDb3dPolylineVertex
 10
644.91671774792121
 20
-13.144912444462953
 30
-0.0000000000000001
 70
              32
  0
VERTEX
  5
3ED
100
AcDbEntity
  8
MD_Visible
370
               0
390
0
 62
               7
100
AcDbVertex
100
AcDb3dPolylineVertex
 10
644.13635645985778
 20
-13.068053566075797
 30
0.0
 70
              32
  0
VERTEX
  5
3EE
100
AcDbEntity
  8
MD_Visible
370
               0
390
0
 62
               7
100
AcDbVertex
100
AcDb3dPolylineVertex
 10
643.35599517179435
 20
-13.144912444462953
 30
0.0000000000000001
 70
              32
  0
VERTEX
  5
3EF
100
AcDbEntity
  8
MD_Visible
370
               0
390
0
 62
               7
100
AcDbVertex
100
AcDb3dPolylineVertex
 10
642.60562273039614
 20
-13.372535436030567
 30
0.0000000000000003
 70
              32
  0
VERTEX
  5
3F0
100
AcDbEntity
  8
MD_Visible
370
               0
390
0
 62
               7
100
AcDbVertex
100
AcDb3dPolylineVertex
 10
641.91407552778037
 20
-13.742175116865575
 30
0.0000000000000004
 70
              32
  0
VERTEX
  5
3F1
100
AcDbEntity
  8
MD_Visible
370
               0
390
0
 62
               7
100
AcDbVertex
100
AcDb3dPolylineVertex
 10
641.30792933511111
 20
-14.239626441329584
 30
0.0000000000000005
 70
              32
  0
VERTEX
  5
3F2
100
AcDbEntity
  8
MD_Visible
370
               0
390
0
 62
               7
100
AcDbVertex
100
AcDb3dPolylineVertex
 10
640.81047801064778
 20
-14.845772633997477
 30
0.0000000000000006
 70
              32
  0
VERTEX
  5
3F3
100
AcDbEntity
  8
MD_Visible
370
               0
390
0
 62
               7
100
AcDbVertex
100
AcDb3dPolylineVertex
 10
640.44083832981414
 20
-15.537319836615517
 30
0.0000000000000007
 70
              32
  0
VERTEX
  5
3F4
100
AcDbEntity
  8
MD_Visible
370
               0
390
0
 62
               7
100
AcDbVertex
100
AcDb3dPolylineVertex
 10
640.21321533824448
 20
-16.287692278011228
 30
0.0000000000000007
 70
              32
  0
VERTEX
  5
3F5
100
AcDbEntity
  8
MD_Visible
370
               0
390
0
 62
               7
100
AcDbVertex
100
AcDb3dPolylineVertex
 10
640.13635645985778
 20
-17.068053566075797
 30
0.0000000000000007
 70
              32
  0
SEQEND
  5
3F6
100
AcDbEntity
  8
MD_Visible
370
               0
390
0
 62
               7
  0
ENDBLK
  5
3F7
100
AcDbEntity
  8
0
390
0
100
AcDbBlockEnd
  0
BLOCK
  5
3F8
100
AcDbEntity
  8
0
390
0
100
AcDbBlockBegin
  2
グループ-9
 70
               0
 10
0.0
 20
0.0
 30
0.0
  3
グループ-9
  1

  0
POLYLINE
  5
3F9
100
AcDbEntity
  8
MD_Visible
370
               0
390
0
 62
               7
100
AcDb3dPolyline
 66
               1
 10
0.0
 20
0.0
 30
0.0
 70
               8
  0
VERTEX
  5
3FA
100
AcDbEntity
  8
MD_Visible
370
               0
390
0
 62
               7
100
AcDbVertex
100
AcDb3dPolylineVertex
 10
149.64865676323097
 20
-150.06805356607899
 30
-0.0000000000009095
 70
              32
  0
VERTEX
  5
3FB
100
AcDbEntity
  8
MD_Visible
370
               0
390
0
 62
               7
100
AcDbVertex
100
AcDb3dPolylineVertex
 10
-412.35134323676903
 20
-150.06805356607899
 30
-0.0000000000009095
 70
              32
  0
SEQEND
  5
3FC
100
AcDbEntity
  8
MD_Visible
370
               0
390
0
 62
               7
  0
POLYLINE
  5
3FD
100
AcDbEntity
  8
MD_Visible
370
               0
390
0
 62
               7
100
AcDb3dPolyline
 66
               1
 10
0.0
 20
0.0
 30
0.0
 70
               8
  0
VERTEX
  5
3FE
100
AcDbEntity
  8
MD_Visible
370
               0
390
0
 62
               7
100
AcDbVertex
100
AcDb3dPolylineVertex
 10
149.64865676323097
 20
189.93194643392147
 30
-0.0000000000009095
 70
              32
  0
VERTEX
  5
3FF
100
AcDbEntity
  8
MD_Visible
370
               0
390
0
 62
               7
100
AcDbVertex
100
AcDb3dPolylineVertex
 10
-412.35134323676903
 20
189.93194643392147
 30
-0.0000000000009095
 70
              32
  0
SEQEND
  5
400
100
AcDbEntity
  8
MD_Visible
370
               0
390
0
 62
               7
  0
POLYLINE
  5
401
100
AcDbEntity
  8
MD_Visible
370
               0
390
0
 62
               7
100
AcDb3dPolyline
 66
               1
 10
0.0
 20
0.0
 30
0.0
 70
               8
  0
VERTEX
  5
402
100
AcDbEntity
  8
MD_Visible
370
               0
390
0
 62
               7
100
AcDbVertex
100
AcDb3dPolylineVertex
 10
124.14865676323097
 20
-0.5680535660789801
 30
-0.0000000000009095
 70
              32
  0
VERTEX
  5
403
100
AcDbEntity
  8
MD_Visible
370
               0
390
0
 62
               7
100
AcDbVertex
100
AcDb3dPolylineVertex
 10
83.148656763230974
 20
-0.5680535660789801
 30
-0.0000000000009095
 70
              32
  0
SEQEND
  5
404
100
AcDbEntity
  8
MD_Visible
370
               0
390
0
 62
               7
  0
POLYLINE
  5
405
100
AcDbEntity
  8
MD_Visible
370
               0
390
0
 62
               7
100
AcDb3dPolyline
 66
               1
 10
0.0
 20
0.0
 30
0.0
 70
               8
  0
VERTEX
  5
406
100
AcDbEntity
  8
MD_Visible
370
               0
390
0
 62
               7
100
AcDbVertex
100
AcDb3dPolylineVertex
 10
83.148656763230974
 20
40.43194643392102
 30
-0.0000000000009095
 70
              32
  0
VERTEX
  5
407
100
AcDbEntity
  8
MD_Visible
370
               0
390
0
 62
               7
100
AcDbVertex
100
AcDb3dPolylineVertex
 10
124.14865676323097
 20
40.43194643392102
 30
-0.0000000000009095
 70
              32
  0
SEQEND
  5
408
100
AcDbEntity
  8
MD_Visible
370
               0
390
0
 62
               7
  0
POLYLINE
  5
409
100
AcDbEntity
  8
MD_Visible
370
               0
390
0
 62
               7
100
AcDb3dPolyline
 66
               1
 10
0.0
 20
0.0
 30
0.0
 70
               8
  0
VERTEX
  5
40A
100
AcDbEntity
  8
MD_Visible
370
               0
390
0
 62
               7
100
AcDbVertex
100
AcDb3dPolylineVertex
 10
124.14865676323097
 20
-0.6089717297517936
 30
-0.0000000000009095
 70
              32
  0
VERTEX
  5
40B
100
AcDbEntity
  8
MD_Visible
370
               0
390
0
 62
               7
100
AcDbVertex
100
AcDb3dPolylineVertex
 10
83.148656763230974
 20
-0.6089717297517936
 30
-0.0000000000009095
 70
              32
  0
SEQEND
  5
40C
100
AcDbEntity
  8
MD_Visible
370
               0
390
0
 62
               7
  0
POLYLINE
  5
40D
100
AcDbEntity
  8
MD_Visible
370
               0
390
0
 62
               7
100
AcDb3dPolyline
 66
               1
 10
0.0
 20
0.0
 30
0.0
 70
               8
  0
VERTEX
  5
40E
100
AcDbEntity
  8
MD_Visible
370
               0
390
0
 62
               7
100
AcDbVertex
100
AcDb3dPolylineVertex
 10
83.148656763230974
 20
40.472864597593833
 30
-0.0000000000009095
 70
              32
  0
VERTEX
  5
40F
100
AcDbEntity
  8
MD_Visible
370
               0
390
0
 62
               7
100
AcDbVertex
100
AcDb3dPolylineVertex
 10
124.14865676323097
 20
40.472864597593833
 30
-0.0000000000009095
 70
              32
  0
SEQEND
  5
410
100
AcDbEntity
  8
MD_Visible
370
               0
390
0
 62
               7
  0
POLYLINE
  5
411
100
AcDbEntity
  8
MD_Visible
370
               0
390
0
 62
               7
100
AcDb3dPolyline
 66
               1
 10
0.0
 20
0.0
 30
0.0
 70
               8
  0
VERTEX
  5
412
100
AcDbEntity
  8
MD_Visible
370
               0
390
0
 62
               7
100
AcDbVertex
100
AcDb3dPolylineVertex
 10
146.64865676323461
 20
-150.06805356607899
 30
-0.0000000000009095
 70
              32
  0
VERTEX
  5
413
100
AcDbEntity
  8
MD_Visible
370
               0
390
0
 62
               7
100
AcDbVertex
100
AcDb3dPolylineVertex
 10
146.64865676323461
 20
-151.06805356608285
 30
-0.0000000000009095
 70
              32
  0
SEQEND
  5
414
100
AcDbEntity
  8
MD_Visible
370
               0
390
0
 62
               7
  0
POLYLINE
  5
415
100
AcDbEntity
  8
MD_Visible
370
               0
390
0
 62
               7
100
AcDb3dPolyline
 66
               1
 10
0.0
 20
0.0
 30
0.0
 70
               8
  0
VERTEX
  5
416
100
AcDbEntity
  8
MD_Visible
370
               0
390
0
 62
               7
100
AcDbVertex
100
AcDb3dPolylineVertex
 10
-409.35134323676539
 20
-151.0680535660824
 30
-0.0000000000009095
 70
              32
  0
VERTEX
  5
417
100
AcDbEntity
  8
MD_Visible
370
               0
390
0
 62
               7
100
AcDbVertex
100
AcDb3dPolylineVertex
 10
-409.35134323676539
 20
-150.06805356607899
 30
-0.0000000000009095
 70
              32
  0
SEQEND
  5
418
100
AcDbEntity
  8
MD_Visible
370
               0
390
0
 62
               7
  0
POLYLINE
  5
419
100
AcDbEntity
  8
MD_Visible
370
               0
390
0
 62
               7
100
AcDb3dPolyline
 66
               1
 10
0.0
 20
0.0
 30
0.0
 70
               8
  0
VERTEX
  5
41A
100
AcDbEntity
  8
MD_Visible
370
               0
390
0
 62
               7
100
AcDbVertex
100
AcDb3dPolylineVertex
 10
146.64865676323461
 20
-151.06805356608285
 30
-0.0000000000009095
 70
              32
  0
VERTEX
  5
41B
100
AcDbEntity
  8
MD_Visible
370
               0
390
0
 62
               7
100
AcDbVertex
100
AcDb3dPolylineVertex
 10
-409.35134323676539
 20
-151.0680535660824
 30
-0.0000000000009095
 70
              32
  0
SEQEND
  5
41C
100
AcDbEntity
  8
MD_Visible
370
               0
390
0
 62
               7
  0
POLYLINE
  5
41D
100
AcDbEntity
  8
MD_Visible
370
               0
390
0
 62
               7
100
AcDb3dPolyline
 66
               1
 10
0.0
 20
0.0
 30
0.0
 70
               8
  0
VERTEX
  5
41E
100
AcDbEntity
  8
MD_Visible
370
               0
390
0
 62
               7
100
AcDbVertex
100
AcDb3dPolylineVertex
 10
-409.35134323676539
 20
190.93194643392511
 30
-0.0000000000009095
 70
              32
  0
VERTEX
  5
41F
100
AcDbEntity
  8
MD_Visible
370
               0
390
0
 62
               7
100
AcDbVertex
100
AcDb3dPolylineVertex
 10
-409.35134323676539
 20
189.93194643392147
 30
-0.0000000000009095
 70
              32
  0
SEQEND
  5
420
100
AcDbEntity
  8
MD_Visible
370
               0
390
0
 62
               7
  0
POLYLINE
  5
421
100
AcDbEntity
  8
MD_Visible
370
               0
390
0
 62
               7
100
AcDb3dPolyline
 66
               1
 10
0.0
 20
0.0
 30
0.0
 70
               8
  0
VERTEX
  5
422
100
AcDbEntity
  8
MD_Visible
370
               0
390
0
 62
               7
100
AcDbVertex
100
AcDb3dPolylineVertex
 10
146.64865676323461
 20
190.93194643392511
 30
-0.0000000000009095
 70
              32
  0
VERTEX
  5
423
100
AcDbEntity
  8
MD_Visible
370
               0
390
0
 62
               7
100
AcDbVertex
100
AcDb3dPolylineVertex
 10
-409.35134323676539
 20
190.93194643392511
 30
-0.0000000000009095
 70
              32
  0
SEQEND
  5
424
100
AcDbEntity
  8
MD_Visible
370
               0
390
0
 62
               7
  0
POLYLINE
  5
425
100
AcDbEntity
  8
MD_Visible
370
               0
390
0
 62
               7
100
AcDb3dPolyline
 66
               1
 10
0.0
 20
0.0
 30
0.0
 70
               8
  0
VERTEX
  5
426
100
AcDbEntity
  8
MD_Visible
370
               0
390
0
 62
               7
100
AcDbVertex
100
AcDb3dPolylineVertex
 10
146.64865676323461
 20
189.93194643392147
 30
-0.0000000000009095
 70
              32
  0
VERTEX
  5
427
100
AcDbEntity
  8
MD_Visible
370
               0
390
0
 62
               7
100
AcDbVertex
100
AcDb3dPolylineVertex
 10
146.64865676323461
 20
190.93194643392511
 30
-0.0000000000009095
 70
              32
  0
SEQEND
  5
428
100
AcDbEntity
  8
MD_Visible
370
               0
390
0
 62
               7
  0
POLYLINE
  5
429
100
AcDbEntity
  8
MD_Visible
370
               0
390
0
 62
               7
100
AcDb3dPolyline
 66
               1
 10
0.0
 20
0.0
 30
0.0
 70
               8
  0
VERTEX
  5
42A
100
AcDbEntity
  8
MD_Visible
370
               0
390
0
 62
               7
100
AcDbVertex
100
AcDb3dPolylineVertex
 10
158.64865676323097
 20
190.93194643392374
 30
-0.0000000000009095
 70
              32
  0
VERTEX
  5
42B
100
AcDbEntity
  8
MD_Visible
370
               0
390
0
 62
               7
100
AcDbVertex
100
AcDb3dPolylineVertex
 10
150.64865676323461
 20
190.93194643392374
 30
-0.0000000000009095
 70
              32
  0
SEQEND
  5
42C
100
AcDbEntity
  8
MD_Visible
370
               0
390
0
 62
               7
  0
POLYLINE
  5
42D
100
AcDbEntity
  8
MD_Visible
370
               0
390
0
 62
               7
100
AcDb3dPolyline
 66
               1
 10
0.0
 20
0.0
 30
0.0
 70
               8
  0
VERTEX
  5
42E
100
AcDbEntity
  8
MD_Visible
370
               0
390
0
 62
               7
100
AcDbVertex
100
AcDb3dPolylineVertex
 10
150.64865676323461
 20
-151.06805356608194
 30
-0.0000000000009095
 70
              32
  0
VERTEX
  5
42F
100
AcDbEntity
  8
MD_Visible
370
               0
390
0
 62
               7
100
AcDbVertex
100
AcDb3dPolylineVertex
 10
158.64865676323097
 20
-151.06805356608194
 30
-0.0000000000009095
 70
              32
  0
SEQEND
  5
430
100
AcDbEntity
  8
MD_Visible
370
               0
390
0
 62
               7
  0
POLYLINE
  5
431
100
AcDbEntity
  8
MD_Visible
370
               0
390
0
 62
               7
100
AcDb3dPolyline
 66
               1
 10
0.0
 20
0.0
 30
0.0
 70
               8
  0
VERTEX
  5
432
100
AcDbEntity
  8
MD_Visible
370
               0
390
0
 62
               7
100
AcDbVertex
100
AcDb3dPolylineVertex
 10
150.64865676323461
 20
190.93194643392374
 30
-0.0000000000009095
 70
              32
  0
VERTEX
  5
433
100
AcDbEntity
  8
MD_Visible
370
               0
390
0
 62
               7
100
AcDbVertex
100
AcDb3dPolylineVertex
 10
146.64865676323097
 20
190.93194643392374
 30
-0.0000000000009095
 70
              32
  0
SEQEND
  5
434
100
AcDbEntity
  8
MD_Visible
370
               0
390
0
 62
               7
  0
POLYLINE
  5
435
100
AcDbEntity
  8
MD_Visible
370
               0
390
0
 62
               7
100
AcDb3dPolyline
 66
               1
 10
0.0
 20
0.0
 30
0.0
 70
               8
  0
VERTEX
  5
436
100
AcDbEntity
  8
MD_Visible
370
               0
390
0
 62
               7
100
AcDbVertex
100
AcDb3dPolylineVertex
 10
146.64865676323097
 20
-151.06805356608194
 30
-0.0000000000009095
 70
              32
  0
VERTEX
  5
437
100
AcDbEntity
  8
MD_Visible
370
               0
390
0
 62
               7
100
AcDbVertex
100
AcDb3dPolylineVertex
 10
150.64865676323461
 20
-151.06805356608194
 30
-0.0000000000009095
 70
              32
  0
SEQEND
  5
438
100
AcDbEntity
  8
MD_Visible
370
               0
390
0
 62
               7
  0
POLYLINE
  5
439
100
AcDbEntity
  8
MD_Visible
370
               0
390
0
 62
               7
100
AcDb3dPolyline
 66
               1
 10
0.0
 20
0.0
 30
0.0
 70
               8
  0
VERTEX
  5
43A
100
AcDbEntity
  8
MD_Visible
370
               0
390
0
 62
               7
100
AcDbVertex
100
AcDb3dPolylineVertex
 10
150.64865676323461
 20
-147.06805356608194
 30
-0.0000000000009095
 70
              32
  0
VERTEX
  5
43B
100
AcDbEntity
  8
MD_Visible
370
               0
390
0
 62
               7
100
AcDbVertex
100
AcDb3dPolylineVertex
 10
149.64865676323097
 20
-147.06805356608194
 30
-0.0000000000009095
 70
              32
  0
SEQEND
  5
43C
100
AcDbEntity
  8
MD_Visible
370
               0
390
0
 62
               7
  0
POLYLINE
  5
43D
100
AcDbEntity
  8
MD_Visible
370
               0
390
0
 62
               7
100
AcDb3dPolyline
 66
               1
 10
0.0
 20
0.0
 30
0.0
 70
               8
  0
VERTEX
  5
43E
100
AcDbEntity
  8
MD_Visible
370
               0
390
0
 62
               7
100
AcDbVertex
100
AcDb3dPolylineVertex
 10
150.64865676323461
 20
186.93194643392283
 30
-0.0000000000009095
 70
              32
  0
VERTEX
  5
43F
100
AcDbEntity
  8
MD_Visible
370
               0
390
0
 62
               7
100
AcDbVertex
100
AcDb3dPolylineVertex
 10
149.64865676323097
 20
186.93194643392283
 30
-0.0000000000009095
 70
              32
  0
SEQEND
  5
440
100
AcDbEntity
  8
MD_Visible
370
               0
390
0
 62
               7
  0
POLYLINE
  5
441
100
AcDbEntity
  8
MD_Visible
370
               0
390
0
 62
               7
100
AcDb3dPolyline
 66
               1
 10
0.0
 20
0.0
 30
0.0
 70
               8
  0
VERTEX
  5
442
100
AcDbEntity
  8
MD_Visible
370
               0
390
0
 62
               7
100
AcDbVertex
100
AcDb3dPolylineVertex
 10
146.64865676323097
 20
190.93194643392374
 30
-0.0000000000009095
 70
              32
  0
VERTEX
  5
443
100
AcDbEntity
  8
MD_Visible
370
               0
390
0
 62
               7
100
AcDbVertex
100
AcDb3dPolylineVertex
 10
146.64865676323097
 20
189.93194643392147
 30
-0.0000000000009095
 70
              32
  0
SEQEND
  5
444
100
AcDbEntity
  8
MD_Visible
370
               0
390
0
 62
               7
  0
POLYLINE
  5
445
100
AcDbEntity
  8
MD_Visible
370
               0
390
0
 62
               7
100
AcDb3dPolyline
 66
               1
 10
0.0
 20
0.0
 30
0.0
 70
               8
  0
VERTEX
  5
446
100
AcDbEntity
  8
MD_Visible
370
               0
390
0
 62
               7
100
AcDbVertex
100
AcDb3dPolylineVertex
 10
146.64865676323097
 20
-150.06805356607899
 30
-0.0000000000009095
 70
              32
  0
VERTEX
  5
447
100
AcDbEntity
  8
MD_Visible
370
               0
390
0
 62
               7
100
AcDbVertex
100
AcDb3dPolylineVertex
 10
146.64865676323097
 20
-151.06805356608217
 30
-0.0000000000009095
 70
              32
  0
SEQEND
  5
448
100
AcDbEntity
  8
MD_Visible
370
               0
390
0
 62
               7
  0
POLYLINE
  5
449
100
AcDbEntity
  8
MD_Visible
370
               0
390
0
 62
               7
100
AcDb3dPolyline
 66
               1
 10
0.0
 20
0.0
 30
0.0
 70
               8
  0
VERTEX
  5
44A
100
AcDbEntity
  8
MD_Visible
370
               0
390
0
 62
               7
100
AcDbVertex
100
AcDb3dPolylineVertex
 10
-413.35134323676539
 20
-151.06805356608012
 30
-0.0000000000009095
 70
              32
  0
VERTEX
  5
44B
100
AcDbEntity
  8
MD_Visible
370
               0
390
0
 62
               7
100
AcDbVertex
100
AcDb3dPolylineVertex
 10
-421.35134323676903
 20
-151.06805356608012
 30
-0.0000000000009095
 70
              32
  0
SEQEND
  5
44C
100
AcDbEntity
  8
MD_Visible
370
               0
390
0
 62
               7
  0
POLYLINE
  5
44D
100
AcDbEntity
  8
MD_Visible
370
               0
390
0
 62
               7
100
AcDb3dPolyline
 66
               1
 10
0.0
 20
0.0
 30
0.0
 70
               8
  0
VERTEX
  5
44E
100
AcDbEntity
  8
MD_Visible
370
               0
390
0
 62
               7
100
AcDbVertex
100
AcDb3dPolylineVertex
 10
-421.35134323676903
 20
190.93194643392511
 30
-0.0000000000009095
 70
              32
  0
VERTEX
  5
44F
100
AcDbEntity
  8
MD_Visible
370
               0
390
0
 62
               7
100
AcDbVertex
100
AcDb3dPolylineVertex
 10
-413.35134323676539
 20
190.93194643392511
 30
-0.0000000000009095
 70
              32
  0
SEQEND
  5
450
100
AcDbEntity
  8
MD_Visible
370
               0
390
0
 62
               7
  0
POLYLINE
  5
451
100
AcDbEntity
  8
MD_Visible
370
               0
390
0
 62
               7
100
AcDb3dPolyline
 66
               1
 10
0.0
 20
0.0
 30
0.0
 70
               8
  0
VERTEX
  5
452
100
AcDbEntity
  8
MD_Visible
370
               0
390
0
 62
               7
100
AcDbVertex
100
AcDb3dPolylineVertex
 10
-413.35134323676539
 20
-147.06805356608012
 30
-0.0000000000009095
 70
              32
  0
VERTEX
  5
453
100
AcDbEntity
  8
MD_Visible
370
               0
390
0
 62
               7
100
AcDbVertex
100
AcDb3dPolylineVertex
 10
-412.35134323676903
 20
-147.06805356608012
 30
-0.0000000000009095
 70
              32
  0
SEQEND
  5
454
100
AcDbEntity
  8
MD_Visible
370
               0
390
0
 62
               7
  0
POLYLINE
  5
455
100
AcDbEntity
  8
MD_Visible
370
               0
390
0
 62
               7
100
AcDb3dPolyline
 66
               1
 10
0.0
 20
0.0
 30
0.0
 70
               8
  0
VERTEX
  5
456
100
AcDbEntity
  8
MD_Visible
370
               0
390
0
 62
               7
100
AcDbVertex
100
AcDb3dPolylineVertex
 10
-413.35134323676539
 20
-151.06805356608012
 30
-0.0000000000009095
 70
              32
  0
VERTEX
  5
457
100
AcDbEntity
  8
MD_Visible
370
               0
390
0
 62
               7
100
AcDbVertex
100
AcDb3dPolylineVertex
 10
-409.35134323676903
 20
-151.06805356608012
 30
-0.0000000000009095
 70
              32
  0
SEQEND
  5
458
100
AcDbEntity
  8
MD_Visible
370
               0
390
0
 62
               7
  0
POLYLINE
  5
459
100
AcDbEntity
  8
MD_Visible
370
               0
390
0
 62
               7
100
AcDb3dPolyline
 66
               1
 10
0.0
 20
0.0
 30
0.0
 70
               8
  0
VERTEX
  5
45A
100
AcDbEntity
  8
MD_Visible
370
               0
390
0
 62
               7
100
AcDbVertex
100
AcDb3dPolylineVertex
 10
-409.35134323676903
 20
-151.06805356608012
 30
-0.0000000000009095
 70
              32
  0
VERTEX
  5
45B
100
AcDbEntity
  8
MD_Visible
370
               0
390
0
 62
               7
100
AcDbVertex
100
AcDb3dPolylineVertex
 10
-409.35134323676903
 20
-150.06805356607899
 30
-0.0000000000009095
 70
              32
  0
SEQEND
  5
45C
100
AcDbEntity
  8
MD_Visible
370
               0
390
0
 62
               7
  0
POLYLINE
  5
45D
100
AcDbEntity
  8
MD_Visible
370
               0
390
0
 62
               7
100
AcDb3dPolyline
 66
               1
 10
0.0
 20
0.0
 30
0.0
 70
               8
  0
VERTEX
  5
45E
100
AcDbEntity
  8
MD_Visible
370
               0
390
0
 62
               7
100
AcDbVertex
100
AcDb3dPolylineVertex
 10
-409.35134323676903
 20
190.93194643392511
 30
-0.0000000000009095
 70
              32
  0
VERTEX
  5
45F
100
AcDbEntity
  8
MD_Visible
370
               0
390
0
 62
               7
100
AcDbVertex
100
AcDb3dPolylineVertex
 10
-413.35134323676539
 20
190.93194643392511
 30
-0.0000000000009095
 70
              32
  0
SEQEND
  5
460
100
AcDbEntity
  8
MD_Visible
370
               0
390
0
 62
               7
  0
POLYLINE
  5
461
100
AcDbEntity
  8
MD_Visible
370
               0
390
0
 62
               7
100
AcDb3dPolyline
 66
               1
 10
0.0
 20
0.0
 30
0.0
 70
               8
  0
VERTEX
  5
462
100
AcDbEntity
  8
MD_Visible
370
               0
390
0
 62
               7
100
AcDbVertex
100
AcDb3dPolylineVertex
 10
-409.35134323676903
 20
189.93194643392147
 30
-0.0000000000009095
 70
              32
  0
VERTEX
  5
463
100
AcDbEntity
  8
MD_Visible
370
               0
390
0
 62
               7
100
AcDbVertex
100
AcDb3dPolylineVertex
 10
-409.35134323676903
 20
190.93194643392556
 30
-0.0000000000009095
 70
              32
  0
SEQEND
  5
464
100
AcDbEntity
  8
MD_Visible
370
               0
390
0
 62
               7
  0
POLYLINE
  5
465
100
AcDbEntity
  8
MD_Visible
370
               0
390
0
 62
               7
100
AcDb3dPolyline
 66
               1
 10
0.0
 20
0.0
 30
0.0
 70
               8
  0
VERTEX
  5
466
100
AcDbEntity
  8
MD_Visible
370
               0
390
0
 62
               7
100
AcDbVertex
100
AcDb3dPolylineVertex
 10
-413.35134323676539
 20
186.93194643392511
 30
-0.0000000000009095
 70
              32
  0
VERTEX
  5
467
100
AcDbEntity
  8
MD_Visible
370
               0
390
0
 62
               7
100
AcDbVertex
100
AcDb3dPolylineVertex
 10
-412.35134323676903
 20
186.93194643392511
 30
-0.0000000000009095
 70
              32
  0
SEQEND
  5
468
100
AcDbEntity
  8
MD_Visible
370
               0
390
0
 62
               7
  0
POLYLINE
  5
469
100
AcDbEntity
  8
MD_Visible
370
               0
390
0
 62
               7
100
AcDb3dPolyline
 66
               1
 10
0.0
 20
0.0
 30
0.0
 70
               8
  0
VERTEX
  5
46A
100
AcDbEntity
  8
MD_Visible
370
               0
390
0
 62
               7
100
AcDbVertex
100
AcDb3dPolylineVertex
 10
-412.35134323676903
 20
189.93194643392101
 30
-0.0000000000009095
 70
              32
  0
VERTEX
  5
46B
100
AcDbEntity
  8
MD_Visible
370
               0
390
0
 62
               7
100
AcDbVertex
100
AcDb3dPolylineVertex
 10
-412.35134323676903
 20
173.84463678925025
 30
-0.0000000000009095
 70
              32
  0
SEQEND
  5
46C
100
AcDbEntity
  8
MD_Visible
370
               0
390
0
 62
               7
  0
POLYLINE
  5
46D
100
AcDbEntity
  8
MD_Visible
370
               0
390
0
 62
               7
100
AcDb3dPolyline
 66
               1
 10
0.0
 20
0.0
 30
0.0
 70
               8
  0
VERTEX
  5
46E
100
AcDbEntity
  8
MD_Visible
370
               0
390
0
 62
               7
100
AcDbVertex
100
AcDb3dPolylineVertex
 10
149.64865676323097
 20
189.93194643392147
 30
-0.0000000000009095
 70
              32
  0
VERTEX
  5
46F
100
AcDbEntity
  8
MD_Visible
370
               0
390
0
 62
               7
100
AcDbVertex
100
AcDb3dPolylineVertex
 10
149.64865676323097
 20
173.84463678925025
 30
-0.0000000000009095
 70
              32
  0
SEQEND
  5
470
100
AcDbEntity
  8
MD_Visible
370
               0
390
0
 62
               7
  0
POLYLINE
  5
471
100
AcDbEntity
  8
MD_Visible
370
               0
390
0
 62
               7
100
AcDb3dPolyline
 66
               1
 10
0.0
 20
0.0
 30
0.0
 70
               8
  0
VERTEX
  5
472
100
AcDbEntity
  8
MD_Visible
370
               0
390
0
 62
               7
100
AcDbVertex
100
AcDb3dPolylineVertex
 10
-412.35134323676903
 20
-133.98074392140822
 30
-0.0000000000009095
 70
              32
  0
VERTEX
  5
473
100
AcDbEntity
  8
MD_Visible
370
               0
390
0
 62
               7
100
AcDbVertex
100
AcDb3dPolylineVertex
 10
-412.35134323676903
 20
-150.06805356607899
 30
-0.0000000000009095
 70
              32
  0
SEQEND
  5
474
100
AcDbEntity
  8
MD_Visible
370
               0
390
0
 62
               7
  0
POLYLINE
  5
475
100
AcDbEntity
  8
MD_Visible
370
               0
390
0
 62
               7
100
AcDb3dPolyline
 66
               1
 10
0.0
 20
0.0
 30
0.0
 70
               8
  0
VERTEX
  5
476
100
AcDbEntity
  8
MD_Visible
370
               0
390
0
 62
               7
100
AcDbVertex
100
AcDb3dPolylineVertex
 10
149.64865676323097
 20
-133.98074392140822
 30
-0.0000000000009095
 70
              32
  0
VERTEX
  5
477
100
AcDbEntity
  8
MD_Visible
370
               0
390
0
 62
               7
100
AcDbVertex
100
AcDb3dPolylineVertex
 10
149.64865676323097
 20
-150.06805356607899
 30
-0.0000000000009095
 70
              32
  0
SEQEND
  5
478
100
AcDbEntity
  8
MD_Visible
370
               0
390
0
 62
               7
  0
POLYLINE
  5
479
100
AcDbEntity
  8
MD_Visible
370
               0
390
0
 62
               7
100
AcDb3dPolyline
 66
               1
 10
0.0
 20
0.0
 30
0.0
 70
               8
  0
VERTEX
  5
47A
100
AcDbEntity
  8
MD_Visible
370
               0
390
0
 62
               7
100
AcDbVertex
100
AcDb3dPolylineVertex
 10
124.14865676323097
 20
-0.6089717297681645
 30
-0.0000000000009095
 70
              32
  0
VERTEX
  5
47B
100
AcDbEntity
  8
MD_Visible
370
               0
390
0
 62
               7
100
AcDbVertex
100
AcDb3dPolylineVertex
 10
124.14865676323097
 20
40.472864597608385
 30
-0.0000000000009095
 70
              32
  0
SEQEND
  5
47C
100
AcDbEntity
  8
MD_Visible
370
               0
390
0
 62
               7
  0
POLYLINE
  5
47D
100
AcDbEntity
  8
MD_Visible
370
               0
390
0
 62
               7
100
AcDb3dPolyline
 66
               1
 10
0.0
 20
0.0
 30
0.0
 70
               8
  0
VERTEX
  5
47E
100
AcDbEntity
  8
MD_Visible
370
               0
390
0
 62
               7
100
AcDbVertex
100
AcDb3dPolylineVertex
 10
83.148656763230974
 20
40.472864597611114
 30
-0.0000000000009095
 70
              32
  0
VERTEX
  5
47F
100
AcDbEntity
  8
MD_Visible
370
               0
390
0
 62
               7
100
AcDbVertex
100
AcDb3dPolylineVertex
 10
83.148656763230974
 20
-0.6089717297663455
 30
-0.0000000000009095
 70
              32
  0
SEQEND
  5
480
100
AcDbEntity
  8
MD_Visible
370
               0
390
0
 62
               7
  0
POLYLINE
  5
481
100
AcDbEntity
  8
MD_Visible
370
               0
390
0
 62
               7
100
AcDb3dPolyline
 66
               1
 10
0.0
 20
0.0
 30
0.0
 70
               8
  0
VERTEX
  5
482
100
AcDbEntity
  8
MD_Visible
370
               0
390
0
 62
               7
100
AcDbVertex
100
AcDb3dPolylineVertex
 10
149.64865676323097
 20
173.84463678921477
 30
-0.0000000000009095
 70
              32
  0
VERTEX
  5
483
100
AcDbEntity
  8
MD_Visible
370
               0
390
0
 62
               7
100
AcDbVertex
100
AcDb3dPolylineVertex
 10
149.64865676323097
 20
-133.98074392137252
 30
-0.0000000000009095
 70
              32
  0
SEQEND
  5
484
100
AcDbEntity
  8
MD_Visible
370
               0
390
0
 62
               7
  0
POLYLINE
  5
485
100
AcDbEntity
  8
MD_Visible
370
               0
390
0
 62
               7
100
AcDb3dPolyline
 66
               1
 10
0.0
 20
0.0
 30
0.0
 70
               8
  0
VERTEX
  5
486
100
AcDbEntity
  8
MD_Visible
370
               0
390
0
 62
               7
100
AcDbVertex
100
AcDb3dPolylineVertex
 10
-412.35134323676903
 20
173.84463678921477
 30
-0.0000000000009095
 70
              32
  0
VERTEX
  5
487
100
AcDbEntity
  8
MD_Visible
370
               0
390
0
 62
               7
100
AcDbVertex
100
AcDb3dPolylineVertex
 10
-412.35134323676903
 20
-133.98074392137252
 30
-0.0000000000009095
 70
              32
  0
SEQEND
  5
488
100
AcDbEntity
  8
MD_Visible
370
               0
390
0
 62
               7
  0
POLYLINE
  5
489
100
AcDbEntity
  8
MD_Visible
370
               0
390
0
 62
               7
100
AcDb3dPolyline
 66
               1
 10
0.0
 20
0.0
 30
0.0
 70
               8
  0
VERTEX
  5
48A
100
AcDbEntity
  8
MD_Visible
370
               0
390
0
 62
               7
100
AcDbVertex
100
AcDb3dPolylineVertex
 10
150.64865676323461
 20
190.93194643392329
 30
-0.0000000000009095
 70
              32
  0
VERTEX
  5
48B
100
AcDbEntity
  8
MD_Visible
370
               0
390
0
 62
               7
100
AcDbVertex
100
AcDb3dPolylineVertex
 10
150.64865676323461
 20
173.99793628163891
 30
-0.0000000000009095
 70
              32
  0
SEQEND
  5
48C
100
AcDbEntity
  8
MD_Visible
370
               0
390
0
 62
               7
  0
POLYLINE
  5
48D
100
AcDbEntity
  8
MD_Visible
370
               0
390
0
 62
               7
100
AcDb3dPolyline
 66
               1
 10
0.0
 20
0.0
 30
0.0
 70
               8
  0
VERTEX
  5
48E
100
AcDbEntity
  8
MD_Visible
370
               0
390
0
 62
               7
100
AcDbVertex
100
AcDb3dPolylineVertex
 10
150.64865676323461
 20
173.99793628160253
 30
-0.0000000000009095
 70
              32
  0
VERTEX
  5
48F
100
AcDbEntity
  8
MD_Visible
370
               0
390
0
 62
               7
100
AcDbVertex
100
AcDb3dPolylineVertex
 10
150.64865676323461
 20
-134.1340434137621
 30
-0.0000000000009095
 70
              32
  0
SEQEND
  5
490
100
AcDbEntity
  8
MD_Visible
370
               0
390
0
 62
               7
  0
POLYLINE
  5
491
100
AcDbEntity
  8
MD_Visible
370
               0
390
0
 62
               7
100
AcDb3dPolyline
 66
               1
 10
0.0
 20
0.0
 30
0.0
 70
               8
  0
VERTEX
  5
492
100
AcDbEntity
  8
MD_Visible
370
               0
390
0
 62
               7
100
AcDbVertex
100
AcDb3dPolylineVertex
 10
150.64865676323461
 20
-134.13404341379712
 30
-0.0000000000009095
 70
              32
  0
VERTEX
  5
493
100
AcDbEntity
  8
MD_Visible
370
               0
390
0
 62
               7
100
AcDbVertex
100
AcDb3dPolylineVertex
 10
150.64865676323461
 20
-151.06805356608194
 30
-0.0000000000009095
 70
              32
  0
SEQEND
  5
494
100
AcDbEntity
  8
MD_Visible
370
               0
390
0
 62
               7
  0
POLYLINE
  5
495
100
AcDbEntity
  8
MD_Visible
370
               0
390
0
 62
               7
100
AcDb3dPolyline
 66
               1
 10
0.0
 20
0.0
 30
0.0
 70
               8
  0
VERTEX
  5
496
100
AcDbEntity
  8
MD_Visible
370
               0
390
0
 62
               7
100
AcDbVertex
100
AcDb3dPolylineVertex
 10
158.64865676323097
 20
-134.13404341376051
 30
-0.0000000000009095
 70
              32
  0
VERTEX
  5
497
100
AcDbEntity
  8
MD_Visible
370
               0
390
0
 62
               7
100
AcDbVertex
100
AcDb3dPolylineVertex
 10
158.64865676323097
 20
173.99793628160299
 30
-0.0000000000009095
 70
              32
  0
SEQEND
  5
498
100
AcDbEntity
  8
MD_Visible
370
               0
390
0
 62
               7
  0
POLYLINE
  5
499
100
AcDbEntity
  8
MD_Visible
370
               0
390
0
 62
               7
100
AcDb3dPolyline
 66
               1
 10
0.0
 20
0.0
 30
0.0
 70
               8
  0
VERTEX
  5
49A
100
AcDbEntity
  8
MD_Visible
370
               0
390
0
 62
               7
100
AcDbVertex
100
AcDb3dPolylineVertex
 10
158.64865676323097
 20
190.93194643392329
 30
-0.0000000000009095
 70
              32
  0
VERTEX
  5
49B
100
AcDbEntity
  8
MD_Visible
370
               0
390
0
 62
               7
100
AcDbVertex
100
AcDb3dPolylineVertex
 10
158.64865676323097
 20
173.99793628163891
 30
-0.0000000000009095
 70
              32
  0
SEQEND
  5
49C
100
AcDbEntity
  8
MD_Visible
370
               0
390
0
 62
               7
  0
POLYLINE
  5
49D
100
AcDbEntity
  8
MD_Visible
370
               0
390
0
 62
               7
100
AcDb3dPolyline
 66
               1
 10
0.0
 20
0.0
 30
0.0
 70
               8
  0
VERTEX
  5
49E
100
AcDbEntity
  8
MD_Visible
370
               0
390
0
 62
               7
100
AcDbVertex
100
AcDb3dPolylineVertex
 10
158.64865676323097
 20
-134.13404341379712
 30
-0.0000000000009095
 70
              32
  0
VERTEX
  5
49F
100
AcDbEntity
  8
MD_Visible
370
               0
390
0
 62
               7
100
AcDbVertex
100
AcDb3dPolylineVertex
 10
158.64865676323097
 20
-151.06805356608194
 30
-0.0000000000009095
 70
              32
  0
SEQEND
  5
4A0
100
AcDbEntity
  8
MD_Visible
370
               0
390
0
 62
               7
  0
POLYLINE
  5
4A1
100
AcDbEntity
  8
MD_Visible
370
               0
390
0
 62
               7
100
AcDb3dPolyline
 66
               1
 10
0.0
 20
0.0
 30
0.0
 70
               8
  0
VERTEX
  5
4A2
100
AcDbEntity
  8
MD_Visible
370
               0
390
0
 62
               7
100
AcDbVertex
100
AcDb3dPolylineVertex
 10
-413.35134323676539
 20
-151.06805356608012
 30
-0.0000000000009095
 70
              32
  0
VERTEX
  5
4A3
100
AcDbEntity
  8
MD_Visible
370
               0
390
0
 62
               7
100
AcDbVertex
100
AcDb3dPolylineVertex
 10
-413.35134323676539
 20
-134.13404341379575
 30
-0.0000000000009095
 70
              32
  0
SEQEND
  5
4A4
100
AcDbEntity
  8
MD_Visible
370
               0
390
0
 62
               7
  0
POLYLINE
  5
4A5
100
AcDbEntity
  8
MD_Visible
370
               0
390
0
 62
               7
100
AcDb3dPolyline
 66
               1
 10
0.0
 20
0.0
 30
0.0
 70
               8
  0
VERTEX
  5
4A6
100
AcDbEntity
  8
MD_Visible
370
               0
390
0
 62
               7
100
AcDbVertex
100
AcDb3dPolylineVertex
 10
-413.35134323676539
 20
-134.13404341375892
 30
-0.0000000000009095
 70
              32
  0
VERTEX
  5
4A7
100
AcDbEntity
  8
MD_Visible
370
               0
390
0
 62
               7
100
AcDbVertex
100
AcDb3dPolylineVertex
 10
-413.35134323676539
 20
173.99793628160481
 30
-0.0000000000009095
 70
              32
  0
SEQEND
  5
4A8
100
AcDbEntity
  8
MD_Visible
370
               0
390
0
 62
               7
  0
POLYLINE
  5
4A9
100
AcDbEntity
  8
MD_Visible
370
               0
390
0
 62
               7
100
AcDb3dPolyline
 66
               1
 10
0.0
 20
0.0
 30
0.0
 70
               8
  0
VERTEX
  5
4AA
100
AcDbEntity
  8
MD_Visible
370
               0
390
0
 62
               7
100
AcDbVertex
100
AcDb3dPolylineVertex
 10
-413.35134323676539
 20
173.99793628164073
 30
-0.0000000000009095
 70
              32
  0
VERTEX
  5
4AB
100
AcDbEntity
  8
MD_Visible
370
               0
390
0
 62
               7
100
AcDbVertex
100
AcDb3dPolylineVertex
 10
-413.35134323676539
 20
190.93194643392511
 30
-0.0000000000009095
 70
              32
  0
SEQEND
  5
4AC
100
AcDbEntity
  8
MD_Visible
370
               0
390
0
 62
               7
  0
POLYLINE
  5
4AD
100
AcDbEntity
  8
MD_Visible
370
               0
390
0
 62
               7
100
AcDb3dPolyline
 66
               1
 10
0.0
 20
0.0
 30
0.0
 70
               8
  0
VERTEX
  5
4AE
100
AcDbEntity
  8
MD_Visible
370
               0
390
0
 62
               7
100
AcDbVertex
100
AcDb3dPolylineVertex
 10
-421.35134323676903
 20
190.93194643392511
 30
-0.0000000000009095
 70
              32
  0
VERTEX
  5
4AF
100
AcDbEntity
  8
MD_Visible
370
               0
390
0
 62
               7
100
AcDbVertex
100
AcDb3dPolylineVertex
 10
-421.35134323676903
 20
173.99793628164028
 30
-0.0000000000009095
 70
              32
  0
SEQEND
  5
4B0
100
AcDbEntity
  8
MD_Visible
370
               0
390
0
 62
               7
  0
POLYLINE
  5
4B1
100
AcDbEntity
  8
MD_Visible
370
               0
390
0
 62
               7
100
AcDb3dPolyline
 66
               1
 10
0.0
 20
0.0
 30
0.0
 70
               8
  0
VERTEX
  5
4B2
100
AcDbEntity
  8
MD_Visible
370
               0
390
0
 62
               7
100
AcDbVertex
100
AcDb3dPolylineVertex
 10
-421.35134323676903
 20
-134.13404341375892
 30
-0.0000000000009095
 70
              32
  0
VERTEX
  5
4B3
100
AcDbEntity
  8
MD_Visible
370
               0
390
0
 62
               7
100
AcDbVertex
100
AcDb3dPolylineVertex
 10
-421.35134323676903
 20
173.99793628160481
 30
-0.0000000000009095
 70
              32
  0
SEQEND
  5
4B4
100
AcDbEntity
  8
MD_Visible
370
               0
390
0
 62
               7
  0
POLYLINE
  5
4B5
100
AcDbEntity
  8
MD_Visible
370
               0
390
0
 62
               7
100
AcDb3dPolyline
 66
               1
 10
0.0
 20
0.0
 30
0.0
 70
               8
  0
VERTEX
  5
4B6
100
AcDbEntity
  8
MD_Visible
370
               0
390
0
 62
               7
100
AcDbVertex
100
AcDb3dPolylineVertex
 10
-421.35134323676903
 20
-134.13404341379575
 30
-0.0000000000009095
 70
              32
  0
VERTEX
  5
4B7
100
AcDbEntity
  8
MD_Visible
370
               0
390
0
 62
               7
100
AcDbVertex
100
AcDb3dPolylineVertex
 10
-421.35134323676903
 20
-151.06805356608012
 30
-0.0000000000009095
 70
              32
  0
SEQEND
  5
4B8
100
AcDbEntity
  8
MD_Visible
370
               0
390
0
 62
               7
  0
ENDBLK
  5
4B9
100
AcDbEntity
  8
0
390
0
100
AcDbBlockEnd
  0
BLOCK
  5
4BA
100
AcDbEntity
  8
寸法
390
0
100
AcDbBlockBegin
  2
*D11
 70
               1
 10
0.0
 20
0.0
 30
0.0
  3
*D11
  1

  0
LINE
  5
4BB
100
AcDbEntity
  8
寸法
370
              -2
390
0
  6
Continuous
 62
               0
100
AcDbLine
 10
20235.487699696627
 20
1923.3132994458711
 30
0.0
 11
20235.487699696627
 21
1735.0
 31
0.0
  0
LINE
  5
4BC
100
AcDbEntity
  8
寸法
370
              -2
390
0
  6
Continuous
 62
               0
100
AcDbLine
 10
19885.530853631368
 20
2085.0
 30
0.0
 11
19885.530853631368
 21
1735.0
 31
0.0
  0
LINE
  5
4BD
100
AcDbEntity
  8
寸法
370
              -2
390
0
  6
Continuous
 62
               0
100
AcDbLine
 10
20235.487699696627
 20
1775.0
 30
0.0
 11
19885.530853631368
 21
1775.0
 31
0.0
  0
POLYLINE
  5
4BE
100
AcDbEntity
  8
0
370
              -2
390
0
  6
Continuous
 62
               0
100
AcDb2dPolyline
 66
               1
 10
0.0
 20
0.0
 30
0.0
 75
               5
  0
VERTEX
  5
4BF
100
AcDbEntity
  8
0
370
              -2
390
0
  6
Continuous
 62
               0
100
AcDbVertex
100
AcDb2dVertex
 10
20185.475248524752
 20
1788.4007959030048
 30
0.0
  0
VERTEX
  5
4C0
100
AcDbEntity
  8
0
370
              -2
390
0
  6
Continuous
 62
               0
100
AcDbVertex
100
AcDb2dVertex
 10
20235.487699696627
 20
1775.0
 30
0.0
  0
VERTEX
  5
4C1
100
AcDbEntity
  8
0
370
              -2
390
0
  6
Continuous
 62
               0
100
AcDbVertex
100
AcDb2dVertex
 10
20185.475248524752
 20
1761.5992040969952
 30
0.0
  0
SEQEND
  5
4C2
100
AcDbEntity
  8
0
370
              -2
390
0
  6
Continuous
 62
               0
  0
POLYLINE
  5
4C3
100
AcDbEntity
  8
0
370
              -2
390
0
  6
Continuous
 62
               0
100
AcDb2dPolyline
 66
               1
 10
0.0
 20
0.0
 30
0.0
 75
               5
  0
VERTEX
  5
4C4
100
AcDbEntity
  8
0
370
              -2
390
0
  6
Continuous
 62
               0
100
AcDbVertex
100
AcDb2dVertex
 10
19935.543304803243
 20
1761.5992040969952
 30
0.0
  0
VERTEX
  5
4C5
100
AcDbEntity
  8
0
370
              -2
390
0
  6
Continuous
 62
               0
100
AcDbVertex
100
AcDb2dVertex
 10
19885.530853631368
 20
1775.0
 30
0.0
  0
VERTEX
  5
4C6
100
AcDbEntity
  8
0
370
              -2
390
0
  6
Continuous
 62
               0
100
AcDbVertex
100
AcDb2dVertex
 10
19935.543304803243
 20
1788.4007959030048
 30
0.0
  0
SEQEND
  5
4C7
100
AcDbEntity
  8
0
370
              -2
390
0
  6
Continuous
 62
               0
  0
WIPEOUT
  5
4C8
100
AcDbEntity
  8
寸法
370
              -2
390
0
  6
Continuous
 62
               0
 92
        0
100
AcDbWipeout
 90
        0
 10
19986.425943330665
 20
19061.969990224818
 30
0.0
 11
148.16666666666663
 21
0.0
 31
0.0
 12
0.0
 22
148.16666666666663
 32
0.0
 13
1.0
 23
1.0
340
0
 70
               7
280
               1
281
              50
282
              50
283
               0
360
0
 71
               2
 91
        5
 14
-0.5
 24
117.10497181254098
 14
0.4999999999999839
 24
117.10497181254098
 14
0.4999999999999839
 24
116.4383051458743
 14
-0.5
 24
116.4383051458743
 14
-0.5
 24
117.10497181254098
  0
MTEXT
  5
4C9
100
AcDbEntity
  8
寸法
390
0
 62
               0
100
AcDbMText
 10
19986.425943330665
 20
1874.8414756944458
 30
0.0
 40
76.012586805556552
 41
0.0
 71
               1
 72
               1
  1
{\fＭＳ ゴシック|b0|i0|c128|p0;\l350}
 73
               1
 44
0.7828267384257843
  0
POINT
  5
4CA
100
AcDbEntity
  8
Defpoints
370
               0
390
0
 62
               0
100
AcDbPoint
 10
19885.530853631368
 20
2125.0
 30
0.0
  0
POINT
  5
4CB
100
AcDbEntity
  8
Defpoints
370
               0
390
0
 62
               0
100
AcDbPoint
 10
20235.487699696627
 20
1963.3132994458711
 30
0.0
  0
POINT
  5
4CC
100
AcDbEntity
  8
Defpoints
370
               0
390
0
 62
               0
100
AcDbPoint
 10
20235.487699696627
 20
1775.0
 30
0.0
  0
ENDBLK
  5
4CD
100
AcDbEntity
  8
寸法
390
0
100
AcDbBlockEnd
  0
BLOCK
  5
4CE
100
AcDbEntity
  8
寸法
390
0
100
AcDbBlockBegin
  2
*D12
 70
               1
 10
0.0
 20
0.0
 30
0.0
  3
*D12
  1

  0
LINE
  5
4CF
100
AcDbEntity
  8
寸法
370
              -2
390
0
  6
Continuous
 62
               0
100
AcDbLine
 10
18970.0
 20
1923.3132994458731
 30
0.0
 11
18970.0
 21
1735.0
 31
0.0
  0
LINE
  5
4D0
100
AcDbEntity
  8
寸法
370
              -2
390
0
  6
Continuous
 62
               0
100
AcDbLine
 10
19550.0
 20
1923.3132994458713
 30
0.0
 11
19550.0
 21
1735.0
 31
0.0
  0
LINE
  5
4D1
100
AcDbEntity
  8
寸法
370
              -2
390
0
  6
Continuous
 62
               0
100
AcDbLine
 10
18970.0
 20
1775.0
 30
0.0
 11
19550.0
 21
1775.0
 31
0.0
  0
POLYLINE
  5
4D2
100
AcDbEntity
  8
0
370
              -2
390
0
  6
Continuous
 62
               0
100
AcDb2dPolyline
 66
               1
 10
0.0
 20
0.0
 30
0.0
 75
               5
  0
VERTEX
  5
4D3
100
AcDbEntity
  8
0
370
              -2
390
0
  6
Continuous
 62
               0
100
AcDbVertex
100
AcDb2dVertex
 10
19020.012451171875
 20
1761.5992040969952
 30
0.0
  0
VERTEX
  5
4D4
100
AcDbEntity
  8
0
370
              -2
390
0
  6
Continuous
 62
               0
100
AcDbVertex
100
AcDb2dVertex
 10
18970.0
 20
1775.0
 30
0.0
  0
VERTEX
  5
4D5
100
AcDbEntity
  8
0
370
              -2
390
0
  6
Continuous
 62
               0
100
AcDbVertex
100
AcDb2dVertex
 10
19020.012451171875
 20
1788.4007959030048
 30
0.0
  0
SEQEND
  5
4D6
100
AcDbEntity
  8
0
370
              -2
390
0
  6
Continuous
 62
               0
  0
POLYLINE
  5
4D7
100
AcDbEntity
  8
0
370
              -2
390
0
  6
Continuous
 62
               0
100
AcDb2dPolyline
 66
               1
 10
0.0
 20
0.0
 30
0.0
 75
               5
  0
VERTEX
  5
4D8
100
AcDbEntity
  8
0
370
              -2
390
0
  6
Continuous
 62
               0
100
AcDbVertex
100
AcDb2dVertex
 10
19499.987548828125
 20
1788.4007959030048
 30
0.0
  0
VERTEX
  5
4D9
100
AcDbEntity
  8
0
370
              -2
390
0
  6
Continuous
 62
               0
100
AcDbVertex
100
AcDb2dVertex
 10
19550.0
 20
1775.0
 30
0.0
  0
VERTEX
  5
4DA
100
AcDbEntity
  8
0
370
              -2
390
0
  6
Continuous
 62
               0
100
AcDbVertex
100
AcDb2dVertex
 10
19499.987548828125
 20
1761.5992040969952
 30
0.0
  0
SEQEND
  5
4DB
100
AcDbEntity
  8
0
370
              -2
390
0
  6
Continuous
 62
               0
  0
WIPEOUT
  5
4DC
100
AcDbEntity
  8
寸法
370
              -2
390
0
  6
Continuous
 62
               0
 92
        0
100
AcDbWipeout
 90
        0
 10
19185.916666666668
 20
19061.969990224818
 30
0.0
 11
148.16666666666669
 21
0.0
 31
0.0
 12
0.0
 22
148.16666666666669
 32
0.0
 13
1.0
 23
1.0
340
0
 70
               7
280
               1
281
              50
282
              50
283
               0
360
0
 71
               2
 91
        5
 14
-0.5
 24
117.10497181254094
 14
0.4999999999999835
 24
117.10497181254094
 14
0.4999999999999835
 24
116.43830514587425
 14
-0.5
 24
116.43830514587425
 14
-0.5
 24
117.10497181254094
  0
MTEXT
  5
4DD
100
AcDbEntity
  8
寸法
390
0
 62
               0
100
AcDbMText
 10
19185.916666666668
 20
1874.8414756944458
 30
0.0
 40
76.012586805556552
 41
0.0
 71
               1
 72
               1
  1
{\fＭＳ ゴシック|b0|i0|c128|p0;\l580}
 73
               1
 44
0.7828267384257843
  0
POINT
  5
4DE
100
AcDbEntity
  8
Defpoints
370
               0
390
0
 62
               0
100
AcDbPoint
 10
19550.0
 20
1963.3132994458713
 30
0.0
  0
POINT
  5
4DF
100
AcDbEntity
  8
Defpoints
370
               0
390
0
 62
               0
100
AcDbPoint
 10
18970.0
 20
1963.3132994458731
 30
0.0
  0
POINT
  5
4E0
100
AcDbEntity
  8
Defpoints
370
               0
390
0
 62
               0
100
AcDbPoint
 10
18970.0
 20
1775.0
 30
0.0
  0
ENDBLK
  5
4E1
100
AcDbEntity
  8
寸法
390
0
100
AcDbBlockEnd
  0
BLOCK
  5
4E2
100
AcDbEntity
  8
寸法
390
0
100
AcDbBlockBegin
  2
*D13
 70
               1
 10
0.0
 20
0.0
 30
0.0
  3
*D13
  1

  0
LINE
  5
4E3
100
AcDbEntity
  8
寸法
370
              -2
390
0
  6
Continuous
 62
               0
100
AcDbLine
 10
18930.0
 20
2305.3132994458783
 30
0.0
 11
18760.0
 21
2305.3132994458783
 31
0.0
  0
LINE
  5
4E4
100
AcDbEntity
  8
寸法
370
              -2
390
0
  6
Continuous
 62
               0
100
AcDbLine
 10
18930.0
 20
1963.3132994458731
 30
0.0
 11
18760.0
 21
1963.3132994458731
 31
0.0
  0
LINE
  5
4E5
100
AcDbEntity
  8
寸法
370
              -2
390
0
  6
Continuous
 62
               0
100
AcDbLine
 10
18800.0
 20
2305.3132994458783
 30
0.0
 11
18800.0
 21
1963.3132994458731
 31
0.0
  0
POLYLINE
  5
4E6
100
AcDbEntity
  8
0
370
              -2
390
0
  6
Continuous
 62
               0
100
AcDb2dPolyline
 66
               1
 10
0.0
 20
0.0
 30
0.0
 75
               5
  0
VERTEX
  5
4E7
100
AcDbEntity
  8
0
370
              -2
390
0
  6
Continuous
 62
               0
100
AcDbVertex
100
AcDb2dVertex
 10
18786.599204096994
 20
2255.3008482740033
 30
0.0
  0
VERTEX
  5
4E8
100
AcDbEntity
  8
0
370
              -2
390
0
  6
Continuous
 62
               0
100
AcDbVertex
100
AcDb2dVertex
 10
18800.0
 20
2305.3132994458783
 30
0.0
  0
VERTEX
  5
4E9
100
AcDbEntity
  8
0
370
              -2
390
0
  6
Continuous
 62
               0
100
AcDbVertex
100
AcDb2dVertex
 10
18813.400795903006
 20
2255.3008482740033
 30
0.0
  0
SEQEND
  5
4EA
100
AcDbEntity
  8
0
370
              -2
390
0
  6
Continuous
 62
               0
  0
POLYLINE
  5
4EB
100
AcDbEntity
  8
0
370
              -2
390
0
  6
Continuous
 62
               0
100
AcDb2dPolyline
 66
               1
 10
0.0
 20
0.0
 30
0.0
 75
               5
  0
VERTEX
  5
4EC
100
AcDbEntity
  8
0
370
              -2
390
0
  6
Continuous
 62
               0
100
AcDbVertex
100
AcDb2dVertex
 10
18813.400795903006
 20
2013.3257506177481
 30
0.0
  0
VERTEX
  5
4ED
100
AcDbEntity
  8
0
370
              -2
390
0
  6
Continuous
 62
               0
100
AcDbVertex
100
AcDb2dVertex
 10
18800.0
 20
1963.3132994458731
 30
0.0
  0
VERTEX
  5
4EE
100
AcDbEntity
  8
0
370
              -2
390
0
  6
Continuous
 62
               0
100
AcDbVertex
100
AcDb2dVertex
 10
18786.599204096994
 20
2013.3257506177481
 30
0.0
  0
SEQEND
  5
4EF
100
AcDbEntity
  8
0
370
              -2
390
0
  6
Continuous
 62
               0
  0
WIPEOUT
  5
4F0
100
AcDbEntity
  8
寸法
370
              -2
390
0
  6
Continuous
 62
               0
 92
        0
100
AcDbWipeout
 90
        0
 10
18691.222222222223
 20
19337.199956337357
 30
0.0
 11
148.16666666666669
 21
0.0
 31
0.0
 12
0.0
 22
148.16666666666669
 32
0.0
 13
1.0
 23
1.0
340
0
 70
               7
280
               1
281
              50
282
              50
283
               0
360
0
 71
               2
 91
        5
 14
0.1666666666666639
 24
117.10497181254091
 14
0.1666666666666639
 24
116.10497181254092
 14
-0.5
 24
116.10497181254092
 14
-0.5
 24
117.10497181254091
 14
0.1666666666666639
 24
117.10497181254091
  0
MTEXT
  5
4F1
100
AcDbEntity
  8
寸法
390
0
 62
               0
100
AcDbMText
 10
18700.158524305556
 20
2060.2299661125426
 30
0.0
 40
76.012586805556552
 41
0.0
 71
               1
 72
               1
  1
{\fＭＳ ゴシック|b0|i0|c128|p0;\l342}
 11
0.0
 21
1.0
 31
0.0
 73
               1
 44
0.7828267384257843
  0
POINT
  5
4F2
100
AcDbEntity
  8
Defpoints
370
               0
390
0
 62
               0
100
AcDbPoint
 10
18970.0
 20
1963.3132994458731
 30
0.0
  0
POINT
  5
4F3
100
AcDbEntity
  8
Defpoints
370
               0
390
0
 62
               0
100
AcDbPoint
 10
18970.0
 20
2305.3132994458783
 30
0.0
  0
POINT
  5
4F4
100
AcDbEntity
  8
Defpoints
370
               0
390
0
 62
               0
100
AcDbPoint
 10
18800.0
 20
2305.3132994458783
 30
0.0
  0
ENDBLK
  5
4F5
100
AcDbEntity
  8
寸法
390
0
100
AcDbBlockEnd
  0
BLOCK
  5
4F6
100
AcDbEntity
  8
0
390
0
100
AcDbBlockBegin
  2
Callout
 70
               2
 10
0.0
 20
0.0
 30
0.0
  3
Callout
  1

  0
MTEXT
  5
4F7
100
AcDbEntity
  8
0
390
0
 62
               1
100
AcDbMText
 10
-89.118548444575779
 20
96.568444080571709
 30
0.0
 40
54.294704861111114
 41
494.14288888888888
 71
               1
 72
               1
  1
{\fＭＳ ゴシック|b0|i0|c128|p0;\lM6吊りポイント}
 11
-0.5000000000000001
 21
0.8660254037844386
 31
0.0
 73
               1
 44
0.7828267384257843
  0
LINE
  5
4F8
100
AcDbEntity
  8
0
370
               0
390
0
  6
Continuous
 62
               1
100
AcDbLine
 10
-63.499999999999972
 20
109.98522628062372
 30
0.0
 11
0.0
 21
0.0
 31
0.0
  0
LINE
  5
4F9
100
AcDbEntity
  8
0
370
               0
390
0
  6
Continuous
 62
               1
100
AcDbLine
 10
0.0
 20
0.0
 30
0.0
 11
379.02460060674684
 21
0.0
 31
0.0
  0
POLYLINE
  5
4FA
100
AcDbEntity
  8
0
370
               0
390
0
  6
Continuous
 62
               1
100
AcDb2dPolyline
 66
               1
 10
0.0
 20
0.0
 30
0.0
 75
               5
  0
VERTEX
  5
4FB
100
AcDbEntity
  8
0
370
               0
390
0
  6
Continuous
 62
               1
100
AcDbVertex
100
AcDb2dVertex
 10
315.52460060674684
 20
17.014773719376294
 30
0.0
  0
VERTEX
  5
4FC
100
AcDbEntity
  8
0
370
               0
390
0
  6
Continuous
 62
               1
100
AcDbVertex
100
AcDb2dVertex
 10
379.02460060674684
 20
0.0
 30
0.0
  0
VERTEX
  5
4FD
100
AcDbEntity
  8
0
370
               0
390
0
  6
Continuous
 62
               1
100
AcDbVertex
100
AcDb2dVertex
 10
315.52460060674684
 20
-17.014773719376308
 30
0.0
  0
SEQEND
  5
4FE
100
AcDbEntity
  8
0
370
               0
390
0
  6
Continuous
 62
               1
  0
ENDBLK
  5
4FF
100
AcDbEntity
  8
0
390
0
100
AcDbBlockEnd
  0
ENDSEC
  0
SECTION
  2
ENTITIES
  0
LINE
  5
500
100
AcDbEntity
  8
HIBINO-BASE
370
               0
390
0
  6
Continuous
 62
               2
100
AcDbLine
 10
17591.351343236769
 20
4789.2033083051047
 30
0.0
 11
21191.351343236769
 21
4789.2033083051047
 31
0.0
  0
LINE
  5
501
100
AcDbEntity
  8
HIBINO-BASE
370
               0
390
0
  6
Continuous
 62
               2
100
AcDbLine
 10
21191.351343236769
 20
-410.79669169489443
 30
0.0
 11
17591.351343236769
 21
-410.79669169489443
 31
0.0
  0
LINE
  5
502
100
AcDbEntity
  8
HIBINO-BASE
370
               0
390
0
  6
Continuous
 62
               2
100
AcDbLine
 10
17591.351343236769
 20
-410.79669169489443
 30
0.0
 11
17591.351343236769
 21
4789.2033083051047
 31
0.0
  0
LINE
  5
503
100
AcDbEntity
  8
HIBINO-BASE
370
               0
390
0
  6
Continuous
 62
               2
100
AcDbLine
 10
21191.351343236769
 20
4789.2033083051047
 30
0.0
 11
21191.351343236769
 21
-410.79669169489443
 31
0.0
  0
LINE
  5
504
100
AcDbEntity
  8
HIBINO-BASE
370
               0
390
0
  6
Continuous
 62
               2
100
AcDbLine
 10
19391.351343236769
 20
39.203308305105566
 30
0.0
 11
21191.351343236769
 21
39.203308305105566
 31
0.0
  0
LINE
  5
505
100
AcDbEntity
  8
HIBINO-BASE
370
               0
390
0
  6
Continuous
 62
               2
100
AcDbLine
 10
19391.351343236769
 20
-410.79669169489443
 30
0.0
 11
19391.351343236769
 21
39.203308305105566
 31
0.0
  0
MTEXT
  5
506
100
AcDbEntity
  8
HIBINO-BASE
390
0
 62
               2
100
AcDbMText
 10
19409.351343236769
 20
17.776420805105772
 30
0.0
 40
32.576822916666657
 41
0.0
 71
               1
 72
               1
  1
{\fＭＳ ゴシック|b0|i0|c128|p0;\lNOTE}
 73
               1
 44
0.7828267384257843
  0
LINE
  5
507
100
AcDbEntity
  8
HIBINO-BASE
370
               0
390
0
  6
Continuous
 62
               2
100
AcDbLine
 10
20091.351343236769
 20
-410.79669169489443
 30
0.0
 11
20091.351343236769
 21
39.203308305105566
 31
0.0
  0
MTEXT
  5
508
100
AcDbEntity
  8
HIBINO-BASE
390
0
 62
               2
100
AcDbMText
 10
20109.351343236769
 20
17.776420805105772
 30
0.0
 40
32.576822916666657
 41
0.0
 71
               1
 72
               1
  1
{\fＭＳ ゴシック|b0|i0|c128|p0;\lTITLE}
 73
               1
 44
0.7828267384257843
  0
LINE
  5
509
100
AcDbEntity
  8
HIBINO-BASE
370
               0
390
0
  6
Continuous
 62
               2
100
AcDbLine
 10
19391.351343236769
 20
-210.79669169489443
 30
0.0
 11
21191.351343236769
 21
-210.79669169489443
 31
0.0
  0
MTEXT
  5
50A
100
AcDbEntity
  8
HIBINO-BASE
390
0
 62
               2
100
AcDbMText
 10
20359.351343236769
 20
-231.09717919489322
 30
0.0
 40
32.576822916666657
 41
0.0
 71
               1
 72
               1
  1
{\fＭＳ ゴシック|b0|i0|c128|p0;\lDRAWN}
 73
               1
 44
0.7828267384257843
  0
MTEXT
  5
50B
100
AcDbEntity
  8
HIBINO-BASE
390
0
 62
               2
100
AcDbMText
 10
19859.351343236769
 20
-231.09717919489322
 30
0.0
 40
32.576822916666657
 41
0.0
 71
               1
 72
               1
  1
{\fＭＳ ゴシック|b0|i0|c128|p0;\lDATE}
 73
               1
 44
0.7828267384257843
  0
MTEXT
  5
50C
100
AcDbEntity
  8
HIBINO-BASE
390
0
 62
               2
100
AcDbMText
 10
19659.351343236769
 20
-231.09717919489322
 30
0.0
 40
32.576822916666657
 41
0.0
 71
               1
 72
               1
  1
{\fＭＳ ゴシック|b0|i0|c128|p0;\lSCALE}
 73
               1
 44
0.7828267384257843
  0
MTEXT
  5
50D
100
AcDbEntity
  8
HIBINO-BASE
390
0
 62
               2
100
AcDbMText
 10
20109.351343236769
 20
-231.09717919489322
 30
0.0
 40
32.576822916666657
 41
0.0
 71
               1
 72
               1
  1
{\fＭＳ ゴシック|b0|i0|c128|p0;\lDESIGN}
 73
               1
 44
0.7828267384257843
  0
MTEXT
  5
50E
100
AcDbEntity
  8
HIBINO-BASE
390
0
 62
               2
100
AcDbMText
 10
20859.351343236769
 20
-231.09717919489322
 30
0.0
 40
32.576822916666657
 41
0.0
 71
               1
 72
               1
  1
{\fＭＳ ゴシック|b0|i0|c128|p0;\lDRAWING NO.}
 73
               1
 44
0.7828267384257843
  0
MTEXT
  5
50F
100
AcDbEntity
  8
HIBINO-BASE
390
0
 62
               2
100
AcDbMText
 10
20609.351343236769
 20
-231.09717919489322
 30
0.0
 40
32.576822916666657
 41
0.0
 71
               1
 72
               1
  1
{\fＭＳ ゴシック|b0|i0|c128|p0;\lCHECK}
 73
               1
 44
0.7828267384257843
  0
LINE
  5
510
100
AcDbEntity
  8
HIBINO-BASE
370
               0
390
0
  6
Continuous
 62
               2
100
AcDbLine
 10
19678.851343236769
 20
-385.79669169489443
 30
0.0
 11
19753.851343236769
 21
-310.79669169489443
 31
0.0
  0
MTEXT
  5
511
100
AcDbEntity
  8
HIBINO-BASE
390
0
 62
               2
100
AcDbMText
 10
19686.351343236769
 20
-304.22857919489434
 30
0.0
 40
32.576822916666657
 41
0.0
 71
               1
 72
               1
  1
{\fＭＳ ゴシック|b0|i0|c128|p0;\l1}
 73
               1
 44
0.7828267384257843
  0
LINE
  5
512
100
AcDbEntity
  8
HIBINO-BASE
370
               0
390
0
  6
Continuous
 62
               2
100
AcDbLine
 10
19641.351343236769
 20
-410.79669169489443
 30
0.0
 11
19641.351343236769
 21
-210.79669169489443
 31
0.0
  0
LINE
  5
513
100
AcDbEntity
  8
HIBINO-BASE
370
               0
390
0
  6
Continuous
 62
               2
100
AcDbLine
 10
19841.351343236769
 20
-410.79669169489443
 30
0.0
 11
19841.351343236769
 21
-210.79669169489443
 31
0.0
  0
LINE
  5
514
100
AcDbEntity
  8
HIBINO-BASE
370
               0
390
0
  6
Continuous
 62
               2
100
AcDbLine
 10
20341.351343236769
 20
-210.79669169489443
 30
0.0
 11
20341.351343236769
 21
-410.79669169489443
 31
0.0
  0
LINE
  5
515
100
AcDbEntity
  8
HIBINO-BASE
370
               0
390
0
  6
Continuous
 62
               2
100
AcDbLine
 10
20841.351343236769
 20
-210.79669169489443
 30
0.0
 11
20841.351343236769
 21
-410.79669169489443
 31
0.0
  0
LINE
  5
516
100
AcDbEntity
  8
HIBINO-BASE
370
               0
390
0
  6
Continuous
 62
               2
100
AcDbLine
 10
20591.351343236769
 20
-410.79669169489443
 30
0.0
 11
20591.351343236769
 21
-210.79669169489443
 31
0.0
  0
MTEXT
  5
517
100
AcDbEntity
  8
HIBINO-BASE
390
0
 62
               2
100
AcDbMText
 10
19878.482143236768
 20
-324.77677919489452
 30
0.0
 40
32.576822916666657
 41
0.0
 71
               1
 72
               1
  1
{\fＭＳ ゴシック|b0|i0|c128|p0;\l2020.5}
 73
               1
 44
0.7828267384257843
  0
MTEXT
  5
518
100
AcDbEntity
  8
HIBINO-BASE
390
0
 62
               2
100
AcDbMText
 10
19741.351343236769
 20
-341.72857919489434
 30
0.0
 40
32.576822916666657
 41
0.0
 71
               1
 72
               1
  1
{\fＭＳ ゴシック|b0|i0|c128|p0;\l20}
 73
               1
 44
0.7828267384257843
  0
MTEXT
  5
519
100
AcDbEntity
  8
HIBINO-BASE
390
0
 62
               2
100
AcDbMText
 10
19469.018009903437
 20
-313.7827333615619
 30
0.0
 40
65.153645833333329
 41
0.0
 71
               1
 72
               1
  1
{\fＭＳ ゴシック|b0|i0|c128|p0;\lA4}
 73
               1
 44
0.7828267384257843
  0
MTEXT
  5
51A
100
AcDbEntity
  8
HIBINO-BASE
390
0
 62
               2
100
AcDbMText
 10
19410.518009903437
 20
-234.43881252822757
 30
0.0
 40
32.576822916666657
 41
0.0
 71
               1
 72
               1
  1
{\fＭＳ ゴシック|b0|i0|c128|p0;\lPAPER SIZE}
 73
               1
 44
0.7828267384257843
  0
MTEXT
  5
51B
100
AcDbEntity
  8
HIBINO-BASE
390
0
 62
               2
100
AcDbMText
 10
17646.544048374573
 20
-477.01637485064202
 30
0.0
 40
70.583116319444443
 41
0.0
 71
               1
 72
               1
  1
{\fＭＳ ゴシック|b0|i0|c128|p0;\lHibino-Intersound Corporation}
 73
               1
 44
0.7828267384257843
  0
MTEXT
  5
51C
100
AcDbEntity
  8
HIBINO-BASE
390
0
 62
               2
100
AcDbMText
 10
19794.963536841045
 20
-469.99460978485331
 30
0.0
 40
70.583116319444443
 41
0.0
 71
               1
 72
               1
  1
{\fＭＳ ゴシック|b0|i0|c128|p0;\lヒビノインタ ーサウンド株式会社}
 73
               1
 44
0.7828267384257843
  0
LINE
  5
51D
100
AcDbEntity
  8
SPEC
370
               0
390
0
  6
Continuous
 62
               2
100
AcDbLine
 10
17741.351343236769
 20
4549.2033083051056
 30
0.0
 11
20991.351343236769
 21
4549.2033083051056
 31
0.0
  0
LINE
  5
51E
100
AcDbEntity
  8
SPEC
370
               0
390
0
  6
Continuous
 62
               2
100
AcDbLine
 10
17741.351343236769
 20
4474.2033083051056
 30
0.0
 11
20991.351343236769
 21
4474.2033083051056
 31
0.0
  0
LINE
  5
51F
100
AcDbEntity
  8
SPEC
370
               0
390
0
  6
Continuous
 62
               2
100
AcDbLine
 10
17741.351343236769
 20
4324.2033083051056
 30
0.0
 11
20991.351343236769
 21
4324.2033083051056
 31
0.0
  0
LINE
  5
520
100
AcDbEntity
  8
SPEC
370
               0
390
0
  6
Continuous
 62
               2
100
AcDbLine
 10
17741.351343236769
 20
4399.2033083051056
 30
0.0
 11
20991.351343236769
 21
4399.2033083051056
 31
0.0
  0
LINE
  5
521
100
AcDbEntity
  8
SPEC
370
               0
390
0
  6
Continuous
 62
               2
100
AcDbLine
 10
17741.351343236769
 20
4549.2033083051056
 30
0.0
 11
17741.351343236769
 21
3649.2033083051056
 31
0.0
  0
MTEXT
  5
522
100
AcDbEntity
  8
SPEC
390
0
 62
               2
100
AcDbMText
 10
17766.351343236769
 20
4660.1891770551047
 30
0.0
 40
48.865234375000007
 41
0.0
 71
               1
 72
               1
  1
{\fＭＳ ゴシック|b0|i0|c128|p0;\l仕様}
 73
               1
 44
0.7828267384257845
  0
LINE
  5
523
100
AcDbEntity
  8
SPEC
370
               0
390
0
  6
Continuous
 62
               2
100
AcDbLine
 10
18391.351343236769
 20
4549.2033083051056
 30
0.0
 11
18391.351343236769
 21
3649.2033083051056
 31
0.0
  0
LINE
  5
524
100
AcDbEntity
  8
SPEC
370
               0
390
0
  6
Continuous
 62
               2
100
AcDbLine
 10
20991.351343236769
 20
4549.2033083051056
 30
0.0
 11
20991.351343236769
 21
3649.2033083051056
 31
0.0
  0
LINE
  5
525
100
AcDbEntity
  8
SPEC
370
               0
390
0
  6
Continuous
 62
               2
100
AcDbLine
 10
17741.351343236769
 20
4249.2033083051056
 30
0.0
 11
20991.351343236769
 21
4249.2033083051056
 31
0.0
  0
LINE
  5
526
100
AcDbEntity
  8
SPEC
370
               0
390
0
  6
Continuous
 62
               2
100
AcDbLine
 10
17741.351343236769
 20
4174.2033083051056
 30
0.0
 11
20991.351343236769
 21
4174.2033083051056
 31
0.0
  0
LINE
  5
527
100
AcDbEntity
  8
SPEC
370
               0
390
0
  6
Continuous
 62
               2
100
AcDbLine
 10
17741.351343236769
 20
4099.2033083051056
 30
0.0
 11
20991.351343236769
 21
4099.2033083051056
 31
0.0
  0
LINE
  5
528
100
AcDbEntity
  8
SPEC
370
               0
390
0
  6
Continuous
 62
               2
100
AcDbLine
 10
17741.351343236769
 20
4024.2033083051056
 30
0.0
 11
20991.351343236769
 21
4024.2033083051056
 31
0.0
  0
LINE
  5
529
100
AcDbEntity
  8
SPEC
370
               0
390
0
  6
Continuous
 62
               2
100
AcDbLine
 10
17741.351343236769
 20
3949.2033083051056
 30
0.0
 11
20991.351343236769
 21
3949.2033083051056
 31
0.0
  0
LINE
  5
52A
100
AcDbEntity
  8
SPEC
370
               0
390
0
  6
Continuous
 62
               2
100
AcDbLine
 10
17741.351343236769
 20
3874.2033083051056
 30
0.0
 11
20991.351343236769
 21
3874.2033083051056
 31
0.0
  0
LINE
  5
52B
100
AcDbEntity
  8
SPEC
370
               0
390
0
  6
Continuous
 62
               2
100
AcDbLine
 10
17741.351343236769
 20
3799.2033083051056
 30
0.0
 11
20991.351343236769
 21
3799.2033083051056
 31
0.0
  0
LINE
  5
52C
100
AcDbEntity
  8
SPEC
370
               0
390
0
  6
Continuous
 62
               2
100
AcDbLine
 10
17741.351343236769
 20
3724.2033083051056
 30
0.0
 11
20991.351343236769
 21
3724.2033083051056
 31
0.0
  0
MTEXT
  5
52D
100
AcDbEntity
  8
SPEC
390
0
 62
               2
100
AcDbMText
 10
17756.714874362824
 20
3924.1942577075215
 30
0.0
 40
38.006293402777793
 41
0.0
 71
               1
 72
               1
  1
{\fＭＳ ゴシック|b0|i0|c128|p0;\lエンクロージャー}
 73
               1
 44
0.7828267384257843
  0
MTEXT
  5
52E
100
AcDbEntity
  8
SPEC
390
0
 62
               2
100
AcDbMText
 10
18429.713835304246
 20
3774.5545943717816
 30
0.0
 40
38.006293402777793
 41
0.0
 71
               1
 72
               1
  1
{\fＭＳ ゴシック|b0|i0|c128|p0;\l580(W)×342(H)×350(D)mm}
 73
               1
 44
0.7828267384257843
  0
MTEXT
  5
52F
100
AcDbEntity
  8
SPEC
390
0
 62
               2
100
AcDbMText
 10
18429.770041019267
 20
3850.7859245663685
 30
0.0
 40
38.006293402777793
 41
0.0
 71
               1
 72
               1
  1
{\fＭＳ ゴシック|b0|i0|c128|p0;\lポリウレア樹脂塗装（防水性）標準：黒}
 73
               1
 44
0.7828267384257843
  0
MTEXT
  5
530
100
AcDbEntity
  8
SPEC
390
0
 62
               2
100
AcDbMText
 10
17759.236448127744
 20
3851.7499613592463
 30
0.0
 40
38.006293402777793
 41
0.0
 71
               1
 72
               1
  1
{\fＭＳ ゴシック|b0|i0|c128|p0;\l仕上げ}
 73
               1
 44
0.7828267384257843
  0
MTEXT
  5
531
100
AcDbEntity
  8
SPEC
390
0
 62
               2
100
AcDbMText
 10
17759.376444721205
 20
4001.5022375045405
 30
0.0
 40
38.006293402777793
 41
0.0
 71
               1
 72
               1
  1
{\fＭＳ ゴシック|b0|i0|c128|p0;\l入力コネクタ ー}
 73
               1
 44
0.7828267384257843
  0
MTEXT
  5
532
100
AcDbEntity
  8
SPEC
390
0
 62
               2
100
AcDbMText
 10
17757.970926246737
 20
4075.0232436569586
 30
0.0
 40
38.006293402777793
 41
0.0
 71
               1
 72
               1
  1
{\fＭＳ ゴシック|b0|i0|c128|p0;\l公称インピーダンス}
 73
               1
 44
0.7828267384257843
  0
MTEXT
  5
533
100
AcDbEntity
  8
SPEC
390
0
 62
               2
100
AcDbMText
 10
18429.725634289975
 20
4075.652118621465
 30
0.0
 40
38.006293402777786
 41
0.0
 71
               1
 72
               1
  1
{\fＭＳ ゴシック|b0|i0|c128|p0;\l4Ω（±1）}
 73
               1
 44
0.7828267384257845
  0
MTEXT
  5
534
100
AcDbEntity
  8
SPEC
390
0
 62
               2
100
AcDbMText
 10
17757.9488863769
 20
4524.8935158509748
 30
0.0
 40
38.006293402777793
 41
0.0
 71
               1
 72
               1
  1
{\fＭＳ ゴシック|b0|i0|c128|p0;\l形式}
 73
               1
 44
0.7828267384257843
  0
MTEXT
  5
535
100
AcDbEntity
  8
SPEC
390
0
 62
               2
100
AcDbMText
 10
17759.083509998254
 20
4450.9353573299368
 30
0.0
 40
38.006293402777793
 41
0.0
 71
               1
 72
               1
  1
{\fＭＳ ゴシック|b0|i0|c128|p0;\l周波数特性}
 73
               1
 44
0.7828267384257843
  0
MTEXT
  5
536
100
AcDbEntity
  8
SPEC
390
0
 62
               2
100
AcDbMText
 10
17758.35568690436
 20
4376.4387216925597
 30
0.0
 40
38.006293402777793
 41
0.0
 71
               1
 72
               1
  1
{\fＭＳ ゴシック|b0|i0|c128|p0;\l許容入力(AES/ピーク）}
 73
               1
 44
0.7828267384257843
  0
MTEXT
  5
537
100
AcDbEntity
  8
SPEC
390
0
 62
               2
100
AcDbMText
 10
17758.642128568692
 20
4301.0168763542933
 30
0.0
 40
38.006293402777793
 41
0.0
 71
               1
 72
               1
  1
{\fＭＳ ゴシック|b0|i0|c128|p0;\l感度(1W/1m)}
 73
               1
 44
0.7828267384257843
  0
MTEXT
  5
538
100
AcDbEntity
  8
SPEC
390
0
 62
               2
100
AcDbMText
 10
17759.85449296044
 20
4225.3946157954479
 30
0.0
 40
38.006293402777793
 41
0.0
 71
               1
 72
               1
  1
{\fＭＳ ゴシック|b0|i0|c128|p0;\l最大音圧レベル}
 73
               1
 44
0.7828267384257843
  0
MTEXT
  5
539
100
AcDbEntity
  8
SPEC
390
0
 62
               2
100
AcDbMText
 10
17743.865051010845
 20
4150.9429176469102
 30
0.0
 40
38.006293402777793
 41
0.0
 71
               1
 72
               1
  1
{\fＭＳ ゴシック|b0|i0|c128|p0;\lドライバー構成}
 73
               1
 44
0.7828267384257843
  0
MTEXT
  5
53A
100
AcDbEntity
  8
SPEC
390
0
 62
               2
100
AcDbMText
 10
17757.732934178493
 20
3777.5478394822435
 30
0.0
 40
38.006293402777793
 41
0.0
 71
               1
 72
               1
  1
{\fＭＳ ゴシック|b0|i0|c128|p0;\l寸法}
 73
               1
 44
0.7828267384257843
  0
MTEXT
  5
53B
100
AcDbEntity
  8
SPEC
390
0
 62
               2
100
AcDbMText
 10
18428.805953597537
 20
3702.9725479941499
 30
0.0
 40
38.006293402777793
 41
0.0
 71
               1
 72
               1
  1
{\fＭＳ ゴシック|b0|i0|c128|p0;\l約17kg}
 73
               1
 44
0.7828267384257843
  0
MTEXT
  5
53C
100
AcDbEntity
  8
SPEC
390
0
 62
               2
100
AcDbMText
 10
17757.8382619943
 20
3702.8252148851798
 30
0.0
 40
38.006293402777793
 41
0.0
 71
               1
 72
               1
  1
{\fＭＳ ゴシック|b0|i0|c128|p0;\l重量}
 73
               1
 44
0.7828267384257843
  0
MTEXT
  5
53D
100
AcDbEntity
  8
SPEC
390
0
 62
               2
100
AcDbMText
 10
18431.747954666596
 20
4448.9194505522555
 30
0.0
 40
38.006293402777793
 41
0.0
 71
               1
 72
               1
  1
{\fＭＳ ゴシック|b0|i0|c128|p0;\l38Hz～150KHz(-6dB)}
 73
               1
 44
0.7828267384257843
  0
MTEXT
  5
53E
100
AcDbEntity
  8
SPEC
390
0
 62
               2
100
AcDbMText
 10
18426.688794077203
 20
4375.3298363202139
 30
0.0
 40
38.006293402777786
 41
0.0
 71
               1
 72
               1
  1
{\fＭＳ ゴシック|b0|i0|c128|p0;\l800W/3200W}
 73
               1
 44
0.7828267384257845
  0
MTEXT
  5
53F
100
AcDbEntity
  8
SPEC
390
0
 62
               2
100
AcDbMText
 10
18429.335048288925
 20
4299.7220882942447
 30
0.0
 40
38.006293402777786
 41
0.0
 71
               1
 72
               1
  1
{\fＭＳ ゴシック|b0|i0|c128|p0;\l95dB (ハーフスペース）}
 73
               1
 44
0.7828267384257845
  0
MTEXT
  5
540
100
AcDbEntity
  8
SPEC
390
0
 62
               2
100
AcDbMText
 10
18429.725634289975
 20
4152.0389875183946
 30
0.0
 40
38.006293402777786
 41
2581.625708946794
 71
               1
 72
               1
  1
{\fＭＳ ゴシック|b0|i0|c128|p0;\l12インチネオジウム低歪率ウーファーユニット　3インチ（77mm）ボイスコイル　800W（AES）}
 73
               1
 44
0.7828267384257845
  0
MTEXT
  5
541
100
AcDbEntity
  8
SPEC
390
0
 62
               2
100
AcDbMText
 10
18428.471094197361
 20
3928.0643207383887
 30
0.0
 40
38.006293402777793
 41
0.0
 71
               1
 72
               1
  1
{\fＭＳ ゴシック|b0|i0|c128|p0;\l合板}
 73
               1
 44
0.7828267384257843
  0
MTEXT
  5
542
100
AcDbEntity
  8
SPEC
390
0
 62
               2
100
AcDbMText
 10
18435.096277439068
 20
4525.1176338719497
 30
0.0
 40
38.006293402777786
 41
0.0
 71
               1
 72
               1
  1
{\fＭＳ ゴシック|b0|i0|c128|p0;\l12インチ設備用サブウーファー　スピーカー}
 73
               1
 44
0.7828267384257845
  0
LINE
  5
543
100
AcDbEntity
  8
SPEC
370
               0
390
0
  6
Continuous
 62
               2
100
AcDbLine
 10
17741.351343236769
 20
3649.2033083051056
 30
0.0
 11
20991.351343236769
 21
3649.2033083051056
 31
0.0
  0
MTEXT
  5
544
100
AcDbEntity
  8
DIMNSIONS
390
0
 62
               2
100
AcDbMText
 10
18168.682726231418
 20
857.7552343750001
 30
0.0
 40
48.865234375000007
 41
0.0
 71
               1
 72
               1
  1
{\fＭＳ ゴシック|b0|i0|c128|p0;\l(単位：mm)}
 73
               1
 44
0.7828267384257845
  0
MTEXT
  5
545
100
AcDbEntity
  8
DATA
390
0
 62
               2
100
AcDbMText
 10
17791.351343236769
 20
-297.28971252822703
 30
0.0
 40
32.576822916666657
 41
0.0
 71
               1
 72
               1
  1
{\fＭＳ ゴシック|b0|i0|c128|p0;\l仕様および外観は予告なく変更されることがありますので、ご了承ください。}
 73
               1
 44
0.7828267384257843
  0
MTEXT
  5
546
100
AcDbEntity
  8
DATA
390
0
 62
               2
100
AcDbMText
 10
20498.125942661038
 20
-129.02013732364003
 30
0.0
 40
48.865234375000007
 41
0.0
 71
               1
 72
               1
  1
{\fＭＳ ゴシック|b0|i0|c128|p0;\lU12i}
 73
               1
 44
0.7828267384257845
  0
MTEXT
  5
547
100
AcDbEntity
  8
DATA
390
0
 62
               2
100
AcDbMText
 10
20420.096488223651
 20
9.2928840901699914
 30
0.0
 40
48.865234375000007
 41
446.254855013118
 71
               1
 72
               1
  1
{\fＭＳ ゴシック|b0|i0|c128|p0;\lCODA AUDIO}
 73
               1
 44
0.7828267384257845
  0
MTEXT
  5
548
100
AcDbEntity
  8
HIBINO-BASE
390
0
 62
               2
100
AcDbMText
 10
20366.351343236769
 20
-296.76584544734669
 30
0.0
 40
32.576822916666664
 41
200.0
 71
               1
 72
               1
  1
{\fＭＳ ゴシック|b0|i0|c128|p0;\lKojima\P \fＭＳ ゴシック|b0|i0|c128|p0;\lShohei}
 73
               1
 44
0.7828267384257843
  0
MTEXT
  5
549
100
AcDbEntity
  8
SPEC
390
0
 62
               2
100
AcDbMText
 10
18428.192046884542
 20
4229.0442034734479
 30
0.0
 40
38.006293402777786
 41
0.0
 71
               1
 72
               1
  1
{\fＭＳ ゴシック|b0|i0|c128|p0;\l130dB(ピンクノイズ、クレストファクタ ー6dB）}
 73
               1
 44
0.7828267384257845
  0
MTEXT
  5
54A
100
AcDbEntity
  8
Layer1
390
0
 62
               1
100
AcDbMText
 10
18436.461572323184
 20
3998.9643607945682
 30
0.0
 40
38.006293402777786
 41
0.0
 71
               1
 72
               1
  1
{\fＭＳ ゴシック|b0|i0|c128|p0;\l1×Neutrik NL4MP}
 73
               1
 44
0.7828267384257845
  0
INSERT
  5
54B
100
AcDbEntity
  8
0
390
0
 62
               1
100
AcDbBlockReference
  2
グループ-3
 10
19391.351343236769
 20
2114.3813530119533
 30
0.0
  0
MTEXT
  5
54C
100
AcDbEntity
  8
SPEC
390
0
 62
               2
100
AcDbMText
 10
20202.432726231418
 20
-63.829843749999782
 30
0.0
 40
32.576822916666664
 41
0.0
 71
               1
 72
               1
  1
{\fＭＳ ゴシック|b0|i0|c128|p0;\l12インチ設備用サブウーファー　スピーカー}
 73
               1
 44
0.7828267384257843
  0
INSERT
  5
54D
100
AcDbEntity
  8
0
390
0
 62
               7
100
AcDbBlockReference
  2
グループ-4
 10
19391.351343236769
 20
2114.3813530119533
 30
0.0
  0
INSERT
  5
54E
100
AcDbEntity
  8
0
390
0
 62
               7
100
AcDbBlockReference
  2
グループ-5
 10
19391.351343236769
 20
2114.3813530119533
 30
0.0
  0
INSERT
  5
54F
100
AcDbEntity
  8
0
390
0
 62
               7
100
AcDbBlockReference
  2
グループ-6
 10
19391.351343236769
 20
2114.3813530119533
 30
0.0
  0
INSERT
  5
550
100
AcDbEntity
  8
0
390
0
 62
               7
100
AcDbBlockReference
  2
グループ-7
 10
19391.351343236769
 20
2114.3813530119533
 30
0.0
  0
INSERT
  5
551
100
AcDbEntity
  8
0
390
0
 62
               7
100
AcDbBlockReference
  2
グループ-8
 10
19391.351343236769
 20
2114.3813530119533
 30
0.0
  0
INSERT
  5
552
100
AcDbEntity
  8
0
390
0
 62
               7
100
AcDbBlockReference
  2
グループ-9
 10
19391.351343236769
 20
2114.3813530119533
 30
0.0
  0
DIMENSION
  5
553
100
AcDbEntity
  8
寸法
370
               0
390
0
  6
Continuous
 62
               1
100
AcDbDimension
  2
*D11
 10
20235.487699696627
 20
1775.0
 30
0.0
 11
20060.509276663997
 21
1775.0
 31
0.0
 71
               5
 72
               1
 41
1.0
 42
0.0
  3
HIBINO
100
AcDbAlignedDimension
 13
19885.530853631368
 23
2125.0
 33
0.0
 14
20235.487699696627
 24
1963.3132994458711
 34
0.0
100
AcDbRotatedDimension
1001
ACAD
1000
DSTYLE
1002
{
1070
             271
1070
               0
1070
             279
1070
               2
1070
             340
1005
32
1070
             147
1040
10.0
1002
}
  0
DIMENSION
  5
554
100
AcDbEntity
  8
寸法
370
               0
390
0
  6
Continuous
 62
               1
100
AcDbDimension
  2
*D12
 10
18970.0
 20
1775.0
 30
0.0
 11
19260.0
 21
1775.0
 31
0.0
 71
               5
 72
               1
 41
1.0
 42
0.0
  3
HIBINO
100
AcDbAlignedDimension
 13
19550.0
 23
1963.3132994458713
 33
0.0
 14
18970.0
 24
1963.3132994458731
 34
0.0
100
AcDbRotatedDimension
1001
ACAD
1000
DSTYLE
1002
{
1070
             279
1070
               2
1070
             340
1005
32
1070
             147
1040
10.0
1002
}
  0
DIMENSION
  5
555
100
AcDbEntity
  8
寸法
370
               0
390
0
  6
Continuous
 62
               1
100
AcDbDimension
  2
*D13
 10
18800.0
 20
2305.3132994458783
 30
0.0
 11
18800.0
 21
2134.3132994458756
 31
0.0
 71
               5
 72
               1
 41
1.0
 42
0.0
  3
HIBINO
100
AcDbAlignedDimension
 13
18970.0
 23
1963.3132994458731
 33
0.0
 14
18970.0
 24
2305.3132994458783
 34
0.0
 50
-90.0
100
AcDbRotatedDimension
1001
ACAD
1000
DSTYLE
1002
{
1070
             279
1070
               2
1070
             340
1005
32
1070
             147
1040
10.0
1002
}
  0
INSERT
  5
556
100
AcDbEntity
  8
0
390
0
 62
               1
100
AcDbBlockReference
  2
Callout
 10
20225.0
 20
2507.0582322305686
 30
0.0
 50
-119.99999999999999
  0
MTEXT
  5
557
100
AcDbEntity
  8
0
390
0
 62
               1
100
AcDbMText
 10
19425.0
 20
-152.55322916666682
 30
0.0
 40
21.717881944444446
 41
0.0
 71
               1
 72
               1
  1
{\fＭＳ ゴシック|b0|i0|c128|p0;\l2020,5月M6吊りポイント用ネジ穴を追加。}
 73
               1
 44
0.7828267384257843
  0
ENDSEC
  0
SECTION
  2
OBJECTS
  0
DICTIONARY
  5
19
100
AcDbDictionary
280
               0
281
               1
  3
ACAD_GROUP
350
1A
  3
ACAD_MLINESTYLE
350
1B
  3
ACAD_LAYOUT
350
1E
  3
ACAD_PLOTSETTINGS
350
22
  3
ACAD_PLOTSTYLENAME
350
1F
  3
ACAD_WIPEOUT_VARS
350
23
  0
DICTIONARY
  5
1A
102
{ACAD_REACTORS
330
19
102
}
100
AcDbDictionary
280
               0
281
               1
  0
DICTIONARY
  5
1B
102
{ACAD_REACTORS
330
19
102
}
100
AcDbDictionary
280
               0
281
               1
  3
Standard
350
1C
  0
MLINESTYLE
  5
1C
102
{ACAD_REACTORS
330
1B
102
}
100
AcDbMlineStyle
  2
Standard
 70
               0
  3

 62
               0
 51
90.0
 52
90.0
 71
               2
 49
0.5
 62
             256
  6
ByLayer
 49
-0.5
 62
             256
  6
ByLayer
  0
ACDBDICTIONARYWDFLT
  5
1F
102
{ACAD_REACTORS
330
19
102
}
100
AcDbDictionary
281
               1
  3
Normal
350
1D
100
AcDbDictionaryWithDefault
340
1D
  0
ACDBPLACEHOLDER
  5
1D
102
{ACAD_REACTORS
330
1F
102
}
  0
LAYOUT
  5
20
102
{ACAD_REACTORS
330
1E
102
}
100
AcDbPlotSettings
  1

  2

  4

  6

 40
0.0
 41
0.0
 42
0.0
 43
0.0
 44
0.0
 45
0.0
 46
0.0
 47
0.0
 48
0.0
 49
0.0
140
0.0
141
0.0
142
1.0
143
1.0
 70
            1024
 72
               0
 73
               0
 74
               0
  7
U12i_v2.ctb
 75
               0
147
1.0
148
0.0
149
0.0
100
AcDbLayout
  1
Model
 70
               0
 71
               0
 10
0.0
 20
0.0
 11
0.0
 21
0.0
 12
0.0
 22
0.0
 32
0.0
 14
0.0
 24
0.0
 34
0.0
 15
0.0
 25
0.0
 35
0.0
146
0.0
 13
0.0
 23
0.0
 33
0.0
 16
0.0
 26
0.0
 36
0.0
 17
0.0
 27
0.0
 37
0.0
 76
               0
330
A
331
0
345
0
346
0
  0
LAYOUT
  5
21
102
{ACAD_REACTORS
330
1E
102
}
100
AcDbPlotSettings
  1

  2

  4

  6

 40
0.0
 41
0.0
 42
0.0
 43
0.0
 44
0.0
 45
0.0
 46
0.0
 47
0.0
 48
0.0
 49
0.0
140
0.0
141
0.0
142
1.0
143
1.0
 70
               0
 72
               0
 73
               0
 74
               0
  7

 75
               0
147
1.0
148
0.0
149
0.0
100
AcDbLayout
  1
Layout1
 70
               0
 71
               0
 10
0.0
 20
0.0
 11
0.0
 21
0.0
 12
0.0
 22
0.0
 32
0.0
 14
0.0
 24
0.0
 34
0.0
 15
0.0
 25
0.0
 35
0.0
146
0.0
 13
0.0
 23
0.0
 33
0.0
 16
0.0
 26
0.0
 36
0.0
 17
0.0
 27
0.0
 37
0.0
 76
               0
330
B
331
0
345
0
346
0
  0
DICTIONARY
  5
1E
102
{ACAD_REACTORS
330
19
102
}
100
AcDbDictionary
280
               0
281
               1
  3
Layout1
350
21
  3
Model
350
20
  0
DICTIONARY
  5
22
102
{ACAD_REACTORS
330
19
102
}
100
AcDbDictionary
280
               0
281
               1
  0
WIPEOUTVARIABLES
  5
23
100
AcDbWipeoutVariables
 70
               0
  0
ENDSEC
  0
EOF
