  0
SECTION
  2
HEADER
  9
$ACADVER
  1
AC1015
  9
$ACADMAINTVER
 70
               6
  9
$DWGCODEPAGE
  3
ANSI_932
  9
$INSBASE
 10
0.0
 20
0.0
 30
0.0
  9
$EXTMIN
 10
-25.0
 20
-374.09481228199229
 30
-7.4252666666666665
  9
$EXTMAX
 10
875.0
 20
965.0
 30
7.4252666666666665
  9
$LIMMIN
 10
0.0
 20
0.0
  9
$LIMMAX
 10
0.0
 20
0.0
  9
$ORTHOMODE
 70
               0
  9
$REGENMODE
 70
               1
  9
$FILLMODE
 70
               1
  9
$QTEXTMODE
 70
               0
  9
$MIRRTEXT
 70
               1
  9
$LTSCALE
 40
63.5
  9
$ATTMODE
 70
               1
  9
$TEXTSIZE
 40
0.2
  9
$TRACEWID
 40
1.0
  9
$TEXTSTYLE
  7
Standard
  9
$CLAYER
  8
0
  9
$CELTYPE
  6
Continuous
  9
$CECOLOR
 62
             256
  9
$CELTSCALE
 40
1.0
  9
$DISPSILH
 70
               0
  9
$DIMSCALE
 40
1.0
  9
$DIMASZ
 40
12.50311279296875
  9
$DIMEXO
 40
9.9999999999999982
  9
$DIMDLI
 40
4.9999999999999991
  9
$DIMRND
 40
0.0
  9
$DIMDLE
 40
0.0
  9
$DIMEXE
 40
9.9999999999999982
  9
$DIMTP
 40
0.0
  9
$DIMTM
 40
0.0
  9
$DIMTXT
 40
18.649450231481485
  9
$DIMCEN
 40
0.0
  9
$DIMTSZ
 40
0.0
  9
$DIMTOL
 70
               0
  9
$DIMLIM
 70
               0
  9
$DIMTIH
 70
               0
  9
$DIMTOH
 70
               0
  9
$DIMSE1
 70
               0
  9
$DIMSE2
 70
               0
  9
$DIMTAD
 70
               1
  9
$DIMZIN
 70
               3
  9
$DIMBLK
  1
VW_EMPTYARROW
  9
$DIMASO
 70
               1
  9
$DIMSHO
 70
               1
  9
$DIMPOST
  1
<>
  9
$DIMAPOST
  1
[]
  9
$DIMALT
 70
               0
  9
$DIMALTD
 70
               2
  9
$DIMALTF
 40
1.0
  9
$DIMLFAC
 40
1.0
  9
$DIMTOFL
 70
               1
  9
$DIMTVP
 40
0.0
  9
$DIMTIX
 70
               1
  9
$DIMSOXD
 70
               0
  9
$DIMSAH
 70
               0
  9
$DIMBLK1
  1

  9
$DIMBLK2
  1

  9
$DIMSTYLE
  2
HIBINO
  9
$DIMCLRD
 70
               0
  9
$DIMCLRE
 70
               0
  9
$DIMCLRT
 70
               0
  9
$DIMTFAC
 40
1.0
  9
$DIMGAP
 40
0.4999999999999999
  9
$DIMJUST
 70
               0
  9
$DIMSD1
 70
               0
  9
$DIMSD2
 70
               0
  9
$DIMTOLJ
 70
               1
  9
$DIMTZIN
 70
               3
  9
$DIMALTZ
 70
              11
  9
$DIMALTTZ
 70
              11
  9
$DIMUPT
 70
               0
  9
$DIMDEC
 70
               2
  9
$DIMTDEC
 70
               2
  9
$DIMALTU
 70
               2
  9
$DIMALTTD
 70
               2
  9
$DIMTXSTY
  7
游ゴシック Medium
  9
$DIMAUNIT
 70
               0
  9
$DIMADEC
 70
               0
  9
$DIMALTRND
 40
0.0
  9
$DIMAZIN
 70
               0
  9
$DIMDSEP
 70
              46
  9
$DIMATFIT
 70
               0
  9
$DIMFRAC
 70
               2
  9
$DIMLDRBLK
  1

  9
$DIMLUNIT
 70
               2
  9
$DIMLWD
 70
              -2
  9
$DIMLWE
 70
              -2
  9
$DIMTMOVE
 70
               0
  9
$LUNITS
 70
               2
  9
$LUPREC
 70
               4
  9
$SKETCHINC
 40
0.1
  9
$FILLETRAD
 40
0.0
  9
$AUNITS
 70
               0
  9
$AUPREC
 70
               0
  9
$MENU
  1
acad
  9
$ELEVATION
 40
0.0
  9
$PELEVATION
 40
0.0
  9
$THICKNESS
 40
0.0
  9
$LIMCHECK
 70
               0
  9
$CHAMFERA
 40
0.0
  9
$CHAMFERB
 40
0.0
  9
$CHAMFERC
 40
0.0
  9
$CHAMFERD
 40
0.0
  9
$SKPOLY
 70
               0
  9
$TDCREATE
 40
2459627.808414352
  9
$TDUCREATE
 40
0.000000000
  9
$TDUPDATE
 40
2459627.808414352
  9
$TDUUPDATE
 40
0.000000000
  9
$TDINDWG
 40
0.0000000000
  9
$TDUSRTIMER
 40
0.0000000000
  9
$USRTIMER
 70
               1
  9
$ANGBASE
 50
0.0
  9
$ANGDIR
 70
               0
  9
$PDMODE
 70
               1
  9
$PDSIZE
 40
-2.0
  9
$PLINEWID
 40
0.0
  9
$SPLFRAME
 70
               0
  9
$SPLINETYPE
 70
               6
  9
$SPLINESEGS
 70
               8
  9
$HANDSEED
  5
38C
  9
$SURFTAB1
 70
               6
  9
$SURFTAB2
 70
               6
  9
$SURFTYPE
 70
               6
  9
$SURFU
 70
               6
  9
$SURFV
 70
               6
  9
$UCSBASE
  2

  9
$UCSNAME
  2

  9
$UCSORG
 10
0.0
 20
0.0
 30
0.0
  9
$UCSXDIR
 10
1.0
 20
0.0
 30
0.0
  9
$UCSYDIR
 10
0.0
 20
1.0
 30
0.0
  9
$UCSORTHOREF
  2

  9
$UCSORTHOVIEW
 70
               0
  9
$UCSORGTOP
 10
0.0
 20
0.0
 30
0.0
  9
$UCSORGBOTTOM
 10
0.0
 20
0.0
 30
0.0
  9
$UCSORGLEFT
 10
0.0
 20
0.0
 30
0.0
  9
$UCSORGRIGHT
 10
0.0
 20
0.0
 30
0.0
  9
$UCSORGFRONT
 10
0.0
 20
0.0
 30
0.0
  9
$UCSORGBACK
 10
0.0
 20
0.0
 30
0.0
  9
$PUCSBASE
  2

  9
$PUCSNAME
  2

  9
$PUCSORG
 10
0.0
 20
0.0
 30
0.0
  9
$PUCSXDIR
 10
1.0
 20
0.0
 30
0.0
  9
$PUCSYDIR
 10
0.0
 20
1.0
 30
0.0
  9
$PUCSORTHOREF
  2

  9
$PUCSORTHOVIEW
 70
               0
  9
$PUCSORGTOP
 10
0.0
 20
0.0
 30
0.0
  9
$PUCSORGBOTTOM
 10
0.0
 20
0.0
 30
0.0
  9
$PUCSORGLEFT
 10
0.0
 20
0.0
 30
0.0
  9
$PUCSORGRIGHT
 10
0.0
 20
0.0
 30
0.0
  9
$PUCSORGFRONT
 10
0.0
 20
0.0
 30
0.0
  9
$PUCSORGBACK
 10
0.0
 20
0.0
 30
0.0
  9
$USERI1
 70
               0
  9
$USERI2
 70
               0
  9
$USERI3
 70
               0
  9
$USERI4
 70
               0
  9
$USERI5
 70
               0
  9
$USERR1
 40
0.0
  9
$USERR2
 40
0.0
  9
$USERR3
 40
0.0
  9
$USERR4
 40
0.0
  9
$USERR5
 40
0.0
  9
$WORLDVIEW
 70
               1
  9
$SHADEDGE
 70
               3
  9
$SHADEDIF
 70
              70
  9
$TILEMODE
 70
               1
  9
$MAXACTVP
 70
              64
  9
$PINSBASE
 10
0.0
 20
0.0
 30
0.0
  9
$PLIMCHECK
 70
               0
  9
$PEXTMIN
 10
1.0000000000000000E+20
 20
1.0000000000000000E+20
 30
1.0000000000000000E+20
  9
$PEXTMAX
 10
-1.0000000000000000E+20
 20
-1.0000000000000000E+20
 30
-1.0000000000000000E+20
  9
$PLIMMIN
 10
0.0
 20
0.0
  9
$PLIMMAX
 10
12.0
 20
9.0
  9
$UNITMODE
 70
               0
  9
$VISRETAIN
 70
               0
  9
$PLINEGEN
 70
               1
  9
$PSLTSCALE
 70
               0
  9
$TREEDEPTH
 70
            3020
  9
$CMLSTYLE
  2
Standard
  9
$CMLJUST
 70
               0
  9
$CMLSCALE
 40
1.0
  9
$PROXYGRAPHICS
 70
               0
  9
$MEASUREMENT
 70
               1
  9
$CELWEIGHT
370
               0
  9
$ENDCAPS
280
               0
  9
$JOINSTYLE
280
               0
  9
$LWDISPLAY
290
               0
  9
$INSUNITS
 70
               4
  9
$HYPERLINKBASE
  1

  9
$STYLESHEET
  1

  9
$XEDIT
290
               1
  9
$CEPSNTYPE
380
               0
  9
$PSTYLEMODE
290
               1
  9
$FINGERPRINTGUID
  2

  9
$VERSIONGUID
  2

  9
$EXTNAMES
290
               1
  9
$PSVPSCALE
 40
0.0
  0
ENDSEC
  0
SECTION
  2
CLASSES
  0
CLASS
  1
LWPOLYLINE
  2
AcDbPolyline
  3
AutoCAD 2000
 90
        0
280
               0
281
               1
  0
CLASS
  1
IMAGE
  2
AcDbRasterImage
  3
ISM
 90
      127
280
               0
281
               1
  0
CLASS
  1
OLE2FRAME
  2
AcDbOle2Frame
  3
AutoCAD 2000
 90
        0
280
               0
281
               1
  0
CLASS
  1
HATCH
  2
AcDbHatch
  3
AutoCAD 2000
 90
        0
280
               0
281
               1
  0
CLASS
  1
DICTIONARYVAR
  2
AcDbDictionaryVar
  3
AutoCAD 2000
 90
        0
280
               0
281
               0
  0
CLASS
  1
RASTERVARIABLES
  2
AcDbRasterVariables
  3
ISM
 90
        0
280
               0
281
               0
  0
CLASS
  1
IMAGEDEF
  2
AcDbRasterImageDef
  3
ISM
 90
        0
280
               0
281
               0
  0
CLASS
  1
IMAGEDEF_REACTOR
  2
AcDbRasterImageDefReactor
  3
ISM
 90
        1
280
               0
281
               0
  0
CLASS
  1
IDBUFFER
  2
AcDbIdBuffer
  3
AutoCAD 2000
 90
        0
280
               0
281
               0
  0
CLASS
  1
SPATIAL_FILTER
  2
AcDbSpatialFilter
  3
AutoCAD 2000
 90
        0
280
               0
281
               0
  0
CLASS
  1
XRECORD
  2
AcDbXrecord
  3
AutoCAD 2000
 90
        0
280
               0
281
               0
  0
CLASS
  1
SORTENTSTABLE
  2
AcDbSortentsTable
  3
AutoCAD 2000
 90
        0
280
               0
281
               0
  0
CLASS
  1
LAYER_INDEX
  2
AcDbLayerIndex
  3
AutoCAD 2000
 90
        0
280
               0
281
               0
  0
CLASS
  1
SPATIAL_INDEX
  2
AcDbSpatialIndex
  3
AutoCAD 2000
 90
        0
280
               0
281
               0
  0
CLASS
  1
OBJECT_PTR
  2
CAseDLPNTableRecord
  3
"ASE-LPNTableRecord"
 90
        1
280
               0
281
               0
  0
CLASS
  1
LAYOUT
  2
AcDbLayout
  3
AutoCAD 2000
 90
        0
280
               0
281
               0
  0
CLASS
  1
PLOTSETTINGS
  2
AcDbPlotSettings
  3
AutoCAD 2000
 90
        0
280
               0
281
               0
  0
CLASS
  1
ACDBDICTIONARYWDFLT
  2
AcDbDictionaryWithDefault
  3
AutoCAD 2000
 90
        0
280
               0
281
               0
  0
CLASS
  1
ACDBPLACEHOLDER
  2
AcDbPlaceHolder
  3
AutoCAD 2000
 90
        0
280
               0
281
               0
  0
CLASS
  1
VBA_PROJECT
  2
AcDbVbaProject
  3
acadvba
 90
        0
280
               0
281
               0
  0
CLASS
  1
WIPEOUT
  2
AcDbWipeout
  3
WipeOut|AutoCAD Express Tool|expresstools@autodesk.com
 90
      127
280
               0
281
               1
  0
CLASS
  1
WIPEOUTVARIABLES
  2
AcDbWipeoutVariables
  3
WipeOut|AutoCAD Express Tool|expresstools@autodesk.com
 90
        0
280
               0
281
               0
  0
CLASS
  1
RTEXT
  2
RText
  3
RText|AutoCAD Express Tool|expresstools@autodesk.com
 90
        0
280
               0
281
               1
  0
CLASS
  1
ARCALIGNEDTEXT
  2
AcDbArcAlignedText
  3
ATEXT|AutoCAD Express Tool|expresstools@autodesk.com
 90
        0
280
               0
281
               1
  0
ENDSEC
  0
SECTION
  2
TABLES
  0
TABLE
  2
VPORT
  5
7
100
AcDbSymbolTable
 70
               1
  0
VPORT
  5
15
100
AcDbSymbolTableRecord
100
AcDbViewportTableRecord
  2
*ACTIVE
 70
               0
 10
0.0
 20
0.0
 11
1.0
 21
1.0
 12
425.0
 22
295.45259385900385
 13
0.0
 23
0.0
 14
1.0
 24
1.0
 15
0.0
 25
0.0
 16
0.0
 26
0.0
 36
1.0
 17
0.0
 27
0.0
 37
0.0
 40
1339.0948122819923
 41
0.688564
 42
50.0
 43
0.0
 44
0.0
 50
0.0
 51
0.0
 71
               0
 72
            2000
 73
               1
 74
               1
 75
               0
 76
               0
 77
               0
 78
               0
281
               0
 65
               0
110
0.0
120
0.0
130
0.0
111
1.0
121
0.0
131
0.0
112
0.0
122
1.0
132
0.0
345
0
346
0
 79
               0
146
0.0
  0
ENDTAB
  0
TABLE
  2
LTYPE
  5
4
100
AcDbSymbolTable
 70
              14
  0
LTYPE
  5
11
100
AcDbSymbolTableRecord
100
AcDbLinetypeTableRecord
  2
ByBlock
 70
              64
  3

 72
              65
 73
               0
 40
0.0
  0
LTYPE
  5
12
100
AcDbSymbolTableRecord
100
AcDbLinetypeTableRecord
  2
ByLayer
 70
              64
  3

 72
              65
 73
               0
 40
0.0
  0
LTYPE
  5
13
100
AcDbSymbolTableRecord
100
AcDbLinetypeTableRecord
  2
Continuous
 70
              64
  3
Solid line
 72
              65
 73
               0
 40
0.0
  0
LTYPE
  5
2E
100
AcDbSymbolTableRecord
100
AcDbLinetypeTableRecord
  2
STYLE_01
 70
               0
  3

 72
              65
 73
               2
 40
19.53228346456693
 49
8.0
 74
               0
 49
-0.0001999999999995
 74
               0
  0
LTYPE
  5
2F
100
AcDbSymbolTableRecord
100
AcDbLinetypeTableRecord
  2
STYLE_02
 70
               0
  3

 72
              65
 73
               4
 40
0.9451968503937007
 49
0.7439370078740156
 74
               0
 49
-0.0929133858267717
 74
               0
 49
0.0154330708661418
 74
               0
 49
-0.0929133858267717
 74
               0
  0
LTYPE
  5
30
100
AcDbSymbolTableRecord
100
AcDbLinetypeTableRecord
  2
STYLE_03
 70
               0
  3

 72
              65
 73
               2
 40
0.5
 49
0.416656494140625
 74
               0
 49
-0.083343505859375
 74
               0
  0
LTYPE
  5
31
100
AcDbSymbolTableRecord
100
AcDbLinetypeTableRecord
  2
STYLE_04
 70
               0
  3

 72
              65
 73
               2
 40
0.611083984375
 49
0.52777099609375
 74
               0
 49
-0.08331298828125
 74
               0
  0
LTYPE
  5
32
100
AcDbSymbolTableRecord
100
AcDbLinetypeTableRecord
  2
STYLE_05
 70
               0
  3

 72
              65
 73
               2
 40
0.08331298828125
 49
0.02777099609375
 74
               0
 49
-0.0555419921875
 74
               0
  0
LTYPE
  5
33
100
AcDbSymbolTableRecord
100
AcDbLinetypeTableRecord
  2
STYLE_06
 70
               0
  3

 72
              65
 73
               4
 40
0.416656494140625
 49
0.25
 74
               0
 49
-0.08331298828125
 74
               0
 49
0.02777099609375
 74
               0
 49
-0.055572509765625
 74
               0
  0
LTYPE
  5
34
100
AcDbSymbolTableRecord
100
AcDbLinetypeTableRecord
  2
STYLE_07
 70
               0
  3

 72
              65
 73
               6
 40
0.75
 49
0.25
 74
               0
 49
-0.08331298828125
 74
               0
 49
0.25
 74
               0
 49
-0.083343505859375
 74
               0
 49
0.02777099609375
 74
               0
 49
-0.055572509765625
 74
               0
  0
LTYPE
  5
35
100
AcDbSymbolTableRecord
100
AcDbLinetypeTableRecord
  2
STYLE_08
 70
               0
  3

 72
              65
 73
               6
 40
0.5
 49
0.25
 74
               0
 49
-0.08331298828125
 74
               0
 49
0.02777099609375
 74
               0
 49
-0.055572509765625
 74
               0
 49
0.02777099609375
 74
               0
 49
-0.055572509765625
 74
               0
  0
LTYPE
  5
36
100
AcDbSymbolTableRecord
100
AcDbLinetypeTableRecord
  2
STYLE_09
 70
               0
  3

 72
              65
 73
               4
 40
2.0
 49
1.5
 74
               0
 49
-0.111114501953125
 74
               0
 49
0.27777099609375
 74
               0
 49
-0.111114501953125
 74
               0
  0
LTYPE
  5
37
100
AcDbSymbolTableRecord
100
AcDbLinetypeTableRecord
  2
STYLE_10
 70
               0
  3

 72
              65
 73
               6
 40
2.375
 49
1.5
 74
               0
 49
-0.111114501953125
 74
               0
 49
0.27777099609375
 74
               0
 49
-0.111114501953125
 74
               0
 49
0.25
 74
               0
 49
-0.125
 74
               0
  0
LTYPE
  5
38
100
AcDbSymbolTableRecord
100
AcDbLinetypeTableRecord
  2
STYLE_11
 70
               0
  3

 72
              65
 73
               4
 40
0.1115905511811024
 49
0.0743937007874016
 74
               0
 49
-0.0092913385826772
 74
               0
 49
0.0186141732283465
 74
               0
 49
-0.0092913385826772
 74
               0
  0
ENDTAB
  0
TABLE
  2
LAYER
  5
2
100
AcDbSymbolTable
 70
              26
  0
LAYER
  5
14
100
AcDbSymbolTableRecord
100
AcDbLayerTableRecord
  2
0
 70
               0
 62
               7
  6
Continuous
290
               1
370
               0
390
1D
  0
LAYER
  5
39
100
AcDbSymbolTableRecord
100
AcDbLayerTableRecord
  2
一般
 70
               0
 62
               7
  6
Continuous
290
               1
370
               0
390
1D
  0
LAYER
  5
3A
100
AcDbSymbolTableRecord
100
AcDbLayerTableRecord
  2
寸法
 70
               0
 62
               7
  6
Continuous
290
               1
370
               0
390
1D
  0
LAYER
  5
3B
100
AcDbSymbolTableRecord
100
AcDbLayerTableRecord
  2
BDR ATTRIB
 70
               0
 62
               7
  6
Continuous
290
               1
370
               0
390
1D
  0
LAYER
  5
3C
100
AcDbSymbolTableRecord
100
AcDbLayerTableRecord
  2
BDR TEXT
 70
               0
 62
               7
  6
Continuous
290
               1
370
               0
390
1D
  0
LAYER
  5
3D
100
AcDbSymbolTableRecord
100
AcDbLayerTableRecord
  2
BORDER
 70
               0
 62
               7
  6
Continuous
290
               1
370
               0
390
1D
  0
LAYER
  5
3E
100
AcDbSymbolTableRecord
100
AcDbLayerTableRecord
  2
Border (ISO)
 70
               0
 62
               7
  6
Continuous
290
               1
370
               0
390
1D
  0
LAYER
  5
3F
100
AcDbSymbolTableRecord
100
AcDbLayerTableRecord
  2
Center Mark (ISO)
 70
               0
 62
               7
  6
Continuous
290
               1
370
               0
390
1D
  0
LAYER
  5
40
100
AcDbSymbolTableRecord
100
AcDbLayerTableRecord
  2
Centerline (ISO)
 70
               0
 62
               7
  6
Continuous
290
               1
370
               0
390
1D
  0
LAYER
  5
41
100
AcDbSymbolTableRecord
100
AcDbLayerTableRecord
  2
Dimension (ISO)
 70
               0
 62
               7
  6
Continuous
290
               1
370
               0
390
1D
  0
LAYER
  5
42
100
AcDbSymbolTableRecord
100
AcDbLayerTableRecord
  2
Hatch (ISO)
 70
               0
 62
               7
  6
Continuous
290
               1
370
               0
390
1D
  0
LAYER
  5
43
100
AcDbSymbolTableRecord
100
AcDbLayerTableRecord
  2
Layer 1
 70
               0
 62
               7
  6
Continuous
290
               1
370
               0
390
1D
  0
LAYER
  5
44
100
AcDbSymbolTableRecord
100
AcDbLayerTableRecord
  2
Sketch Geometry (ISO)
 70
               0
 62
               7
  6
Continuous
290
               1
370
               0
390
1D
  0
LAYER
  5
45
100
AcDbSymbolTableRecord
100
AcDbLayerTableRecord
  2
Symbol (ISO)
 70
               0
 62
               7
  6
Continuous
290
               1
370
               0
390
1D
  0
LAYER
  5
46
100
AcDbSymbolTableRecord
100
AcDbLayerTableRecord
  2
Title (ISO)
 70
               0
 62
               7
  6
Continuous
290
               1
370
               0
390
1D
  0
LAYER
  5
47
100
AcDbSymbolTableRecord
100
AcDbLayerTableRecord
  2
Visible (ISO)
 70
               0
 62
               7
  6
Continuous
290
               1
370
               0
390
1D
  0
LAYER
  5
48
100
AcDbSymbolTableRecord
100
AcDbLayerTableRecord
  2
Visible Narrow (ISO)
 70
               0
 62
               7
  6
Continuous
290
               1
370
               0
390
1D
  0
LAYER
  5
49
100
AcDbSymbolTableRecord
100
AcDbLayerTableRecord
  2
Defpoints
 70
               0
 62
               7
  6
Continuous
290
               0
370
               0
390
1D
  0
LAYER
  5
4A
100
AcDbSymbolTableRecord
100
AcDbLayerTableRecord
  2
Reference (ISO)
 70
               0
 62
               7
  6
Continuous
290
               1
370
               0
390
1D
  0
LAYER
  5
4B
100
AcDbSymbolTableRecord
100
AcDbLayerTableRecord
  2
05 Lines(A H Standard)
 70
               0
 62
               7
  6
Continuous
290
               1
370
               0
390
1D
  0
LAYER
  5
4C
100
AcDbSymbolTableRecord
100
AcDbLayerTableRecord
  2
Border_0
 70
               0
 62
               7
  6
Continuous
290
               1
370
               0
390
1D
  0
LAYER
  5
4D
100
AcDbSymbolTableRecord
100
AcDbLayerTableRecord
  2
Dimensions(A H Standard)
 70
               0
 62
               7
  6
Continuous
290
               1
370
               0
390
1D
  0
LAYER
  5
4E
100
AcDbSymbolTableRecord
100
AcDbLayerTableRecord
  2
Sketch Geometry(A H Standard)
 70
               0
 62
               7
  6
Continuous
290
               1
370
               0
390
1D
  0
LAYER
  5
4F
100
AcDbSymbolTableRecord
100
AcDbLayerTableRecord
  2
Symbols(A H Standard)
 70
               0
 62
               7
  6
Continuous
290
               1
370
               0
390
1D
  0
LAYER
  5
50
100
AcDbSymbolTableRecord
100
AcDbLayerTableRecord
  2
Visible Edges(A H Standard)
 70
               0
 62
               7
  6
Continuous
290
               1
370
               0
390
1D
  0
LAYER
  5
51
100
AcDbSymbolTableRecord
100
AcDbLayerTableRecord
  2
Visible Tangent Edges(A H Standard)
 70
               0
 62
               7
  6
Continuous
290
               1
370
               0
390
1D
  0
ENDTAB
  0
TABLE
  2
STYLE
  5
3
100
AcDbSymbolTable
 70
               3
  0
STYLE
  5
17
100
AcDbSymbolTableRecord
100
AcDbTextStyleTableRecord
  2
Standard
 70
               0
 40
0.0
 41
1.0
 50
0.0
 71
               0
 42
0.0
  3
txt
  4
BIGFONT.SHX
  0
STYLE
  5
2C
100
AcDbSymbolTableRecord
100
AcDbTextStyleTableRecord
  2
游ゴシック Medium
 70
               0
 40
0.0
 41
1.0
 50
0.0
 71
               0
 42
0.0
  3

  4
游ゴシック Medium
1001
ACAD
1000
游ゴシック Medium
1071
        0
  0
STYLE
  5
2D
100
AcDbSymbolTableRecord
100
AcDbTextStyleTableRecord
  2
游ゴシック Medium (bold)
 70
               0
 40
0.0
 41
1.0
 50
0.0
 71
               0
 42
0.0
  3

  4
游ゴシック Medium
1001
ACAD
1000
游ゴシック Medium
1071
 33554432
  0
ENDTAB
  0
TABLE
  2
VIEW
  5
5
100
AcDbSymbolTable
 70
               0
  0
ENDTAB
  0
TABLE
  2
UCS
  5
6
100
AcDbSymbolTable
 70
               0
  0
ENDTAB
  0
TABLE
  2
APPID
  5
8
100
AcDbSymbolTable
 70
               1
  0
APPID
  5
16
100
AcDbSymbolTableRecord
100
AcDbRegAppTableRecord
  2
ACAD
 70
               0
  0
ENDTAB
  0
TABLE
  2
DIMSTYLE
  5
9
100
AcDbSymbolTable
 70
               2
100
AcDbDimStyleTable
 71
               0
  0
DIMSTYLE
105
18
100
AcDbSymbolTableRecord
100
AcDbDimStyleTableRecord
  2
Standard
 70
               0
  3

  4

 40
1.0
 41
0.18
 42
0.0625
 43
0.38
 44
0.18
 45
0.0
 46
0.0
 47
0.0
 48
0.0
 71
               0
 72
               0
 73
               1
 74
               1
 75
               0
 76
               0
 77
               0
 78
               0
 79
               0
140
0.18
141
0.09
142
0.0
143
25.399999999999999
144
1.0
145
0.0
146
1.0
147
0.09
148
0.0
170
               0
171
               2
172
               0
173
               0
174
               0
175
               0
176
               0
177
               0
178
               0
179
               0
271
               4
272
               4
273
               2
274
               2
275
               0
276
               0
277
               2
278
              46
279
               0
280
               0
281
               0
282
               0
283
               1
284
               0
285
               0
286
               0
288
               0
289
               3
340
17
341
0
342
0
343
0
344
0
371
              -2
372
              -2
  0
DIMSTYLE
105
5B
100
AcDbSymbolTableRecord
100
AcDbDimStyleTableRecord
  2
HIBINO
 70
               0
  3
<>
  4
[]
 40
1.0
 41
12.50311279296875
 42
9.9999999999999982
 43
4.9999999999999991
 44
9.9999999999999982
 45
0.0
 46
0.0
 47
0.0
 48
0.0
 71
               0
 72
               0
 73
               0
 74
               0
 75
               0
 76
               0
 77
               1
 78
               3
 79
               0
140
18.649450231481485
141
0.0
142
0.0
143
1.0
144
1.0
145
0.0
146
1.0
147
0.4999999999999999
148
0.0
170
               0
171
               2
172
               1
173
               0
174
               1
175
               0
176
               0
177
               0
178
               0
179
               0
271
               2
272
               2
273
               2
274
               2
275
               0
276
               2
277
               2
278
              46
279
               0
280
               0
281
               0
282
               0
283
               1
284
               3
285
              11
286
              11
288
               0
289
               0
340
2C
341
52
342
52
343
0
344
0
371
              -2
372
              -2
  0
ENDTAB
  0
TABLE
  2
BLOCK_RECORD
  5
1
100
AcDbSymbolTable
 70
               9
  0
BLOCK_RECORD
  5
A
100
AcDbSymbolTableRecord
100
AcDbBlockTableRecord
  2
*MODEL_SPACE
340
20
  0
BLOCK_RECORD
  5
B
100
AcDbSymbolTableRecord
100
AcDbBlockTableRecord
  2
*PAPER_SPACE
340
21
  0
BLOCK_RECORD
  5
52
100
AcDbSymbolTableRecord
100
AcDbBlockTableRecord
  2
VW_EMPTYARROW
340
0
  0
BLOCK_RECORD
  5
24
100
AcDbSymbolTableRecord
100
AcDbBlockTableRecord
  2
グループ
340
0
102
{BLKREFS
331
6C
102
}
  0
BLOCK_RECORD
  5
25
100
AcDbSymbolTableRecord
100
AcDbBlockTableRecord
  2
グループ-1
340
0
102
{BLKREFS
331
69
102
}
  0
BLOCK_RECORD
  5
26
100
AcDbSymbolTableRecord
100
AcDbBlockTableRecord
  2
グループ-2
340
0
102
{BLKREFS
331
6D
102
}
  0
BLOCK_RECORD
  5
27
100
AcDbSymbolTableRecord
100
AcDbBlockTableRecord
  2
グループ-3
340
0
102
{BLKREFS
331
12C
102
}
  0
BLOCK_RECORD
  5
28
100
AcDbSymbolTableRecord
100
AcDbBlockTableRecord
  2
グループ-4
340
0
102
{BLKREFS
331
387
102
}
  0
BLOCK_RECORD
  5
29
100
AcDbSymbolTableRecord
100
AcDbBlockTableRecord
  2
*D6
340
0
  0
BLOCK_RECORD
  5
2A
100
AcDbSymbolTableRecord
100
AcDbBlockTableRecord
  2
*D7
340
0
  0
BLOCK_RECORD
  5
2B
100
AcDbSymbolTableRecord
100
AcDbBlockTableRecord
  2
*D8
340
0
  0
ENDTAB
  0
ENDSEC
  0
SECTION
  2
BLOCKS
  0
BLOCK
  5
D
100
AcDbEntity
  8
0
390
0
100
AcDbBlockBegin
  2
*MODEL_SPACE
 70
               0
 10
0.0
 20
0.0
 30
0.0
  3
*MODEL_SPACE
  1

  0
ENDBLK
  5
E
100
AcDbEntity
  8
0
390
0
100
AcDbBlockEnd
  0
BLOCK
  5
F
100
AcDbEntity
 67
               1
  8
0
390
0
100
AcDbBlockBegin
  2
*PAPER_SPACE
 70
               0
 10
0.0
 20
0.0
 30
0.0
  3
*PAPER_SPACE
  1

  0
ENDBLK
  5
10
100
AcDbEntity
 67
               1
  8
0
390
0
100
AcDbBlockEnd
  0
BLOCK
  5
53
100
AcDbEntity
  8
0
370
              -2
390
0
  6
ByBlock
 62
               0
100
AcDbBlockBegin
  2
VW_EMPTYARROW
 70
               0
 10
0.0
 20
0.0
 30
0.0
  3
VW_EMPTYARROW
  1

  0
LINE
  5
54
100
AcDbEntity
  8
0
370
              -2
390
0
  6
ByBlock
 62
               0
100
AcDbLine
 10
0.0
 20
0.0
 30
0.0
 11
-1.0
 21
0.0
 31
0.0
  0
POLYLINE
  5
55
100
AcDbEntity
  8
0
370
              -2
390
0
  6
Continuous
 62
               0
100
AcDb2dPolyline
 66
               1
 10
0.0
 20
0.0
 30
0.0
 75
               5
  0
VERTEX
  5
56
100
AcDbEntity
  8
0
370
              -2
390
0
  6
Continuous
 62
               0
100
AcDbVertex
100
AcDb2dVertex
 10
-0.99993896484375
 20
0.2679328381102957
 30
0.0
  0
VERTEX
  5
57
100
AcDbEntity
  8
0
370
              -2
390
0
  6
Continuous
 62
               0
100
AcDbVertex
100
AcDb2dVertex
 10
0.0
 20
0.0
 30
0.0
  0
VERTEX
  5
58
100
AcDbEntity
  8
0
370
              -2
390
0
  6
Continuous
 62
               0
100
AcDbVertex
100
AcDb2dVertex
 10
-0.9999389648437499
 20
-0.2679328381102959
 30
0.0
  0
SEQEND
  5
59
100
AcDbEntity
  8
0
370
              -2
390
0
  6
Continuous
 62
               0
  0
ENDBLK
  5
5A
100
AcDbEntity
  8
0
390
0
100
AcDbBlockEnd
  0
BLOCK
  5
5C
100
AcDbEntity
  8
0
390
0
100
AcDbBlockBegin
  2
グループ
 70
               0
 10
0.0
 20
0.0
 30
0.0
  3
グループ
  1

  0
LINE
  5
5D
100
AcDbEntity
  8
0
370
               0
390
0
  6
Continuous
 62
               0
100
AcDbLine
 10
104.0625933234388
 20
-530.56457349691289
 30
0.0
 11
104.0625933234388
 21
-544.96457349691309
 31
0.0
  0
LINE
  5
5E
100
AcDbEntity
  8
0
370
               0
390
0
  6
Continuous
 62
               0
100
AcDbLine
 10
82.687593323438804
 20
-534.16457349691302
 30
0.0
 11
82.687593323438804
 21
-541.36457349691295
 31
0.0
  0
LINE
  5
5F
100
AcDbEntity
  8
0
370
               0
390
0
  6
Continuous
 62
               0
100
AcDbLine
 10
82.687593323438804
 20
-534.16457349691302
 30
0.0
 11
104.0625933234388
 21
-530.56457349691289
 31
0.0
  0
LINE
  5
60
100
AcDbEntity
  8
0
370
               0
390
0
  6
Continuous
 62
               0
100
AcDbLine
 10
82.687593323438804
 20
-541.36457349691295
 30
0.0
 11
104.0625933234388
 21
-544.96457349691309
 31
0.0
  0
ENDBLK
  5
61
100
AcDbEntity
  8
0
390
0
100
AcDbBlockEnd
  0
BLOCK
  5
62
100
AcDbEntity
  8
寸法
390
0
100
AcDbBlockBegin
  2
グループ-1
 70
               0
 10
0.0
 20
0.0
 30
0.0
  3
グループ-1
  1

  0
LINE
  5
63
100
AcDbEntity
  8
0
370
               0
390
0
  6
STYLE_11
 62
               0
100
AcDbLine
 10
61.312593323438804
 20
-537.76457349691282
 30
0.0
 11
79.312593323438804
 21
-537.76457349691282
 31
0.0
  0
LINE
  5
64
100
AcDbEntity
  8
0
370
               0
390
0
  6
STYLE_11
 62
               0
100
AcDbLine
 10
70.312593323438804
 20
-549.76457349691282
 30
0.0
 11
70.312593323438804
 21
-525.76457349691282
 31
0.0
  0
ENDBLK
  5
65
100
AcDbEntity
  8
寸法
390
0
100
AcDbBlockEnd
  0
BLOCK
  5
66
100
AcDbEntity
  8
0
390
0
100
AcDbBlockBegin
  2
グループ-2
 70
               0
 10
0.0
 20
0.0
 30
0.0
  3
グループ-2
  1

  0
CIRCLE
  5
67
100
AcDbEntity
  8
0
370
               0
390
0
  6
Continuous
 62
               0
100
AcDbCircle
 10
70.312593323438804
 20
-537.76457349691282
 30
0.0
 40
7.2000000000001974
  0
CIRCLE
  5
68
100
AcDbEntity
  8
0
370
               0
390
0
  6
Continuous
 62
               0
100
AcDbCircle
 10
70.312593323438804
 20
-537.76457349691282
 30
0.0
 40
3.5999999999999326
  0
INSERT
  5
69
100
AcDbEntity
  8
寸法
390
0
 62
               0
100
AcDbBlockReference
  2
グループ-1
 10
0.0
 20
0.0
 30
0.0
  0
ENDBLK
  5
6A
100
AcDbEntity
  8
0
390
0
100
AcDbBlockEnd
  0
BLOCK
  5
6B
100
AcDbEntity
  8
0
390
0
100
AcDbBlockBegin
  2
グループ-3
 70
               0
 10
0.0
 20
0.0
 30
0.0
  3
グループ-3
  1

  0
INSERT
  5
6C
100
AcDbEntity
  8
0
390
0
 62
               0
100
AcDbBlockReference
  2
グループ
 10
0.0
 20
0.0
 30
0.0
  0
INSERT
  5
6D
100
AcDbEntity
  8
0
390
0
 62
               0
100
AcDbBlockReference
  2
グループ-2
 10
0.0
 20
0.0
 30
0.0
  0
LINE
  5
6E
100
AcDbEntity
  8
0
370
               0
390
0
  6
STYLE_11
 62
               0
100
AcDbLine
 10
70.312593323438804
 20
-537.76457349691282
 30
0.0
 11
108.5625933234388
 21
-537.76457349691282
 31
0.0
  0
LINE
  5
6F
100
AcDbEntity
  8
0
370
               0
390
0
  6
Continuous
 62
               0
100
AcDbLine
 10
70.312593323438804
 20
-544.96457349691309
 30
0.0
 11
70.312593323438804
 21
-534.16457349691302
 31
0.0
  0
ENDBLK
  5
70
100
AcDbEntity
  8
0
390
0
100
AcDbBlockEnd
  0
BLOCK
  5
71
100
AcDbEntity
  8
0
390
0
100
AcDbBlockBegin
  2
グループ-4
 70
               0
 10
0.0
 20
0.0
 30
0.0
  3
グループ-4
  1

  0
LINE
  5
72
100
AcDbEntity
  8
Visible Edges(A H Standard)
370
               0
390
0
 62
               0
100
AcDbLine
 10
11.385093323438639
 20
147.93542650308723
 30
0.0
 11
11.385093323438639
 21
148.17398260829867
 31
0.0
  0
ARC
  5
73
100
AcDbEntity
  8
Visible Edges(A H Standard)
370
               0
390
0
 62
               0
100
AcDbCircle
 10
9.3911933234386993
 20
144.72044650308703
 30
0.0
 40
3.9877999999999685
100
AcDbArc
 50
60.000000000000746
 51
119.99999999999925
  0
LINE
  5
74
100
AcDbEntity
  8
Visible Edges(A H Standard)
370
               0
390
0
 62
               0
100
AcDbLine
 10
7.3972933234387597
 20
148.17398260829867
 30
0.0
 11
7.3972933234387597
 21
147.93542650308723
 31
0.0
  0
LINE
  5
75
100
AcDbEntity
  8
Visible Edges(A H Standard)
370
               0
390
0
 62
               0
100
AcDbLine
 10
-3.0421066765609908
 20
148.17398260829867
 30
0.0
 11
-3.0421066765609908
 21
147.93542650308723
 31
0.0
  0
LINE
  5
76
100
AcDbEntity
  8
Visible Edges(A H Standard)
370
               0
390
0
 62
               0
100
AcDbLine
 10
0.9456933234388885
 20
147.93542650308723
 30
0.0
 11
0.9456933234388885
 21
148.17398260829867
 31
0.0
  0
ARC
  5
77
100
AcDbEntity
  8
Visible Edges(A H Standard)
370
               0
390
0
 62
               0
100
AcDbCircle
 10
-1.0482066765610512
 20
144.72044650308703
 30
0.0
 40
3.9877999999999685
100
AcDbArc
 50
60.000000000000746
 51
119.99999999999925
  0
ENDBLK
  5
78
100
AcDbEntity
  8
0
390
0
100
AcDbBlockEnd
  0
BLOCK
  5
79
100
AcDbEntity
  8
寸法
390
0
100
AcDbBlockBegin
  2
*D6
 70
               1
 10
0.0
 20
0.0
 30
0.0
  3
*D6
  1

  0
LINE
  5
7A
100
AcDbEntity
  8
寸法
370
              -2
390
0
  6
Continuous
 62
               0
100
AcDbLine
 10
315.0
 20
230.29999999999995
 30
0.0
 11
315.0
 21
165.74444444444444
 31
0.0
  0
LINE
  5
7B
100
AcDbEntity
  8
寸法
370
              -2
390
0
  6
Continuous
 62
               0
100
AcDbLine
 10
486.0
 20
230.29999999999995
 30
0.0
 11
486.0
 21
165.74444444444444
 31
0.0
  0
LINE
  5
7C
100
AcDbEntity
  8
寸法
370
              -2
390
0
  6
Continuous
 62
               0
100
AcDbLine
 10
315.0
 20
175.74444444444444
 30
0.0
 11
486.0
 21
175.74444444444444
 31
0.0
  0
POLYLINE
  5
7D
100
AcDbEntity
  8
0
370
              -2
390
0
  6
Continuous
 62
               0
100
AcDb2dPolyline
 66
               1
 10
0.0
 20
0.0
 30
0.0
 75
               5
  0
VERTEX
  5
7E
100
AcDbEntity
  8
0
370
              -2
390
0
  6
Continuous
 62
               0
100
AcDbVertex
100
AcDb2dVertex
 10
327.50311279296875
 20
172.39424546869321
 30
0.0
  0
VERTEX
  5
7F
100
AcDbEntity
  8
0
370
              -2
390
0
  6
Continuous
 62
               0
100
AcDbVertex
100
AcDb2dVertex
 10
315.0
 20
175.74444444444444
 30
0.0
  0
VERTEX
  5
80
100
AcDbEntity
  8
0
370
              -2
390
0
  6
Continuous
 62
               0
100
AcDbVertex
100
AcDb2dVertex
 10
327.50311279296875
 20
179.09464342019567
 30
0.0
  0
SEQEND
  5
81
100
AcDbEntity
  8
0
370
              -2
390
0
  6
Continuous
 62
               0
  0
POLYLINE
  5
82
100
AcDbEntity
  8
0
370
              -2
390
0
  6
Continuous
 62
               0
100
AcDb2dPolyline
 66
               1
 10
0.0
 20
0.0
 30
0.0
 75
               5
  0
VERTEX
  5
83
100
AcDbEntity
  8
0
370
              -2
390
0
  6
Continuous
 62
               0
100
AcDbVertex
100
AcDb2dVertex
 10
473.49688720703125
 20
179.09464342019567
 30
0.0
  0
VERTEX
  5
84
100
AcDbEntity
  8
0
370
              -2
390
0
  6
Continuous
 62
               0
100
AcDbVertex
100
AcDb2dVertex
 10
486.0
 20
175.74444444444444
 30
0.0
  0
VERTEX
  5
85
100
AcDbEntity
  8
0
370
              -2
390
0
  6
Continuous
 62
               0
100
AcDbVertex
100
AcDb2dVertex
 10
473.49688720703125
 20
172.39424546869321
 30
0.0
  0
SEQEND
  5
86
100
AcDbEntity
  8
0
370
              -2
390
0
  6
Continuous
 62
               0
  0
WIPEOUT
  5
87
100
AcDbEntity
  8
寸法
370
              -2
390
0
  6
Continuous
 62
               0
 92
        0
100
AcDbWipeout
 90
        0
 10
379.93536376953125
 20
315.80477762409305
 30
0.0
 11
41.1292724609375
 21
0.0
 31
0.0
 12
0.0
 22
41.1292724609375
 32
0.0
 13
1.0
 23
1.0
340
0
 70
               7
280
               1
281
              50
282
              50
283
               0
360
0
 71
               2
 91
        5
 14
-0.5
 24
3.8445846461372843
 14
0.5
 24
3.8445846461372843
 14
0.5
 24
2.8839279472220101
 14
-0.5
 24
2.8839279472220101
 14
-0.5
 24
3.8445846461372843
  0
MTEXT
  5
88
100
AcDbEntity
  8
寸法
390
0
 62
               0
100
AcDbMText
 10
379.93536376953125
 20
211.95750578703704
 30
0.0
 40
18.649450231481485
 41
0.0
 71
               1
 72
               1
  1
{\f游ゴシック Medium|b0|i0|c128|p0;\l171}
 73
               1
 44
1.2762775238886579
  0
POINT
  5
89
100
AcDbEntity
  8
Defpoints
370
               0
390
0
 62
               0
100
AcDbPoint
 10
486.0
 20
240.29999999999995
 30
0.0
  0
POINT
  5
8A
100
AcDbEntity
  8
Defpoints
370
               0
390
0
 62
               0
100
AcDbPoint
 10
315.0
 20
240.29999999999995
 30
0.0
  0
POINT
  5
8B
100
AcDbEntity
  8
Defpoints
370
               0
390
0
 62
               0
100
AcDbPoint
 10
315.0
 20
175.74444444444444
 30
0.0
  0
ENDBLK
  5
8C
100
AcDbEntity
  8
寸法
390
0
100
AcDbBlockEnd
  0
BLOCK
  5
8D
100
AcDbEntity
  8
寸法
390
0
100
AcDbBlockBegin
  2
*D7
 70
               1
 10
0.0
 20
0.0
 30
0.0
  3
*D7
  1

  0
LINE
  5
8E
100
AcDbEntity
  8
寸法
370
              -2
390
0
  6
Continuous
 62
               0
100
AcDbLine
 10
305.0
 20
435.70000000000005
 30
0.0
 11
214.0
 21
435.70000000000005
 31
0.0
  0
LINE
  5
8F
100
AcDbEntity
  8
寸法
370
              -2
390
0
  6
Continuous
 62
               0
100
AcDbLine
 10
307.01999999999998
 20
240.29999999999995
 30
0.0
 11
214.0
 21
240.29999999999995
 31
0.0
  0
LINE
  5
90
100
AcDbEntity
  8
寸法
370
              -2
390
0
  6
Continuous
 62
               0
100
AcDbLine
 10
224.0
 20
435.70000000000005
 30
0.0
 11
224.0
 21
240.29999999999995
 31
0.0
  0
POLYLINE
  5
91
100
AcDbEntity
  8
0
370
              -2
390
0
  6
Continuous
 62
               0
100
AcDb2dPolyline
 66
               1
 10
0.0
 20
0.0
 30
0.0
 75
               5
  0
VERTEX
  5
92
100
AcDbEntity
  8
0
370
              -2
390
0
  6
Continuous
 62
               0
100
AcDbVertex
100
AcDb2dVertex
 10
220.64980102424877
 20
423.1968872070313
 30
0.0
  0
VERTEX
  5
93
100
AcDbEntity
  8
0
370
              -2
390
0
  6
Continuous
 62
               0
100
AcDbVertex
100
AcDb2dVertex
 10
224.0
 20
435.70000000000005
 30
0.0
  0
VERTEX
  5
94
100
AcDbEntity
  8
0
370
              -2
390
0
  6
Continuous
 62
               0
100
AcDbVertex
100
AcDb2dVertex
 10
227.35019897575123
 20
423.1968872070313
 30
0.0
  0
SEQEND
  5
95
100
AcDbEntity
  8
0
370
              -2
390
0
  6
Continuous
 62
               0
  0
POLYLINE
  5
96
100
AcDbEntity
  8
0
370
              -2
390
0
  6
Continuous
 62
               0
100
AcDb2dPolyline
 66
               1
 10
0.0
 20
0.0
 30
0.0
 75
               5
  0
VERTEX
  5
97
100
AcDbEntity
  8
0
370
              -2
390
0
  6
Continuous
 62
               0
100
AcDbVertex
100
AcDb2dVertex
 10
227.35019897575123
 20
252.8031127929687
 30
0.0
  0
VERTEX
  5
98
100
AcDbEntity
  8
0
370
              -2
390
0
  6
Continuous
 62
               0
100
AcDbVertex
100
AcDb2dVertex
 10
224.0
 20
240.29999999999995
 30
0.0
  0
VERTEX
  5
99
100
AcDbEntity
  8
0
370
              -2
390
0
  6
Continuous
 62
               0
100
AcDbVertex
100
AcDb2dVertex
 10
220.64980102424877
 20
252.8031127929687
 30
0.0
  0
SEQEND
  5
9A
100
AcDbEntity
  8
0
370
              -2
390
0
  6
Continuous
 62
               0
  0
WIPEOUT
  5
9B
100
AcDbEntity
  8
寸法
370
              -2
390
0
  6
Continuous
 62
               0
 92
        0
100
AcDbWipeout
 90
        0
 10
181.98888888888888
 20
444.94549214232217
 30
0.0
 11
61.2296820746528
 21
0.0
 31
0.0
 12
0.0
 22
61.2296820746528
 32
0.0
 13
1.0
 23
1.0
340
0
 70
               7
280
               1
281
              50
282
              50
283
               0
360
0
 71
               2
 91
        5
 14
0.1452934226073256
 24
2.7466282449732713
 14
0.1452934226073256
 24
1.7466282449732706
 14
-0.5
 24
1.7466282449732706
 14
-0.5
 24
2.7466282449732713
 14
0.1452934226073256
 24
2.7466282449732713
  0
MTEXT
  5
9C
100
AcDbEntity
  8
寸法
390
0
 62
               0
100
AcDbMText
 10
187.7869386574074
 20
307.38515896267359
 30
0.0
 40
18.649450231481485
 41
0.0
 71
               1
 72
               1
  1
{\f游ゴシック Medium|b0|i0|c128|p0;\l195.4}
 11
0.0
 21
1.0
 31
0.0
 73
               1
 44
1.2762775238886579
  0
POINT
  5
9D
100
AcDbEntity
  8
Defpoints
370
               0
390
0
 62
               0
100
AcDbPoint
 10
317.01999999999998
 20
240.29999999999995
 30
0.0
  0
POINT
  5
9E
100
AcDbEntity
  8
Defpoints
370
               0
390
0
 62
               0
100
AcDbPoint
 10
315.0
 20
435.70000000000005
 30
0.0
  0
POINT
  5
9F
100
AcDbEntity
  8
Defpoints
370
               0
390
0
 62
               0
100
AcDbPoint
 10
224.0
 20
435.70000000000005
 30
0.0
  0
ENDBLK
  5
A0
100
AcDbEntity
  8
寸法
390
0
100
AcDbBlockEnd
  0
BLOCK
  5
A1
100
AcDbEntity
  8
寸法
390
0
100
AcDbBlockBegin
  2
*D8
 70
               1
 10
0.0
 20
0.0
 30
0.0
  3
*D8
  1

  0
LINE
  5
A2
100
AcDbEntity
  8
寸法
370
              -2
390
0
  6
Continuous
 62
               0
100
AcDbLine
 10
307.01999999999998
 20
105.34356680048728
 30
0.0
 11
224.0
 21
105.34356680048728
 31
0.0
  0
LINE
  5
A3
100
AcDbEntity
  8
寸法
370
              -2
390
0
  6
Continuous
 62
               0
100
AcDbLine
 10
305.0
 20
62.943566800487361
 30
0.0
 11
224.0
 21
62.943566800487361
 31
0.0
  0
LINE
  5
A4
100
AcDbEntity
  8
寸法
370
              -2
390
0
  6
Continuous
 62
               0
100
AcDbLine
 10
234.0
 20
105.34356680048728
 30
0.0
 11
234.0
 21
62.943566800487361
 31
0.0
  0
POLYLINE
  5
A5
100
AcDbEntity
  8
0
370
              -2
390
0
  6
Continuous
 62
               0
100
AcDb2dPolyline
 66
               1
 10
0.0
 20
0.0
 30
0.0
 75
               5
  0
VERTEX
  5
A6
100
AcDbEntity
  8
0
370
              -2
390
0
  6
Continuous
 62
               0
100
AcDbVertex
100
AcDb2dVertex
 10
230.64980102424877
 20
92.840454007518531
 30
0.0
  0
VERTEX
  5
A7
100
AcDbEntity
  8
0
370
              -2
390
0
  6
Continuous
 62
               0
100
AcDbVertex
100
AcDb2dVertex
 10
234.0
 20
105.34356680048728
 30
0.0
  0
VERTEX
  5
A8
100
AcDbEntity
  8
0
370
              -2
390
0
  6
Continuous
 62
               0
100
AcDbVertex
100
AcDb2dVertex
 10
237.35019897575123
 20
92.840454007518531
 30
0.0
  0
SEQEND
  5
A9
100
AcDbEntity
  8
0
370
              -2
390
0
  6
Continuous
 62
               0
  0
POLYLINE
  5
AA
100
AcDbEntity
  8
0
370
              -2
390
0
  6
Continuous
 62
               0
100
AcDb2dPolyline
 66
               1
 10
0.0
 20
0.0
 30
0.0
 75
               5
  0
VERTEX
  5
AB
100
AcDbEntity
  8
0
370
              -2
390
0
  6
Continuous
 62
               0
100
AcDbVertex
100
AcDb2dVertex
 10
237.35019897575123
 20
75.446679593456111
 30
0.0
  0
VERTEX
  5
AC
100
AcDbEntity
  8
0
370
              -2
390
0
  6
Continuous
 62
               0
100
AcDbVertex
100
AcDb2dVertex
 10
234.0
 20
62.943566800487361
 30
0.0
  0
VERTEX
  5
AD
100
AcDbEntity
  8
0
370
              -2
390
0
  6
Continuous
 62
               0
100
AcDbVertex
100
AcDb2dVertex
 10
230.64980102424877
 20
75.446679593456111
 30
0.0
  0
SEQEND
  5
AE
100
AcDbEntity
  8
0
370
              -2
390
0
  6
Continuous
 62
               0
  0
WIPEOUT
  5
AF
100
AcDbEntity
  8
寸法
370
              -2
390
0
  6
Continuous
 62
               0
 92
        0
100
AcDbWipeout
 90
        0
 10
191.98888888888894
 20
197.94393768629908
 30
0.0
 11
47.519924587673614
 21
0.0
 31
0.0
 12
0.0
 22
47.519924587673614
 32
0.0
 13
1.0
 23
1.0
340
0
 70
               7
280
               1
281
              50
282
              50
283
               0
360
0
 71
               2
 91
        5
 14
0.3314640954072572
 24
3.3947927500569079
 14
0.3314640954072572
 24
2.3947927500569079
 14
-0.5
 24
2.3947927500569079
 14
-0.5
 24
3.3947927500569079
 14
0.3314640954072572
 24
3.3947927500569079
  0
MTEXT
  5
B0
100
AcDbEntity
  8
寸法
390
0
 62
               0
100
AcDbMText
 10
197.78693865740746
 20
60.383604506650499
 30
0.0
 40
18.649450231481485
 41
0.0
 71
               1
 72
               1
  1
{\f游ゴシック Medium|b0|i0|c128|p0;\l42.4}
 11
0.0
 21
1.0
 31
0.0
 73
               1
 44
1.2762775238886579
  0
POINT
  5
B1
100
AcDbEntity
  8
Defpoints
370
               0
390
0
 62
               0
100
AcDbPoint
 10
315.0
 20
62.943566800487361
 30
0.0
  0
POINT
  5
B2
100
AcDbEntity
  8
Defpoints
370
               0
390
0
 62
               0
100
AcDbPoint
 10
317.01999999999998
 20
105.34356680048728
 30
0.0
  0
POINT
  5
B3
100
AcDbEntity
  8
Defpoints
370
               0
390
0
 62
               0
100
AcDbPoint
 10
234.0
 20
105.34356680048728
 30
0.0
  0
ENDBLK
  5
B4
100
AcDbEntity
  8
寸法
390
0
100
AcDbBlockEnd
  0
ENDSEC
  0
SECTION
  2
ENTITIES
  0
MTEXT
  5
B5
100
AcDbEntity
  8
一般
390
0
 62
               0
100
AcDbMText
 10
12.329639979510318
 20
-296.94227840531528
 30
0.0
 40
7.9926215277777768
 41
0.0
 71
               1
 72
               1
  1
{\f游ゴシック Medium|b0|i0|c128|p0;\l仕様および外観は予告なく変更されることがあります、ご了承ください。}
 73
               1
 44
1.2762775238886586
  0
LINE
  5
B6
100
AcDbEntity
  8
一般
370
               0
390
0
  6
Continuous
 62
               0
100
AcDbLine
 10
-25.0
 20
965.0
 30
0.0
 11
875.0
 21
965.0
 31
0.0
  0
LINE
  5
B7
100
AcDbEntity
  8
一般
370
               0
390
0
  6
Continuous
 62
               0
100
AcDbLine
 10
875.0
 20
-335.0
 30
0.0
 11
-25.0
 21
-335.0
 31
0.0
  0
LINE
  5
B8
100
AcDbEntity
  8
一般
370
               0
390
0
  6
Continuous
 62
               0
100
AcDbLine
 10
-25.0
 20
-335.0
 30
0.0
 11
-25.0
 21
965.0
 31
0.0
  0
LINE
  5
B9
100
AcDbEntity
  8
一般
370
               0
390
0
  6
Continuous
 62
               0
100
AcDbLine
 10
875.0
 20
965.0
 30
0.0
 11
875.0
 21
-335.0
 31
0.0
  0
LINE
  5
BA
100
AcDbEntity
  8
一般
370
               0
390
0
  6
Continuous
 62
               0
100
AcDbLine
 10
425.00000000000006
 20
-222.49999999999977
 30
0.0
 11
875.0
 21
-222.49999999999977
 31
0.0
  0
LINE
  5
BB
100
AcDbEntity
  8
一般
370
               0
390
0
  6
Continuous
 62
               0
100
AcDbLine
 10
425.00000000000006
 20
-335.0
 30
0.0
 11
425.00000000000006
 21
-222.49999999999977
 31
0.0
  0
MTEXT
  5
BC
100
AcDbEntity
  8
一般
390
0
 62
               0
100
AcDbMText
 10
429.50000000000006
 20
-229.66911770833315
 30
0.0
 40
11.988932291666666
 41
0.0
 71
               1
 72
               1
  1
{\f游ゴシック Medium|b0|i0|c128|p0;\lNOTE}
 73
               1
 44
0.8863038360337905
  0
LINE
  5
BD
100
AcDbEntity
  8
一般
370
               0
390
0
  6
Continuous
 62
               0
100
AcDbLine
 10
600.0
 20
-335.0
 30
0.0
 11
600.0
 21
-222.49999999999977
 31
0.0
  0
MTEXT
  5
BE
100
AcDbEntity
  8
一般
390
0
 62
               0
100
AcDbMText
 10
604.5
 20
-229.66911770833315
 30
0.0
 40
11.988932291666666
 41
0.0
 71
               1
 72
               1
  1
{\f游ゴシック Medium|b0|i0|c128|p0;\lTITLE}
 73
               1
 44
0.8863038360337905
  0
LINE
  5
BF
100
AcDbEntity
  8
一般
370
               0
390
0
  6
Continuous
 62
               0
100
AcDbLine
 10
425.00000000000006
 20
-284.99999999999977
 30
0.0
 11
875.0
 21
-284.99999999999977
 31
0.0
  0
MTEXT
  5
C0
100
AcDbEntity
  8
一般
390
0
 62
               0
100
AcDbMText
 10
671.0
 20
-290.64507847222205
 30
0.0
 40
7.9926215277777768
 41
0.0
 71
               1
 72
               1
  1
{\f游ゴシック Medium|b0|i0|c128|p0;\lDRAWN}
 73
               1
 44
1.3294557540506859
  0
MTEXT
  5
C1
100
AcDbEntity
  8
一般
390
0
 62
               0
100
AcDbMText
 10
550.0
 20
-290.64507847222205
 30
0.0
 40
7.9926215277777768
 41
0.0
 71
               1
 72
               1
  1
{\f游ゴシック Medium|b0|i0|c128|p0;\lDATE}
 73
               1
 44
1.3294557540506859
  0
MTEXT
  5
C2
100
AcDbEntity
  8
一般
390
0
 62
               0
100
AcDbMText
 10
496.00000000000006
 20
-290.64507847222205
 30
0.0
 40
7.9926215277777768
 41
0.0
 71
               1
 72
               1
  1
{\f游ゴシック Medium|b0|i0|c128|p0;\lSCALE}
 73
               1
 44
1.3294557540506859
  0
MTEXT
  5
C3
100
AcDbEntity
  8
一般
390
0
 62
               0
100
AcDbMText
 10
608.5
 20
-290.64507847222205
 30
0.0
 40
7.9926215277777768
 41
0.0
 71
               1
 72
               1
  1
{\f游ゴシック Medium|b0|i0|c128|p0;\lDESIGN}
 73
               1
 44
1.3294557540506859
  0
MTEXT
  5
C4
100
AcDbEntity
  8
一般
390
0
 62
               0
100
AcDbMText
 10
792.0
 20
-290.64507847222205
 30
0.0
 40
7.9926215277777768
 41
0.0
 71
               1
 72
               1
  1
{\f游ゴシック Medium|b0|i0|c128|p0;\lDRAWING NO.}
 73
               1
 44
1.3294557540506859
  0
MTEXT
  5
C5
100
AcDbEntity
  8
一般
390
0
 62
               0
100
AcDbMText
 10
735.5
 20
-290.64507847222205
 30
0.0
 40
7.9926215277777768
 41
0.0
 71
               1
 72
               1
  1
{\f游ゴシック Medium|b0|i0|c128|p0;\lCHECK}
 73
               1
 44
1.3294557540506859
  0
LINE
  5
C6
100
AcDbEntity
  8
一般
370
               0
390
0
  6
Continuous
 62
               0
100
AcDbLine
 10
502.87500000000006
 20
-326.75
 30
0.0
 11
521.625
 21
-307.99999999999977
 31
0.0
  0
MTEXT
  5
C7
100
AcDbEntity
  8
一般
390
0
 62
               0
100
AcDbMText
 10
501.75000000000006
 20
-306.92792847222211
 30
0.0
 40
7.9926215277777768
 41
0.0
 71
               1
 72
               1
  1
{\f游ゴシック Medium|b0|i0|c128|p0;\l1}
 73
               1
 44
1.3294557540506859
  0
LINE
  5
C8
100
AcDbEntity
  8
一般
370
               0
390
0
  6
Continuous
 62
               0
100
AcDbLine
 10
487.50000000000006
 20
-335.0
 30
0.0
 11
487.50000000000006
 21
-284.99999999999977
 31
0.0
  0
LINE
  5
C9
100
AcDbEntity
  8
一般
370
               0
390
0
  6
Continuous
 62
               0
100
AcDbLine
 10
537.5
 20
-335.0
 30
0.0
 11
537.5
 21
-284.99999999999977
 31
0.0
  0
LINE
  5
CA
100
AcDbEntity
  8
一般
370
               0
390
0
  6
Continuous
 62
               0
100
AcDbLine
 10
662.5
 20
-284.99999999999977
 30
0.0
 11
662.5
 21
-335.0
 31
0.0
  0
LINE
  5
CB
100
AcDbEntity
  8
一般
370
               0
390
0
  6
Continuous
 62
               0
100
AcDbLine
 10
787.5
 20
-284.99999999999977
 30
0.0
 11
787.5
 21
-335.0
 31
0.0
  0
LINE
  5
CC
100
AcDbEntity
  8
一般
370
               0
390
0
  6
Continuous
 62
               0
100
AcDbLine
 10
725.0
 20
-335.0
 30
0.0
 11
725.0
 21
-284.99999999999977
 31
0.0
  0
MTEXT
  5
CD
100
AcDbEntity
  8
一般
390
0
 62
               0
100
AcDbMText
 10
546.00374348958337
 20
-309.48487847222225
 30
0.0
 40
7.9926215277777768
 41
0.0
 71
               1
 72
               1
  1
{\f游ゴシック Medium|b0|i0|c128|p0;\l2022.02}
 73
               1
 44
1.3294557540506859
  0
MTEXT
  5
CE
100
AcDbEntity
  8
一般
390
0
 62
               0
100
AcDbMText
 10
517.68379901678236
 20
-317.30292847222211
 30
0.0
 40
7.9926215277777768
 41
0.0
 71
               1
 72
               1
  1
{\f游ゴシック Medium|b0|i0|c128|p0;\l5}
 73
               1
 44
1.3294557540506859
  0
MTEXT
  5
CF
100
AcDbEntity
  8
一般
390
0
 62
               0
100
AcDbMText
 10
675.02905005517323
 20
-306.56497847222215
 30
0.0
 40
7.9926215277777768
 41
0.0
 71
               1
 72
               1
  1
{\f游ゴシック Medium|b0|i0|c128|p0;\lShohei\P   kojima}
 73
               1
 44
0.7976734524304113
  0
MTEXT
  5
D0
100
AcDbEntity
  8
一般
390
0
 62
               0
100
AcDbMText
 10
444.4166666666668
 20
-310.64398437499983
 30
0.0
 40
11.988932291666666
 41
0.0
 71
               1
 72
               1
  1
{\f游ゴシック Medium|b0|i0|c128|p0;\lA4}
 73
               1
 44
0.8863038360337905
  0
MTEXT
  5
D1
100
AcDbEntity
  8
一般
390
0
 62
               0
100
AcDbMText
 10
426.82096354166663
 20
-290.48487847222202
 30
0.0
 40
7.9926215277777768
 41
0.0
 71
               1
 72
               1
  1
{\f游ゴシック Medium|b0|i0|c128|p0;\lPAPER SIZE}
 73
               1
 44
1.3294557540506859
  0
MTEXT
  5
D2
100
AcDbEntity
  8
一般
390
0
 62
               0
100
AcDbMText
 10
3.7981762844510172
 20
-342.7898267495849
 30
0.0
 40
17.317346643518515
 41
0.0
 71
               1
 72
               1
  1
{\f游ゴシック Medium|b0|i0|c128|p0;\lHibino-Intersound Corporation}
 73
               1
 44
1.2762775238886588
  0
MTEXT
  5
D3
100
AcDbEntity
  8
一般
390
0
 62
               0
100
AcDbMText
 10
526.75176243896487
 20
-342.7898267495849
 30
0.0
 40
17.317346643518515
 41
0.0
 71
               1
 72
               1
  1
{\f游ゴシック Medium|b0|i0|c128|p0;\lヒビノインタ ーサウンド株式会社}
 73
               1
 44
0.6135949634080089
  0
LINE
  5
D4
100
AcDbEntity
  8
一般
370
               0
390
0
  6
Continuous
 62
               0
100
AcDbLine
 10
45.455386174587773
 20
855.39940068721694
 30
0.0
 11
812.95538617458772
 21
855.39940068721694
 31
0.0
  0
LINE
  5
D5
100
AcDbEntity
  8
一般
370
               0
390
0
  6
Continuous
 62
               0
100
AcDbLine
 10
45.455386174587773
 20
836.64940068721694
 30
0.0
 11
812.95538617458783
 21
836.64940068721694
 31
0.0
  0
LINE
  5
D6
100
AcDbEntity
  8
一般
370
               0
390
0
  6
Continuous
 62
               0
100
AcDbLine
 10
45.455386174587716
 20
874.14940068721694
 30
0.0
 11
45.455386174587773
 21
705.39940068721694
 31
0.0
  0
MTEXT
  5
D7
100
AcDbEntity
  8
一般
390
0
 62
               0
100
AcDbMText
 10
37.911405711892883
 20
901.08318413629104
 30
0.0
 40
9.3247251157407423
 41
0.0
 71
               1
 72
               1
  1
{\f游ゴシック Medium|b0|i0|c128|p0;\l仕様}
 73
               1
 44
1.139533503472016
  0
LINE
  5
D8
100
AcDbEntity
  8
一般
370
               0
390
0
  6
Continuous
 62
               0
100
AcDbLine
 10
213.95538617458772
 20
874.14940068721694
 30
0.0
 11
213.95538617458772
 21
705.39940068721694
 31
0.0
  0
LINE
  5
D9
100
AcDbEntity
  8
一般
370
               0
390
0
  6
Continuous
 62
               0
100
AcDbLine
 10
812.95538617458772
 20
874.14940068721694
 30
0.0
 11
812.95538617458772
 21
705.39940068721694
 31
0.0
  0
LINE
  5
DA
100
AcDbEntity
  8
一般
370
               0
390
0
  6
Continuous
 62
               0
100
AcDbLine
 10
45.455386174587773
 20
817.89940068721694
 30
0.0
 11
812.95538617458772
 21
817.89940068721694
 31
0.0
  0
LINE
  5
DB
100
AcDbEntity
  8
一般
370
               0
390
0
  6
Continuous
 62
               0
100
AcDbLine
 10
45.455386174587773
 20
799.14940068721694
 30
0.0
 11
812.95538617458772
 21
799.14940068721694
 31
0.0
  0
LINE
  5
DC
100
AcDbEntity
  8
一般
370
               0
390
0
  6
Continuous
 62
               0
100
AcDbLine
 10
45.455386174587773
 20
724.14940068721694
 30
0.0
 11
812.95538617458772
 21
724.14940068721694
 31
0.0
  0
MTEXT
  5
DD
100
AcDbEntity
  8
一般
390
0
 62
               0
100
AcDbMText
 10
51.391266546359532
 20
736.92476062758055
 30
0.0
 40
9.3247251157407423
 41
0.0
 71
               1
 72
               1
  1
{\f游ゴシック Medium|b0|i0|c128|p0;\l寸法(W×H×D)}
 73
               1
 44
1.139533503472016
  0
MTEXT
  5
DE
100
AcDbEntity
  8
一般
390
0
 62
               0
100
AcDbMText
 10
51.584582511055771
 20
717.59200037461665
 30
0.0
 40
9.3247251157407423
 41
0.0
 71
               1
 72
               1
  1
{\f游ゴシック Medium|b0|i0|c128|p0;\l重量}
 73
               1
 44
1.139533503472016
  0
MTEXT
  5
DF
100
AcDbEntity
  8
一般
390
0
 62
               0
100
AcDbMText
 10
51.561369969283021
 20
830.78933548686769
 30
0.0
 40
9.3247251157407423
 41
0.0
 71
               1
 72
               1
  1
{\f游ゴシック Medium|b0|i0|c128|p0;\l電源}
 73
               1
 44
1.139533503472016
  0
MTEXT
  5
E0
100
AcDbEntity
  8
一般
390
0
 62
               0
100
AcDbMText
 10
226.22200872001591
 20
830.45048535968976
 30
0.0
 40
9.3247251157407423
 41
533.40278152258406
 71
               1
 72
               1
  1
{\f游ゴシック Medium|b0|i0|c128|p0;\lPoE（IEEE802.3af）、又はDC12V（ACアダプタ用）}
 73
               1
 44
1.139533503472016
  0
MTEXT
  5
E1
100
AcDbEntity
  8
一般
390
0
 62
               0
100
AcDbMText
 10
50.053986746620012
 20
849.02662700572546
 30
0.0
 40
9.3247251157407423
 41
0.0
 71
               1
 72
               1
  1
{\f游ゴシック Medium|b0|i0|c128|p0;\lインタ ーフェイスポート}
 73
               1
 44
1.139533503472016
  0
MTEXT
  5
E2
100
AcDbEntity
  8
一般
390
0
 62
               0
100
AcDbMText
 10
226.22200872001591
 20
849.20048535968976
 30
0.0
 40
9.3247251157407423
 41
0.0
 71
               1
 72
               1
  1
{\f游ゴシック Medium|b0|i0|c128|p0;\lPHOENIX CONTACT社コネクタタイプ}
 73
               1
 44
1.139533503472016
  0
LINE
  5
E3
100
AcDbEntity
  8
一般
370
               0
390
0
  6
Continuous
 62
               0
100
AcDbLine
 10
45.455386174587773
 20
705.39940068721694
 30
0.0
 11
812.95538617458772
 21
705.39940068721694
 31
0.0
  0
MTEXT
  5
E4
100
AcDbEntity
  8
一般
390
0
 62
               0
100
AcDbMText
 10
51.561369969283021
 20
812.03933548686769
 30
0.0
 40
9.3247251157407423
 41
0.0
 71
               1
 72
               1
  1
{\f游ゴシック Medium|b0|i0|c128|p0;\l消費電力}
 73
               1
 44
1.139533503472016
  0
MTEXT
  5
E5
100
AcDbEntity
  8
一般
390
0
 62
               0
100
AcDbMText
 10
50.64213235011573
 20
-53.940299834989844
 30
0.0
 40
11.988932291666666
 41
0.0
 71
               1
 72
               1
  1
{\f游ゴシック Medium|b0|i0|c128|p0;\l(単位：mm)}
 73
               1
 44
1.2762775238886581
  0
LINE
  5
E6
100
AcDbEntity
  8
一般
370
               0
390
0
  6
Continuous
 62
               0
100
AcDbLine
 10
45.455386174587716
 20
874.14940068721694
 30
0.0
 11
812.95538617458772
 21
874.14940068721694
 31
0.0
  0
MTEXT
  5
E7
100
AcDbEntity
  8
一般
390
0
 62
               0
100
AcDbMText
 10
51.625903715650281
 20
867.37047906425187
 30
0.0
 40
9.3247251157407423
 41
0.0
 71
               1
 72
               1
  1
{\f游ゴシック Medium|b0|i0|c128|p0;\l形式}
 73
               1
 44
1.139533503472016
  0
MTEXT
  5
E8
100
AcDbEntity
  8
一般
390
0
 62
               0
100
AcDbMText
 10
226.32964760890479
 20
867.45048535968976
 30
0.0
 40
9.3247251157407423
 41
0.0
 71
               1
 72
               1
  1
{\f游ゴシック Medium|b0|i0|c128|p0;\lGPIOインタ ーフェイス　対応機種：dLive、AVANTIS、AHM各シリーズ（システムによる）}
 73
               1
 44
1.139533503472016
  0
MTEXT
  5
E9
100
AcDbEntity
  8
一般
390
0
 62
               0
100
AcDbMText
 10
226.22200872001591
 20
811.70048535968976
 30
0.0
 40
9.3247251157407423
 41
0.0
 71
               1
 72
               1
  1
{\f游ゴシック Medium|b0|i0|c128|p0;\lPoE給電時 0.9A、DC12V（付属ACアダプタ使用時）1A}
 73
               1
 44
1.139533503472016
  0
LINE
  5
EA
100
AcDbEntity
  8
一般
370
               0
390
0
  6
Continuous
 62
               0
100
AcDbLine
 10
45.455386174587716
 20
742.89940068721694
 30
0.0
 11
812.95538617458772
 21
742.89940068721694
 31
0.0
  0
MTEXT
  5
EB
100
AcDbEntity
  8
一般
390
0
 62
               0
100
AcDbMText
 10
51.561369969283021
 20
793.28933548686769
 30
0.0
 40
9.3247251157407423
 41
0.0
 71
               1
 72
               1
  1
{\f游ゴシック Medium|b0|i0|c128|p0;\l動作温度範囲}
 73
               1
 44
1.139533503472016
  0
MTEXT
  5
EC
100
AcDbEntity
  8
一般
390
0
 62
               0
100
AcDbMText
 10
226.22200872001591
 20
792.95048535968976
 30
0.0
 40
9.3247251157407423
 41
0.0
 71
               1
 72
               1
  1
{\f游ゴシック Medium|b0|i0|c128|p0;\l0°～ ＋35°}
 73
               1
 44
1.139533503472016
  0
MTEXT
  5
ED
100
AcDbEntity
  8
一般
390
0
 62
               0
100
AcDbMText
 10
223.22199346122684
 20
718.87410410019538
 30
0.0
 40
9.3247251157407423
 41
0.0
 71
               1
 72
               1
  1
{\f游ゴシック Medium|b0|i0|c128|p0;\l約1.2kg}
 73
               1
 44
1.139533503472016
  0
LINE
  5
EE
100
AcDbEntity
  8
一般
370
               0
390
0
  6
Continuous
 62
               0
100
AcDbLine
 10
45.455386174587773
 20
761.64940068721694
 30
0.0
 11
812.95538617458772
 21
761.64940068721694
 31
0.0
  0
LINE
  5
EF
100
AcDbEntity
  8
一般
370
               0
390
0
  6
Continuous
 62
               0
100
AcDbLine
 10
45.455386174587716
 20
780.39940068721694
 30
0.0
 11
812.95538617458772
 21
780.39940068721694
 31
0.0
  0
MTEXT
  5
F0
100
AcDbEntity
  8
一般
390
0
 62
               0
100
AcDbMText
 10
51.32963235011573
 20
754.70049298908418
 30
0.0
 40
9.3247251157407423
 41
0.0
 71
               1
 72
               1
  1
{\f游ゴシック Medium|b0|i0|c128|p0;\lリレー出力最大電流}
 73
               1
 44
1.139533503472016
  0
MTEXT
  5
F1
100
AcDbEntity
  8
一般
390
0
 62
               0
100
AcDbMText
 10
51.32963235011573
 20
774.45049298908418
 30
0.0
 40
9.3247251157407423
 41
0.0
 71
               1
 72
               1
  1
{\f游ゴシック Medium|b0|i0|c128|p0;\lリレー出力最大電圧}
 73
               1
 44
1.139533503472016
  0
MTEXT
  5
F2
100
AcDbEntity
  8
一般
390
0
 62
               0
100
AcDbMText
 10
225.28796568344907
 20
754.62410410019538
 30
0.0
 40
9.3247251157407423
 41
0.0
 71
               1
 72
               1
  1
{\f游ゴシック Medium|b0|i0|c128|p0;\l400m A}
 73
               1
 44
1.139533503472016
  0
MTEXT
  5
F3
100
AcDbEntity
  8
一般
390
0
 62
               0
100
AcDbMText
 10
225.3296323501157
 20
773.20049298908418
 30
0.0
 40
9.3247251157407423
 41
0.0
 71
               1
 72
               1
  1
{\f游ゴシック Medium|b0|i0|c128|p0;\l24V DC\P}
 73
               1
 44
1.139533503472016
  0
LINE
  5
F4
100
AcDbEntity
  8
Visible Edges(A H Standard)
370
               0
390
0
 62
               0
100
AcDbLine
 10
317.01999999999998
 20
435.70000000000005
 30
0.0
 11
315.0
 21
435.70000000000005
 31
0.0
  0
LINE
  5
F5
100
AcDbEntity
  8
Visible Edges(A H Standard)
370
               0
390
0
 62
               0
100
AcDbLine
 10
486.0
 20
435.70000000000005
 30
0.0
 11
483.98000000000002
 21
435.70000000000005
 31
0.0
  0
LINE
  5
F6
100
AcDbEntity
  8
Visible Edges(A H Standard)
370
               0
390
0
 62
               0
100
AcDbLine
 10
483.98000000000002
 20
240.29999999999995
 30
0.0
 11
486.0
 21
240.29999999999995
 31
0.0
  0
LINE
  5
F7
100
AcDbEntity
  8
Visible Edges(A H Standard)
370
               0
390
0
 62
               0
100
AcDbLine
 10
315.0
 20
240.29999999999995
 30
0.0
 11
317.01999999999998
 21
240.29999999999995
 31
0.0
  0
LINE
  5
F8
100
AcDbEntity
  8
Visible Edges(A H Standard)
370
               0
390
0
 62
               0
100
AcDbLine
 10
486.0
 20
433.68000000000001
 30
0.0
 11
483.98000000000002
 21
433.68000000000001
 31
0.0
  0
LINE
  5
F9
100
AcDbEntity
  8
Visible Edges(A H Standard)
370
               0
390
0
 62
               0
100
AcDbLine
 10
483.98000000000002
 20
242.31999999999996
 30
0.0
 11
486.0
 21
242.31999999999996
 31
0.0
  0
LINE
  5
FA
100
AcDbEntity
  8
Visible Edges(A H Standard)
370
               0
390
0
 62
               0
100
AcDbLine
 10
315.0
 20
242.31999999999996
 30
0.0
 11
317.01999999999998
 21
242.31999999999996
 31
0.0
  0
LINE
  5
FB
100
AcDbEntity
  8
Visible Edges(A H Standard)
370
               0
390
0
 62
               0
100
AcDbLine
 10
317.01999999999998
 20
433.68000000000001
 30
0.0
 11
315.0
 21
433.68000000000001
 31
0.0
  0
LINE
  5
FC
100
AcDbEntity
  8
Visible Edges(A H Standard)
370
               0
390
0
 62
               0
100
AcDbLine
 10
483.98000000000002
 20
240.29999999999995
 30
0.0
 11
483.98000000000002
 21
242.31999999999996
 31
0.0
  0
LINE
  5
FD
100
AcDbEntity
  8
Visible Edges(A H Standard)
370
               0
390
0
 62
               0
100
AcDbLine
 10
317.01999999999998
 20
242.31999999999996
 30
0.0
 11
317.01999999999998
 21
240.29999999999998
 31
0.0
  0
LINE
  5
FE
100
AcDbEntity
  8
Visible Edges(A H Standard)
370
               0
390
0
 62
               0
100
AcDbLine
 10
317.01999999999998
 20
435.70000000000005
 30
0.0
 11
317.01999999999998
 21
433.68000000000006
 31
0.0
  0
LINE
  5
FF
100
AcDbEntity
  8
Visible Edges(A H Standard)
370
               0
390
0
 62
               0
100
AcDbLine
 10
483.98000000000002
 20
433.68000000000006
 30
0.0
 11
483.98000000000002
 21
435.70000000000005
 31
0.0
  0
LINE
  5
100
100
AcDbEntity
  8
Visible Edges(A H Standard)
370
               0
390
0
 62
               0
100
AcDbLine
 10
317.01999999999998
 20
435.70000000000005
 30
0.0
 11
483.98000000000025
 21
435.70000000000005
 31
0.0
  0
LINE
  5
101
100
AcDbEntity
  8
Visible Edges(A H Standard)
370
               0
390
0
 62
               0
100
AcDbLine
 10
483.98000000000002
 20
240.29999999999995
 30
0.0
 11
317.01999999999998
 21
240.29999999999995
 31
0.0
  0
LINE
  5
102
100
AcDbEntity
  8
Visible Edges(A H Standard)
370
               0
390
0
 62
               0
100
AcDbLine
 10
486.0
 20
435.70000000000005
 30
0.0
 11
486.0
 21
240.29999999999995
 31
0.0
  0
LINE
  5
103
100
AcDbEntity
  8
Visible Tangent Edges(A H Standard)
370
               0
390
0
 62
               0
100
AcDbLine
 10
483.98000000000002
 20
242.31999999999996
 30
0.0
 11
483.98000000000002
 21
433.68000000000001
 31
0.0
  0
LINE
  5
104
100
AcDbEntity
  8
Visible Edges(A H Standard)
370
               0
390
0
 62
               0
100
AcDbLine
 10
315.0
 20
240.29999999999995
 30
0.0
 11
315.0
 21
435.70000000000005
 31
0.0
  0
LINE
  5
105
100
AcDbEntity
  8
Visible Tangent Edges(A H Standard)
370
               0
390
0
 62
               0
100
AcDbLine
 10
317.01999999999998
 20
433.68000000000001
 30
0.0
 11
317.01999999999998
 21
242.31999999999996
 31
0.0
  0
LINE
  5
106
100
AcDbEntity
  8
Visible Tangent Edges(A H Standard)
370
               0
390
0
 62
               0
100
AcDbLine
 10
317.01999999999998
 20
242.31999999999996
 30
0.0
 11
483.98000000000002
 21
242.31999999999996
 31
0.0
  0
LINE
  5
107
100
AcDbEntity
  8
Visible Tangent Edges(A H Standard)
370
               0
390
0
 62
               0
100
AcDbLine
 10
483.98000000000002
 20
433.68000000000001
 30
0.0
 11
317.01999999999998
 21
433.68000000000001
 31
0.0
  0
LINE
  5
108
100
AcDbEntity
  8
Visible Tangent Edges(A H Standard)
370
               0
390
0
 62
               0
100
AcDbLine
 10
406.49999999999955
 20
239.70000000000005
 30
0.0
 11
409.49999999999955
 21
239.70000000000005
 31
0.0
  0
LINE
  5
109
100
AcDbEntity
  8
Visible Edges(A H Standard)
370
               0
390
0
 62
               0
100
AcDbLine
 10
409.49999999999955
 20
240.29999999999995
 30
0.0
 11
409.49999999999955
 21
239.69999999999999
 31
0.0
  0
LINE
  5
10A
100
AcDbEntity
  8
Visible Edges(A H Standard)
370
               0
390
0
 62
               0
100
AcDbLine
 10
406.49999999999955
 20
240.29999999999995
 30
0.0
 11
406.49999999999955
 21
239.69999999999999
 31
0.0
  0
ARC
  5
10B
100
AcDbEntity
  8
Visible Edges(A H Standard)
370
               0
390
0
 62
               0
100
AcDbCircle
 10
407.30333333333328
 20
239.70000000000005
 30
0.0
 40
0.8033333333332848
100
AcDbArc
 50
180.0
 51
270.0
  0
ARC
  5
10C
100
AcDbEntity
  8
Visible Edges(A H Standard)
370
               0
390
0
 62
               0
100
AcDbCircle
 10
408.69666666666626
 20
239.70000000000005
 30
0.0
 40
0.8033333333333417
100
AcDbArc
 50
270.0
 51
0.0
  0
LINE
  5
10D
100
AcDbEntity
  8
Visible Edges(A H Standard)
370
               0
390
0
 62
               0
100
AcDbLine
 10
407.30333333333328
 20
238.89666666666668
 30
0.0
 11
408.69666666666626
 21
238.89666666666668
 31
0.0
  0
LINE
  5
10E
100
AcDbEntity
  8
Visible Tangent Edges(A H Standard)
370
               0
390
0
 62
               0
100
AcDbLine
 10
398.99999999999955
 20
239.70000000000005
 30
0.0
 11
401.99999999999955
 21
239.70000000000005
 31
0.0
  0
LINE
  5
10F
100
AcDbEntity
  8
Visible Edges(A H Standard)
370
               0
390
0
 62
               0
100
AcDbLine
 10
401.99999999999955
 20
240.29999999999995
 30
0.0
 11
401.99999999999955
 21
239.69999999999999
 31
0.0
  0
LINE
  5
110
100
AcDbEntity
  8
Visible Edges(A H Standard)
370
               0
390
0
 62
               0
100
AcDbLine
 10
398.99999999999955
 20
240.29999999999995
 30
0.0
 11
398.99999999999955
 21
239.69999999999999
 31
0.0
  0
ARC
  5
111
100
AcDbEntity
  8
Visible Edges(A H Standard)
370
               0
390
0
 62
               0
100
AcDbCircle
 10
399.80333333333328
 20
239.70000000000005
 30
0.0
 40
0.8033333333332848
100
AcDbArc
 50
180.0
 51
270.0
  0
ARC
  5
112
100
AcDbEntity
  8
Visible Edges(A H Standard)
370
               0
390
0
 62
               0
100
AcDbCircle
 10
401.19666666666626
 20
239.70000000000005
 30
0.0
 40
0.8033333333333417
100
AcDbArc
 50
270.0
 51
0.0
  0
LINE
  5
113
100
AcDbEntity
  8
Visible Edges(A H Standard)
370
               0
390
0
 62
               0
100
AcDbLine
 10
399.80333333333328
 20
238.89666666666668
 30
0.0
 11
401.19666666666626
 21
238.89666666666668
 31
0.0
  0
LINE
  5
114
100
AcDbEntity
  8
Visible Tangent Edges(A H Standard)
370
               0
390
0
 62
               0
100
AcDbLine
 10
391.49999999999955
 20
239.70000000000005
 30
0.0
 11
394.49999999999955
 21
239.70000000000005
 31
0.0
  0
LINE
  5
115
100
AcDbEntity
  8
Visible Edges(A H Standard)
370
               0
390
0
 62
               0
100
AcDbLine
 10
394.49999999999955
 20
240.29999999999995
 30
0.0
 11
394.49999999999955
 21
239.69999999999999
 31
0.0
  0
LINE
  5
116
100
AcDbEntity
  8
Visible Edges(A H Standard)
370
               0
390
0
 62
               0
100
AcDbLine
 10
391.49999999999955
 20
240.29999999999995
 30
0.0
 11
391.49999999999955
 21
239.69999999999999
 31
0.0
  0
ARC
  5
117
100
AcDbEntity
  8
Visible Edges(A H Standard)
370
               0
390
0
 62
               0
100
AcDbCircle
 10
392.30333333333328
 20
239.70000000000005
 30
0.0
 40
0.8033333333332848
100
AcDbArc
 50
180.0
 51
270.0
  0
ARC
  5
118
100
AcDbEntity
  8
Visible Edges(A H Standard)
370
               0
390
0
 62
               0
100
AcDbCircle
 10
393.69666666666626
 20
239.70000000000005
 30
0.0
 40
0.8033333333333417
100
AcDbArc
 50
270.0
 51
0.0
  0
LINE
  5
119
100
AcDbEntity
  8
Visible Edges(A H Standard)
370
               0
390
0
 62
               0
100
AcDbLine
 10
392.30333333333328
 20
238.89666666666668
 30
0.0
 11
393.69666666666626
 21
238.89666666666668
 31
0.0
  0
CIRCLE
  5
11A
100
AcDbEntity
  8
Visible Edges(A H Standard)
370
               0
390
0
 62
               0
100
AcDbCircle
 10
400.49999999999955
 20
95.493566800486519
 30
0.0
 40
1.6000000000003638
  0
CIRCLE
  5
11B
100
AcDbEntity
  8
Visible Edges(A H Standard)
370
               0
390
0
 62
               0
100
AcDbCircle
 10
407.99999999999955
 20
95.493566800486519
 30
0.0
 40
1.6000000000003638
  0
CIRCLE
  5
11C
100
AcDbEntity
  8
Visible Edges(A H Standard)
370
               0
390
0
 62
               0
100
AcDbCircle
 10
392.99999999999955
 20
95.493566800486548
 30
0.0
 40
1.6000000000003638
  0
LINE
  5
11D
100
AcDbEntity
  8
Visible Edges(A H Standard)
370
               0
390
0
 62
               0
100
AcDbLine
 10
486.0
 20
62.943566800487304
 30
0.0
 11
315.0
 21
62.943566800487361
 31
0.0
  0
LINE
  5
11E
100
AcDbEntity
  8
Visible Edges(A H Standard)
370
               0
390
0
 62
               0
100
AcDbLine
 10
486.0
 20
62.943566800487304
 30
0.0
 11
486.0
 21
64.96356680048666
 31
0.0
  0
LINE
  5
11F
100
AcDbEntity
  8
Visible Tangent Edges(A H Standard)
370
               0
390
0
 62
               0
100
AcDbLine
 10
315.0
 20
64.96356680048666
 30
0.0
 11
486.0
 21
64.963566800486632
 31
0.0
  0
LINE
  5
120
100
AcDbEntity
  8
Visible Edges(A H Standard)
370
               0
390
0
 62
               0
100
AcDbLine
 10
315.0
 20
64.96356680048666
 30
0.0
 11
315.0
 21
62.943566800487361
 31
0.0
  0
LINE
  5
121
100
AcDbEntity
  8
Visible Edges(A H Standard)
370
               0
390
0
 62
               0
100
AcDbLine
 10
486.0
 20
103.32356680048665
 30
0.0
 11
486.0
 21
64.963566800486632
 31
0.0
  0
LINE
  5
122
100
AcDbEntity
  8
Visible Edges(A H Standard)
370
               0
390
0
 62
               0
100
AcDbLine
 10
483.98000000000002
 20
103.32356680048665
 30
0.0
 11
486.0
 21
103.32356680048665
 31
0.0
  0
LINE
  5
123
100
AcDbEntity
  8
Visible Edges(A H Standard)
370
               0
390
0
 62
               0
100
AcDbLine
 10
315.0
 20
103.32356680048667
 30
0.0
 11
317.01999999999998
 21
103.32356680048667
 31
0.0
  0
LINE
  5
124
100
AcDbEntity
  8
Visible Edges(A H Standard)
370
               0
390
0
 62
               0
100
AcDbLine
 10
315.0
 20
64.96356680048666
 30
0.0
 11
315.0
 21
103.32356680048667
 31
0.0
  0
ARC
  5
125
100
AcDbEntity
  8
Visible Edges(A H Standard)
370
               0
390
0
 62
               0
100
AcDbCircle
 10
483.98000000000002
 20
103.32356680048727
 30
0.0
 40
2.0199999999999818
100
AcDbArc
 50
0.0
 51
90.0
  0
ARC
  5
126
100
AcDbEntity
  8
Visible Edges(A H Standard)
370
               0
390
0
 62
               0
100
AcDbCircle
 10
317.01999999999998
 20
103.3235668004873
 30
0.0
 40
2.0199999999999818
100
AcDbArc
 50
90.0
 51
180.0
  0
LINE
  5
127
100
AcDbEntity
  8
Visible Tangent Edges(A H Standard)
370
               0
390
0
 62
               0
100
AcDbLine
 10
483.98000000000002
 20
103.32356680048665
 30
0.0
 11
317.01999999999998
 21
103.32356680048667
 31
0.0
  0
LINE
  5
128
100
AcDbEntity
  8
Visible Edges(A H Standard)
370
               0
390
0
 62
               0
100
AcDbLine
 10
317.01999999999998
 20
105.34356680048728
 30
0.0
 11
483.98000000000002
 21
105.34356680048725
 31
0.0
  0
CIRCLE
  5
129
100
AcDbEntity
  8
Visible Edges(A H Standard)
370
               0
390
0
 62
               0
100
AcDbCircle
 10
407.99999999999955
 20
95.493566800485439
 30
0.0
 40
1.5
  0
CIRCLE
  5
12A
100
AcDbEntity
  8
Visible Edges(A H Standard)
370
               0
390
0
 62
               0
100
AcDbCircle
 10
400.49999999999955
 20
95.493566800485439
 30
0.0
 40
1.5
  0
CIRCLE
  5
12B
100
AcDbEntity
  8
Visible Edges(A H Standard)
370
               0
390
0
 62
               0
100
AcDbCircle
 10
392.99999999999955
 20
95.493566800485468
 30
0.0
 40
1.5
  0
INSERT
  5
12C
100
AcDbEntity
  8
0
390
0
 62
               0
100
AcDbBlockReference
  2
グループ-3
 10
425.3249066765614
 20
287.76457349691282
 30
0.0
  0
MTEXT
  5
12D
100
AcDbEntity
  8
一般
390
0
 62
               0
100
AcDbMText
 10
744.0
 20
-230.33168153266899
 30
0.0
 40
11.988932291666666
 41
244.69103199081468
 71
               2
 72
               1
  1
{\f游ゴシック Medium|b1|i0|c128|p0;\lALLEN&HEATH\PGPIO インタ ーフェイス}
 73
               1
 44
0.8863038360337905
  0
MTEXT
  5
12E
100
AcDbEntity
  8
0
390
0
 62
               0
100
AcDbMText
 10
685.11212158203125
 20
-268.4493204215579
 30
0.0
 40
11.988932291666666
 41
0.0
 71
               1
 72
               1
  1
{\f游ゴシック Medium|b1|i0|c128|p0;\l（型 名：GPIO）}
 73
               1
 44
0.8863038360337905
  0
LINE
  5
12F
100
AcDbEntity
  8
一般
370
               0
390
0
  6
Continuous
 62
               0
100
AcDbLine
 10
787.5
 20
-284.99999999999977
 30
0.0
 11
787.5
 21
-335.0
 31
0.0
  0
LINE
  5
130
100
AcDbEntity
  8
Visible Edges(A H Standard)
370
               0
390
0
 62
               0
100
AcDbLine
 10
667.00000000000091
 20
427.48196396479102
 30
0.0
 11
667.00000000000136
 21
425.65000000000003
 31
0.0
  0
LINE
  5
131
100
AcDbEntity
  8
Visible Edges(A H Standard)
370
               0
390
0
 62
               0
100
AcDbLine
 10
667.00000000000136
 20
425.65000000000003
 30
0.0
 11
668.40000000000055
 21
425.65000000000003
 31
0.0
  0
LINE
  5
132
100
AcDbEntity
  8
Visible Edges(A H Standard)
370
               0
390
0
 62
               0
100
AcDbLine
 10
667.00000000000045
 20
250.34999999999994
 30
0.0
 11
667.0
 21
248.51803603520997
 31
0.0
  0
LINE
  5
133
100
AcDbEntity
  8
Visible Edges(A H Standard)
370
               0
390
0
 62
               0
100
AcDbLine
 10
668.40000000000055
 20
250.34999999999994
 30
0.0
 11
667.00000000000045
 21
250.34999999999994
 31
0.0
  0
LINE
  5
134
100
AcDbEntity
  8
Visible Edges(A H Standard)
370
               0
390
0
 62
               0
100
AcDbLine
 10
628.02000000000089
 20
435.69999999999999
 30
0.0
 11
666.38000000000056
 21
435.69999999999959
 31
0.0
  0
LINE
  5
135
100
AcDbEntity
  8
Visible Edges(A H Standard)
370
               0
390
0
 62
               0
100
AcDbLine
 10
628.02000000000044
 20
434.5
 30
0.0
 11
666.38000000000056
 21
434.49999999999966
 31
0.0
  0
LINE
  5
136
100
AcDbEntity
  8
Visible Edges(A H Standard)
370
               0
390
0
 62
               0
100
AcDbLine
 10
628.02000000000044
 20
434.5
 30
0.0
 11
628.02000000000089
 21
435.69999999999999
 31
0.0
  0
LINE
  5
137
100
AcDbEntity
  8
Visible Edges(A H Standard)
370
               0
390
0
 62
               0
100
AcDbLine
 10
666.38000000000056
 20
240.30000000000027
 30
0.0
 11
628.02000000000044
 21
240.2999999999999
 31
0.0
  0
LINE
  5
138
100
AcDbEntity
  8
Visible Edges(A H Standard)
370
               0
390
0
 62
               0
100
AcDbLine
 10
628.02000000000044
 20
241.49999999999994
 30
0.0
 11
666.38000000000056
 21
241.50000000000023
 31
0.0
  0
LINE
  5
139
100
AcDbEntity
  8
Visible Edges(A H Standard)
370
               0
390
0
 62
               0
100
AcDbLine
 10
628.02000000000044
 20
242.31999999999996
 30
0.0
 11
626.0
 21
242.31999999999996
 31
0.0
  0
LINE
  5
13A
100
AcDbEntity
  8
Visible Edges(A H Standard)
370
               0
390
0
 62
               0
100
AcDbLine
 10
626.0
 20
433.68000000000001
 30
0.0
 11
628.02000000000044
 21
433.68000000000001
 31
0.0
  0
ARC
  5
13B
100
AcDbEntity
  8
Visible Edges(A H Standard)
370
               0
390
0
 62
               0
100
AcDbCircle
 10
628.01999999999998
 20
242.31999999999988
 30
0.0
 40
2.0199999999999818
100
AcDbArc
 50
180.0
 51
270.0
  0
LINE
  5
13C
100
AcDbEntity
  8
Visible Edges(A H Standard)
370
               0
390
0
 62
               0
100
AcDbLine
 10
628.02000000000044
 20
241.49999999999994
 30
0.0
 11
628.02000000000044
 21
240.2999999999999
 31
0.0
  0
ARC
  5
13D
100
AcDbEntity
  8
Visible Edges(A H Standard)
370
               0
390
0
 62
               0
100
AcDbCircle
 10
628.01999999999998
 20
242.31999999999994
 30
0.0
 40
0.8200000000001637
100
AcDbArc
 50
180.0
 51
270.0
  0
ARC
  5
13E
100
AcDbEntity
  8
Visible Edges(A H Standard)
370
               0
390
0
 62
               0
100
AcDbCircle
 10
628.01999999999998
 20
433.68000000000001
 30
0.0
 40
2.0199999999999818
100
AcDbArc
 50
90.0
 51
180.0
  0
ARC
  5
13F
100
AcDbEntity
  8
Visible Edges(A H Standard)
370
               0
390
0
 62
               0
100
AcDbCircle
 10
628.01999999999998
 20
433.68000000000001
 30
0.0
 40
0.8199999999999932
100
AcDbArc
 50
90.0
 51
180.0
  0
CIRCLE
  5
140
100
AcDbEntity
  8
Visible Edges(A H Standard)
370
               0
390
0
 62
               0
100
AcDbCircle
 10
659.50000000000045
 20
377.29999999999984
 30
0.0
 40
1.5
  0
CIRCLE
  5
141
100
AcDbEntity
  8
Visible Edges(A H Standard)
370
               0
390
0
 62
               0
100
AcDbCircle
 10
659.50000000000045
 20
265.30000000000018
 30
0.0
 40
1.5
  0
CIRCLE
  5
142
100
AcDbEntity
  8
Visible Edges(A H Standard)
370
               0
390
0
 62
               0
100
AcDbCircle
 10
636.00000000000045
 20
265.30000000000018
 30
0.0
 40
1.5
  0
CIRCLE
  5
143
100
AcDbEntity
  8
Visible Edges(A H Standard)
370
               0
390
0
 62
               0
100
AcDbCircle
 10
636.00000000000045
 20
377.29999999999995
 30
0.0
 40
1.5
  0
CIRCLE
  5
144
100
AcDbEntity
  8
Visible Edges(A H Standard)
370
               0
390
0
 62
               0
100
AcDbCircle
 10
662.39000000000078
 20
285.50000000000023
 30
0.0
 40
3.2000000000002728
  0
CIRCLE
  5
145
100
AcDbEntity
  8
Visible Edges(A H Standard)
370
               0
390
0
 62
               0
100
AcDbCircle
 10
662.39000000000078
 20
390.49999999999972
 30
0.0
 40
3.2000000000002728
  0
LINE
  5
146
100
AcDbEntity
  8
Visible Edges(A H Standard)
370
               0
390
0
 62
               0
100
AcDbLine
 10
667.19999999999982
 20
250.34999999999994
 30
0.0
 11
667.19999999999982
 21
250.30000000000035
 31
0.0
  0
LINE
  5
147
100
AcDbEntity
  8
Visible Tangent Edges(A H Standard)
370
               0
390
0
 62
               0
100
AcDbLine
 10
667.19999999999982
 20
250.30000000000035
 30
0.0
 11
667.0
 21
250.30000000000035
 31
0.0
  0
ARC
  5
148
100
AcDbEntity
  8
Visible Edges(A H Standard)
370
               0
390
0
 62
               0
100
AcDbCircle
 10
668.01999999999998
 20
250.30000000000035
 30
0.0
 40
0.8200000000001637
100
AcDbArc
 50
180.0
 51
234.72757377176683
  0
LINE
  5
149
100
AcDbEntity
  8
Visible Tangent Edges(A H Standard)
370
               0
390
0
 62
               0
100
AcDbLine
 10
667.54647887323927
 20
249.6305392151059
 30
0.0
 11
667.0
 21
248.85793128964778
 31
0.0
  0
ARC
  5
14A
100
AcDbEntity
  8
Visible Edges(A H Standard)
370
               0
390
0
 62
               0
100
AcDbCircle
 10
666.38000000000011
 20
247.98137972060997
 30
0.0
 40
2.0199999999999818
100
AcDbArc
 50
0.0
 51
54.727573771780499
  0
LINE
  5
14B
100
AcDbEntity
  8
Visible Tangent Edges(A H Standard)
370
               0
390
0
 62
               0
100
AcDbLine
 10
668.40000000000009
 20
247.98137972060997
 30
0.0
 11
667.19999999999982
 21
247.98137972060997
 31
0.0
  0
ARC
  5
14C
100
AcDbEntity
  8
Visible Edges(A H Standard)
370
               0
390
0
 62
               0
100
AcDbCircle
 10
666.38000000000011
 20
247.98137972061005
 30
0.0
 40
0.819999999999709
100
AcDbArc
 50
0.0
 51
40.878635146520132
  0
LINE
  5
14D
100
AcDbEntity
  8
Visible Edges(A H Standard)
370
               0
390
0
 62
               0
100
AcDbLine
 10
668.40000000000009
 20
247.83137972060996
 30
0.0
 11
668.40000000000009
 21
247.98137972060997
 31
0.0
  0
LINE
  5
14E
100
AcDbEntity
  8
Visible Edges(A H Standard)
370
               0
390
0
 62
               0
100
AcDbLine
 10
667.19999999999982
 20
247.98137972060997
 30
0.0
 11
667.19999999999982
 21
247.83137972060996
 31
0.0
  0
LINE
  5
14F
100
AcDbEntity
  8
Visible Edges(A H Standard)
370
               0
390
0
 62
               0
100
AcDbLine
 10
667.20000000000027
 20
247.83137972060996
 30
0.0
 11
668.40000000000055
 21
247.83137972060996
 31
0.0
  0
LINE
  5
150
100
AcDbEntity
  8
Visible Edges(A H Standard)
370
               0
390
0
 62
               0
100
AcDbLine
 10
667.20000000000027
 20
247.83137972060996
 30
0.0
 11
667.20000000000027
 21
242.32000000000022
 31
0.0
  0
LINE
  5
151
100
AcDbEntity
  8
Visible Edges(A H Standard)
370
               0
390
0
 62
               0
100
AcDbLine
 10
668.40000000000055
 20
247.83137972060996
 30
0.0
 11
668.40000000000055
 21
242.32000000000022
 31
0.0
  0
LINE
  5
152
100
AcDbEntity
  8
Visible Edges(A H Standard)
370
               0
390
0
 62
               0
100
AcDbLine
 10
667.20000000000073
 20
428.16862027938993
 30
0.0
 11
667.20000000000073
 21
433.67999999999961
 31
0.0
  0
LINE
  5
153
100
AcDbEntity
  8
Visible Edges(A H Standard)
370
               0
390
0
 62
               0
100
AcDbLine
 10
668.40000000000055
 20
433.67999999999961
 30
0.0
 11
668.40000000000055
 21
428.16862027938993
 31
0.0
  0
LINE
  5
154
100
AcDbEntity
  8
Visible Tangent Edges(A H Standard)
370
               0
390
0
 62
               0
100
AcDbLine
 10
668.40000000000055
 20
242.32000000000022
 30
0.0
 11
667.20000000000027
 21
242.32000000000022
 31
0.0
  0
LINE
  5
155
100
AcDbEntity
  8
Visible Tangent Edges(A H Standard)
370
               0
390
0
 62
               0
100
AcDbLine
 10
667.20000000000073
 20
433.67999999999961
 30
0.0
 11
668.40000000000055
 21
433.67999999999961
 31
0.0
  0
ARC
  5
156
100
AcDbEntity
  8
Visible Edges(A H Standard)
370
               0
390
0
 62
               0
100
AcDbCircle
 10
666.38000000000056
 20
433.67999999999961
 30
0.0
 40
2.0199999999999818
100
AcDbArc
 50
0.0
 51
90.0
  0
ARC
  5
157
100
AcDbEntity
  8
Visible Edges(A H Standard)
370
               0
390
0
 62
               0
100
AcDbCircle
 10
666.38000000000056
 20
433.67999999999961
 30
0.0
 40
0.8200000000001637
100
AcDbArc
 50
0.0
 51
90.0
  0
LINE
  5
158
100
AcDbEntity
  8
Visible Tangent Edges(A H Standard)
370
               0
390
0
 62
               0
100
AcDbLine
 10
666.38000000000056
 20
435.69999999999959
 30
0.0
 11
666.38000000000056
 21
434.49999999999966
 31
0.0
  0
ARC
  5
159
100
AcDbEntity
  8
Visible Edges(A H Standard)
370
               0
390
0
 62
               0
100
AcDbCircle
 10
666.38000000000056
 20
242.32000000000022
 30
0.0
 40
2.019999999999925
100
AcDbArc
 50
270.0
 51
0.0
  0
LINE
  5
15A
100
AcDbEntity
  8
Visible Tangent Edges(A H Standard)
370
               0
390
0
 62
               0
100
AcDbLine
 10
666.38000000000056
 20
241.50000000000023
 30
0.0
 11
666.38000000000056
 21
240.30000000000027
 31
0.0
  0
ARC
  5
15B
100
AcDbEntity
  8
Visible Edges(A H Standard)
370
               0
390
0
 62
               0
100
AcDbCircle
 10
666.38000000000056
 20
242.32000000000025
 30
0.0
 40
0.8199999999999648
100
AcDbArc
 50
270.0
 51
0.0
  0
LINE
  5
15C
100
AcDbEntity
  8
Visible Tangent Edges(A H Standard)
370
               0
390
0
 62
               0
100
AcDbLine
 10
667.00000000000091
 20
425.69999999999959
 30
0.0
 11
667.20000000000027
 21
425.69999999999959
 31
0.0
  0
LINE
  5
15D
100
AcDbEntity
  8
Visible Edges(A H Standard)
370
               0
390
0
 62
               0
100
AcDbLine
 10
667.20000000000027
 20
425.69999999999959
 30
0.0
 11
667.20000000000027
 21
425.65000000000003
 31
0.0
  0
ARC
  5
15E
100
AcDbEntity
  8
Visible Edges(A H Standard)
370
               0
390
0
 62
               0
100
AcDbCircle
 10
666.38000000000011
 20
428.01862027938989
 30
0.0
 40
2.0199999999997758
100
AcDbArc
 50
305.27242622822098
 51
0.0
  0
LINE
  5
15F
100
AcDbEntity
  8
Visible Tangent Edges(A H Standard)
370
               0
390
0
 62
               0
100
AcDbLine
 10
667.00000000000091
 20
427.14206871035083
 30
0.0
 11
667.54647887323927
 21
426.36946078489399
 31
0.0
  0
ARC
  5
160
100
AcDbEntity
  8
Visible Edges(A H Standard)
370
               0
390
0
 62
               0
100
AcDbCircle
 10
666.38000000000011
 20
428.01862027938989
 30
0.0
 40
0.8199999999999
100
AcDbArc
 50
319.12136485357701
 51
0.0
  0
LINE
  5
161
100
AcDbEntity
  8
Visible Tangent Edges(A H Standard)
370
               0
390
0
 62
               0
100
AcDbLine
 10
667.20000000000027
 20
428.01862027938989
 30
0.0
 11
668.40000000000009
 21
428.01862027938989
 31
0.0
  0
ARC
  5
162
100
AcDbEntity
  8
Visible Edges(A H Standard)
370
               0
390
0
 62
               0
100
AcDbCircle
 10
668.01999999999998
 20
425.69999999999959
 30
0.0
 40
0.8200000000001442
100
AcDbArc
 50
125.27242622823201
 51
180.0
  0
LINE
  5
163
100
AcDbEntity
  8
Visible Edges(A H Standard)
370
               0
390
0
 62
               0
100
AcDbLine
 10
667.20000000000027
 20
428.16862027938993
 30
0.0
 11
667.20000000000027
 21
428.01862027938989
 31
0.0
  0
LINE
  5
164
100
AcDbEntity
  8
Visible Edges(A H Standard)
370
               0
390
0
 62
               0
100
AcDbLine
 10
668.40000000000009
 20
428.01862027938989
 30
0.0
 11
668.40000000000009
 21
428.16862027938993
 31
0.0
  0
LINE
  5
165
100
AcDbEntity
  8
Visible Edges(A H Standard)
370
               0
390
0
 62
               0
100
AcDbLine
 10
668.40000000000055
 20
428.16862027938993
 30
0.0
 11
667.20000000000073
 21
428.16862027938993
 31
0.0
  0
LINE
  5
166
100
AcDbEntity
  8
Visible Edges(A H Standard)
370
               0
390
0
 62
               0
100
AcDbLine
 10
668.40000000000055
 20
250.34999999999994
 30
0.0
 11
668.40000000000055
 21
425.65000000000003
 31
0.0
  0
LINE
  5
167
100
AcDbEntity
  8
Visible Tangent Edges(A H Standard)
370
               0
390
0
 62
               0
100
AcDbLine
 10
628.02000000000044
 20
242.31999999999996
 30
0.0
 11
628.02000000000044
 21
433.68000000000001
 31
0.0
  0
LINE
  5
168
100
AcDbEntity
  8
Visible Edges(A H Standard)
370
               0
390
0
 62
               0
100
AcDbLine
 10
626.0
 20
433.68000000000001
 30
0.0
 11
626.0
 21
242.31999999999996
 31
0.0
  0
LINE
  5
169
100
AcDbEntity
  8
Visible Tangent Edges(A H Standard)
370
               0
390
0
 62
               0
100
AcDbLine
 10
637.34999999997854
 20
239.70000000000005
 30
0.0
 11
634.34999999997854
 21
239.70000000000005
 31
0.0
  0
LINE
  5
16A
100
AcDbEntity
  8
Visible Edges(A H Standard)
370
               0
390
0
 62
               0
100
AcDbLine
 10
634.34999999997854
 20
240.30000000000001
 30
0.0
 11
634.34999999997854
 21
239.69999999999999
 31
0.0
  0
LINE
  5
16B
100
AcDbEntity
  8
Visible Edges(A H Standard)
370
               0
390
0
 62
               0
100
AcDbLine
 10
637.34999999997854
 20
240.30000000000007
 30
0.0
 11
637.34999999997854
 21
239.70000000000005
 31
0.0
  0
ARC
  5
16C
100
AcDbEntity
  8
Visible Edges(A H Standard)
370
               0
390
0
 62
               0
100
AcDbCircle
 10
636.5466666666448
 20
239.69999999999999
 30
0.0
 40
0.8033333333333417
100
AcDbArc
 50
270.0
 51
0.0
  0
ARC
  5
16D
100
AcDbEntity
  8
Visible Edges(A H Standard)
370
               0
390
0
 62
               0
100
AcDbCircle
 10
635.15333333331182
 20
239.70000000000005
 30
0.0
 40
0.8033333333332848
100
AcDbArc
 50
180.0
 51
270.0
  0
LINE
  5
16E
100
AcDbEntity
  8
Visible Edges(A H Standard)
370
               0
390
0
 62
               0
100
AcDbLine
 10
636.5466666666448
 20
238.89666666666668
 30
0.0
 11
635.15333333331182
 21
238.89666666666668
 31
0.0
  0
LINE
  5
16F
100
AcDbEntity
  8
Visible Edges(A H Standard)
370
               0
390
0
 62
               0
100
AcDbLine
 10
648.88419999998632
 20
435.93855610521143
 30
0.0
 11
648.88419999998632
 21
435.69999999999982
 31
0.0
  0
LINE
  5
170
100
AcDbEntity
  8
Visible Edges(A H Standard)
370
               0
390
0
 62
               0
100
AcDbLine
 10
650.63679999998612
 20
435.93855610521143
 30
0.0
 11
648.88419999998632
 21
435.93855610521143
 31
0.0
  0
LINE
  5
171
100
AcDbEntity
  8
Visible Edges(A H Standard)
370
               0
390
0
 62
               0
100
AcDbLine
 10
650.63679999998612
 20
435.93855610521143
 30
0.0
 11
650.63679999998612
 21
435.69999999999982
 31
0.0
  0
LINE
  5
172
100
AcDbEntity
  8
Visible Edges(A H Standard)
370
               0
390
0
 62
               0
100
AcDbLine
 10
648.88419999998632
 20
435.93855610521138
 30
0.0
 11
648.88419999998587
 21
436.47281999999979
 31
0.0
  0
LINE
  5
173
100
AcDbEntity
  8
Visible Edges(A H Standard)
370
               0
390
0
 62
               0
100
AcDbLine
 10
650.63679999998612
 20
435.93855610521138
 30
0.0
 11
650.63679999998567
 21
436.47281999999979
 31
0.0
  0
LINE
  5
174
100
AcDbEntity
  8
Visible Edges(A H Standard)
370
               0
390
0
 62
               0
100
AcDbLine
 10
650.63679999998567
 20
436.47281999999979
 30
0.0
 11
648.88419999998587
 21
436.47281999999979
 31
0.0
  0
CIRCLE
  5
175
100
AcDbEntity
  8
Visible Edges(A H Standard)
370
               0
390
0
 62
               0
100
AcDbCircle
 10
662.39000000000169
 20
285.49999999999994
 30
0.0
 40
1.5
  0
CIRCLE
  5
176
100
AcDbEntity
  8
Visible Edges(A H Standard)
370
               0
390
0
 62
               0
100
AcDbCircle
 10
662.39000000000124
 20
390.49999999999898
 30
0.0
 40
1.5
  0
LINE
  5
177
100
AcDbEntity
  8
Visible Edges(A H Standard)
370
               0
390
0
 62
               0
100
AcDbLine
 10
437.99999999999955
 20
544.02955869070388
 30
0.0
 11
437.99999999999955
 21
530.27955869070388
 31
0.0
  0
LINE
  5
178
100
AcDbEntity
  8
Visible Edges(A H Standard)
370
               0
390
0
 62
               0
100
AcDbLine
 10
420.99999999999955
 20
544.02955869070388
 30
0.0
 11
437.99999999999955
 21
544.02955869070388
 31
0.0
  0
LINE
  5
179
100
AcDbEntity
  8
Visible Edges(A H Standard)
370
               0
390
0
 62
               0
100
AcDbLine
 10
420.99999999999955
 20
530.27955869070388
 30
0.0
 11
420.99999999999955
 21
544.02955869070388
 31
0.0
  0
LINE
  5
17A
100
AcDbEntity
  8
Visible Edges(A H Standard)
370
               0
390
0
 62
               0
100
AcDbLine
 10
437.99999999999955
 20
530.27955869070388
 30
0.0
 11
420.99999999999955
 21
530.27955869070388
 31
0.0
  0
LINE
  5
17B
100
AcDbEntity
  8
Visible Edges(A H Standard)
370
               0
390
0
 62
               0
100
AcDbLine
 10
451.90000000000146
 20
558.45257869070451
 30
0.0
 11
456.00000000000136
 21
558.45257869070451
 31
0.0
  0
LINE
  5
17C
100
AcDbEntity
  8
Visible Edges(A H Standard)
370
               0
390
0
 62
               0
100
AcDbLine
 10
403.00000000000136
 20
558.45257869070451
 30
0.0
 11
407.10000000000127
 21
558.45257869070451
 31
0.0
  0
LINE
  5
17D
100
AcDbEntity
  8
Visible Edges(A H Standard)
370
               0
390
0
 62
               0
100
AcDbLine
 10
409.60000000000127
 20
558.45257869070451
 30
0.0
 11
449.40000000000146
 21
558.45257869070451
 31
0.0
  0
LINE
  5
17E
100
AcDbEntity
  8
Visible Edges(A H Standard)
370
               0
390
0
 62
               0
100
AcDbLine
 10
403.00000000000136
 20
549.45257869070451
 30
0.0
 11
403.00000000000136
 21
558.45257869070451
 31
0.0
  0
LINE
  5
17F
100
AcDbEntity
  8
Visible Edges(A H Standard)
370
               0
390
0
 62
               0
100
AcDbLine
 10
456.00000000000136
 20
549.45257869070451
 30
0.0
 11
403.00000000000136
 21
549.45257869070451
 31
0.0
  0
LINE
  5
180
100
AcDbEntity
  8
Visible Edges(A H Standard)
370
               0
390
0
 62
               0
100
AcDbLine
 10
456.00000000000136
 20
558.45257869070451
 30
0.0
 11
456.00000000000136
 21
549.45257869070451
 31
0.0
  0
LINE
  5
181
100
AcDbEntity
  8
Visible Edges(A H Standard)
370
               0
390
0
 62
               0
100
AcDbLine
 10
449.40000000000146
 20
561.05257869070442
 30
0.0
 11
451.90000000000146
 21
561.05257869070442
 31
0.0
  0
LINE
  5
182
100
AcDbEntity
  8
Visible Edges(A H Standard)
370
               0
390
0
 62
               0
100
AcDbLine
 10
449.40000000000146
 20
558.45257869070451
 30
0.0
 11
449.40000000000146
 21
561.05257869070442
 31
0.0
  0
LINE
  5
183
100
AcDbEntity
  8
Visible Edges(A H Standard)
370
               0
390
0
 62
               0
100
AcDbLine
 10
451.90000000000146
 20
561.05257869070442
 30
0.0
 11
451.90000000000146
 21
558.45257869070451
 31
0.0
  0
LINE
  5
184
100
AcDbEntity
  8
Visible Edges(A H Standard)
370
               0
390
0
 62
               0
100
AcDbLine
 10
409.60000000000127
 20
561.05257869070442
 30
0.0
 11
409.60000000000127
 21
558.45257869070451
 31
0.0
  0
LINE
  5
185
100
AcDbEntity
  8
Visible Edges(A H Standard)
370
               0
390
0
 62
               0
100
AcDbLine
 10
407.10000000000127
 20
561.05257869070442
 30
0.0
 11
409.60000000000127
 21
561.05257869070442
 31
0.0
  0
LINE
  5
186
100
AcDbEntity
  8
Visible Edges(A H Standard)
370
               0
390
0
 62
               0
100
AcDbLine
 10
407.10000000000127
 20
558.45257869070451
 30
0.0
 11
407.10000000000127
 21
561.05257869070442
 31
0.0
  0
LINE
  5
187
100
AcDbEntity
  8
Visible Edges(A H Standard)
370
               0
390
0
 62
               0
100
AcDbLine
 10
393.90000000000146
 20
538.85257869070438
 30
0.0
 11
398.00000000000136
 21
538.85257869070438
 31
0.0
  0
LINE
  5
188
100
AcDbEntity
  8
Visible Edges(A H Standard)
370
               0
390
0
 62
               0
100
AcDbLine
 10
345.00000000000136
 20
538.85257869070438
 30
0.0
 11
349.10000000000127
 21
538.85257869070438
 31
0.0
  0
LINE
  5
189
100
AcDbEntity
  8
Visible Edges(A H Standard)
370
               0
390
0
 62
               0
100
AcDbLine
 10
351.60000000000127
 20
538.85257869070438
 30
0.0
 11
391.40000000000146
 21
538.85257869070438
 31
0.0
  0
LINE
  5
18A
100
AcDbEntity
  8
Visible Edges(A H Standard)
370
               0
390
0
 62
               0
100
AcDbLine
 10
345.00000000000136
 20
529.85257869070438
 30
0.0
 11
345.00000000000136
 21
538.85257869070438
 31
0.0
  0
LINE
  5
18B
100
AcDbEntity
  8
Visible Edges(A H Standard)
370
               0
390
0
 62
               0
100
AcDbLine
 10
398.00000000000136
 20
529.85257869070438
 30
0.0
 11
345.00000000000136
 21
529.85257869070438
 31
0.0
  0
LINE
  5
18C
100
AcDbEntity
  8
Visible Edges(A H Standard)
370
               0
390
0
 62
               0
100
AcDbLine
 10
398.00000000000136
 20
538.85257869070438
 30
0.0
 11
398.00000000000136
 21
529.85257869070438
 31
0.0
  0
LINE
  5
18D
100
AcDbEntity
  8
Visible Edges(A H Standard)
370
               0
390
0
 62
               0
100
AcDbLine
 10
391.40000000000146
 20
541.4525786907044
 30
0.0
 11
393.90000000000146
 21
541.4525786907044
 31
0.0
  0
LINE
  5
18E
100
AcDbEntity
  8
Visible Edges(A H Standard)
370
               0
390
0
 62
               0
100
AcDbLine
 10
391.40000000000146
 20
538.85257869070438
 30
0.0
 11
391.40000000000146
 21
541.4525786907044
 31
0.0
  0
LINE
  5
18F
100
AcDbEntity
  8
Visible Edges(A H Standard)
370
               0
390
0
 62
               0
100
AcDbLine
 10
393.90000000000146
 20
541.4525786907044
 30
0.0
 11
393.90000000000146
 21
538.85257869070438
 31
0.0
  0
LINE
  5
190
100
AcDbEntity
  8
Visible Edges(A H Standard)
370
               0
390
0
 62
               0
100
AcDbLine
 10
351.60000000000127
 20
541.4525786907044
 30
0.0
 11
351.60000000000127
 21
538.85257869070438
 31
0.0
  0
LINE
  5
191
100
AcDbEntity
  8
Visible Edges(A H Standard)
370
               0
390
0
 62
               0
100
AcDbLine
 10
349.10000000000127
 20
541.4525786907044
 30
0.0
 11
351.60000000000127
 21
541.4525786907044
 31
0.0
  0
LINE
  5
192
100
AcDbEntity
  8
Visible Edges(A H Standard)
370
               0
390
0
 62
               0
100
AcDbLine
 10
349.10000000000127
 20
538.85257869070438
 30
0.0
 11
349.10000000000127
 21
541.4525786907044
 31
0.0
  0
LINE
  5
193
100
AcDbEntity
  8
Visible Edges(A H Standard)
370
               0
390
0
 62
               0
100
AcDbLine
 10
393.90000000000146
 20
558.45257869070451
 30
0.0
 11
398.00000000000136
 21
558.45257869070451
 31
0.0
  0
LINE
  5
194
100
AcDbEntity
  8
Visible Edges(A H Standard)
370
               0
390
0
 62
               0
100
AcDbLine
 10
345.00000000000136
 20
558.45257869070451
 30
0.0
 11
349.10000000000127
 21
558.45257869070451
 31
0.0
  0
LINE
  5
195
100
AcDbEntity
  8
Visible Edges(A H Standard)
370
               0
390
0
 62
               0
100
AcDbLine
 10
351.60000000000127
 20
558.45257869070451
 30
0.0
 11
391.40000000000146
 21
558.45257869070451
 31
0.0
  0
LINE
  5
196
100
AcDbEntity
  8
Visible Edges(A H Standard)
370
               0
390
0
 62
               0
100
AcDbLine
 10
345.00000000000136
 20
549.45257869070451
 30
0.0
 11
345.00000000000136
 21
558.45257869070451
 31
0.0
  0
LINE
  5
197
100
AcDbEntity
  8
Visible Edges(A H Standard)
370
               0
390
0
 62
               0
100
AcDbLine
 10
398.00000000000136
 20
549.45257869070451
 30
0.0
 11
345.00000000000136
 21
549.45257869070451
 31
0.0
  0
LINE
  5
198
100
AcDbEntity
  8
Visible Edges(A H Standard)
370
               0
390
0
 62
               0
100
AcDbLine
 10
398.00000000000136
 20
558.45257869070451
 30
0.0
 11
398.00000000000136
 21
549.45257869070451
 31
0.0
  0
LINE
  5
199
100
AcDbEntity
  8
Visible Edges(A H Standard)
370
               0
390
0
 62
               0
100
AcDbLine
 10
391.40000000000146
 20
561.05257869070442
 30
0.0
 11
393.90000000000146
 21
561.05257869070442
 31
0.0
  0
LINE
  5
19A
100
AcDbEntity
  8
Visible Edges(A H Standard)
370
               0
390
0
 62
               0
100
AcDbLine
 10
391.40000000000146
 20
558.45257869070451
 30
0.0
 11
391.40000000000146
 21
561.05257869070442
 31
0.0
  0
LINE
  5
19B
100
AcDbEntity
  8
Visible Edges(A H Standard)
370
               0
390
0
 62
               0
100
AcDbLine
 10
393.90000000000146
 20
561.05257869070442
 30
0.0
 11
393.90000000000146
 21
558.45257869070451
 31
0.0
  0
LINE
  5
19C
100
AcDbEntity
  8
Visible Edges(A H Standard)
370
               0
390
0
 62
               0
100
AcDbLine
 10
351.60000000000127
 20
561.05257869070442
 30
0.0
 11
351.60000000000127
 21
558.45257869070451
 31
0.0
  0
LINE
  5
19D
100
AcDbEntity
  8
Visible Edges(A H Standard)
370
               0
390
0
 62
               0
100
AcDbLine
 10
349.10000000000127
 20
561.05257869070442
 30
0.0
 11
351.60000000000127
 21
561.05257869070442
 31
0.0
  0
LINE
  5
19E
100
AcDbEntity
  8
Visible Edges(A H Standard)
370
               0
390
0
 62
               0
100
AcDbLine
 10
349.10000000000127
 20
558.45257869070451
 30
0.0
 11
349.10000000000127
 21
561.05257869070442
 31
0.0
  0
CIRCLE
  5
19F
100
AcDbEntity
  8
Visible Edges(A H Standard)
370
               0
390
0
 62
               0
100
AcDbCircle
 10
448.49999999999955
 20
536.70257869070372
 30
0.0
 40
1.0
  0
LINE
  5
1A0
100
AcDbEntity
  8
Visible Edges(A H Standard)
370
               0
390
0
 62
               0
100
AcDbLine
 10
468.69999999999936
 20
541.40257869070365
 30
0.0
 11
468.69999999999936
 21
530.00257869070356
 31
0.0
  0
LINE
  5
1A1
100
AcDbEntity
  8
Visible Edges(A H Standard)
370
               0
390
0
 62
               0
100
AcDbLine
 10
459.29999999999927
 20
541.40257869070365
 30
0.0
 11
468.69999999999936
 21
541.40257869070365
 31
0.0
  0
LINE
  5
1A2
100
AcDbEntity
  8
Visible Edges(A H Standard)
370
               0
390
0
 62
               0
100
AcDbLine
 10
459.29999999999927
 20
530.00257869070356
 30
0.0
 11
459.29999999999927
 21
541.40257869070365
 31
0.0
  0
LINE
  5
1A3
100
AcDbEntity
  8
Visible Edges(A H Standard)
370
               0
390
0
 62
               0
100
AcDbLine
 10
468.69999999999936
 20
530.00257869070356
 30
0.0
 11
459.29999999999927
 21
530.00257869070356
 31
0.0
  0
CIRCLE
  5
1A4
100
AcDbEntity
  8
Visible Edges(A H Standard)
370
               0
390
0
 62
               0
100
AcDbCircle
 10
326.49999999999955
 20
536.20257869070451
 30
0.0
 40
3.1999999999998181
  0
CIRCLE
  5
1A5
100
AcDbEntity
  8
Visible Edges(A H Standard)
370
               0
390
0
 62
               0
100
AcDbCircle
 10
326.49999999999955
 20
536.20257869070485
 30
0.0
 40
2.1999999999998181
  0
CIRCLE
  5
1A6
100
AcDbEntity
  8
Visible Edges(A H Standard)
370
               0
390
0
 62
               0
100
AcDbCircle
 10
474.49999999999909
 20
536.20257869070349
 30
0.0
 40
3.1999999999998181
  0
CIRCLE
  5
1A7
100
AcDbEntity
  8
Visible Edges(A H Standard)
370
               0
390
0
 62
               0
100
AcDbCircle
 10
474.49999999999909
 20
536.20257869070383
 30
0.0
 40
2.1999999999998181
  0
CIRCLE
  5
1A8
100
AcDbEntity
  8
Visible Edges(A H Standard)
370
               0
390
0
 62
               0
100
AcDbCircle
 10
474.5
 20
555.80257869070351
 30
0.0
 40
3.1999999999998181
  0
CIRCLE
  5
1A9
100
AcDbEntity
  8
Visible Edges(A H Standard)
370
               0
390
0
 62
               0
100
AcDbCircle
 10
474.5
 20
555.80257869070374
 30
0.0
 40
2.1999999999998181
  0
CIRCLE
  5
1AA
100
AcDbEntity
  8
Visible Edges(A H Standard)
370
               0
390
0
 62
               0
100
AcDbCircle
 10
326.50000000000182
 20
555.80257869070442
 30
0.0
 40
3.1999999999998181
  0
CIRCLE
  5
1AB
100
AcDbEntity
  8
Visible Edges(A H Standard)
370
               0
390
0
 62
               0
100
AcDbCircle
 10
326.50000000000182
 20
555.80257869070476
 30
0.0
 40
2.1999999999998181
  0
LINE
  5
1AC
100
AcDbEntity
  8
Visible Edges(A H Standard)
370
               0
390
0
 62
               0
100
AcDbLine
 10
486.0
 20
522.80257869070465
 30
0.0
 11
315.0
 21
522.80257869070465
 31
0.0
  0
LINE
  5
1AD
100
AcDbEntity
  8
Visible Edges(A H Standard)
370
               0
390
0
 62
               0
100
AcDbLine
 10
486.0
 20
522.80257869070465
 30
0.0
 11
486.0
 21
524.82257869070395
 31
0.0
  0
LINE
  5
1AE
100
AcDbEntity
  8
Visible Tangent Edges(A H Standard)
370
               0
390
0
 62
               0
100
AcDbLine
 10
315.0
 20
524.82257869070395
 30
0.0
 11
486.0
 21
524.82257869070395
 31
0.0
  0
LINE
  5
1AF
100
AcDbEntity
  8
Visible Edges(A H Standard)
370
               0
390
0
 62
               0
100
AcDbLine
 10
315.0
 20
524.82257869070406
 30
0.0
 11
315.0
 21
522.80257869070476
 31
0.0
  0
LINE
  5
1B0
100
AcDbEntity
  8
Visible Edges(A H Standard)
370
               0
390
0
 62
               0
100
AcDbLine
 10
486.0
 20
563.18257869070408
 30
0.0
 11
486.0
 21
524.82257869070395
 31
0.0
  0
LINE
  5
1B1
100
AcDbEntity
  8
Visible Edges(A H Standard)
370
               0
390
0
 62
               0
100
AcDbLine
 10
483.98000000000002
 20
563.18257869070408
 30
0.0
 11
486.0
 21
563.18257869070408
 31
0.0
  0
LINE
  5
1B2
100
AcDbEntity
  8
Visible Edges(A H Standard)
370
               0
390
0
 62
               0
100
AcDbLine
 10
315.0
 20
563.18257869070408
 30
0.0
 11
317.01999999999998
 21
563.18257869070408
 31
0.0
  0
LINE
  5
1B3
100
AcDbEntity
  8
Visible Edges(A H Standard)
370
               0
390
0
 62
               0
100
AcDbLine
 10
315.0
 20
524.82257869070395
 30
0.0
 11
315.0
 21
563.18257869070408
 31
0.0
  0
ARC
  5
1B4
100
AcDbEntity
  8
Visible Edges(A H Standard)
370
               0
390
0
 62
               0
100
AcDbCircle
 10
317.01999999999998
 20
563.18257869070464
 30
0.0
 40
2.0199999999999818
100
AcDbArc
 50
90.0
 51
180.0
  0
ARC
  5
1B5
100
AcDbEntity
  8
Visible Edges(A H Standard)
370
               0
390
0
 62
               0
100
AcDbCircle
 10
483.98000000000002
 20
563.18257869070464
 30
0.0
 40
2.0199999999999818
100
AcDbArc
 50
0.0
 51
90.0
  0
LINE
  5
1B6
100
AcDbEntity
  8
Visible Tangent Edges(A H Standard)
370
               0
390
0
 62
               0
100
AcDbLine
 10
483.98000000000002
 20
563.18257869070408
 30
0.0
 11
317.01999999999998
 21
563.18257869070408
 31
0.0
  0
LINE
  5
1B7
100
AcDbEntity
  8
Visible Edges(A H Standard)
370
               0
390
0
 62
               0
100
AcDbLine
 10
317.01999999999998
 20
565.20257869070463
 30
0.0
 11
483.98000000000002
 21
565.20257869070463
 31
0.0
  0
LINE
  5
1B8
100
AcDbEntity
  8
Visible Edges(A H Standard)
370
               0
390
0
 62
               0
100
AcDbLine
 10
345.00000000000182
 20
530.2025786907052
 30
0.0
 11
345.5
 21
530.2025786907052
 31
0.0
  0
LINE
  5
1B9
100
AcDbEntity
  8
Visible Edges(A H Standard)
370
               0
390
0
 62
               0
100
AcDbLine
 10
397.49999999999955
 20
530.20257869070474
 30
0.0
 11
398.00000000000136
 21
530.20257869070474
 31
0.0
  0
LINE
  5
1BA
100
AcDbEntity
  8
Visible Edges(A H Standard)
370
               0
390
0
 62
               0
100
AcDbLine
 10
459.29999999999927
 20
530.20257869070429
 30
0.0
 11
459.49999999999909
 21
530.20257869070429
 31
0.0
  0
LINE
  5
1BB
100
AcDbEntity
  8
Visible Edges(A H Standard)
370
               0
390
0
 62
               0
100
AcDbLine
 10
468.49999999999909
 20
530.20257869070429
 30
0.0
 11
468.69999999999936
 21
530.20257869070429
 31
0.0
  0
ARC
  5
1BC
100
AcDbEntity
  8
Visible Edges(A H Standard)
370
               0
390
0
 62
               0
100
AcDbCircle
 10
389.27999999999975
 20
534.50257869070458
 30
0.0
 40
3.2499999999999534
100
AcDbArc
 50
230.28486276817324
 51
309.71513723182619
  0
ARC
  5
1BD
100
AcDbEntity
  8
Visible Edges(A H Standard)
370
               0
390
0
 62
               0
100
AcDbCircle
 10
384.19999999999982
 20
534.50257869070458
 30
0.0
 40
3.2499999999999534
100
AcDbArc
 50
230.28486276817324
 51
309.71513723182619
  0
ARC
  5
1BE
100
AcDbEntity
  8
Visible Edges(A H Standard)
370
               0
390
0
 62
               0
100
AcDbCircle
 10
379.11999999999989
 20
534.50257869070469
 30
0.0
 40
3.2499999999999534
100
AcDbArc
 50
230.28486276817324
 51
309.71513723182619
  0
ARC
  5
1BF
100
AcDbEntity
  8
Visible Edges(A H Standard)
370
               0
390
0
 62
               0
100
AcDbCircle
 10
374.03999999999996
 20
534.50257869070469
 30
0.0
 40
3.2499999999999534
100
AcDbArc
 50
230.28486276817324
 51
309.71513723182619
  0
ARC
  5
1C0
100
AcDbEntity
  8
Visible Edges(A H Standard)
370
               0
390
0
 62
               0
100
AcDbCircle
 10
368.96000000000004
 20
534.50257869070469
 30
0.0
 40
3.2499999999999534
100
AcDbArc
 50
230.28486276817324
 51
309.71513723182619
  0
ARC
  5
1C1
100
AcDbEntity
  8
Visible Edges(A H Standard)
370
               0
390
0
 62
               0
100
AcDbCircle
 10
363.88000000000011
 20
534.50257869070469
 30
0.0
 40
3.2499999999999534
100
AcDbArc
 50
230.28486276817324
 51
309.71513723182619
  0
ARC
  5
1C2
100
AcDbEntity
  8
Visible Edges(A H Standard)
370
               0
390
0
 62
               0
100
AcDbCircle
 10
358.79999999999973
 20
534.50257869070469
 30
0.0
 40
3.2499999999999534
100
AcDbArc
 50
230.28486276817324
 51
309.71513723182619
  0
ARC
  5
1C3
100
AcDbEntity
  8
Visible Edges(A H Standard)
370
               0
390
0
 62
               0
100
AcDbCircle
 10
353.7199999999998
 20
534.50257869070469
 30
0.0
 40
3.2499999999999534
100
AcDbArc
 50
230.28486276817324
 51
309.71513723182619
  0
ARC
  5
1C4
100
AcDbEntity
  8
Visible Edges(A H Standard)
370
               0
390
0
 62
               0
100
AcDbCircle
 10
394.35999999999967
 20
534.50257869070447
 30
0.0
 40
3.2499999999999534
100
AcDbArc
 50
230.28486276817324
 51
309.71513723182619
  0
LINE
  5
1C5
100
AcDbEntity
  8
Visible Edges(A H Standard)
370
               0
390
0
 62
               0
100
AcDbLine
 10
394.25999999999976
 20
534.60257869070483
 30
0.0
 11
394.05999999999949
 21
534.80257869070488
 31
0.0
  0
LINE
  5
1C6
100
AcDbEntity
  8
Visible Edges(A H Standard)
370
               0
390
0
 62
               0
100
AcDbLine
 10
394.05999999999949
 20
534.80257869070488
 30
0.0
 11
394.05999999999949
 21
534.20257869070497
 31
0.0
  0
LINE
  5
1C7
100
AcDbEntity
  8
Visible Edges(A H Standard)
370
               0
390
0
 62
               0
100
AcDbLine
 10
394.25999999999976
 20
534.40257869070479
 30
0.0
 11
394.05999999999949
 21
534.20257869070497
 31
0.0
  0
LINE
  5
1C8
100
AcDbEntity
  8
Visible Edges(A H Standard)
370
               0
390
0
 62
               0
100
AcDbLine
 10
394.45999999999958
 20
534.60257869070483
 30
0.0
 11
394.65999999999985
 21
534.80257869070488
 31
0.0
  0
LINE
  5
1C9
100
AcDbEntity
  8
Visible Edges(A H Standard)
370
               0
390
0
 62
               0
100
AcDbLine
 10
394.65999999999985
 20
534.80257869070488
 30
0.0
 11
394.05999999999949
 21
534.80257869070488
 31
0.0
  0
LINE
  5
1CA
100
AcDbEntity
  8
Visible Edges(A H Standard)
370
               0
390
0
 62
               0
100
AcDbLine
 10
394.45999999999958
 20
534.40257869070479
 30
0.0
 11
394.65999999999985
 21
534.20257869070485
 31
0.0
  0
LINE
  5
1CB
100
AcDbEntity
  8
Visible Edges(A H Standard)
370
               0
390
0
 62
               0
100
AcDbLine
 10
394.65999999999985
 20
534.20257869070485
 30
0.0
 11
394.65999999999985
 21
534.80257869070488
 31
0.0
  0
LINE
  5
1CC
100
AcDbEntity
  8
Visible Edges(A H Standard)
370
               0
390
0
 62
               0
100
AcDbLine
 10
394.05999999999949
 20
534.20257869070497
 30
0.0
 11
394.65999999999985
 21
534.20257869070485
 31
0.0
  0
LINE
  5
1CD
100
AcDbEntity
  8
Visible Edges(A H Standard)
370
               0
390
0
 62
               0
100
AcDbLine
 10
389.17999999999984
 20
534.60257869070483
 30
0.0
 11
388.97999999999956
 21
534.80257869070488
 31
0.0
  0
LINE
  5
1CE
100
AcDbEntity
  8
Visible Edges(A H Standard)
370
               0
390
0
 62
               0
100
AcDbLine
 10
388.97999999999956
 20
534.80257869070488
 30
0.0
 11
388.97999999999956
 21
534.20257869070497
 31
0.0
  0
LINE
  5
1CF
100
AcDbEntity
  8
Visible Edges(A H Standard)
370
               0
390
0
 62
               0
100
AcDbLine
 10
389.17999999999984
 20
534.40257869070479
 30
0.0
 11
388.97999999999956
 21
534.20257869070497
 31
0.0
  0
LINE
  5
1D0
100
AcDbEntity
  8
Visible Edges(A H Standard)
370
               0
390
0
 62
               0
100
AcDbLine
 10
389.37999999999965
 20
534.60257869070483
 30
0.0
 11
389.57999999999993
 21
534.80257869070488
 31
0.0
  0
LINE
  5
1D1
100
AcDbEntity
  8
Visible Edges(A H Standard)
370
               0
390
0
 62
               0
100
AcDbLine
 10
389.57999999999993
 20
534.80257869070488
 30
0.0
 11
388.97999999999956
 21
534.80257869070488
 31
0.0
  0
LINE
  5
1D2
100
AcDbEntity
  8
Visible Edges(A H Standard)
370
               0
390
0
 62
               0
100
AcDbLine
 10
389.37999999999965
 20
534.40257869070479
 30
0.0
 11
389.57999999999993
 21
534.20257869070497
 31
0.0
  0
LINE
  5
1D3
100
AcDbEntity
  8
Visible Edges(A H Standard)
370
               0
390
0
 62
               0
100
AcDbLine
 10
389.57999999999993
 20
534.20257869070497
 30
0.0
 11
389.57999999999993
 21
534.80257869070488
 31
0.0
  0
LINE
  5
1D4
100
AcDbEntity
  8
Visible Edges(A H Standard)
370
               0
390
0
 62
               0
100
AcDbLine
 10
388.97999999999956
 20
534.20257869070497
 30
0.0
 11
389.57999999999993
 21
534.20257869070497
 31
0.0
  0
LINE
  5
1D5
100
AcDbEntity
  8
Visible Edges(A H Standard)
370
               0
390
0
 62
               0
100
AcDbLine
 10
384.09999999999991
 20
534.60257869070483
 30
0.0
 11
383.89999999999964
 21
534.80257869070488
 31
0.0
  0
LINE
  5
1D6
100
AcDbEntity
  8
Visible Edges(A H Standard)
370
               0
390
0
 62
               0
100
AcDbLine
 10
383.89999999999964
 20
534.80257869070488
 30
0.0
 11
383.89999999999964
 21
534.20257869070497
 31
0.0
  0
LINE
  5
1D7
100
AcDbEntity
  8
Visible Edges(A H Standard)
370
               0
390
0
 62
               0
100
AcDbLine
 10
384.09999999999991
 20
534.40257869070479
 30
0.0
 11
383.89999999999964
 21
534.20257869070497
 31
0.0
  0
LINE
  5
1D8
100
AcDbEntity
  8
Visible Edges(A H Standard)
370
               0
390
0
 62
               0
100
AcDbLine
 10
384.29999999999973
 20
534.60257869070483
 30
0.0
 11
384.5
 21
534.80257869070488
 31
0.0
  0
LINE
  5
1D9
100
AcDbEntity
  8
Visible Edges(A H Standard)
370
               0
390
0
 62
               0
100
AcDbLine
 10
384.5
 20
534.80257869070488
 30
0.0
 11
383.89999999999964
 21
534.80257869070488
 31
0.0
  0
LINE
  5
1DA
100
AcDbEntity
  8
Visible Edges(A H Standard)
370
               0
390
0
 62
               0
100
AcDbLine
 10
384.29999999999973
 20
534.40257869070479
 30
0.0
 11
384.5
 21
534.20257869070497
 31
0.0
  0
LINE
  5
1DB
100
AcDbEntity
  8
Visible Edges(A H Standard)
370
               0
390
0
 62
               0
100
AcDbLine
 10
384.5
 20
534.20257869070497
 30
0.0
 11
384.5
 21
534.80257869070488
 31
0.0
  0
LINE
  5
1DC
100
AcDbEntity
  8
Visible Edges(A H Standard)
370
               0
390
0
 62
               0
100
AcDbLine
 10
383.89999999999964
 20
534.20257869070497
 30
0.0
 11
384.5
 21
534.20257869070497
 31
0.0
  0
LINE
  5
1DD
100
AcDbEntity
  8
Visible Edges(A H Standard)
370
               0
390
0
 62
               0
100
AcDbLine
 10
379.01999999999953
 20
534.60257869070483
 30
0.0
 11
378.81999999999971
 21
534.80257869070499
 31
0.0
  0
LINE
  5
1DE
100
AcDbEntity
  8
Visible Edges(A H Standard)
370
               0
390
0
 62
               0
100
AcDbLine
 10
378.81999999999971
 20
534.80257869070499
 30
0.0
 11
378.81999999999971
 21
534.20257869070497
 31
0.0
  0
LINE
  5
1DF
100
AcDbEntity
  8
Visible Edges(A H Standard)
370
               0
390
0
 62
               0
100
AcDbLine
 10
379.01999999999953
 20
534.4025786907049
 30
0.0
 11
378.81999999999971
 21
534.20257869070497
 31
0.0
  0
LINE
  5
1E0
100
AcDbEntity
  8
Visible Edges(A H Standard)
370
               0
390
0
 62
               0
100
AcDbLine
 10
379.2199999999998
 20
534.60257869070483
 30
0.0
 11
379.41999999999962
 21
534.80257869070499
 31
0.0
  0
LINE
  5
1E1
100
AcDbEntity
  8
Visible Edges(A H Standard)
370
               0
390
0
 62
               0
100
AcDbLine
 10
379.41999999999962
 20
534.80257869070488
 30
0.0
 11
378.81999999999971
 21
534.80257869070499
 31
0.0
  0
LINE
  5
1E2
100
AcDbEntity
  8
Visible Edges(A H Standard)
370
               0
390
0
 62
               0
100
AcDbLine
 10
379.2199999999998
 20
534.4025786907049
 30
0.0
 11
379.41999999999962
 21
534.20257869070497
 31
0.0
  0
LINE
  5
1E3
100
AcDbEntity
  8
Visible Edges(A H Standard)
370
               0
390
0
 62
               0
100
AcDbLine
 10
379.41999999999962
 20
534.20257869070497
 30
0.0
 11
379.41999999999962
 21
534.80257869070488
 31
0.0
  0
LINE
  5
1E4
100
AcDbEntity
  8
Visible Edges(A H Standard)
370
               0
390
0
 62
               0
100
AcDbLine
 10
378.81999999999971
 20
534.20257869070497
 30
0.0
 11
379.41999999999962
 21
534.20257869070497
 31
0.0
  0
LINE
  5
1E5
100
AcDbEntity
  8
Visible Edges(A H Standard)
370
               0
390
0
 62
               0
100
AcDbLine
 10
373.9399999999996
 20
534.60257869070495
 30
0.0
 11
373.73999999999978
 21
534.80257869070499
 31
0.0
  0
LINE
  5
1E6
100
AcDbEntity
  8
Visible Edges(A H Standard)
370
               0
390
0
 62
               0
100
AcDbLine
 10
373.73999999999978
 20
534.80257869070499
 30
0.0
 11
373.73999999999978
 21
534.20257869070497
 31
0.0
  0
LINE
  5
1E7
100
AcDbEntity
  8
Visible Edges(A H Standard)
370
               0
390
0
 62
               0
100
AcDbLine
 10
373.9399999999996
 20
534.4025786907049
 30
0.0
 11
373.73999999999978
 21
534.20257869070497
 31
0.0
  0
LINE
  5
1E8
100
AcDbEntity
  8
Visible Edges(A H Standard)
370
               0
390
0
 62
               0
100
AcDbLine
 10
374.13999999999987
 20
534.60257869070495
 30
0.0
 11
374.33999999999969
 21
534.80257869070499
 31
0.0
  0
LINE
  5
1E9
100
AcDbEntity
  8
Visible Edges(A H Standard)
370
               0
390
0
 62
               0
100
AcDbLine
 10
374.33999999999969
 20
534.80257869070499
 30
0.0
 11
373.73999999999978
 21
534.80257869070499
 31
0.0
  0
LINE
  5
1EA
100
AcDbEntity
  8
Visible Edges(A H Standard)
370
               0
390
0
 62
               0
100
AcDbLine
 10
374.13999999999987
 20
534.4025786907049
 30
0.0
 11
374.33999999999969
 21
534.20257869070497
 31
0.0
  0
LINE
  5
1EB
100
AcDbEntity
  8
Visible Edges(A H Standard)
370
               0
390
0
 62
               0
100
AcDbLine
 10
374.33999999999969
 20
534.20257869070497
 30
0.0
 11
374.33999999999969
 21
534.80257869070499
 31
0.0
  0
LINE
  5
1EC
100
AcDbEntity
  8
Visible Edges(A H Standard)
370
               0
390
0
 62
               0
100
AcDbLine
 10
373.73999999999978
 20
534.20257869070497
 30
0.0
 11
374.33999999999969
 21
534.20257869070497
 31
0.0
  0
LINE
  5
1ED
100
AcDbEntity
  8
Visible Edges(A H Standard)
370
               0
390
0
 62
               0
100
AcDbLine
 10
368.85999999999967
 20
534.60257869070495
 30
0.0
 11
368.65999999999985
 21
534.80257869070499
 31
0.0
  0
LINE
  5
1EE
100
AcDbEntity
  8
Visible Edges(A H Standard)
370
               0
390
0
 62
               0
100
AcDbLine
 10
368.65999999999985
 20
534.80257869070499
 30
0.0
 11
368.65999999999985
 21
534.20257869070497
 31
0.0
  0
LINE
  5
1EF
100
AcDbEntity
  8
Visible Edges(A H Standard)
370
               0
390
0
 62
               0
100
AcDbLine
 10
368.85999999999967
 20
534.40257869070501
 30
0.0
 11
368.65999999999985
 21
534.20257869070497
 31
0.0
  0
LINE
  5
1F0
100
AcDbEntity
  8
Visible Edges(A H Standard)
370
               0
390
0
 62
               0
100
AcDbLine
 10
369.05999999999995
 20
534.60257869070495
 30
0.0
 11
369.25999999999976
 21
534.80257869070499
 31
0.0
  0
LINE
  5
1F1
100
AcDbEntity
  8
Visible Edges(A H Standard)
370
               0
390
0
 62
               0
100
AcDbLine
 10
369.25999999999976
 20
534.80257869070499
 30
0.0
 11
368.65999999999985
 21
534.80257869070499
 31
0.0
  0
LINE
  5
1F2
100
AcDbEntity
  8
Visible Edges(A H Standard)
370
               0
390
0
 62
               0
100
AcDbLine
 10
369.05999999999995
 20
534.40257869070501
 30
0.0
 11
369.25999999999976
 21
534.20257869070497
 31
0.0
  0
LINE
  5
1F3
100
AcDbEntity
  8
Visible Edges(A H Standard)
370
               0
390
0
 62
               0
100
AcDbLine
 10
369.25999999999976
 20
534.20257869070497
 30
0.0
 11
369.25999999999976
 21
534.80257869070499
 31
0.0
  0
LINE
  5
1F4
100
AcDbEntity
  8
Visible Edges(A H Standard)
370
               0
390
0
 62
               0
100
AcDbLine
 10
368.65999999999985
 20
534.20257869070497
 30
0.0
 11
369.25999999999976
 21
534.20257869070497
 31
0.0
  0
LINE
  5
1F5
100
AcDbEntity
  8
Visible Edges(A H Standard)
370
               0
390
0
 62
               0
100
AcDbLine
 10
363.77999999999975
 20
534.60257869070506
 30
0.0
 11
363.57999999999993
 21
534.8025786907051
 31
0.0
  0
LINE
  5
1F6
100
AcDbEntity
  8
Visible Edges(A H Standard)
370
               0
390
0
 62
               0
100
AcDbLine
 10
363.57999999999993
 20
534.8025786907051
 30
0.0
 11
363.57999999999993
 21
534.20257869070497
 31
0.0
  0
LINE
  5
1F7
100
AcDbEntity
  8
Visible Edges(A H Standard)
370
               0
390
0
 62
               0
100
AcDbLine
 10
363.77999999999975
 20
534.40257869070501
 30
0.0
 11
363.57999999999993
 21
534.20257869070497
 31
0.0
  0
LINE
  5
1F8
100
AcDbEntity
  8
Visible Edges(A H Standard)
370
               0
390
0
 62
               0
100
AcDbLine
 10
363.98000000000002
 20
534.60257869070506
 30
0.0
 11
364.17999999999984
 21
534.8025786907051
 31
0.0
  0
LINE
  5
1F9
100
AcDbEntity
  8
Visible Edges(A H Standard)
370
               0
390
0
 62
               0
100
AcDbLine
 10
364.17999999999984
 20
534.8025786907051
 30
0.0
 11
363.57999999999993
 21
534.8025786907051
 31
0.0
  0
LINE
  5
1FA
100
AcDbEntity
  8
Visible Edges(A H Standard)
370
               0
390
0
 62
               0
100
AcDbLine
 10
363.98000000000002
 20
534.40257869070501
 30
0.0
 11
364.17999999999984
 21
534.20257869070497
 31
0.0
  0
LINE
  5
1FB
100
AcDbEntity
  8
Visible Edges(A H Standard)
370
               0
390
0
 62
               0
100
AcDbLine
 10
364.17999999999984
 20
534.20257869070497
 30
0.0
 11
364.17999999999984
 21
534.8025786907051
 31
0.0
  0
LINE
  5
1FC
100
AcDbEntity
  8
Visible Edges(A H Standard)
370
               0
390
0
 62
               0
100
AcDbLine
 10
363.57999999999993
 20
534.20257869070497
 30
0.0
 11
364.17999999999984
 21
534.20257869070497
 31
0.0
  0
LINE
  5
1FD
100
AcDbEntity
  8
Visible Edges(A H Standard)
370
               0
390
0
 62
               0
100
AcDbLine
 10
358.69999999999982
 20
534.60257869070506
 30
0.0
 11
358.5
 21
534.8025786907051
 31
0.0
  0
LINE
  5
1FE
100
AcDbEntity
  8
Visible Edges(A H Standard)
370
               0
390
0
 62
               0
100
AcDbLine
 10
358.5
 20
534.8025786907051
 30
0.0
 11
358.5
 21
534.20257869070508
 31
0.0
  0
LINE
  5
1FF
100
AcDbEntity
  8
Visible Edges(A H Standard)
370
               0
390
0
 62
               0
100
AcDbLine
 10
358.69999999999982
 20
534.40257869070501
 30
0.0
 11
358.5
 21
534.20257869070508
 31
0.0
  0
LINE
  5
200
100
AcDbEntity
  8
Visible Edges(A H Standard)
370
               0
390
0
 62
               0
100
AcDbLine
 10
358.90000000000009
 20
534.60257869070506
 30
0.0
 11
359.09999999999991
 21
534.8025786907051
 31
0.0
  0
LINE
  5
201
100
AcDbEntity
  8
Visible Edges(A H Standard)
370
               0
390
0
 62
               0
100
AcDbLine
 10
359.09999999999991
 20
534.8025786907051
 30
0.0
 11
358.5
 21
534.8025786907051
 31
0.0
  0
LINE
  5
202
100
AcDbEntity
  8
Visible Edges(A H Standard)
370
               0
390
0
 62
               0
100
AcDbLine
 10
358.90000000000009
 20
534.40257869070501
 30
0.0
 11
359.09999999999991
 21
534.20257869070508
 31
0.0
  0
LINE
  5
203
100
AcDbEntity
  8
Visible Edges(A H Standard)
370
               0
390
0
 62
               0
100
AcDbLine
 10
359.09999999999991
 20
534.20257869070508
 30
0.0
 11
359.09999999999991
 21
534.8025786907051
 31
0.0
  0
LINE
  5
204
100
AcDbEntity
  8
Visible Edges(A H Standard)
370
               0
390
0
 62
               0
100
AcDbLine
 10
358.5
 20
534.20257869070508
 30
0.0
 11
359.09999999999991
 21
534.20257869070508
 31
0.0
  0
LINE
  5
205
100
AcDbEntity
  8
Visible Edges(A H Standard)
370
               0
390
0
 62
               0
100
AcDbLine
 10
353.61999999999989
 20
534.60257869070506
 30
0.0
 11
353.42000000000007
 21
534.8025786907051
 31
0.0
  0
LINE
  5
206
100
AcDbEntity
  8
Visible Edges(A H Standard)
370
               0
390
0
 62
               0
100
AcDbLine
 10
353.42000000000007
 20
534.8025786907051
 30
0.0
 11
353.42000000000007
 21
534.20257869070508
 31
0.0
  0
LINE
  5
207
100
AcDbEntity
  8
Visible Edges(A H Standard)
370
               0
390
0
 62
               0
100
AcDbLine
 10
353.61999999999989
 20
534.40257869070501
 30
0.0
 11
353.42000000000007
 21
534.20257869070508
 31
0.0
  0
LINE
  5
208
100
AcDbEntity
  8
Visible Edges(A H Standard)
370
               0
390
0
 62
               0
100
AcDbLine
 10
353.81999999999971
 20
534.60257869070506
 30
0.0
 11
354.01999999999998
 21
534.8025786907051
 31
0.0
  0
LINE
  5
209
100
AcDbEntity
  8
Visible Edges(A H Standard)
370
               0
390
0
 62
               0
100
AcDbLine
 10
354.01999999999998
 20
534.8025786907051
 30
0.0
 11
353.42000000000007
 21
534.8025786907051
 31
0.0
  0
LINE
  5
20A
100
AcDbEntity
  8
Visible Edges(A H Standard)
370
               0
390
0
 62
               0
100
AcDbLine
 10
353.81999999999971
 20
534.40257869070501
 30
0.0
 11
354.01999999999998
 21
534.20257869070508
 31
0.0
  0
LINE
  5
20B
100
AcDbEntity
  8
Visible Edges(A H Standard)
370
               0
390
0
 62
               0
100
AcDbLine
 10
354.01999999999998
 20
534.20257869070508
 30
0.0
 11
354.01999999999998
 21
534.8025786907051
 31
0.0
  0
LINE
  5
20C
100
AcDbEntity
  8
Visible Edges(A H Standard)
370
               0
390
0
 62
               0
100
AcDbLine
 10
353.42000000000007
 20
534.20257869070508
 30
0.0
 11
354.01999999999998
 21
534.20257869070508
 31
0.0
  0
LINE
  5
20D
100
AcDbEntity
  8
Visible Edges(A H Standard)
370
               0
390
0
 62
               0
100
AcDbLine
 10
396.89999999999964
 20
532.00257869070447
 30
0.0
 11
396.43665596572919
 21
532.00257869070447
 31
0.0
  0
LINE
  5
20E
100
AcDbEntity
  8
Visible Edges(A H Standard)
370
               0
390
0
 62
               0
100
AcDbLine
 10
351.64334403427029
 20
532.00257869070469
 30
0.0
 11
350.71665596572939
 21
532.00257869070481
 31
0.0
  0
LINE
  5
20F
100
AcDbEntity
  8
Visible Edges(A H Standard)
370
               0
390
0
 62
               0
100
AcDbLine
 10
356.72334403427021
 20
532.00257869070469
 30
0.0
 11
355.79665596572931
 21
532.00257869070469
 31
0.0
  0
LINE
  5
210
100
AcDbEntity
  8
Visible Edges(A H Standard)
370
               0
390
0
 62
               0
100
AcDbLine
 10
361.80334403427059
 20
532.00257869070469
 30
0.0
 11
360.87665596572924
 21
532.00257869070469
 31
0.0
  0
LINE
  5
211
100
AcDbEntity
  8
Visible Edges(A H Standard)
370
               0
390
0
 62
               0
100
AcDbLine
 10
366.88334403427052
 20
532.00257869070469
 30
0.0
 11
365.95665596572917
 21
532.00257869070469
 31
0.0
  0
LINE
  5
212
100
AcDbEntity
  8
Visible Edges(A H Standard)
370
               0
390
0
 62
               0
100
AcDbLine
 10
371.96334403427045
 20
532.00257869070469
 30
0.0
 11
371.03665596572955
 21
532.00257869070469
 31
0.0
  0
LINE
  5
213
100
AcDbEntity
  8
Visible Edges(A H Standard)
370
               0
390
0
 62
               0
100
AcDbLine
 10
377.04334403427038
 20
532.00257869070469
 30
0.0
 11
376.11665596572948
 21
532.00257869070469
 31
0.0
  0
LINE
  5
214
100
AcDbEntity
  8
Visible Edges(A H Standard)
370
               0
390
0
 62
               0
100
AcDbLine
 10
382.1233440342703
 20
532.00257869070469
 30
0.0
 11
381.19665596572941
 21
532.00257869070469
 31
0.0
  0
LINE
  5
215
100
AcDbEntity
  8
Visible Edges(A H Standard)
370
               0
390
0
 62
               0
100
AcDbLine
 10
392.28334403427016
 20
532.00257869070458
 30
0.0
 11
391.35665596572926
 21
532.00257869070458
 31
0.0
  0
LINE
  5
216
100
AcDbEntity
  8
Visible Edges(A H Standard)
370
               0
390
0
 62
               0
100
AcDbLine
 10
387.20334403427023
 20
532.00257869070458
 30
0.0
 11
386.27665596572933
 21
532.00257869070458
 31
0.0
  0
LINE
  5
217
100
AcDbEntity
  8
Visible Edges(A H Standard)
370
               0
390
0
 62
               0
100
AcDbLine
 10
346.56334403427036
 20
532.00257869070481
 30
0.0
 11
346.09999999999991
 21
532.00257869070481
 31
0.0
  0
LINE
  5
218
100
AcDbEntity
  8
Visible Edges(A H Standard)
370
               0
390
0
 62
               0
100
AcDbLine
 10
346.09999999999991
 20
532.00257869070481
 30
0.0
 11
346.09999999999991
 21
537.00257869070481
 31
0.0
  0
LINE
  5
219
100
AcDbEntity
  8
Visible Edges(A H Standard)
370
               0
390
0
 62
               0
100
AcDbLine
 10
346.09999999999991
 20
537.00257869070481
 30
0.0
 11
396.89999999999964
 21
537.00257869070447
 31
0.0
  0
LINE
  5
21A
100
AcDbEntity
  8
Visible Edges(A H Standard)
370
               0
390
0
 62
               0
100
AcDbLine
 10
396.89999999999964
 20
537.00257869070447
 30
0.0
 11
396.89999999999964
 21
532.00257869070447
 31
0.0
  0
ARC
  5
21B
100
AcDbEntity
  8
Visible Edges(A H Standard)
370
               0
390
0
 62
               0
100
AcDbCircle
 10
348.63999999999987
 20
534.50257869070469
 30
0.0
 40
3.2499999999999534
100
AcDbArc
 50
230.28486276817324
 51
309.71513723182619
  0
LINE
  5
21C
100
AcDbEntity
  8
Visible Edges(A H Standard)
370
               0
390
0
 62
               0
100
AcDbLine
 10
397.49999999999955
 20
538.50257869070447
 30
0.0
 11
397.49999999999955
 21
538.70257869070485
 31
0.0
  0
LINE
  5
21D
100
AcDbEntity
  8
Visible Edges(A H Standard)
370
               0
390
0
 62
               0
100
AcDbLine
 10
397.49999999999955
 20
538.70257869070485
 30
0.0
 11
345.5
 21
538.7025786907052
 31
0.0
  0
LINE
  5
21E
100
AcDbEntity
  8
Visible Edges(A H Standard)
370
               0
390
0
 62
               0
100
AcDbLine
 10
345.5
 20
538.7025786907052
 30
0.0
 11
345.5
 21
538.50257869070469
 31
0.0
  0
LINE
  5
21F
100
AcDbEntity
  8
Visible Edges(A H Standard)
370
               0
390
0
 62
               0
100
AcDbLine
 10
345.5
 20
538.50257869070469
 30
0.0
 11
345.5
 21
530.20257869070485
 31
0.0
  0
LINE
  5
220
100
AcDbEntity
  8
Visible Edges(A H Standard)
370
               0
390
0
 62
               0
100
AcDbLine
 10
397.49999999999955
 20
530.20257869070451
 30
0.0
 11
345.5
 21
530.20257869070485
 31
0.0
  0
LINE
  5
221
100
AcDbEntity
  8
Visible Edges(A H Standard)
370
               0
390
0
 62
               0
100
AcDbLine
 10
397.49999999999955
 20
538.50257869070447
 30
0.0
 11
397.49999999999955
 21
530.20257869070451
 31
0.0
  0
LINE
  5
222
100
AcDbEntity
  8
Visible Edges(A H Standard)
370
               0
390
0
 62
               0
100
AcDbLine
 10
348.53999999999996
 20
534.60257869070506
 30
0.0
 11
348.34000000000015
 21
534.8025786907051
 31
0.0
  0
LINE
  5
223
100
AcDbEntity
  8
Visible Edges(A H Standard)
370
               0
390
0
 62
               0
100
AcDbLine
 10
348.34000000000015
 20
534.8025786907051
 30
0.0
 11
348.34000000000015
 21
534.2025786907052
 31
0.0
  0
LINE
  5
224
100
AcDbEntity
  8
Visible Edges(A H Standard)
370
               0
390
0
 62
               0
100
AcDbLine
 10
348.53999999999996
 20
534.40257869070501
 30
0.0
 11
348.34000000000015
 21
534.2025786907052
 31
0.0
  0
LINE
  5
225
100
AcDbEntity
  8
Visible Edges(A H Standard)
370
               0
390
0
 62
               0
100
AcDbLine
 10
348.73999999999978
 20
534.60257869070506
 30
0.0
 11
348.94000000000005
 21
534.8025786907051
 31
0.0
  0
LINE
  5
226
100
AcDbEntity
  8
Visible Edges(A H Standard)
370
               0
390
0
 62
               0
100
AcDbLine
 10
348.94000000000005
 20
534.8025786907051
 30
0.0
 11
348.34000000000015
 21
534.8025786907051
 31
0.0
  0
LINE
  5
227
100
AcDbEntity
  8
Visible Edges(A H Standard)
370
               0
390
0
 62
               0
100
AcDbLine
 10
348.73999999999978
 20
534.40257869070501
 30
0.0
 11
348.94000000000005
 21
534.2025786907052
 31
0.0
  0
LINE
  5
228
100
AcDbEntity
  8
Visible Edges(A H Standard)
370
               0
390
0
 62
               0
100
AcDbLine
 10
348.94000000000005
 20
534.2025786907052
 30
0.0
 11
348.94000000000005
 21
534.8025786907051
 31
0.0
  0
LINE
  5
229
100
AcDbEntity
  8
Visible Edges(A H Standard)
370
               0
390
0
 62
               0
100
AcDbLine
 10
348.34000000000015
 20
534.2025786907052
 30
0.0
 11
348.94000000000005
 21
534.2025786907052
 31
0.0
  0
ARC
  5
22A
100
AcDbEntity
  8
Visible Edges(A H Standard)
370
               0
390
0
 62
               0
100
AcDbCircle
 10
389.28000000000111
 20
554.10257869070449
 30
0.0
 40
3.2499999999999534
100
AcDbArc
 50
230.28486276817324
 51
309.71513723182619
  0
ARC
  5
22B
100
AcDbEntity
  8
Visible Edges(A H Standard)
370
               0
390
0
 62
               0
100
AcDbCircle
 10
384.20000000000118
 20
554.10257869070449
 30
0.0
 40
3.2499999999999534
100
AcDbArc
 50
230.28486276817324
 51
309.71513723182619
  0
ARC
  5
22C
100
AcDbEntity
  8
Visible Edges(A H Standard)
370
               0
390
0
 62
               0
100
AcDbCircle
 10
379.12000000000126
 20
554.1025786907046
 30
0.0
 40
3.2499999999999534
100
AcDbArc
 50
230.28486276817324
 51
309.71513723182619
  0
ARC
  5
22D
100
AcDbEntity
  8
Visible Edges(A H Standard)
370
               0
390
0
 62
               0
100
AcDbCircle
 10
374.04000000000133
 20
554.1025786907046
 30
0.0
 40
3.2499999999999534
100
AcDbArc
 50
230.28486276817324
 51
309.71513723182619
  0
ARC
  5
22E
100
AcDbEntity
  8
Visible Edges(A H Standard)
370
               0
390
0
 62
               0
100
AcDbCircle
 10
368.9600000000014
 20
554.1025786907046
 30
0.0
 40
3.2499999999999534
100
AcDbArc
 50
230.28486276817324
 51
309.71513723182619
  0
ARC
  5
22F
100
AcDbEntity
  8
Visible Edges(A H Standard)
370
               0
390
0
 62
               0
100
AcDbCircle
 10
363.88000000000147
 20
554.1025786907046
 30
0.0
 40
3.2499999999999534
100
AcDbArc
 50
230.28486276817324
 51
309.71513723182619
  0
ARC
  5
230
100
AcDbEntity
  8
Visible Edges(A H Standard)
370
               0
390
0
 62
               0
100
AcDbCircle
 10
358.80000000000155
 20
554.10257869070472
 30
0.0
 40
3.2499999999999534
100
AcDbArc
 50
230.28486276817324
 51
309.71513723182619
  0
ARC
  5
231
100
AcDbEntity
  8
Visible Edges(A H Standard)
370
               0
390
0
 62
               0
100
AcDbCircle
 10
353.72000000000162
 20
554.10257869070472
 30
0.0
 40
3.2499999999999534
100
AcDbArc
 50
230.28486276817324
 51
309.71513723182619
  0
ARC
  5
232
100
AcDbEntity
  8
Visible Edges(A H Standard)
370
               0
390
0
 62
               0
100
AcDbCircle
 10
394.36000000000104
 20
554.10257869070438
 30
0.0
 40
3.2499999999999534
100
AcDbArc
 50
230.28486276817324
 51
309.71513723182619
  0
LINE
  5
233
100
AcDbEntity
  8
Visible Edges(A H Standard)
370
               0
390
0
 62
               0
100
AcDbLine
 10
394.26000000000113
 20
554.20257869070474
 30
0.0
 11
394.06000000000131
 21
554.40257869070479
 31
0.0
  0
LINE
  5
234
100
AcDbEntity
  8
Visible Edges(A H Standard)
370
               0
390
0
 62
               0
100
AcDbLine
 10
394.06000000000131
 20
554.40257869070479
 30
0.0
 11
394.06000000000131
 21
553.80257869070476
 31
0.0
  0
LINE
  5
235
100
AcDbEntity
  8
Visible Edges(A H Standard)
370
               0
390
0
 62
               0
100
AcDbLine
 10
394.26000000000113
 20
554.00257869070469
 30
0.0
 11
394.06000000000131
 21
553.80257869070476
 31
0.0
  0
LINE
  5
236
100
AcDbEntity
  8
Visible Edges(A H Standard)
370
               0
390
0
 62
               0
100
AcDbLine
 10
394.46000000000095
 20
554.20257869070474
 30
0.0
 11
394.66000000000122
 21
554.40257869070479
 31
0.0
  0
LINE
  5
237
100
AcDbEntity
  8
Visible Edges(A H Standard)
370
               0
390
0
 62
               0
100
AcDbLine
 10
394.66000000000122
 20
554.40257869070479
 30
0.0
 11
394.06000000000131
 21
554.40257869070479
 31
0.0
  0
LINE
  5
238
100
AcDbEntity
  8
Visible Edges(A H Standard)
370
               0
390
0
 62
               0
100
AcDbLine
 10
394.46000000000095
 20
554.00257869070469
 30
0.0
 11
394.66000000000122
 21
553.80257869070476
 31
0.0
  0
LINE
  5
239
100
AcDbEntity
  8
Visible Edges(A H Standard)
370
               0
390
0
 62
               0
100
AcDbLine
 10
394.66000000000122
 20
553.80257869070476
 30
0.0
 11
394.66000000000122
 21
554.40257869070479
 31
0.0
  0
LINE
  5
23A
100
AcDbEntity
  8
Visible Edges(A H Standard)
370
               0
390
0
 62
               0
100
AcDbLine
 10
394.06000000000131
 20
553.80257869070476
 30
0.0
 11
394.66000000000122
 21
553.80257869070476
 31
0.0
  0
LINE
  5
23B
100
AcDbEntity
  8
Visible Edges(A H Standard)
370
               0
390
0
 62
               0
100
AcDbLine
 10
389.1800000000012
 20
554.20257869070474
 30
0.0
 11
388.98000000000093
 21
554.40257869070479
 31
0.0
  0
LINE
  5
23C
100
AcDbEntity
  8
Visible Edges(A H Standard)
370
               0
390
0
 62
               0
100
AcDbLine
 10
388.98000000000093
 20
554.40257869070479
 30
0.0
 11
388.98000000000093
 21
553.80257869070488
 31
0.0
  0
LINE
  5
23D
100
AcDbEntity
  8
Visible Edges(A H Standard)
370
               0
390
0
 62
               0
100
AcDbLine
 10
389.1800000000012
 20
554.00257869070481
 30
0.0
 11
388.98000000000093
 21
553.80257869070488
 31
0.0
  0
LINE
  5
23E
100
AcDbEntity
  8
Visible Edges(A H Standard)
370
               0
390
0
 62
               0
100
AcDbLine
 10
389.38000000000102
 20
554.20257869070474
 30
0.0
 11
389.58000000000129
 21
554.40257869070479
 31
0.0
  0
LINE
  5
23F
100
AcDbEntity
  8
Visible Edges(A H Standard)
370
               0
390
0
 62
               0
100
AcDbLine
 10
389.58000000000129
 20
554.40257869070479
 30
0.0
 11
388.98000000000093
 21
554.40257869070479
 31
0.0
  0
LINE
  5
240
100
AcDbEntity
  8
Visible Edges(A H Standard)
370
               0
390
0
 62
               0
100
AcDbLine
 10
389.38000000000102
 20
554.00257869070481
 30
0.0
 11
389.58000000000129
 21
553.80257869070488
 31
0.0
  0
LINE
  5
241
100
AcDbEntity
  8
Visible Edges(A H Standard)
370
               0
390
0
 62
               0
100
AcDbLine
 10
389.58000000000129
 20
553.80257869070488
 30
0.0
 11
389.58000000000129
 21
554.40257869070479
 31
0.0
  0
LINE
  5
242
100
AcDbEntity
  8
Visible Edges(A H Standard)
370
               0
390
0
 62
               0
100
AcDbLine
 10
388.98000000000093
 20
553.80257869070488
 30
0.0
 11
389.58000000000129
 21
553.80257869070488
 31
0.0
  0
LINE
  5
243
100
AcDbEntity
  8
Visible Edges(A H Standard)
370
               0
390
0
 62
               0
100
AcDbLine
 10
384.10000000000127
 20
554.20257869070485
 30
0.0
 11
383.90000000000146
 21
554.40257869070479
 31
0.0
  0
LINE
  5
244
100
AcDbEntity
  8
Visible Edges(A H Standard)
370
               0
390
0
 62
               0
100
AcDbLine
 10
383.90000000000146
 20
554.40257869070479
 30
0.0
 11
383.90000000000146
 21
553.80257869070488
 31
0.0
  0
LINE
  5
245
100
AcDbEntity
  8
Visible Edges(A H Standard)
370
               0
390
0
 62
               0
100
AcDbLine
 10
384.10000000000127
 20
554.00257869070481
 30
0.0
 11
383.90000000000146
 21
553.80257869070488
 31
0.0
  0
LINE
  5
246
100
AcDbEntity
  8
Visible Edges(A H Standard)
370
               0
390
0
 62
               0
100
AcDbLine
 10
384.30000000000109
 20
554.20257869070485
 30
0.0
 11
384.50000000000136
 21
554.40257869070479
 31
0.0
  0
LINE
  5
247
100
AcDbEntity
  8
Visible Edges(A H Standard)
370
               0
390
0
 62
               0
100
AcDbLine
 10
384.50000000000136
 20
554.40257869070479
 30
0.0
 11
383.90000000000146
 21
554.40257869070479
 31
0.0
  0
LINE
  5
248
100
AcDbEntity
  8
Visible Edges(A H Standard)
370
               0
390
0
 62
               0
100
AcDbLine
 10
384.30000000000109
 20
554.00257869070481
 30
0.0
 11
384.50000000000136
 21
553.80257869070488
 31
0.0
  0
LINE
  5
249
100
AcDbEntity
  8
Visible Edges(A H Standard)
370
               0
390
0
 62
               0
100
AcDbLine
 10
384.50000000000136
 20
553.80257869070488
 30
0.0
 11
384.50000000000136
 21
554.40257869070479
 31
0.0
  0
LINE
  5
24A
100
AcDbEntity
  8
Visible Edges(A H Standard)
370
               0
390
0
 62
               0
100
AcDbLine
 10
383.90000000000146
 20
553.80257869070488
 30
0.0
 11
384.50000000000136
 21
553.80257869070488
 31
0.0
  0
LINE
  5
24B
100
AcDbEntity
  8
Visible Edges(A H Standard)
370
               0
390
0
 62
               0
100
AcDbLine
 10
379.02000000000135
 20
554.20257869070485
 30
0.0
 11
378.82000000000153
 21
554.4025786907049
 31
0.0
  0
LINE
  5
24C
100
AcDbEntity
  8
Visible Edges(A H Standard)
370
               0
390
0
 62
               0
100
AcDbLine
 10
378.82000000000153
 20
554.4025786907049
 30
0.0
 11
378.82000000000153
 21
553.80257869070488
 31
0.0
  0
LINE
  5
24D
100
AcDbEntity
  8
Visible Edges(A H Standard)
370
               0
390
0
 62
               0
100
AcDbLine
 10
379.02000000000135
 20
554.00257869070492
 30
0.0
 11
378.82000000000153
 21
553.80257869070488
 31
0.0
  0
LINE
  5
24E
100
AcDbEntity
  8
Visible Edges(A H Standard)
370
               0
390
0
 62
               0
100
AcDbLine
 10
379.22000000000116
 20
554.20257869070485
 30
0.0
 11
379.42000000000144
 21
554.4025786907049
 31
0.0
  0
LINE
  5
24F
100
AcDbEntity
  8
Visible Edges(A H Standard)
370
               0
390
0
 62
               0
100
AcDbLine
 10
379.42000000000144
 20
554.4025786907049
 30
0.0
 11
378.82000000000153
 21
554.4025786907049
 31
0.0
  0
LINE
  5
250
100
AcDbEntity
  8
Visible Edges(A H Standard)
370
               0
390
0
 62
               0
100
AcDbLine
 10
379.22000000000116
 20
554.00257869070492
 30
0.0
 11
379.42000000000144
 21
553.80257869070488
 31
0.0
  0
LINE
  5
251
100
AcDbEntity
  8
Visible Edges(A H Standard)
370
               0
390
0
 62
               0
100
AcDbLine
 10
379.42000000000144
 20
553.80257869070488
 30
0.0
 11
379.42000000000144
 21
554.4025786907049
 31
0.0
  0
LINE
  5
252
100
AcDbEntity
  8
Visible Edges(A H Standard)
370
               0
390
0
 62
               0
100
AcDbLine
 10
378.82000000000153
 20
553.80257869070488
 30
0.0
 11
379.42000000000144
 21
553.80257869070488
 31
0.0
  0
LINE
  5
253
100
AcDbEntity
  8
Visible Edges(A H Standard)
370
               0
390
0
 62
               0
100
AcDbLine
 10
373.94000000000142
 20
554.20257869070497
 30
0.0
 11
373.7400000000016
 21
554.4025786907049
 31
0.0
  0
LINE
  5
254
100
AcDbEntity
  8
Visible Edges(A H Standard)
370
               0
390
0
 62
               0
100
AcDbLine
 10
373.7400000000016
 20
554.4025786907049
 30
0.0
 11
373.74000000000115
 21
553.80257869070499
 31
0.0
  0
LINE
  5
255
100
AcDbEntity
  8
Visible Edges(A H Standard)
370
               0
390
0
 62
               0
100
AcDbLine
 10
373.94000000000142
 20
554.00257869070492
 30
0.0
 11
373.7400000000016
 21
553.80257869070499
 31
0.0
  0
LINE
  5
256
100
AcDbEntity
  8
Visible Edges(A H Standard)
370
               0
390
0
 62
               0
100
AcDbLine
 10
374.14000000000124
 20
554.20257869070497
 30
0.0
 11
374.34000000000151
 21
554.4025786907049
 31
0.0
  0
LINE
  5
257
100
AcDbEntity
  8
Visible Edges(A H Standard)
370
               0
390
0
 62
               0
100
AcDbLine
 10
374.34000000000151
 20
554.4025786907049
 30
0.0
 11
373.7400000000016
 21
554.4025786907049
 31
0.0
  0
LINE
  5
258
100
AcDbEntity
  8
Visible Edges(A H Standard)
370
               0
390
0
 62
               0
100
AcDbLine
 10
374.14000000000124
 20
554.00257869070492
 30
0.0
 11
374.34000000000151
 21
553.80257869070499
 31
0.0
  0
LINE
  5
259
100
AcDbEntity
  8
Visible Edges(A H Standard)
370
               0
390
0
 62
               0
100
AcDbLine
 10
374.34000000000151
 20
553.80257869070499
 30
0.0
 11
374.34000000000151
 21
554.4025786907049
 31
0.0
  0
LINE
  5
25A
100
AcDbEntity
  8
Visible Edges(A H Standard)
370
               0
390
0
 62
               0
100
AcDbLine
 10
373.74000000000115
 20
553.80257869070499
 30
0.0
 11
374.34000000000151
 21
553.80257869070499
 31
0.0
  0
LINE
  5
25B
100
AcDbEntity
  8
Visible Edges(A H Standard)
370
               0
390
0
 62
               0
100
AcDbLine
 10
368.86000000000149
 20
554.20257869070497
 30
0.0
 11
368.66000000000167
 21
554.40257869070501
 31
0.0
  0
LINE
  5
25C
100
AcDbEntity
  8
Visible Edges(A H Standard)
370
               0
390
0
 62
               0
100
AcDbLine
 10
368.66000000000167
 20
554.40257869070501
 30
0.0
 11
368.66000000000167
 21
553.80257869070499
 31
0.0
  0
LINE
  5
25D
100
AcDbEntity
  8
Visible Edges(A H Standard)
370
               0
390
0
 62
               0
100
AcDbLine
 10
368.86000000000149
 20
554.00257869070492
 30
0.0
 11
368.66000000000167
 21
553.80257869070499
 31
0.0
  0
LINE
  5
25E
100
AcDbEntity
  8
Visible Edges(A H Standard)
370
               0
390
0
 62
               0
100
AcDbLine
 10
369.06000000000131
 20
554.20257869070497
 30
0.0
 11
369.26000000000158
 21
554.40257869070501
 31
0.0
  0
LINE
  5
25F
100
AcDbEntity
  8
Visible Edges(A H Standard)
370
               0
390
0
 62
               0
100
AcDbLine
 10
369.26000000000158
 20
554.40257869070501
 30
0.0
 11
368.66000000000167
 21
554.40257869070501
 31
0.0
  0
LINE
  5
260
100
AcDbEntity
  8
Visible Edges(A H Standard)
370
               0
390
0
 62
               0
100
AcDbLine
 10
369.06000000000131
 20
554.00257869070492
 30
0.0
 11
369.26000000000158
 21
553.80257869070499
 31
0.0
  0
LINE
  5
261
100
AcDbEntity
  8
Visible Edges(A H Standard)
370
               0
390
0
 62
               0
100
AcDbLine
 10
369.26000000000158
 20
553.80257869070499
 30
0.0
 11
369.26000000000158
 21
554.40257869070501
 31
0.0
  0
LINE
  5
262
100
AcDbEntity
  8
Visible Edges(A H Standard)
370
               0
390
0
 62
               0
100
AcDbLine
 10
368.66000000000167
 20
553.80257869070499
 30
0.0
 11
369.26000000000158
 21
553.80257869070499
 31
0.0
  0
LINE
  5
263
100
AcDbEntity
  8
Visible Edges(A H Standard)
370
               0
390
0
 62
               0
100
AcDbLine
 10
363.78000000000156
 20
554.20257869070497
 30
0.0
 11
363.58000000000129
 21
554.40257869070501
 31
0.0
  0
LINE
  5
264
100
AcDbEntity
  8
Visible Edges(A H Standard)
370
               0
390
0
 62
               0
100
AcDbLine
 10
363.58000000000129
 20
554.40257869070501
 30
0.0
 11
363.58000000000129
 21
553.8025786907051
 31
0.0
  0
LINE
  5
265
100
AcDbEntity
  8
Visible Edges(A H Standard)
370
               0
390
0
 62
               0
100
AcDbLine
 10
363.78000000000156
 20
554.00257869070492
 30
0.0
 11
363.58000000000129
 21
553.8025786907051
 31
0.0
  0
LINE
  5
266
100
AcDbEntity
  8
Visible Edges(A H Standard)
370
               0
390
0
 62
               0
100
AcDbLine
 10
363.98000000000138
 20
554.20257869070497
 30
0.0
 11
364.18000000000166
 21
554.40257869070501
 31
0.0
  0
LINE
  5
267
100
AcDbEntity
  8
Visible Edges(A H Standard)
370
               0
390
0
 62
               0
100
AcDbLine
 10
364.18000000000166
 20
554.40257869070501
 30
0.0
 11
363.58000000000129
 21
554.40257869070501
 31
0.0
  0
LINE
  5
268
100
AcDbEntity
  8
Visible Edges(A H Standard)
370
               0
390
0
 62
               0
100
AcDbLine
 10
363.98000000000138
 20
554.00257869070492
 30
0.0
 11
364.18000000000166
 21
553.8025786907051
 31
0.0
  0
LINE
  5
269
100
AcDbEntity
  8
Visible Edges(A H Standard)
370
               0
390
0
 62
               0
100
AcDbLine
 10
364.18000000000166
 20
553.8025786907051
 30
0.0
 11
364.18000000000166
 21
554.40257869070501
 31
0.0
  0
LINE
  5
26A
100
AcDbEntity
  8
Visible Edges(A H Standard)
370
               0
390
0
 62
               0
100
AcDbLine
 10
363.58000000000129
 20
553.8025786907051
 30
0.0
 11
364.18000000000166
 21
553.8025786907051
 31
0.0
  0
LINE
  5
26B
100
AcDbEntity
  8
Visible Edges(A H Standard)
370
               0
390
0
 62
               0
100
AcDbLine
 10
358.70000000000164
 20
554.20257869070497
 30
0.0
 11
358.50000000000182
 21
554.40257869070501
 31
0.0
  0
LINE
  5
26C
100
AcDbEntity
  8
Visible Edges(A H Standard)
370
               0
390
0
 62
               0
100
AcDbLine
 10
358.50000000000182
 20
554.40257869070501
 30
0.0
 11
358.50000000000182
 21
553.8025786907051
 31
0.0
  0
LINE
  5
26D
100
AcDbEntity
  8
Visible Edges(A H Standard)
370
               0
390
0
 62
               0
100
AcDbLine
 10
358.70000000000164
 20
554.00257869070504
 30
0.0
 11
358.50000000000182
 21
553.8025786907051
 31
0.0
  0
LINE
  5
26E
100
AcDbEntity
  8
Visible Edges(A H Standard)
370
               0
390
0
 62
               0
100
AcDbLine
 10
358.90000000000146
 20
554.20257869070497
 30
0.0
 11
359.10000000000173
 21
554.40257869070501
 31
0.0
  0
LINE
  5
26F
100
AcDbEntity
  8
Visible Edges(A H Standard)
370
               0
390
0
 62
               0
100
AcDbLine
 10
359.10000000000173
 20
554.40257869070501
 30
0.0
 11
358.50000000000182
 21
554.40257869070501
 31
0.0
  0
LINE
  5
270
100
AcDbEntity
  8
Visible Edges(A H Standard)
370
               0
390
0
 62
               0
100
AcDbLine
 10
358.90000000000146
 20
554.00257869070504
 30
0.0
 11
359.10000000000173
 21
553.8025786907051
 31
0.0
  0
LINE
  5
271
100
AcDbEntity
  8
Visible Edges(A H Standard)
370
               0
390
0
 62
               0
100
AcDbLine
 10
359.10000000000173
 20
553.8025786907051
 30
0.0
 11
359.10000000000173
 21
554.40257869070501
 31
0.0
  0
LINE
  5
272
100
AcDbEntity
  8
Visible Edges(A H Standard)
370
               0
390
0
 62
               0
100
AcDbLine
 10
358.50000000000182
 20
553.8025786907051
 30
0.0
 11
359.10000000000173
 21
553.8025786907051
 31
0.0
  0
LINE
  5
273
100
AcDbEntity
  8
Visible Edges(A H Standard)
370
               0
390
0
 62
               0
100
AcDbLine
 10
353.62000000000171
 20
554.20257869070497
 30
0.0
 11
353.42000000000189
 21
554.40257869070501
 31
0.0
  0
LINE
  5
274
100
AcDbEntity
  8
Visible Edges(A H Standard)
370
               0
390
0
 62
               0
100
AcDbLine
 10
353.42000000000189
 20
554.40257869070501
 30
0.0
 11
353.42000000000189
 21
553.8025786907051
 31
0.0
  0
LINE
  5
275
100
AcDbEntity
  8
Visible Edges(A H Standard)
370
               0
390
0
 62
               0
100
AcDbLine
 10
353.62000000000171
 20
554.00257869070504
 30
0.0
 11
353.42000000000189
 21
553.8025786907051
 31
0.0
  0
LINE
  5
276
100
AcDbEntity
  8
Visible Edges(A H Standard)
370
               0
390
0
 62
               0
100
AcDbLine
 10
353.82000000000153
 20
554.20257869070497
 30
0.0
 11
354.0200000000018
 21
554.40257869070501
 31
0.0
  0
LINE
  5
277
100
AcDbEntity
  8
Visible Edges(A H Standard)
370
               0
390
0
 62
               0
100
AcDbLine
 10
354.0200000000018
 20
554.40257869070501
 30
0.0
 11
353.42000000000189
 21
554.40257869070501
 31
0.0
  0
LINE
  5
278
100
AcDbEntity
  8
Visible Edges(A H Standard)
370
               0
390
0
 62
               0
100
AcDbLine
 10
353.82000000000153
 20
554.00257869070504
 30
0.0
 11
354.0200000000018
 21
553.8025786907051
 31
0.0
  0
LINE
  5
279
100
AcDbEntity
  8
Visible Edges(A H Standard)
370
               0
390
0
 62
               0
100
AcDbLine
 10
354.0200000000018
 20
553.8025786907051
 30
0.0
 11
354.0200000000018
 21
554.40257869070501
 31
0.0
  0
LINE
  5
27A
100
AcDbEntity
  8
Visible Edges(A H Standard)
370
               0
390
0
 62
               0
100
AcDbLine
 10
353.42000000000189
 20
553.8025786907051
 30
0.0
 11
354.0200000000018
 21
553.8025786907051
 31
0.0
  0
LINE
  5
27B
100
AcDbEntity
  8
Visible Edges(A H Standard)
370
               0
390
0
 62
               0
100
AcDbLine
 10
396.900000000001
 20
551.60257869070438
 30
0.0
 11
396.43665596573055
 21
551.60257869070438
 31
0.0
  0
LINE
  5
27C
100
AcDbEntity
  8
Visible Edges(A H Standard)
370
               0
390
0
 62
               0
100
AcDbLine
 10
351.6433440342721
 20
551.60257869070483
 30
0.0
 11
350.71665596573121
 21
551.60257869070483
 31
0.0
  0
LINE
  5
27D
100
AcDbEntity
  8
Visible Edges(A H Standard)
370
               0
390
0
 62
               0
100
AcDbLine
 10
356.72334403427203
 20
551.60257869070483
 30
0.0
 11
355.79665596573113
 21
551.60257869070483
 31
0.0
  0
LINE
  5
27E
100
AcDbEntity
  8
Visible Edges(A H Standard)
370
               0
390
0
 62
               0
100
AcDbLine
 10
361.80334403427196
 20
551.60257869070472
 30
0.0
 11
360.87665596573106
 21
551.60257869070472
 31
0.0
  0
LINE
  5
27F
100
AcDbEntity
  8
Visible Edges(A H Standard)
370
               0
390
0
 62
               0
100
AcDbLine
 10
366.88334403427189
 20
551.60257869070472
 30
0.0
 11
365.95665596573099
 21
551.60257869070472
 31
0.0
  0
LINE
  5
280
100
AcDbEntity
  8
Visible Edges(A H Standard)
370
               0
390
0
 62
               0
100
AcDbLine
 10
371.96334403427181
 20
551.6025786907046
 30
0.0
 11
371.03665596573092
 21
551.6025786907046
 31
0.0
  0
LINE
  5
281
100
AcDbEntity
  8
Visible Edges(A H Standard)
370
               0
390
0
 62
               0
100
AcDbLine
 10
377.04334403427174
 20
551.6025786907046
 30
0.0
 11
376.11665596573084
 21
551.6025786907046
 31
0.0
  0
LINE
  5
282
100
AcDbEntity
  8
Visible Edges(A H Standard)
370
               0
390
0
 62
               0
100
AcDbLine
 10
382.12334403427167
 20
551.6025786907046
 30
0.0
 11
381.19665596573077
 21
551.6025786907046
 31
0.0
  0
LINE
  5
283
100
AcDbEntity
  8
Visible Edges(A H Standard)
370
               0
390
0
 62
               0
100
AcDbLine
 10
392.28334403427152
 20
551.60257869070449
 30
0.0
 11
391.35665596573062
 21
551.60257869070449
 31
0.0
  0
LINE
  5
284
100
AcDbEntity
  8
Visible Edges(A H Standard)
370
               0
390
0
 62
               0
100
AcDbLine
 10
387.20334403427159
 20
551.60257869070449
 30
0.0
 11
386.2766559657307
 21
551.6025786907046
 31
0.0
  0
LINE
  5
285
100
AcDbEntity
  8
Visible Edges(A H Standard)
370
               0
390
0
 62
               0
100
AcDbLine
 10
346.56334403427218
 20
551.60257869070483
 30
0.0
 11
346.10000000000173
 21
551.60257869070483
 31
0.0
  0
LINE
  5
286
100
AcDbEntity
  8
Visible Edges(A H Standard)
370
               0
390
0
 62
               0
100
AcDbLine
 10
346.10000000000173
 20
551.60257869070483
 30
0.0
 11
346.10000000000173
 21
556.60257869070483
 31
0.0
  0
LINE
  5
287
100
AcDbEntity
  8
Visible Edges(A H Standard)
370
               0
390
0
 62
               0
100
AcDbLine
 10
346.10000000000173
 20
556.60257869070483
 30
0.0
 11
396.900000000001
 21
556.60257869070438
 31
0.0
  0
LINE
  5
288
100
AcDbEntity
  8
Visible Edges(A H Standard)
370
               0
390
0
 62
               0
100
AcDbLine
 10
396.900000000001
 20
556.60257869070438
 30
0.0
 11
396.900000000001
 21
551.60257869070438
 31
0.0
  0
ARC
  5
289
100
AcDbEntity
  8
Visible Edges(A H Standard)
370
               0
390
0
 62
               0
100
AcDbCircle
 10
348.64000000000169
 20
554.10257869070483
 30
0.0
 40
3.2499999999999534
100
AcDbArc
 50
230.28486276817324
 51
309.71513723182619
  0
LINE
  5
28A
100
AcDbEntity
  8
Visible Edges(A H Standard)
370
               0
390
0
 62
               0
100
AcDbLine
 10
397.50000000000091
 20
558.10257869070438
 30
0.0
 11
397.50000000000091
 21
558.30257869070476
 31
0.0
  0
LINE
  5
28B
100
AcDbEntity
  8
Visible Edges(A H Standard)
370
               0
390
0
 62
               0
100
AcDbLine
 10
397.50000000000091
 20
558.30257869070476
 30
0.0
 11
345.50000000000182
 21
558.30257869070522
 31
0.0
  0
LINE
  5
28C
100
AcDbEntity
  8
Visible Edges(A H Standard)
370
               0
390
0
 62
               0
100
AcDbLine
 10
345.50000000000182
 20
558.30257869070522
 30
0.0
 11
345.50000000000182
 21
558.10257869070483
 31
0.0
  0
LINE
  5
28D
100
AcDbEntity
  8
Visible Edges(A H Standard)
370
               0
390
0
 62
               0
100
AcDbLine
 10
345.50000000000182
 20
558.10257869070483
 30
0.0
 11
345.50000000000182
 21
549.80257869070488
 31
0.0
  0
LINE
  5
28E
100
AcDbEntity
  8
Visible Edges(A H Standard)
370
               0
390
0
 62
               0
100
AcDbLine
 10
397.50000000000091
 20
549.80257869070442
 30
0.0
 11
345.50000000000182
 21
549.80257869070488
 31
0.0
  0
LINE
  5
28F
100
AcDbEntity
  8
Visible Edges(A H Standard)
370
               0
390
0
 62
               0
100
AcDbLine
 10
397.50000000000091
 20
558.10257869070438
 30
0.0
 11
397.50000000000091
 21
549.80257869070442
 31
0.0
  0
LINE
  5
290
100
AcDbEntity
  8
Visible Edges(A H Standard)
370
               0
390
0
 62
               0
100
AcDbLine
 10
348.54000000000178
 20
554.20257869070508
 30
0.0
 11
348.34000000000196
 21
554.40257869070513
 31
0.0
  0
LINE
  5
291
100
AcDbEntity
  8
Visible Edges(A H Standard)
370
               0
390
0
 62
               0
100
AcDbLine
 10
348.34000000000196
 20
554.40257869070513
 30
0.0
 11
348.34000000000196
 21
553.8025786907051
 31
0.0
  0
LINE
  5
292
100
AcDbEntity
  8
Visible Edges(A H Standard)
370
               0
390
0
 62
               0
100
AcDbLine
 10
348.54000000000178
 20
554.00257869070515
 30
0.0
 11
348.34000000000151
 21
553.8025786907051
 31
0.0
  0
LINE
  5
293
100
AcDbEntity
  8
Visible Edges(A H Standard)
370
               0
390
0
 62
               0
100
AcDbLine
 10
348.7400000000016
 20
554.20257869070508
 30
0.0
 11
348.94000000000187
 21
554.40257869070513
 31
0.0
  0
LINE
  5
294
100
AcDbEntity
  8
Visible Edges(A H Standard)
370
               0
390
0
 62
               0
100
AcDbLine
 10
348.94000000000187
 20
554.40257869070513
 30
0.0
 11
348.34000000000196
 21
554.40257869070513
 31
0.0
  0
LINE
  5
295
100
AcDbEntity
  8
Visible Edges(A H Standard)
370
               0
390
0
 62
               0
100
AcDbLine
 10
348.7400000000016
 20
554.00257869070515
 30
0.0
 11
348.94000000000187
 21
553.8025786907051
 31
0.0
  0
LINE
  5
296
100
AcDbEntity
  8
Visible Edges(A H Standard)
370
               0
390
0
 62
               0
100
AcDbLine
 10
348.94000000000187
 20
553.8025786907051
 30
0.0
 11
348.94000000000187
 21
554.40257869070513
 31
0.0
  0
LINE
  5
297
100
AcDbEntity
  8
Visible Edges(A H Standard)
370
               0
390
0
 62
               0
100
AcDbLine
 10
348.34000000000151
 20
553.8025786907051
 30
0.0
 11
348.94000000000187
 21
553.8025786907051
 31
0.0
  0
ARC
  5
298
100
AcDbEntity
  8
Visible Edges(A H Standard)
370
               0
390
0
 62
               0
100
AcDbCircle
 10
447.2800000000002
 20
554.10257869070404
 30
0.0
 40
3.2499999999999534
100
AcDbArc
 50
230.28486276817324
 51
309.71513723182619
  0
ARC
  5
299
100
AcDbEntity
  8
Visible Edges(A H Standard)
370
               0
390
0
 62
               0
100
AcDbCircle
 10
442.20000000000027
 20
554.10257869070404
 30
0.0
 40
3.2500000000002442
100
AcDbArc
 50
230.28486276816705
 51
309.71513723181999
  0
ARC
  5
29A
100
AcDbEntity
  8
Visible Edges(A H Standard)
370
               0
390
0
 62
               0
100
AcDbCircle
 10
437.11999999999989
 20
554.10257869070415
 30
0.0
 40
3.2499999999999534
100
AcDbArc
 50
230.28486276817324
 51
309.71513723182619
  0
ARC
  5
29B
100
AcDbEntity
  8
Visible Edges(A H Standard)
370
               0
390
0
 62
               0
100
AcDbCircle
 10
432.03999999999996
 20
554.10257869070415
 30
0.0
 40
3.2499999999999534
100
AcDbArc
 50
230.28486276817324
 51
309.71513723182619
  0
ARC
  5
29C
100
AcDbEntity
  8
Visible Edges(A H Standard)
370
               0
390
0
 62
               0
100
AcDbCircle
 10
426.96000000000004
 20
554.10257869070415
 30
0.0
 40
3.2499999999999534
100
AcDbArc
 50
230.28486276817324
 51
309.71513723182619
  0
ARC
  5
29D
100
AcDbEntity
  8
Visible Edges(A H Standard)
370
               0
390
0
 62
               0
100
AcDbCircle
 10
421.88000000000011
 20
554.10257869070415
 30
0.0
 40
3.2499999999999534
100
AcDbArc
 50
230.28486276817324
 51
309.71513723182619
  0
ARC
  5
29E
100
AcDbEntity
  8
Visible Edges(A H Standard)
370
               0
390
0
 62
               0
100
AcDbCircle
 10
416.80000000000018
 20
554.10257869070426
 30
0.0
 40
3.2499999999999534
100
AcDbArc
 50
230.28486276817324
 51
309.71513723182619
  0
ARC
  5
29F
100
AcDbEntity
  8
Visible Edges(A H Standard)
370
               0
390
0
 62
               0
100
AcDbCircle
 10
411.72000000000025
 20
554.10257869070426
 30
0.0
 40
3.2499999999999534
100
AcDbArc
 50
230.28486276817324
 51
309.71513723182619
  0
ARC
  5
2A0
100
AcDbEntity
  8
Visible Edges(A H Standard)
370
               0
390
0
 62
               0
100
AcDbCircle
 10
452.36000000000013
 20
554.10257869070392
 30
0.0
 40
3.2499999999999534
100
AcDbArc
 50
230.28486276817324
 51
309.71513723182619
  0
LINE
  5
2A1
100
AcDbEntity
  8
Visible Edges(A H Standard)
370
               0
390
0
 62
               0
100
AcDbLine
 10
452.26000000000022
 20
554.20257869070429
 30
0.0
 11
452.05999999999995
 21
554.40257869070433
 31
0.0
  0
LINE
  5
2A2
100
AcDbEntity
  8
Visible Edges(A H Standard)
370
               0
390
0
 62
               0
100
AcDbLine
 10
452.05999999999995
 20
554.40257869070433
 30
0.0
 11
452.05999999999995
 21
553.80257869070442
 31
0.0
  0
LINE
  5
2A3
100
AcDbEntity
  8
Visible Edges(A H Standard)
370
               0
390
0
 62
               0
100
AcDbLine
 10
452.26000000000022
 20
554.00257869070424
 30
0.0
 11
452.05999999999995
 21
553.80257869070442
 31
0.0
  0
LINE
  5
2A4
100
AcDbEntity
  8
Visible Edges(A H Standard)
370
               0
390
0
 62
               0
100
AcDbLine
 10
452.46000000000004
 20
554.20257869070429
 30
0.0
 11
452.65999999999985
 21
554.40257869070433
 31
0.0
  0
LINE
  5
2A5
100
AcDbEntity
  8
Visible Edges(A H Standard)
370
               0
390
0
 62
               0
100
AcDbLine
 10
452.65999999999985
 20
554.40257869070433
 30
0.0
 11
452.05999999999995
 21
554.40257869070433
 31
0.0
  0
LINE
  5
2A6
100
AcDbEntity
  8
Visible Edges(A H Standard)
370
               0
390
0
 62
               0
100
AcDbLine
 10
452.46000000000004
 20
554.00257869070424
 30
0.0
 11
452.65999999999985
 21
553.80257869070431
 31
0.0
  0
LINE
  5
2A7
100
AcDbEntity
  8
Visible Edges(A H Standard)
370
               0
390
0
 62
               0
100
AcDbLine
 10
452.65999999999985
 20
553.80257869070431
 30
0.0
 11
452.65999999999985
 21
554.40257869070433
 31
0.0
  0
LINE
  5
2A8
100
AcDbEntity
  8
Visible Edges(A H Standard)
370
               0
390
0
 62
               0
100
AcDbLine
 10
452.05999999999995
 20
553.80257869070442
 30
0.0
 11
452.65999999999985
 21
553.80257869070431
 31
0.0
  0
LINE
  5
2A9
100
AcDbEntity
  8
Visible Edges(A H Standard)
370
               0
390
0
 62
               0
100
AcDbLine
 10
447.18000000000029
 20
554.20257869070429
 30
0.0
 11
446.98000000000002
 21
554.40257869070444
 31
0.0
  0
LINE
  5
2AA
100
AcDbEntity
  8
Visible Edges(A H Standard)
370
               0
390
0
 62
               0
100
AcDbLine
 10
446.98000000000002
 20
554.40257869070444
 30
0.0
 11
446.98000000000002
 21
553.80257869070442
 31
0.0
  0
LINE
  5
2AB
100
AcDbEntity
  8
Visible Edges(A H Standard)
370
               0
390
0
 62
               0
100
AcDbLine
 10
447.18000000000029
 20
554.00257869070435
 30
0.0
 11
446.98000000000002
 21
553.80257869070442
 31
0.0
  0
LINE
  5
2AC
100
AcDbEntity
  8
Visible Edges(A H Standard)
370
               0
390
0
 62
               0
100
AcDbLine
 10
447.38000000000011
 20
554.20257869070429
 30
0.0
 11
447.57999999999993
 21
554.40257869070444
 31
0.0
  0
LINE
  5
2AD
100
AcDbEntity
  8
Visible Edges(A H Standard)
370
               0
390
0
 62
               0
100
AcDbLine
 10
447.57999999999993
 20
554.40257869070444
 30
0.0
 11
446.98000000000002
 21
554.40257869070444
 31
0.0
  0
LINE
  5
2AE
100
AcDbEntity
  8
Visible Edges(A H Standard)
370
               0
390
0
 62
               0
100
AcDbLine
 10
447.38000000000011
 20
554.00257869070435
 30
0.0
 11
447.57999999999993
 21
553.80257869070442
 31
0.0
  0
LINE
  5
2AF
100
AcDbEntity
  8
Visible Edges(A H Standard)
370
               0
390
0
 62
               0
100
AcDbLine
 10
447.57999999999993
 20
553.80257869070442
 30
0.0
 11
447.57999999999993
 21
554.40257869070444
 31
0.0
  0
LINE
  5
2B0
100
AcDbEntity
  8
Visible Edges(A H Standard)
370
               0
390
0
 62
               0
100
AcDbLine
 10
446.98000000000002
 20
553.80257869070442
 30
0.0
 11
447.57999999999993
 21
553.80257869070442
 31
0.0
  0
LINE
  5
2B1
100
AcDbEntity
  8
Visible Edges(A H Standard)
370
               0
390
0
 62
               0
100
AcDbLine
 10
442.09999999999991
 20
554.2025786907044
 30
0.0
 11
441.90000000000009
 21
554.40257869070444
 31
0.0
  0
LINE
  5
2B2
100
AcDbEntity
  8
Visible Edges(A H Standard)
370
               0
390
0
 62
               0
100
AcDbLine
 10
441.90000000000009
 20
554.40257869070444
 30
0.0
 11
441.90000000000009
 21
553.80257869070442
 31
0.0
  0
LINE
  5
2B3
100
AcDbEntity
  8
Visible Edges(A H Standard)
370
               0
390
0
 62
               0
100
AcDbLine
 10
442.09999999999991
 20
554.00257869070435
 30
0.0
 11
441.90000000000009
 21
553.80257869070442
 31
0.0
  0
LINE
  5
2B4
100
AcDbEntity
  8
Visible Edges(A H Standard)
370
               0
390
0
 62
               0
100
AcDbLine
 10
442.30000000000018
 20
554.2025786907044
 30
0.0
 11
442.5
 21
554.40257869070444
 31
0.0
  0
LINE
  5
2B5
100
AcDbEntity
  8
Visible Edges(A H Standard)
370
               0
390
0
 62
               0
100
AcDbLine
 10
442.5
 20
554.40257869070444
 30
0.0
 11
441.90000000000009
 21
554.40257869070444
 31
0.0
  0
LINE
  5
2B6
100
AcDbEntity
  8
Visible Edges(A H Standard)
370
               0
390
0
 62
               0
100
AcDbLine
 10
442.30000000000018
 20
554.00257869070435
 30
0.0
 11
442.5
 21
553.80257869070442
 31
0.0
  0
LINE
  5
2B7
100
AcDbEntity
  8
Visible Edges(A H Standard)
370
               0
390
0
 62
               0
100
AcDbLine
 10
442.5
 20
553.80257869070442
 30
0.0
 11
442.5
 21
554.40257869070444
 31
0.0
  0
LINE
  5
2B8
100
AcDbEntity
  8
Visible Edges(A H Standard)
370
               0
390
0
 62
               0
100
AcDbLine
 10
441.90000000000009
 20
553.80257869070442
 30
0.0
 11
442.5
 21
553.80257869070442
 31
0.0
  0
LINE
  5
2B9
100
AcDbEntity
  8
Visible Edges(A H Standard)
370
               0
390
0
 62
               0
100
AcDbLine
 10
437.01999999999998
 20
554.2025786907044
 30
0.0
 11
436.82000000000016
 21
554.40257869070456
 31
0.0
  0
LINE
  5
2BA
100
AcDbEntity
  8
Visible Edges(A H Standard)
370
               0
390
0
 62
               0
100
AcDbLine
 10
436.82000000000016
 20
554.40257869070456
 30
0.0
 11
436.82000000000016
 21
553.80257869070442
 31
0.0
  0
LINE
  5
2BB
100
AcDbEntity
  8
Visible Edges(A H Standard)
370
               0
390
0
 62
               0
100
AcDbLine
 10
437.01999999999998
 20
554.00257869070447
 30
0.0
 11
436.82000000000016
 21
553.80257869070442
 31
0.0
  0
LINE
  5
2BC
100
AcDbEntity
  8
Visible Edges(A H Standard)
370
               0
390
0
 62
               0
100
AcDbLine
 10
437.22000000000025
 20
554.2025786907044
 30
0.0
 11
437.42000000000007
 21
554.40257869070456
 31
0.0
  0
LINE
  5
2BD
100
AcDbEntity
  8
Visible Edges(A H Standard)
370
               0
390
0
 62
               0
100
AcDbLine
 10
437.42000000000007
 20
554.40257869070456
 30
0.0
 11
436.82000000000016
 21
554.40257869070456
 31
0.0
  0
LINE
  5
2BE
100
AcDbEntity
  8
Visible Edges(A H Standard)
370
               0
390
0
 62
               0
100
AcDbLine
 10
437.22000000000025
 20
554.00257869070447
 30
0.0
 11
437.42000000000007
 21
553.80257869070442
 31
0.0
  0
LINE
  5
2BF
100
AcDbEntity
  8
Visible Edges(A H Standard)
370
               0
390
0
 62
               0
100
AcDbLine
 10
437.42000000000007
 20
553.80257869070442
 30
0.0
 11
437.42000000000007
 21
554.40257869070456
 31
0.0
  0
LINE
  5
2C0
100
AcDbEntity
  8
Visible Edges(A H Standard)
370
               0
390
0
 62
               0
100
AcDbLine
 10
436.82000000000016
 20
553.80257869070442
 30
0.0
 11
437.42000000000007
 21
553.80257869070442
 31
0.0
  0
LINE
  5
2C1
100
AcDbEntity
  8
Visible Edges(A H Standard)
370
               0
390
0
 62
               0
100
AcDbLine
 10
431.94000000000005
 20
554.20257869070451
 30
0.0
 11
431.74000000000024
 21
554.40257869070456
 31
0.0
  0
LINE
  5
2C2
100
AcDbEntity
  8
Visible Edges(A H Standard)
370
               0
390
0
 62
               0
100
AcDbLine
 10
431.74000000000024
 20
554.40257869070456
 30
0.0
 11
431.74000000000024
 21
553.80257869070442
 31
0.0
  0
LINE
  5
2C3
100
AcDbEntity
  8
Visible Edges(A H Standard)
370
               0
390
0
 62
               0
100
AcDbLine
 10
431.94000000000005
 20
554.00257869070447
 30
0.0
 11
431.74000000000024
 21
553.80257869070442
 31
0.0
  0
LINE
  5
2C4
100
AcDbEntity
  8
Visible Edges(A H Standard)
370
               0
390
0
 62
               0
100
AcDbLine
 10
432.14000000000033
 20
554.20257869070451
 30
0.0
 11
432.34000000000015
 21
554.40257869070456
 31
0.0
  0
LINE
  5
2C5
100
AcDbEntity
  8
Visible Edges(A H Standard)
370
               0
390
0
 62
               0
100
AcDbLine
 10
432.34000000000015
 20
554.40257869070456
 30
0.0
 11
431.74000000000024
 21
554.40257869070456
 31
0.0
  0
LINE
  5
2C6
100
AcDbEntity
  8
Visible Edges(A H Standard)
370
               0
390
0
 62
               0
100
AcDbLine
 10
432.14000000000033
 20
554.00257869070447
 30
0.0
 11
432.34000000000015
 21
553.80257869070442
 31
0.0
  0
LINE
  5
2C7
100
AcDbEntity
  8
Visible Edges(A H Standard)
370
               0
390
0
 62
               0
100
AcDbLine
 10
432.34000000000015
 20
553.80257869070442
 30
0.0
 11
432.34000000000015
 21
554.40257869070456
 31
0.0
  0
LINE
  5
2C8
100
AcDbEntity
  8
Visible Edges(A H Standard)
370
               0
390
0
 62
               0
100
AcDbLine
 10
431.74000000000024
 20
553.80257869070442
 30
0.0
 11
432.34000000000015
 21
553.80257869070442
 31
0.0
  0
LINE
  5
2C9
100
AcDbEntity
  8
Visible Edges(A H Standard)
370
               0
390
0
 62
               0
100
AcDbLine
 10
426.86000000000013
 20
554.20257869070451
 30
0.0
 11
426.66000000000031
 21
554.40257869070456
 31
0.0
  0
LINE
  5
2CA
100
AcDbEntity
  8
Visible Edges(A H Standard)
370
               0
390
0
 62
               0
100
AcDbLine
 10
426.66000000000031
 20
554.40257869070456
 30
0.0
 11
426.66000000000031
 21
553.80257869070454
 31
0.0
  0
LINE
  5
2CB
100
AcDbEntity
  8
Visible Edges(A H Standard)
370
               0
390
0
 62
               0
100
AcDbLine
 10
426.86000000000013
 20
554.00257869070447
 30
0.0
 11
426.66000000000031
 21
553.80257869070454
 31
0.0
  0
LINE
  5
2CC
100
AcDbEntity
  8
Visible Edges(A H Standard)
370
               0
390
0
 62
               0
100
AcDbLine
 10
427.0600000000004
 20
554.20257869070451
 30
0.0
 11
427.26000000000022
 21
554.40257869070456
 31
0.0
  0
LINE
  5
2CD
100
AcDbEntity
  8
Visible Edges(A H Standard)
370
               0
390
0
 62
               0
100
AcDbLine
 10
427.26000000000022
 20
554.40257869070456
 30
0.0
 11
426.66000000000031
 21
554.40257869070456
 31
0.0
  0
LINE
  5
2CE
100
AcDbEntity
  8
Visible Edges(A H Standard)
370
               0
390
0
 62
               0
100
AcDbLine
 10
427.0600000000004
 20
554.00257869070447
 30
0.0
 11
427.26000000000022
 21
553.80257869070454
 31
0.0
  0
LINE
  5
2CF
100
AcDbEntity
  8
Visible Edges(A H Standard)
370
               0
390
0
 62
               0
100
AcDbLine
 10
427.26000000000022
 20
553.80257869070454
 30
0.0
 11
427.26000000000022
 21
554.40257869070456
 31
0.0
  0
LINE
  5
2D0
100
AcDbEntity
  8
Visible Edges(A H Standard)
370
               0
390
0
 62
               0
100
AcDbLine
 10
426.66000000000031
 20
553.80257869070454
 30
0.0
 11
427.26000000000022
 21
553.80257869070454
 31
0.0
  0
LINE
  5
2D1
100
AcDbEntity
  8
Visible Edges(A H Standard)
370
               0
390
0
 62
               0
100
AcDbLine
 10
421.7800000000002
 20
554.20257869070451
 30
0.0
 11
421.58000000000038
 21
554.40257869070456
 31
0.0
  0
LINE
  5
2D2
100
AcDbEntity
  8
Visible Edges(A H Standard)
370
               0
390
0
 62
               0
100
AcDbLine
 10
421.58000000000038
 20
554.40257869070456
 30
0.0
 11
421.58000000000038
 21
553.80257869070454
 31
0.0
  0
LINE
  5
2D3
100
AcDbEntity
  8
Visible Edges(A H Standard)
370
               0
390
0
 62
               0
100
AcDbLine
 10
421.7800000000002
 20
554.00257869070447
 30
0.0
 11
421.58000000000038
 21
553.80257869070454
 31
0.0
  0
LINE
  5
2D4
100
AcDbEntity
  8
Visible Edges(A H Standard)
370
               0
390
0
 62
               0
100
AcDbLine
 10
421.98000000000047
 20
554.20257869070451
 30
0.0
 11
422.18000000000029
 21
554.40257869070456
 31
0.0
  0
LINE
  5
2D5
100
AcDbEntity
  8
Visible Edges(A H Standard)
370
               0
390
0
 62
               0
100
AcDbLine
 10
422.18000000000029
 20
554.40257869070456
 30
0.0
 11
421.58000000000038
 21
554.40257869070456
 31
0.0
  0
LINE
  5
2D6
100
AcDbEntity
  8
Visible Edges(A H Standard)
370
               0
390
0
 62
               0
100
AcDbLine
 10
421.98000000000047
 20
554.00257869070447
 30
0.0
 11
422.18000000000029
 21
553.80257869070454
 31
0.0
  0
LINE
  5
2D7
100
AcDbEntity
  8
Visible Edges(A H Standard)
370
               0
390
0
 62
               0
100
AcDbLine
 10
422.18000000000029
 20
553.80257869070454
 30
0.0
 11
422.18000000000029
 21
554.40257869070456
 31
0.0
  0
LINE
  5
2D8
100
AcDbEntity
  8
Visible Edges(A H Standard)
370
               0
390
0
 62
               0
100
AcDbLine
 10
421.58000000000038
 20
553.80257869070454
 30
0.0
 11
422.18000000000029
 21
553.80257869070454
 31
0.0
  0
LINE
  5
2D9
100
AcDbEntity
  8
Visible Edges(A H Standard)
370
               0
390
0
 62
               0
100
AcDbLine
 10
416.70000000000027
 20
554.20257869070451
 30
0.0
 11
416.5
 21
554.40257869070467
 31
0.0
  0
LINE
  5
2DA
100
AcDbEntity
  8
Visible Edges(A H Standard)
370
               0
390
0
 62
               0
100
AcDbLine
 10
416.5
 20
554.40257869070467
 30
0.0
 11
416.5
 21
553.80257869070465
 31
0.0
  0
LINE
  5
2DB
100
AcDbEntity
  8
Visible Edges(A H Standard)
370
               0
390
0
 62
               0
100
AcDbLine
 10
416.70000000000027
 20
554.00257869070458
 30
0.0
 11
416.5
 21
553.80257869070465
 31
0.0
  0
LINE
  5
2DC
100
AcDbEntity
  8
Visible Edges(A H Standard)
370
               0
390
0
 62
               0
100
AcDbLine
 10
416.90000000000009
 20
554.20257869070451
 30
0.0
 11
417.10000000000036
 21
554.40257869070456
 31
0.0
  0
LINE
  5
2DD
100
AcDbEntity
  8
Visible Edges(A H Standard)
370
               0
390
0
 62
               0
100
AcDbLine
 10
417.10000000000036
 20
554.40257869070456
 30
0.0
 11
416.5
 21
554.40257869070467
 31
0.0
  0
LINE
  5
2DE
100
AcDbEntity
  8
Visible Edges(A H Standard)
370
               0
390
0
 62
               0
100
AcDbLine
 10
416.90000000000009
 20
554.00257869070458
 30
0.0
 11
417.10000000000036
 21
553.80257869070465
 31
0.0
  0
LINE
  5
2DF
100
AcDbEntity
  8
Visible Edges(A H Standard)
370
               0
390
0
 62
               0
100
AcDbLine
 10
417.10000000000036
 20
553.80257869070465
 30
0.0
 11
417.10000000000036
 21
554.40257869070456
 31
0.0
  0
LINE
  5
2E0
100
AcDbEntity
  8
Visible Edges(A H Standard)
370
               0
390
0
 62
               0
100
AcDbLine
 10
416.5
 20
553.80257869070465
 30
0.0
 11
417.10000000000036
 21
553.80257869070465
 31
0.0
  0
LINE
  5
2E1
100
AcDbEntity
  8
Visible Edges(A H Standard)
370
               0
390
0
 62
               0
100
AcDbLine
 10
411.62000000000035
 20
554.20257869070463
 30
0.0
 11
411.42000000000007
 21
554.40257869070467
 31
0.0
  0
LINE
  5
2E2
100
AcDbEntity
  8
Visible Edges(A H Standard)
370
               0
390
0
 62
               0
100
AcDbLine
 10
411.42000000000007
 20
554.40257869070467
 30
0.0
 11
411.42000000000007
 21
553.80257869070465
 31
0.0
  0
LINE
  5
2E3
100
AcDbEntity
  8
Visible Edges(A H Standard)
370
               0
390
0
 62
               0
100
AcDbLine
 10
411.62000000000035
 20
554.00257869070458
 30
0.0
 11
411.42000000000007
 21
553.80257869070465
 31
0.0
  0
LINE
  5
2E4
100
AcDbEntity
  8
Visible Edges(A H Standard)
370
               0
390
0
 62
               0
100
AcDbLine
 10
411.82000000000016
 20
554.20257869070463
 30
0.0
 11
412.02000000000044
 21
554.40257869070467
 31
0.0
  0
LINE
  5
2E5
100
AcDbEntity
  8
Visible Edges(A H Standard)
370
               0
390
0
 62
               0
100
AcDbLine
 10
412.02000000000044
 20
554.40257869070467
 30
0.0
 11
411.42000000000007
 21
554.40257869070467
 31
0.0
  0
LINE
  5
2E6
100
AcDbEntity
  8
Visible Edges(A H Standard)
370
               0
390
0
 62
               0
100
AcDbLine
 10
411.82000000000016
 20
554.00257869070458
 30
0.0
 11
412.02000000000044
 21
553.80257869070465
 31
0.0
  0
LINE
  5
2E7
100
AcDbEntity
  8
Visible Edges(A H Standard)
370
               0
390
0
 62
               0
100
AcDbLine
 10
412.02000000000044
 20
553.80257869070465
 30
0.0
 11
412.02000000000044
 21
554.40257869070467
 31
0.0
  0
LINE
  5
2E8
100
AcDbEntity
  8
Visible Edges(A H Standard)
370
               0
390
0
 62
               0
100
AcDbLine
 10
411.42000000000007
 20
553.80257869070465
 30
0.0
 11
412.02000000000044
 21
553.80257869070465
 31
0.0
  0
LINE
  5
2E9
100
AcDbEntity
  8
Visible Edges(A H Standard)
370
               0
390
0
 62
               0
100
AcDbLine
 10
454.90000000000009
 20
551.60257869070392
 30
0.0
 11
454.43665596572964
 21
551.60257869070392
 31
0.0
  0
LINE
  5
2EA
100
AcDbEntity
  8
Visible Edges(A H Standard)
370
               0
390
0
 62
               0
100
AcDbLine
 10
409.64334403427074
 20
551.60257869070438
 30
0.0
 11
408.71665596572984
 21
551.60257869070438
 31
0.0
  0
LINE
  5
2EB
100
AcDbEntity
  8
Visible Edges(A H Standard)
370
               0
390
0
 62
               0
100
AcDbLine
 10
414.72334403427067
 20
551.60257869070426
 30
0.0
 11
413.79665596572977
 21
551.60257869070426
 31
0.0
  0
LINE
  5
2EC
100
AcDbEntity
  8
Visible Edges(A H Standard)
370
               0
390
0
 62
               0
100
AcDbLine
 10
419.80334403427059
 20
551.60257869070426
 30
0.0
 11
418.8766559657297
 21
551.60257869070426
 31
0.0
  0
LINE
  5
2ED
100
AcDbEntity
  8
Visible Edges(A H Standard)
370
               0
390
0
 62
               0
100
AcDbLine
 10
424.88334403427052
 20
551.60257869070415
 30
0.0
 11
423.95665596572962
 21
551.60257869070415
 31
0.0
  0
LINE
  5
2EE
100
AcDbEntity
  8
Visible Edges(A H Standard)
370
               0
390
0
 62
               0
100
AcDbLine
 10
429.96334403427045
 20
551.60257869070415
 30
0.0
 11
429.03665596572955
 21
551.60257869070415
 31
0.0
  0
LINE
  5
2EF
100
AcDbEntity
  8
Visible Edges(A H Standard)
370
               0
390
0
 62
               0
100
AcDbLine
 10
435.04334403427038
 20
551.60257869070415
 30
0.0
 11
434.11665596572948
 21
551.60257869070415
 31
0.0
  0
LINE
  5
2F0
100
AcDbEntity
  8
Visible Edges(A H Standard)
370
               0
390
0
 62
               0
100
AcDbLine
 10
440.12334403427076
 20
551.60257869070415
 30
0.0
 11
439.19665596572941
 21
551.60257869070415
 31
0.0
  0
LINE
  5
2F1
100
AcDbEntity
  8
Visible Edges(A H Standard)
370
               0
390
0
 62
               0
100
AcDbLine
 10
450.28334403427061
 20
551.60257869070404
 30
0.0
 11
449.35665596572971
 21
551.60257869070404
 31
0.0
  0
LINE
  5
2F2
100
AcDbEntity
  8
Visible Edges(A H Standard)
370
               0
390
0
 62
               0
100
AcDbLine
 10
445.20334403427069
 20
551.60257869070404
 30
0.0
 11
444.27665596572979
 21
551.60257869070404
 31
0.0
  0
LINE
  5
2F3
100
AcDbEntity
  8
Visible Edges(A H Standard)
370
               0
390
0
 62
               0
100
AcDbLine
 10
404.56334403427081
 20
551.60257869070438
 30
0.0
 11
404.10000000000036
 21
551.60257869070438
 31
0.0
  0
LINE
  5
2F4
100
AcDbEntity
  8
Visible Edges(A H Standard)
370
               0
390
0
 62
               0
100
AcDbLine
 10
404.10000000000036
 20
551.60257869070438
 30
0.0
 11
404.10000000000036
 21
556.60257869070438
 31
0.0
  0
LINE
  5
2F5
100
AcDbEntity
  8
Visible Edges(A H Standard)
370
               0
390
0
 62
               0
100
AcDbLine
 10
404.10000000000036
 20
556.60257869070438
 30
0.0
 11
454.90000000000009
 21
556.60257869070392
 31
0.0
  0
LINE
  5
2F6
100
AcDbEntity
  8
Visible Edges(A H Standard)
370
               0
390
0
 62
               0
100
AcDbLine
 10
454.90000000000009
 20
556.60257869070392
 30
0.0
 11
454.90000000000009
 21
551.60257869070392
 31
0.0
  0
ARC
  5
2F7
100
AcDbEntity
  8
Visible Edges(A H Standard)
370
               0
390
0
 62
               0
100
AcDbCircle
 10
406.64000000000033
 20
554.10257869070438
 30
0.0
 40
3.2499999999999534
100
AcDbArc
 50
230.28486276817324
 51
309.71513723182619
  0
LINE
  5
2F8
100
AcDbEntity
  8
Visible Edges(A H Standard)
370
               0
390
0
 62
               0
100
AcDbLine
 10
455.5
 20
558.10257869070392
 30
0.0
 11
455.5
 21
558.30257869070442
 31
0.0
  0
LINE
  5
2F9
100
AcDbEntity
  8
Visible Edges(A H Standard)
370
               0
390
0
 62
               0
100
AcDbLine
 10
455.5
 20
558.30257869070442
 30
0.0
 11
403.50000000000045
 21
558.30257869070476
 31
0.0
  0
LINE
  5
2FA
100
AcDbEntity
  8
Visible Edges(A H Standard)
370
               0
390
0
 62
               0
100
AcDbLine
 10
403.50000000000045
 20
558.30257869070476
 30
0.0
 11
403.50000000000045
 21
558.10257869070438
 31
0.0
  0
LINE
  5
2FB
100
AcDbEntity
  8
Visible Edges(A H Standard)
370
               0
390
0
 62
               0
100
AcDbLine
 10
403.50000000000045
 20
558.10257869070438
 30
0.0
 11
403.50000000000045
 21
549.80257869070442
 31
0.0
  0
LINE
  5
2FC
100
AcDbEntity
  8
Visible Edges(A H Standard)
370
               0
390
0
 62
               0
100
AcDbLine
 10
455.5
 20
549.80257869070397
 30
0.0
 11
403.50000000000045
 21
549.80257869070442
 31
0.0
  0
LINE
  5
2FD
100
AcDbEntity
  8
Visible Edges(A H Standard)
370
               0
390
0
 62
               0
100
AcDbLine
 10
455.5
 20
558.10257869070392
 30
0.0
 11
455.5
 21
549.80257869070397
 31
0.0
  0
LINE
  5
2FE
100
AcDbEntity
  8
Visible Edges(A H Standard)
370
               0
390
0
 62
               0
100
AcDbLine
 10
406.54000000000042
 20
554.20257869070463
 30
0.0
 11
406.34000000000015
 21
554.40257869070479
 31
0.0
  0
LINE
  5
2FF
100
AcDbEntity
  8
Visible Edges(A H Standard)
370
               0
390
0
 62
               0
100
AcDbLine
 10
406.34000000000015
 20
554.40257869070467
 30
0.0
 11
406.34000000000015
 21
553.80257869070465
 31
0.0
  0
LINE
  5
300
100
AcDbEntity
  8
Visible Edges(A H Standard)
370
               0
390
0
 62
               0
100
AcDbLine
 10
406.54000000000042
 20
554.00257869070469
 30
0.0
 11
406.34000000000015
 21
553.80257869070465
 31
0.0
  0
LINE
  5
301
100
AcDbEntity
  8
Visible Edges(A H Standard)
370
               0
390
0
 62
               0
100
AcDbLine
 10
406.74000000000024
 20
554.20257869070463
 30
0.0
 11
406.94000000000051
 21
554.40257869070467
 31
0.0
  0
LINE
  5
302
100
AcDbEntity
  8
Visible Edges(A H Standard)
370
               0
390
0
 62
               0
100
AcDbLine
 10
406.94000000000051
 20
554.40257869070467
 30
0.0
 11
406.34000000000015
 21
554.40257869070467
 31
0.0
  0
LINE
  5
303
100
AcDbEntity
  8
Visible Edges(A H Standard)
370
               0
390
0
 62
               0
100
AcDbLine
 10
406.74000000000024
 20
554.00257869070469
 30
0.0
 11
406.94000000000051
 21
553.80257869070465
 31
0.0
  0
LINE
  5
304
100
AcDbEntity
  8
Visible Edges(A H Standard)
370
               0
390
0
 62
               0
100
AcDbLine
 10
406.94000000000051
 20
553.80257869070465
 30
0.0
 11
406.94000000000051
 21
554.40257869070467
 31
0.0
  0
LINE
  5
305
100
AcDbEntity
  8
Visible Edges(A H Standard)
370
               0
390
0
 62
               0
100
AcDbLine
 10
406.34000000000015
 20
553.80257869070465
 30
0.0
 11
406.94000000000051
 21
553.80257869070465
 31
0.0
  0
CIRCLE
  5
306
100
AcDbEntity
  8
Visible Edges(A H Standard)
370
               0
390
0
 62
               0
100
AcDbCircle
 10
474.49999999999909
 20
536.20257869070383
 30
0.0
 40
1.25
  0
CIRCLE
  5
307
100
AcDbEntity
  8
Visible Edges(A H Standard)
370
               0
390
0
 62
               0
100
AcDbCircle
 10
326.49999999999955
 20
536.20257869070485
 30
0.0
 40
1.25
  0
CIRCLE
  5
308
100
AcDbEntity
  8
Visible Edges(A H Standard)
370
               0
390
0
 62
               0
100
AcDbCircle
 10
474.5
 20
555.80257869070374
 30
0.0
 40
1.25
  0
CIRCLE
  5
309
100
AcDbEntity
  8
Visible Edges(A H Standard)
370
               0
390
0
 62
               0
100
AcDbCircle
 10
326.50000000000182
 20
555.80257869070476
 30
0.0
 40
1.25
  0
CIRCLE
  5
30A
100
AcDbEntity
  8
Visible Edges(A H Standard)
370
               0
390
0
 62
               0
100
AcDbCircle
 10
463.99999999999955
 20
536.70257869070383
 30
0.0
 40
1.0
  0
LINE
  5
30B
100
AcDbEntity
  8
Visible Edges(A H Standard)
370
               0
390
0
 62
               0
100
AcDbLine
 10
459.49999999999955
 20
541.2025786907036
 30
0.0
 11
459.49999999999955
 21
530.2025786907036
 31
0.0
  0
LINE
  5
30C
100
AcDbEntity
  8
Visible Edges(A H Standard)
370
               0
390
0
 62
               0
100
AcDbLine
 10
468.49999999999955
 20
541.20257869070349
 30
0.0
 11
459.49999999999955
 21
541.2025786907036
 31
0.0
  0
LINE
  5
30D
100
AcDbEntity
  8
Visible Edges(A H Standard)
370
               0
390
0
 62
               0
100
AcDbLine
 10
468.49999999999955
 20
530.2025786907036
 30
0.0
 11
459.49999999999955
 21
530.2025786907036
 31
0.0
  0
LINE
  5
30E
100
AcDbEntity
  8
Visible Edges(A H Standard)
370
               0
390
0
 62
               0
100
AcDbLine
 10
468.49999999999955
 20
541.20257869070349
 30
0.0
 11
468.49999999999955
 21
530.2025786907036
 31
0.0
  0
CIRCLE
  5
30F
100
AcDbEntity
  8
Visible Edges(A H Standard)
370
               0
390
0
 62
               0
100
AcDbCircle
 10
463.99999999999955
 20
536.7025786907036
 30
0.0
 40
3.2000000000002728
  0
CIRCLE
  5
310
100
AcDbEntity
  8
Visible Edges(A H Standard)
370
               0
390
0
 62
               0
100
AcDbCircle
 10
448.49999999999955
 20
536.70257869070429
 30
0.0
 40
0.5
  0
LINE
  5
311
100
AcDbEntity
  8
Visible Edges(A H Standard)
370
               0
390
0
 62
               0
100
AcDbLine
 10
435.45629999999983
 20
535.231778690704
 30
0.0
 11
435.45629999999983
 21
533.06007869070402
 31
0.0
  0
LINE
  5
312
100
AcDbEntity
  8
Visible Edges(A H Standard)
370
               0
390
0
 62
               0
100
AcDbLine
 10
435.71029999999973
 20
535.23177869070389
 30
0.0
 11
435.71029999999973
 21
532.557158690704
 31
0.0
  0
LINE
  5
313
100
AcDbEntity
  8
Visible Edges(A H Standard)
370
               0
390
0
 62
               0
100
AcDbLine
 10
435.45629999999983
 20
535.231778690704
 30
0.0
 11
435.71029999999973
 21
535.23177869070389
 31
0.0
  0
LINE
  5
314
100
AcDbEntity
  8
Visible Edges(A H Standard)
370
               0
390
0
 62
               0
100
AcDbLine
 10
435.71029999999973
 20
535.23177869070389
 30
0.0
 11
435.72299999999996
 21
535.23177869070389
 31
0.0
  0
LINE
  5
315
100
AcDbEntity
  8
Visible Edges(A H Standard)
370
               0
390
0
 62
               0
100
AcDbLine
 10
423.28969999999981
 20
532.557158690704
 30
0.0
 11
423.28969999999981
 21
535.231778690704
 31
0.0
  0
LINE
  5
316
100
AcDbEntity
  8
Visible Edges(A H Standard)
370
               0
390
0
 62
               0
100
AcDbLine
 10
423.27700000000004
 20
535.231778690704
 30
0.0
 11
423.28969999999981
 21
535.231778690704
 31
0.0
  0
LINE
  5
317
100
AcDbEntity
  8
Visible Edges(A H Standard)
370
               0
390
0
 62
               0
100
AcDbLine
 10
436.71359999999959
 20
540.56577869070384
 30
0.0
 11
436.78979999999956
 21
540.56577869070384
 31
0.0
  0
LINE
  5
318
100
AcDbEntity
  8
Visible Edges(A H Standard)
370
               0
390
0
 62
               0
100
AcDbLine
 10
432.90359999999964
 20
540.56577869070384
 30
0.0
 11
432.90359999999964
 21
540.18477869070387
 31
0.0
  0
LINE
  5
319
100
AcDbEntity
  8
Visible Edges(A H Standard)
370
               0
390
0
 62
               0
100
AcDbLine
 10
432.90359999999964
 20
540.18477869070387
 30
0.0
 11
435.71029999999973
 21
540.18477869070387
 31
0.0
  0
LINE
  5
31A
100
AcDbEntity
  8
Visible Edges(A H Standard)
370
               0
390
0
 62
               0
100
AcDbLine
 10
435.71029999999973
 20
540.18477869070387
 30
0.0
 11
435.71029999999973
 21
538.02577869070387
 31
0.0
  0
LINE
  5
31B
100
AcDbEntity
  8
Visible Edges(A H Standard)
370
               0
390
0
 62
               0
100
AcDbLine
 10
435.72299999999996
 20
538.02577869070387
 30
0.0
 11
435.71029999999973
 21
538.02577869070387
 31
0.0
  0
LINE
  5
31C
100
AcDbEntity
  8
Visible Edges(A H Standard)
370
               0
390
0
 62
               0
100
AcDbLine
 10
436.78979999999956
 20
540.56577869070384
 30
0.0
 11
436.78979999999956
 21
542.46315869070372
 31
0.0
  0
LINE
  5
31D
100
AcDbEntity
  8
Visible Edges(A H Standard)
370
               0
390
0
 62
               0
100
AcDbLine
 10
426.35039999999981
 20
541.86117869070392
 30
0.0
 11
426.35039999999981
 21
542.46315869070384
 31
0.0
  0
LINE
  5
31E
100
AcDbEntity
  8
Visible Edges(A H Standard)
370
               0
390
0
 62
               0
100
AcDbLine
 10
426.35039999999981
 20
541.86117869070392
 30
0.0
 11
427.21399999999994
 21
541.86117869070381
 31
0.0
  0
LINE
  5
31F
100
AcDbEntity
  8
Visible Edges(A H Standard)
370
               0
390
0
 62
               0
100
AcDbLine
 10
427.21399999999994
 20
541.86117869070381
 30
0.0
 11
427.21399999999994
 21
543.00417869070384
 31
0.0
  0
LINE
  5
320
100
AcDbEntity
  8
Visible Edges(A H Standard)
370
               0
390
0
 62
               0
100
AcDbLine
 10
427.21399999999994
 20
543.00417869070384
 30
0.0
 11
431.78600000000006
 21
543.00417869070384
 31
0.0
  0
LINE
  5
321
100
AcDbEntity
  8
Visible Edges(A H Standard)
370
               0
390
0
 62
               0
100
AcDbLine
 10
431.78600000000006
 20
543.00417869070384
 30
0.0
 11
431.78600000000006
 21
541.86117869070381
 31
0.0
  0
LINE
  5
322
100
AcDbEntity
  8
Visible Edges(A H Standard)
370
               0
390
0
 62
               0
100
AcDbLine
 10
431.78600000000006
 20
541.86117869070381
 30
0.0
 11
432.64959999999974
 21
541.86117869070381
 31
0.0
  0
LINE
  5
323
100
AcDbEntity
  8
Visible Edges(A H Standard)
370
               0
390
0
 62
               0
100
AcDbLine
 10
432.64959999999974
 20
542.46315869070384
 30
0.0
 11
432.64959999999974
 21
541.86117869070381
 31
0.0
  0
LINE
  5
324
100
AcDbEntity
  8
Visible Edges(A H Standard)
370
               0
390
0
 62
               0
100
AcDbLine
 10
427.08699999999999
 20
543.60615869070386
 30
0.0
 11
431.91299999999956
 21
543.60615869070386
 31
0.0
  0
LINE
  5
325
100
AcDbEntity
  8
Visible Edges(A H Standard)
370
               0
390
0
 62
               0
100
AcDbLine
 10
426.0963999999999
 20
540.18477869070398
 30
0.0
 11
426.0963999999999
 21
540.56577869070395
 31
0.0
  0
LINE
  5
326
100
AcDbEntity
  8
Visible Edges(A H Standard)
370
               0
390
0
 62
               0
100
AcDbLine
 10
422.21019999999999
 20
540.56577869070395
 30
0.0
 11
422.28639999999996
 21
540.56577869070395
 31
0.0
  0
LINE
  5
327
100
AcDbEntity
  8
Visible Edges(A H Standard)
370
               0
390
0
 62
               0
100
AcDbLine
 10
422.21019999999999
 20
542.46315869070395
 30
0.0
 11
422.21019999999999
 21
540.56577869070395
 31
0.0
  0
LINE
  5
328
100
AcDbEntity
  8
Visible Edges(A H Standard)
370
               0
390
0
 62
               0
100
AcDbLine
 10
423.28969999999981
 20
538.02577869070399
 30
0.0
 11
423.27700000000004
 21
538.02577869070399
 31
0.0
  0
LINE
  5
329
100
AcDbEntity
  8
Visible Edges(A H Standard)
370
               0
390
0
 62
               0
100
AcDbLine
 10
423.28969999999981
 20
538.02577869070399
 30
0.0
 11
423.28969999999981
 21
540.18477869070398
 31
0.0
  0
LINE
  5
32A
100
AcDbEntity
  8
Visible Edges(A H Standard)
370
               0
390
0
 62
               0
100
AcDbLine
 10
423.28969999999981
 20
540.18477869070398
 30
0.0
 11
426.0963999999999
 21
540.18477869070398
 31
0.0
  0
LINE
  5
32B
100
AcDbEntity
  8
Visible Edges(A H Standard)
370
               0
390
0
 62
               0
100
AcDbLine
 10
435.7229999999995
 20
532.55715869070389
 30
0.0
 11
423.27700000000004
 21
532.557158690704
 31
0.0
  0
LINE
  5
32C
100
AcDbEntity
  8
Visible Edges(A H Standard)
370
               0
390
0
 62
               0
100
AcDbLine
 10
435.72299999999996
 20
535.35115869070387
 30
0.0
 11
435.7229999999995
 21
532.55715869070389
 31
0.0
  0
LINE
  5
32D
100
AcDbEntity
  8
Visible Edges(A H Standard)
370
               0
390
0
 62
               0
100
AcDbLine
 10
435.72299999999996
 20
540.4311586907038
 30
0.0
 11
435.72299999999996
 21
537.63715869070381
 31
0.0
  0
LINE
  5
32E
100
AcDbEntity
  8
Visible Edges(A H Standard)
370
               0
390
0
 62
               0
100
AcDbLine
 10
435.72299999999996
 20
535.35115869070387
 30
0.0
 11
435.43210636870663
 21
535.35115869070398
 31
0.0
  0
LINE
  5
32F
100
AcDbEntity
  8
Visible Edges(A H Standard)
370
               0
390
0
 62
               0
100
AcDbLine
 10
434.73712143746889
 20
535.35115869070444
 30
0.0
 11
435.43210636870663
 21
535.35115869070387
 31
0.0
  0
LINE
  5
330
100
AcDbEntity
  8
Visible Edges(A H Standard)
370
               0
390
0
 62
               0
100
AcDbLine
 10
434.73712143746934
 20
535.35115869070444
 30
0.0
 11
434.61809999999969
 21
535.35115869070466
 31
0.0
  0
LINE
  5
331
100
AcDbEntity
  8
Visible Edges(A H Standard)
370
               0
390
0
 62
               0
100
AcDbLine
 10
424.38189999999986
 20
535.35115869070478
 30
0.0
 11
424.2628785625302
 21
535.35115869070455
 31
0.0
  0
LINE
  5
332
100
AcDbEntity
  8
Visible Edges(A H Standard)
370
               0
390
0
 62
               0
100
AcDbLine
 10
423.56789363129292
 20
535.35115869070398
 30
0.0
 11
424.26287856253066
 21
535.35115869070455
 31
0.0
  0
LINE
  5
333
100
AcDbEntity
  8
Visible Edges(A H Standard)
370
               0
390
0
 62
               0
100
AcDbLine
 10
423.56789363129292
 20
535.3511586907041
 30
0.0
 11
423.27700000000004
 21
535.35115869070398
 31
0.0
  0
LINE
  5
334
100
AcDbEntity
  8
Visible Edges(A H Standard)
370
               0
390
0
 62
               0
100
AcDbLine
 10
423.54369999999972
 20
533.06007869070413
 30
0.0
 11
423.54369999999972
 21
535.23177869070412
 31
0.0
  0
LINE
  5
335
100
AcDbEntity
  8
Visible Edges(A H Standard)
370
               0
390
0
 62
               0
100
AcDbLine
 10
423.28969999999981
 20
535.231778690704
 30
0.0
 11
423.54369999999972
 21
535.23177869070412
 31
0.0
  0
LINE
  5
336
100
AcDbEntity
  8
Visible Edges(A H Standard)
370
               0
390
0
 62
               0
100
AcDbLine
 10
423.54369999999972
 20
538.0257786907041
 30
0.0
 11
423.28969999999981
 21
538.02577869070399
 31
0.0
  0
LINE
  5
337
100
AcDbEntity
  8
Visible Edges(A H Standard)
370
               0
390
0
 62
               0
100
AcDbLine
 10
423.54369999999972
 20
538.0257786907041
 30
0.0
 11
423.54369999999972
 21
539.93077869070407
 31
0.0
  0
LINE
  5
338
100
AcDbEntity
  8
Visible Edges(A H Standard)
370
               0
390
0
 62
               0
100
AcDbLine
 10
423.54369999999972
 20
539.93077869070407
 30
0.0
 11
423.28969999999981
 21
540.18477869070398
 31
0.0
  0
LINE
  5
339
100
AcDbEntity
  8
Visible Edges(A H Standard)
370
               0
390
0
 62
               0
100
AcDbLine
 10
423.54369999999972
 20
539.93077869070407
 30
0.0
 11
426.35039999999981
 21
539.93077869070396
 31
0.0
  0
LINE
  5
33A
100
AcDbEntity
  8
Visible Edges(A H Standard)
370
               0
390
0
 62
               0
100
AcDbLine
 10
426.35039999999981
 20
539.93077869070396
 30
0.0
 11
426.0963999999999
 21
540.18477869070398
 31
0.0
  0
LINE
  5
33B
100
AcDbEntity
  8
Visible Edges(A H Standard)
370
               0
390
0
 62
               0
100
AcDbLine
 10
426.35039999999981
 20
539.93077869070396
 30
0.0
 11
426.35039999999981
 21
540.56577869070406
 31
0.0
  0
LINE
  5
33C
100
AcDbEntity
  8
Visible Edges(A H Standard)
370
               0
390
0
 62
               0
100
AcDbLine
 10
426.27419999999984
 20
540.56577869070395
 30
0.0
 11
426.35039999999981
 21
540.56577869070406
 31
0.0
  0
LINE
  5
33D
100
AcDbEntity
  8
Visible Edges(A H Standard)
370
               0
390
0
 62
               0
100
AcDbLine
 10
426.27419999999984
 20
540.56577869070372
 30
0.0
 11
422.28639999999996
 21
540.56577869070384
 31
0.0
  0
LINE
  5
33E
100
AcDbEntity
  8
Visible Edges(A H Standard)
370
               0
390
0
 62
               0
100
AcDbLine
 10
422.28639999999996
 20
540.56577869070372
 30
0.0
 11
422.28639999999996
 21
542.31837869070375
 31
0.0
  0
LINE
  5
33F
100
AcDbEntity
  8
Visible Edges(A H Standard)
370
               0
390
0
 62
               0
100
AcDbLine
 10
426.35039999999981
 20
541.60717869070413
 30
0.0
 11
426.35039999999981
 21
540.56577869070429
 31
0.0
  0
LINE
  5
340
100
AcDbEntity
  8
Visible Edges(A H Standard)
370
               0
390
0
 62
               0
100
AcDbLine
 10
426.27419999999984
 20
542.31837869070364
 30
0.0
 11
422.28639999999996
 21
542.31837869070375
 31
0.0
  0
LINE
  5
341
100
AcDbEntity
  8
Visible Edges(A H Standard)
370
               0
390
0
 62
               0
100
AcDbLine
 10
426.27419999999984
 20
540.56577869070372
 30
0.0
 11
426.27419999999984
 21
542.31837869070364
 31
0.0
  0
LINE
  5
342
100
AcDbEntity
  8
Visible Edges(A H Standard)
370
               0
390
0
 62
               0
100
AcDbLine
 10
422.07049999999981
 20
542.46315869070384
 30
0.0
 11
427.08699999999999
 21
542.46315869070384
 31
0.0
  0
LINE
  5
343
100
AcDbEntity
  8
Visible Edges(A H Standard)
370
               0
390
0
 62
               0
100
AcDbLine
 10
422.07049999999981
 20
540.43115869070391
 30
0.0
 11
422.07049999999981
 21
542.46315869070384
 31
0.0
  0
LINE
  5
344
100
AcDbEntity
  8
Visible Edges(A H Standard)
370
               0
390
0
 62
               0
100
AcDbLine
 10
423.27700000000004
 20
540.43115869070391
 30
0.0
 11
422.07049999999981
 21
540.43115869070391
 31
0.0
  0
LINE
  5
345
100
AcDbEntity
  8
Visible Edges(A H Standard)
370
               0
390
0
 62
               0
100
AcDbLine
 10
423.27700000000004
 20
532.557158690704
 30
0.0
 11
423.27700000000004
 21
535.35115869070398
 31
0.0
  0
LINE
  5
346
100
AcDbEntity
  8
Visible Edges(A H Standard)
370
               0
390
0
 62
               0
100
AcDbLine
 10
423.27700000000004
 20
537.63715869070393
 30
0.0
 11
423.27700000000004
 21
540.43115869070391
 31
0.0
  0
LINE
  5
347
100
AcDbEntity
  8
Visible Edges(A H Standard)
370
               0
390
0
 62
               0
100
AcDbLine
 10
437.6279999999997
 20
530.70295869070378
 30
0.0
 11
437.6279999999997
 21
543.60615869070375
 31
0.0
  0
LINE
  5
348
100
AcDbEntity
  8
Visible Edges(A H Standard)
370
               0
390
0
 62
               0
100
AcDbLine
 10
437.6279999999997
 20
543.60615869070375
 30
0.0
 11
431.91299999999956
 21
543.60615869070375
 31
0.0
  0
LINE
  5
349
100
AcDbEntity
  8
Visible Edges(A H Standard)
370
               0
390
0
 62
               0
100
AcDbLine
 10
431.91299999999956
 20
543.60615869070375
 30
0.0
 11
431.91299999999956
 21
542.46315869070372
 31
0.0
  0
LINE
  5
34A
100
AcDbEntity
  8
Visible Edges(A H Standard)
370
               0
390
0
 62
               0
100
AcDbLine
 10
431.91299999999956
 20
542.46315869070372
 30
0.0
 11
436.92949999999973
 21
542.46315869070372
 31
0.0
  0
LINE
  5
34B
100
AcDbEntity
  8
Visible Edges(A H Standard)
370
               0
390
0
 62
               0
100
AcDbLine
 10
436.92949999999973
 20
542.46315869070372
 30
0.0
 11
436.92949999999973
 21
540.4311586907038
 31
0.0
  0
LINE
  5
34C
100
AcDbEntity
  8
Visible Edges(A H Standard)
370
               0
390
0
 62
               0
100
AcDbLine
 10
436.92949999999973
 20
540.4311586907038
 30
0.0
 11
435.72299999999996
 21
540.4311586907038
 31
0.0
  0
LINE
  5
34D
100
AcDbEntity
  8
Visible Tangent Edges(A H Standard)
370
               0
390
0
 62
               0
100
AcDbLine
 10
435.72299999999996
 20
535.35115869070387
 30
0.0
 11
435.72299999999996
 21
537.63715869070381
 31
0.0
  0
LINE
  5
34E
100
AcDbEntity
  8
Visible Tangent Edges(A H Standard)
370
               0
390
0
 62
               0
100
AcDbLine
 10
423.27700000000004
 20
535.35115869070398
 30
0.0
 11
423.27700000000004
 21
537.63715869070393
 31
0.0
  0
LINE
  5
34F
100
AcDbEntity
  8
Visible Edges(A H Standard)
370
               0
390
0
 62
               0
100
AcDbLine
 10
427.08699999999999
 20
542.46315869070384
 30
0.0
 11
427.08699999999999
 21
543.60615869070375
 31
0.0
  0
LINE
  5
350
100
AcDbEntity
  8
Visible Edges(A H Standard)
370
               0
390
0
 62
               0
100
AcDbLine
 10
427.08699999999999
 20
543.60615869070375
 30
0.0
 11
421.37199999999984
 21
543.60615869070386
 31
0.0
  0
LINE
  5
351
100
AcDbEntity
  8
Visible Edges(A H Standard)
370
               0
390
0
 62
               0
100
AcDbLine
 10
421.37199999999984
 20
543.60615869070386
 30
0.0
 11
421.37199999999984
 21
530.70295869070401
 31
0.0
  0
LINE
  5
352
100
AcDbEntity
  8
Visible Edges(A H Standard)
370
               0
390
0
 62
               0
100
AcDbLine
 10
437.6279999999997
 20
530.70295869070628
 30
0.0
 11
437.6279999999997
 21
530.27955869070638
 31
0.0
  0
LINE
  5
353
100
AcDbEntity
  8
Visible Edges(A H Standard)
370
               0
390
0
 62
               0
100
AcDbLine
 10
421.37199999999984
 20
530.27955869070638
 30
0.0
 11
421.37199999999984
 21
530.7029586907064
 31
0.0
  0
LINE
  5
354
100
AcDbEntity
  8
Visible Edges(A H Standard)
370
               0
390
0
 62
               0
100
AcDbLine
 10
432.72579999999971
 20
540.56577869070395
 30
0.0
 11
432.64959999999974
 21
540.56577869070395
 31
0.0
  0
LINE
  5
355
100
AcDbEntity
  8
Visible Edges(A H Standard)
370
               0
390
0
 62
               0
100
AcDbLine
 10
436.71359999999959
 20
540.56577869070361
 30
0.0
 11
436.71359999999959
 21
542.31837869070364
 31
0.0
  0
LINE
  5
356
100
AcDbEntity
  8
Visible Edges(A H Standard)
370
               0
390
0
 62
               0
100
AcDbLine
 10
432.64959999999974
 20
541.60717869070413
 30
0.0
 11
432.64959999999974
 21
540.56577869070418
 31
0.0
  0
LINE
  5
357
100
AcDbEntity
  8
Visible Edges(A H Standard)
370
               0
390
0
 62
               0
100
AcDbLine
 10
436.71359999999959
 20
542.31837869070364
 30
0.0
 11
432.72579999999971
 21
542.31837869070364
 31
0.0
  0
LINE
  5
358
100
AcDbEntity
  8
Visible Edges(A H Standard)
370
               0
390
0
 62
               0
100
AcDbLine
 10
436.71359999999959
 20
540.56577869070361
 30
0.0
 11
432.72579999999971
 21
540.56577869070361
 31
0.0
  0
LINE
  5
359
100
AcDbEntity
  8
Visible Edges(A H Standard)
370
               0
390
0
 62
               0
100
AcDbLine
 10
432.72579999999971
 20
540.56577869070361
 30
0.0
 11
432.72579999999971
 21
542.31837869070364
 31
0.0
  0
LINE
  5
35A
100
AcDbEntity
  8
Visible Edges(A H Standard)
370
               0
390
0
 62
               0
100
AcDbLine
 10
432.64959999999974
 20
540.56577869070395
 30
0.0
 11
432.64959999999974
 21
539.93077869070396
 31
0.0
  0
LINE
  5
35B
100
AcDbEntity
  8
Visible Edges(A H Standard)
370
               0
390
0
 62
               0
100
AcDbLine
 10
432.64959999999974
 20
539.93077869070396
 30
0.0
 11
432.90359999999964
 21
540.18477869070387
 31
0.0
  0
LINE
  5
35C
100
AcDbEntity
  8
Visible Edges(A H Standard)
370
               0
390
0
 62
               0
100
AcDbLine
 10
432.64959999999974
 20
539.93077869070396
 30
0.0
 11
435.45629999999983
 21
539.93077869070385
 31
0.0
  0
LINE
  5
35D
100
AcDbEntity
  8
Visible Edges(A H Standard)
370
               0
390
0
 62
               0
100
AcDbLine
 10
435.45629999999983
 20
539.93077869070385
 30
0.0
 11
435.71029999999973
 21
540.18477869070387
 31
0.0
  0
LINE
  5
35E
100
AcDbEntity
  8
Visible Edges(A H Standard)
370
               0
390
0
 62
               0
100
AcDbLine
 10
435.71029999999973
 20
538.02577869070387
 30
0.0
 11
435.45629999999983
 21
538.02577869070399
 31
0.0
  0
LINE
  5
35F
100
AcDbEntity
  8
Visible Edges(A H Standard)
370
               0
390
0
 62
               0
100
AcDbLine
 10
435.45629999999983
 20
539.93077869070385
 30
0.0
 11
435.45629999999983
 21
538.02577869070399
 31
0.0
  0
LINE
  5
360
100
AcDbEntity
  8
Visible Edges(A H Standard)
370
               0
390
0
 62
               0
100
AcDbLine
 10
434.61809999999969
 20
537.06057869070685
 30
0.0
 11
424.38189999999986
 21
537.06057869070696
 31
0.0
  0
LINE
  5
361
100
AcDbEntity
  8
Visible Edges(A H Standard)
370
               0
390
0
 62
               0
100
AcDbLine
 10
423.54369999999972
 20
537.63715869070688
 30
0.0
 11
423.54369999999972
 21
538.02577869070683
 31
0.0
  0
LINE
  5
362
100
AcDbEntity
  8
Visible Edges(A H Standard)
370
               0
390
0
 62
               0
100
AcDbLine
 10
435.45629999999983
 20
538.02577869070683
 30
0.0
 11
435.45629999999983
 21
537.63715869070677
 31
0.0
  0
LINE
  5
363
100
AcDbEntity
  8
Visible Edges(A H Standard)
370
               0
390
0
 62
               0
100
AcDbLine
 10
434.61809999999969
 20
537.568578690707
 30
0.0
 11
424.38189999999986
 21
537.568578690707
 31
0.0
  0
LINE
  5
364
100
AcDbEntity
  8
Visible Edges(A H Standard)
370
               0
390
0
 62
               0
100
AcDbLine
 10
426.35039999999981
 20
541.6071786907039
 30
0.0
 11
427.46799999999985
 21
541.6071786907039
 31
0.0
  0
LINE
  5
365
100
AcDbEntity
  8
Visible Edges(A H Standard)
370
               0
390
0
 62
               0
100
AcDbLine
 10
426.35039999999981
 20
541.86117869070392
 30
0.0
 11
426.35039999999981
 21
541.6071786907039
 31
0.0
  0
LINE
  5
366
100
AcDbEntity
  8
Visible Edges(A H Standard)
370
               0
390
0
 62
               0
100
AcDbLine
 10
427.46799999999985
 20
541.6071786907039
 30
0.0
 11
427.21399999999994
 21
541.86117869070381
 31
0.0
  0
LINE
  5
367
100
AcDbEntity
  8
Visible Edges(A H Standard)
370
               0
390
0
 62
               0
100
AcDbLine
 10
427.46799999999985
 20
541.6071786907039
 30
0.0
 11
427.46799999999985
 21
542.75017869070393
 31
0.0
  0
LINE
  5
368
100
AcDbEntity
  8
Visible Edges(A H Standard)
370
               0
390
0
 62
               0
100
AcDbLine
 10
427.46799999999985
 20
542.75017869070393
 30
0.0
 11
427.21399999999994
 21
543.00417869070384
 31
0.0
  0
LINE
  5
369
100
AcDbEntity
  8
Visible Edges(A H Standard)
370
               0
390
0
 62
               0
100
AcDbLine
 10
427.46799999999985
 20
542.75017869070393
 30
0.0
 11
431.5319999999997
 21
542.75017869070393
 31
0.0
  0
LINE
  5
36A
100
AcDbEntity
  8
Visible Edges(A H Standard)
370
               0
390
0
 62
               0
100
AcDbLine
 10
431.5319999999997
 20
542.75017869070393
 30
0.0
 11
431.78600000000006
 21
543.00417869070384
 31
0.0
  0
LINE
  5
36B
100
AcDbEntity
  8
Visible Edges(A H Standard)
370
               0
390
0
 62
               0
100
AcDbLine
 10
431.5319999999997
 20
542.75017869070393
 30
0.0
 11
431.5319999999997
 21
541.6071786907039
 31
0.0
  0
LINE
  5
36C
100
AcDbEntity
  8
Visible Edges(A H Standard)
370
               0
390
0
 62
               0
100
AcDbLine
 10
431.5319999999997
 20
541.6071786907039
 30
0.0
 11
431.78600000000006
 21
541.86117869070381
 31
0.0
  0
LINE
  5
36D
100
AcDbEntity
  8
Visible Edges(A H Standard)
370
               0
390
0
 62
               0
100
AcDbLine
 10
432.64959999999974
 20
541.86117869070381
 30
0.0
 11
432.64959999999974
 21
541.6071786907039
 31
0.0
  0
LINE
  5
36E
100
AcDbEntity
  8
Visible Edges(A H Standard)
370
               0
390
0
 62
               0
100
AcDbLine
 10
431.5319999999997
 20
541.6071786907039
 30
0.0
 11
432.64959999999974
 21
541.6071786907039
 31
0.0
  0
LINE
  5
36F
100
AcDbEntity
  8
Visible Edges(A H Standard)
370
               0
390
0
 62
               0
100
AcDbLine
 10
433.81799999999976
 20
539.93077869070623
 30
0.0
 11
433.81799999999976
 21
538.96557869070625
 31
0.0
  0
LINE
  5
370
100
AcDbEntity
  8
Visible Edges(A H Standard)
370
               0
390
0
 62
               0
100
AcDbLine
 10
433.81799999999976
 20
538.96557869070625
 30
0.0
 11
435.45629999999983
 21
538.96557869070625
 31
0.0
  0
LINE
  5
371
100
AcDbEntity
  8
Visible Edges(A H Standard)
370
               0
390
0
 62
               0
100
AcDbLine
 10
423.54369999999972
 20
538.96557869070637
 30
0.0
 11
425.18199999999979
 21
538.96557869070637
 31
0.0
  0
LINE
  5
372
100
AcDbEntity
  8
Visible Edges(A H Standard)
370
               0
390
0
 62
               0
100
AcDbLine
 10
425.18199999999979
 20
538.96557869070637
 30
0.0
 11
425.18199999999979
 21
539.93077869070635
 31
0.0
  0
LINE
  5
373
100
AcDbEntity
  8
Visible Edges(A H Standard)
370
               0
390
0
 62
               0
100
AcDbLine
 10
423.54369999999972
 20
533.06007869070413
 30
0.0
 11
423.54369999999972
 21
532.557158690704
 31
0.0
  0
LINE
  5
374
100
AcDbEntity
  8
Visible Edges(A H Standard)
370
               0
390
0
 62
               0
100
AcDbLine
 10
435.45629999999983
 20
532.557158690704
 30
0.0
 11
435.45629999999983
 21
533.06007869070402
 31
0.0
  0
ARC
  5
375
100
AcDbEntity
  8
Visible Edges(A H Standard)
370
               0
390
0
 62
               0
100
AcDbCircle
 10
421.82146415664374
 20
530.69528829274986
 30
0.0
 40
0.4495296020419798
100
AcDbArc
 50
179.02230518997237
 51
180.97769480753468
  0
ARC
  5
376
100
AcDbEntity
  8
Visible Edges(A H Standard)
370
               0
390
0
 62
               0
100
AcDbCircle
 10
437.17853584335626
 20
530.69528829274986
 30
0.0
 40
0.4495296020416433
100
AcDbArc
 50
359.02230519248599
 51
0.9776948100286518
  0
LINE
  5
377
100
AcDbEntity
  8
Visible Tangent Edges(A H Standard)
370
               0
390
0
 62
               0
100
AcDbLine
 10
423.56789363129292
 20
535.35115869070398
 30
0.0
 11
423.56789363129292
 21
537.63715869070393
 31
0.0
  0
LINE
  5
378
100
AcDbEntity
  8
Visible Edges(A H Standard)
370
               0
390
0
 62
               0
100
AcDbLine
 10
423.56789363129292
 20
537.63715869070404
 30
0.0
 11
423.27700000000004
 21
537.63715869070393
 31
0.0
  0
LINE
  5
379
100
AcDbEntity
  8
Visible Edges(A H Standard)
370
               0
390
0
 62
               0
100
AcDbLine
 10
434.73712143746934
 20
537.63715869070438
 30
0.0
 11
434.61809999999969
 21
537.63715869070461
 31
0.0
  0
LINE
  5
37A
100
AcDbEntity
  8
Visible Edges(A H Standard)
370
               0
390
0
 62
               0
100
AcDbLine
 10
434.73712143746889
 20
537.63715869070438
 30
0.0
 11
435.43210636870663
 21
537.63715869070393
 31
0.0
  0
LINE
  5
37B
100
AcDbEntity
  8
Visible Edges(A H Standard)
370
               0
390
0
 62
               0
100
AcDbLine
 10
435.72299999999996
 20
537.63715869070381
 30
0.0
 11
435.43210636870663
 21
537.63715869070393
 31
0.0
  0
LINE
  5
37C
100
AcDbEntity
  8
Visible Edges(A H Standard)
370
               0
390
0
 62
               0
100
AcDbLine
 10
423.56789363129292
 20
537.63715869070393
 30
0.0
 11
424.26287856253066
 21
537.6371586907045
 31
0.0
  0
LINE
  5
37D
100
AcDbEntity
  8
Visible Edges(A H Standard)
370
               0
390
0
 62
               0
100
AcDbLine
 10
424.38189999999986
 20
537.63715869070472
 30
0.0
 11
424.2628785625302
 21
537.6371586907045
 31
0.0
  0
LINE
  5
37E
100
AcDbEntity
  8
Visible Tangent Edges(A H Standard)
370
               0
390
0
 62
               0
100
AcDbLine
 10
435.43210636870663
 20
535.35115869070387
 30
0.0
 11
435.43210636870663
 21
537.63715869070393
 31
0.0
  0
LINE
  5
37F
100
AcDbEntity
  8
Visible Tangent Edges(A H Standard)
370
               0
390
0
 62
               0
100
AcDbLine
 10
434.73712143746889
 20
535.35115869070444
 30
0.0
 11
434.73712143746889
 21
537.63715869070438
 31
0.0
  0
LINE
  5
380
100
AcDbEntity
  8
Visible Tangent Edges(A H Standard)
370
               0
390
0
 62
               0
100
AcDbLine
 10
424.26287856253066
 20
535.35115869070455
 30
0.0
 11
424.26287856253066
 21
537.6371586907045
 31
0.0
  0
LINE
  5
381
100
AcDbEntity
  8
Visible Edges(A H Standard)
370
               0
390
0
 62
               0
100
AcDbLine
 10
434.61809999999969
 20
535.35115869070466
 30
0.0
 11
434.61809999999969
 21
537.63715869070461
 31
0.0
  0
LINE
  5
382
100
AcDbEntity
  8
Visible Edges(A H Standard)
370
               0
390
0
 62
               0
100
AcDbLine
 10
424.38189999999986
 20
535.35115869070478
 30
0.0
 11
424.38189999999986
 21
537.63715869070472
 31
0.0
  0
LINE
  5
383
100
AcDbEntity
  8
Visible Edges(A H Standard)
370
               0
390
0
 62
               0
100
AcDbLine
 10
345.00000000000227
 20
549.8025786907051
 30
0.0
 11
345.50000000000182
 21
549.8025786907051
 31
0.0
  0
LINE
  5
384
100
AcDbEntity
  8
Visible Edges(A H Standard)
370
               0
390
0
 62
               0
100
AcDbLine
 10
397.50000000000136
 20
549.80257869070465
 30
0.0
 11
398.00000000000136
 21
549.80257869070465
 31
0.0
  0
LINE
  5
385
100
AcDbEntity
  8
Visible Edges(A H Standard)
370
               0
390
0
 62
               0
100
AcDbLine
 10
403.00000000000136
 20
549.80257869070465
 30
0.0
 11
403.5
 21
549.80257869070465
 31
0.0
  0
LINE
  5
386
100
AcDbEntity
  8
Visible Edges(A H Standard)
370
               0
390
0
 62
               0
100
AcDbLine
 10
455.49999999999909
 20
549.80257869070431
 30
0.0
 11
456.00000000000091
 21
549.80257869070431
 31
0.0
  0
INSERT
  5
387
100
AcDbEntity
  8
0
390
0
 62
               0
100
AcDbBlockReference
  2
グループ-4
 10
425.3249066765614
 20
287.76457349691282
 30
0.0
  0
DIMENSION
  5
388
100
AcDbEntity
  8
寸法
370
               0
390
0
  6
Continuous
 62
               0
100
AcDbDimension
  2
*D6
 10
315.0
 20
175.74444444444444
 30
0.0
 11
400.5
 21
178.24444444444444
 31
0.0
 70
             128
 71
               5
 72
               1
 41
1.0
 42
0.0
  3
HIBINO
100
AcDbAlignedDimension
 13
486.0
 23
240.29999999999995
 33
0.0
 14
315.0
 24
240.29999999999995
 34
0.0
100
AcDbRotatedDimension
1001
ACAD
1000
DSTYLE
1002
{
1070
             271
1070
               0
1070
             279
1070
               2
1070
             340
1005
2C
1070
             147
1040
2.5
1002
}
  0
DIMENSION
  5
389
100
AcDbEntity
  8
寸法
370
               0
390
0
  6
Continuous
 62
               0
100
AcDbDimension
  2
*D7
 10
224.0
 20
435.70000000000005
 30
0.0
 11
224.0
 21
338.0
 31
0.0
 71
               5
 72
               1
 41
1.0
 42
0.0
  3
HIBINO
100
AcDbAlignedDimension
 13
317.01999999999998
 23
240.29999999999995
 33
0.0
 14
315.0
 24
435.70000000000005
 34
0.0
 50
-90.0
100
AcDbRotatedDimension
1001
ACAD
1000
DSTYLE
1002
{
1070
             271
1070
               1
1070
             279
1070
               2
1070
             340
1005
2C
1070
             147
1040
2.5
1002
}
  0
DIMENSION
  5
38A
100
AcDbEntity
  8
寸法
370
               0
390
0
  6
Continuous
 62
               0
100
AcDbDimension
  2
*D8
 10
234.0
 20
105.34356680048728
 30
0.0
 11
234.0
 21
84.143566800487321
 31
0.0
 71
               5
 72
               1
 41
1.0
 42
0.0
  3
HIBINO
100
AcDbAlignedDimension
 13
315.0
 23
62.943566800487361
 33
0.0
 14
317.01999999999998
 24
105.34356680048728
 34
0.0
 50
-90.0
100
AcDbRotatedDimension
1001
ACAD
1000
DSTYLE
1002
{
1070
             271
1070
               1
1070
             279
1070
               2
1070
             340
1005
2C
1070
             147
1040
2.5
1002
}
  0
MTEXT
  5
38B
100
AcDbEntity
  8
一般
390
0
 62
               0
100
AcDbMText
 10
224.70439783558732
 20
736.96855869553769
 30
0.0
 40
9.3247251157407423
 41
0.0
 71
               1
 72
               1
  1
{\f游ゴシック Medium|b0|i0|c128|p0;\l171×42.4×195.4mm(除突起物）EIA1U、幅1/2サイズ ※FULLU-RK19ラックマント金具オプション別売。}
 73
               1
 44
1.139533503472016
  0
ENDSEC
  0
SECTION
  2
OBJECTS
  0
DICTIONARY
  5
19
100
AcDbDictionary
280
               0
281
               1
  3
ACAD_GROUP
350
1A
  3
ACAD_MLINESTYLE
350
1B
  3
ACAD_LAYOUT
350
1E
  3
ACAD_PLOTSETTINGS
350
22
  3
ACAD_PLOTSTYLENAME
350
1F
  3
ACAD_WIPEOUT_VARS
350
23
  0
DICTIONARY
  5
1A
102
{ACAD_REACTORS
330
19
102
}
100
AcDbDictionary
280
               0
281
               1
  0
DICTIONARY
  5
1B
102
{ACAD_REACTORS
330
19
102
}
100
AcDbDictionary
280
               0
281
               1
  3
Standard
350
1C
  0
MLINESTYLE
  5
1C
102
{ACAD_REACTORS
330
1B
102
}
100
AcDbMlineStyle
  2
Standard
 70
               0
  3

 62
               0
 51
90.0
 52
90.0
 71
               2
 49
0.5
 62
             256
  6
ByLayer
 49
-0.5
 62
             256
  6
ByLayer
  0
ACDBDICTIONARYWDFLT
  5
1F
102
{ACAD_REACTORS
330
19
102
}
100
AcDbDictionary
281
               1
  3
Normal
350
1D
100
AcDbDictionaryWithDefault
340
1D
  0
ACDBPLACEHOLDER
  5
1D
102
{ACAD_REACTORS
330
1F
102
}
  0
LAYOUT
  5
20
102
{ACAD_REACTORS
330
1E
102
}
100
AcDbPlotSettings
  1

  2

  4

  6

 40
0.0
 41
0.0
 42
0.0
 43
0.0
 44
0.0
 45
0.0
 46
0.0
 47
0.0
 48
0.0
 49
0.0
140
0.0
141
0.0
142
1.0
143
1.0
 70
            1024
 72
               0
 73
               0
 74
               0
  7
GPIO.ctb
 75
               0
147
1.0
148
0.0
149
0.0
100
AcDbLayout
  1
Model
 70
               0
 71
               0
 10
0.0
 20
0.0
 11
0.0
 21
0.0
 12
0.0
 22
0.0
 32
0.0
 14
0.0
 24
0.0
 34
0.0
 15
0.0
 25
0.0
 35
0.0
146
0.0
 13
0.0
 23
0.0
 33
0.0
 16
0.0
 26
0.0
 36
0.0
 17
0.0
 27
0.0
 37
0.0
 76
               0
330
A
331
0
345
0
346
0
  0
LAYOUT
  5
21
102
{ACAD_REACTORS
330
1E
102
}
100
AcDbPlotSettings
  1

  2

  4

  6

 40
0.0
 41
0.0
 42
0.0
 43
0.0
 44
0.0
 45
0.0
 46
0.0
 47
0.0
 48
0.0
 49
0.0
140
0.0
141
0.0
142
1.0
143
1.0
 70
               0
 72
               0
 73
               0
 74
               0
  7

 75
               0
147
1.0
148
0.0
149
0.0
100
AcDbLayout
  1
Layout1
 70
               0
 71
               0
 10
0.0
 20
0.0
 11
0.0
 21
0.0
 12
0.0
 22
0.0
 32
0.0
 14
0.0
 24
0.0
 34
0.0
 15
0.0
 25
0.0
 35
0.0
146
0.0
 13
0.0
 23
0.0
 33
0.0
 16
0.0
 26
0.0
 36
0.0
 17
0.0
 27
0.0
 37
0.0
 76
               0
330
B
331
0
345
0
346
0
  0
DICTIONARY
  5
1E
102
{ACAD_REACTORS
330
19
102
}
100
AcDbDictionary
280
               0
281
               1
  3
Layout1
350
21
  3
Model
350
20
  0
DICTIONARY
  5
22
102
{ACAD_REACTORS
330
19
102
}
100
AcDbDictionary
280
               0
281
               1
  0
WIPEOUTVARIABLES
  5
23
100
AcDbWipeoutVariables
 70
               0
  0
ENDSEC
  0
EOF
