  0
SECTION
  2
HEADER
  9
$ACADVER
  1
AC1009
  9
$DWGCODEPAGE
  3
dos932
  9
$INSBASE
 10
0.0
 20
0.0
 30
0.0
  9
$EXTMIN
 10
18192.62228883203
 20
-748.1648700761361
 30
-29.70106666666667
  9
$EXTMAX
 10
21792.62228883203
 20
4601.479040510167
 30
29.70106666666667
  9
$LIMMIN
 10
0.0
 20
0.0
  9
$LIMMAX
 10
12.0
 20
9.0
  9
$ORTHOMODE
 70
     0
  9
$REGENMODE
 70
     1
  9
$FILLMODE
 70
     1
  9
$QTEXTMODE
 70
     0
  9
$MIRRTEXT
 70
     1
  9
$DRAGMODE
 70
     2
  9
$LTSCALE
 40
101.6
  9
$OSMODE
 70
    37
  9
$ATTMODE
 70
     1
  9
$TEXTSIZE
 40
0.2
  9
$TRACEWID
 40
1.0
  9
$TEXTSTYLE
  7
STANDARD
  9
$CLAYER
  8
U14
  9
$CELTYPE
  6
BYLAYER
  9
$CECOLOR
 62
   256
  9
$DIMSCALE
 40
1.0
  9
$DIMASZ
 40
50.012451171875
  9
$DIMEXO
 40
39.99999999999999
  9
$DIMDLI
 40
100.0
  9
$DIMRND
 40
0.0
  9
$DIMDLE
 40
0.0
  9
$DIMEXE
 40
39.99999999999999
  9
$DIMTP
 40
0.0
  9
$DIMTM
 40
0.0
  9
$DIMTXT
 40
64.98828125000011
  9
$DIMCEN
 40
0.0
  9
$DIMTSZ
 40
0.0
  9
$DIMTOL
 70
     0
  9
$DIMLIM
 70
     0
  9
$DIMTIH
 70
     0
  9
$DIMTOH
 70
     0
  9
$DIMSE1
 70
     0
  9
$DIMSE2
 70
     0
  9
$DIMTAD
 70
     1
  9
$DIMZIN
 70
     8
  9
$DIMBLK
  1
VW_EMPTYARROW
  9
$DIMASO
 70
     1
  9
$DIMSHO
 70
     1
  9
$DIMPOST
  1
<>
  9
$DIMAPOST
  1
[]
  9
$DIMALT
 70
     0
  9
$DIMALTD
 70
     2
  9
$DIMALTF
 40
1.0
  9
$DIMLFAC
 40
1.0
  9
$DIMTOFL
 70
     1
  9
$DIMTVP
 40
0.0
  9
$DIMTIX
 70
     1
  9
$DIMSOXD
 70
     0
  9
$DIMSAH
 70
     0
  9
$DIMBLK1
  1
VW_EMPTYARROW
  9
$DIMBLK2
  1
VW_EMPTYARROW
  9
$DIMSTYLE
  2
HIBINO
  9
$DIMCLRD
 70
     0
  9
$DIMCLRE
 70
     0
  9
$DIMCLRT
 70
     0
  9
$DIMTFAC
 40
1.0
  9
$DIMGAP
 40
9.999999999999998
  9
$LUNITS
 70
     2
  9
$LUPREC
 70
     2
  9
$SKETCHINC
 40
0.1
  9
$FILLETRAD
 40
0.5
  9
$AUNITS
 70
     0
  9
$AUPREC
 70
     0
  9
$MENU
  1
.
  9
$ELEVATION
 40
0.0
  9
$PELEVATION
 40
0.0
  9
$THICKNESS
 40
0.0
  9
$LIMCHECK
 70
     0
  9
$CHAMFERA
 40
0.0
  9
$CHAMFERB
 40
0.0
  9
$SKPOLY
 70
     0
  9
$TDCREATE
 40
2460530.697159039
  9
$TDUPDATE
 40
2460530.69716147
  9
$TDINDWG
 40
0.0000000116
  9
$TDUSRTIMER
 40
0.0000000116
  9
$USRTIMER
 70
     1
  9
$ANGBASE
 50
0.0
  9
$ANGDIR
 70
     0
  9
$PDMODE
 70
     1
  9
$PDSIZE
 40
-2.0
  9
$PLINEWID
 40
0.0
  9
$COORDS
 70
     1
  9
$SPLFRAME
 70
     0
  9
$SPLINETYPE
 70
     6
  9
$SPLINESEGS
 70
     8
  9
$ATTDIA
 70
     0
  9
$ATTREQ
 70
     1
  9
$HANDLING
 70
     1
  9
$HANDSEED
  5
427
  9
$SURFTAB1
 70
     6
  9
$SURFTAB2
 70
     6
  9
$SURFTYPE
 70
     6
  9
$SURFU
 70
     6
  9
$SURFV
 70
     6
  9
$UCSNAME
  2

  9
$UCSORG
 10
0.0
 20
0.0
 30
0.0
  9
$UCSXDIR
 10
1.0
 20
0.0
 30
0.0
  9
$UCSYDIR
 10
0.0
 20
1.0
 30
0.0
  9
$PUCSNAME
  2

  9
$PUCSORG
 10
0.0
 20
0.0
 30
0.0
  9
$PUCSXDIR
 10
1.0
 20
0.0
 30
0.0
  9
$PUCSYDIR
 10
0.0
 20
1.0
 30
0.0
  9
$USERI1
 70
     0
  9
$USERI2
 70
     0
  9
$USERI3
 70
     0
  9
$USERI4
 70
     0
  9
$USERI5
 70
     0
  9
$USERR1
 40
0.0
  9
$USERR2
 40
0.0
  9
$USERR3
 40
0.0
  9
$USERR4
 40
0.0
  9
$USERR5
 40
0.0
  9
$WORLDVIEW
 70
     1
  9
$SHADEDGE
 70
     3
  9
$SHADEDIF
 70
    70
  9
$TILEMODE
 70
     1
  9
$MAXACTVP
 70
    64
  9
$PLIMCHECK
 70
     0
  9
$PEXTMIN
 10
1.000000000000000E+20
 20
1.000000000000000E+20
 30
1.000000000000000E+20
  9
$PEXTMAX
 10
-1.000000000000000E+20
 20
-1.000000000000000E+20
 30
-1.000000000000000E+20
  9
$PLIMMIN
 10
-20.0
 20
-7.5
  9
$PLIMMAX
 10
277.0
 20
202.5
  9
$UNITMODE
 70
     0
  9
$VISRETAIN
 70
     1
  9
$PLINEGEN
 70
     0
  9
$PSLTSCALE
 70
     1
  0
ENDSEC
  0
SECTION
  2
TABLES
  0
TABLE
  2
VPORT
 70
     1
  0
VPORT
  2
*ACTIVE
 70
     0
 10
0.0
 20
0.0
 11
1.0
 21
1.0
 12
19992.62228883203
 22
1926.657085217015
 13
0.0
 23
0.0
 14
0.5
 24
0.5
 15
0.5
 25
0.5
 16
0.0
 26
0.0
 36
1.0
 17
0.0
 27
0.0
 37
0.0
 40
5349.643910586303
 41
0.672941986451852
 42
2000.0
 43
0.0
 44
0.0
 50
0.0
 51
0.0
 71
     0
 72
   100
 73
     1
 74
     3
 75
     0
 76
     0
 77
     0
 78
     0
  0
ENDTAB
  0
TABLE
  2
LTYPE
 70
    11
  0
LTYPE
  2
CONTINUOUS
 70
     0
  3
Solid line
 72
    65
 73
     0
 40
0.0
  0
LTYPE
  2
______-10
 70
     0
  3

 72
    65
 73
     6
 40
5.9375
 49
3.75
 49
-0.2777862548828125
 49
0.694427490234375
 49
-0.2777862548828125
 49
0.625
 49
-0.3125
  0
LTYPE
  2
______-9
 70
     0
  3

 72
    65
 73
     4
 40
5.0
 49
3.75
 49
-0.2777862548828125
 49
0.694427490234375
 49
-0.2777862548828125
  0
LTYPE
  2
______-8
 70
     0
  3

 72
    65
 73
     6
 40
1.25
 49
0.625
 49
-0.208282470703125
 49
0.069427490234375
 49
-0.1389312744140625
 49
0.069427490234375
 49
-0.1389312744140625
  0
LTYPE
  2
______-7
 70
     0
  3

 72
    65
 73
     6
 40
1.875
 49
0.625
 49
-0.208282470703125
 49
0.625
 49
-0.2083587646484375
 49
0.069427490234375
 49
-0.1389312744140625
  0
LTYPE
  2
______-6
 70
     0
  3

 72
    65
 73
     4
 40
1.041641235351562
 49
0.625
 49
-0.208282470703125
 49
0.069427490234375
 49
-0.1389312744140625
  0
LTYPE
  2
______-5
 70
     0
  3

 72
    65
 73
     2
 40
0.208282470703125
 49
0.069427490234375
 49
-0.13885498046875
  0
LTYPE
  2
______-4
 70
     0
  3

 72
    65
 73
     2
 40
1.5277099609375
 49
1.319427490234375
 49
-0.208282470703125
  0
LTYPE
  2
______-3
 70
     0
  3

 72
    65
 73
     2
 40
1.25
 49
1.041641235351562
 49
-0.2083587646484375
  0
LTYPE
  2
______-2
 70
     0
  3

 72
    65
 73
     2
 40
0.694427490234375
 49
0.4860687255859375
 49
-0.2083587646484375
  0
LTYPE
  2
______-1
 70
     0
  3

 72
    65
 73
     4
 40
0.2
 49
0.125
 49
-0.025
 49
0.025
 49
-0.025
  0
ENDTAB
  0
TABLE
  2
LAYER
 70
     5
  0
LAYER
  2
0
 70
     0
 62
     7
  6
CONTINUOUS
  0
LAYER
  2
U14
 70
     0
 62
     7
  6
CONTINUOUS
  0
LAYER
  2
DEFPOINTS
 70
     0
 62
     7
  6
CONTINUOUS
  0
ENDTAB
  0
TABLE
  2
STYLE
 70
     2
  0
STYLE
  2
STANDARD
 70
     0
 40
0.0
 41
1.0
 50
0.0
 71
     0
 42
0.2
  3
txt
  4
BIGFONT.SHX
  0
STYLE
  2
_______
 70
     0
 40
0.0
 41
1.0
 50
0.0
 71
     0
 42
0.2
  3

  4
ＭＳ ゴシック
  0
ENDTAB
  0
TABLE
  2
VIEW
 70
     0
  0
ENDTAB
  0
TABLE
  2
UCS
 70
     0
  0
ENDTAB
  0
TABLE
  2
APPID
 70
     2
  0
APPID
  2
ACAD
 70
     0
  0
APPID
  2
ACAECLAYERSTANDARD
 70
     0
  0
ENDTAB
  0
TABLE
  2
DIMSTYLE
 70
     2
  0
DIMSTYLE
  2
STANDARD
 70
     0
  3

  4

  5

  6

  7

 40
1.0
 41
0.18
 42
0.0625
 43
0.38
 44
0.18
 45
0.0
 46
0.0
 47
0.0
 48
0.0
140
0.18
141
0.09
142
0.0
143
25.4
144
1.0
145
0.0
146
1.0
147
0.09
 71
     0
 72
     0
 73
     1
 74
     1
 75
     0
 76
     0
 77
     0
 78
     0
170
     0
171
     2
172
     0
173
     0
174
     0
175
     0
176
     0
177
     0
178
     0
  0
DIMSTYLE
  2
HIBINO
 70
     0
  3
<>
  4
[]
  5
VW_EMPTYARROW
  6
VW_EMPTYARROW
  7
VW_EMPTYARROW
 40
1.0
 41
50.012451171875
 42
39.99999999999999
 43
100.0
 44
39.99999999999999
 45
0.0
 46
0.0
 47
0.0
 48
0.0
140
64.98828125000011
141
0.0
142
0.0
143
1.0
144
1.0
145
0.0
146
1.0
147
9.999999999999998
 71
     0
 72
     0
 73
     0
 74
     0
 75
     0
 76
     0
 77
     1
 78
     8
170
     0
171
     2
172
     1
173
     0
174
     1
175
     0
176
     0
177
     0
178
     0
  0
ENDTAB
  0
ENDSEC
  0
SECTION
  2
BLOCKS
  0
BLOCK
  8
0
  2
$MODEL_SPACE
 70
     0
 10
0.0
 20
0.0
 30
0.0
  3
$MODEL_SPACE
  1

  0
ENDBLK
  5
21
  8
0
  0
BLOCK
 67
     1
  8
0
  2
$PAPER_SPACE
 70
     0
 10
0.0
 20
0.0
 30
0.0
  3
$PAPER_SPACE
  1

  0
ENDBLK
  5
1D
 67
     1
  8
0
  0
BLOCK
  8
0
  2
____-1
 70
     0
 10
0.0
 20
0.0
 30
0.0
  3
____-1
  1

  0
LINE
  5
AA
  8
0
  6
______-6
 62
     7
 10
195.4563829946492
 20
-2164.381353011953
 30
0.0
 11
245.4563829946492
 21
-2164.381353011953
 31
0.0
  0
LINE
  5
AB
  8
0
  6
______-6
 62
     7
 10
220.4563829946492
 20
-2189.381353011953
 30
0.0
 11
220.4563829946492
 21
-2139.381353011953
 31
0.0
  0
ENDBLK
  5
71
  8
0
  0
BLOCK
  8
0
  2
CALLOUT
 70
     0
 10
0.0
 20
0.0
 30
0.0
  3
CALLOUT
  1

  0
LINE
  5
AC
  8
0
  6
CONTINUOUS
 62
     7
 10
0.0
 20
0.0
 30
0.0
 11
966.3548055459432
 21
-154.5013702940128
 31
0.0
  0
POLYLINE
  5
AD
  8
0
  6
CONTINUOUS
 62
     7
 66
     1
 10
0.0
 20
0.0
 30
0.0
 70
   128
  0
VERTEX
  5
AE
  8
0
  6
CONTINUOUS
 62
     7
 10
906.7740976794529
 20
-126.7184299375726
 30
0.0
  0
VERTEX
  5
AF
  8
0
  6
CONTINUOUS
 62
     7
 10
966.3548055459432
 20
-154.5013702940128
 30
0.0
  0
VERTEX
  5
B0
  8
0
  6
CONTINUOUS
 62
     7
 10
900.8649287798831
 20
-160.2309920867528
 30
0.0
  0
SEQEND
  5
B1
  8
0
  6
CONTINUOUS
 62
     7
  0
LINE
  5
B2
  8
0
  6
CONTINUOUS
 62
     7
 10
0.0
 20
0.0
 30
0.0
 11
-357.1167325569877
 21
873.856806217331
 31
0.0
  0
POLYLINE
  5
B3
  8
0
  6
CONTINUOUS
 62
     7
 66
     1
 10
0.0
 20
0.0
 30
0.0
 70
   128
  0
VERTEX
  5
B4
  8
0
  6
CONTINUOUS
 62
     7
 10
-347.9674876869997
 20
808.7565462867395
 30
0.0
  0
VERTEX
  5
B5
  8
0
  6
CONTINUOUS
 62
     7
 10
-357.1167325569877
 20
873.856806217331
 30
0.0
  0
VERTEX
  5
B6
  8
0
  6
CONTINUOUS
 62
     7
 10
-316.6431241088379
 20
822.0529497594626
 30
0.0
  0
SEQEND
  5
B7
  8
0
  6
CONTINUOUS
 62
     7
  0
LINE
  5
B8
  8
0
  6
CONTINUOUS
 62
     7
 10
-176.2254469398296
 20
0.0
 30
0.0
 11
0.0
 21
0.0
 31
0.0
  0
TEXT
  5
B9
  8
0
 62
     7
 10
-746.9398913842741
 20
-25.4
 30
0.0
 40
54.15690104166666
  1
ポールマウント用 
  7
_______
 11
-746.9398913842741
 21
28.75690104166667
 31
0.0
 73
     3
  0
TEXT
  5
BA
  8
0
 62
     7
 10
-746.9398913842741
 20
-95.95555555555555
 30
0.0
 40
54.15690104166666
  1
 20mm径メネジ
  7
_______
 11
-746.9398913842741
 21
-41.79865451388888
 31
0.0
 73
     3
  0
ENDBLK
  5
74
  8
0
  0
BLOCK
  8
0
  2
*D3
 70
     1
 10
0.0
 20
0.0
 30
0.0
  3
*D3
  1

  0
LINE
  5
BB
  8
U14
  6
CONTINUOUS
 62
     0
 10
20555.35480555209
 20
1881.104650724501
 30
0.0
 11
20555.35480555209
 21
1736.0
 31
0.0
  0
LINE
  5
BC
  8
U14
  6
CONTINUOUS
 62
     0
 10
19447.35480555209
 20
1881.104650724501
 30
0.0
 11
19447.35480555209
 21
1736.0
 31
0.0
  0
LINE
  5
BD
  8
U14
  6
CONTINUOUS
 62
     0
 10
20505.34235438022
 20
1776.0
 30
0.0
 11
19497.36725672397
 21
1776.0
 31
0.0
  0
INSERT
  5
BE
  8
U14
 62
     0
  2
VW_EMPTYARROW
 10
20555.35480555209
 20
1776.0
 30
0.0
 41
50.012451171875
 42
50.012451171875
 43
50.012451171875
  0
INSERT
  5
C3
  8
U14
 62
     0
  2
VW_EMPTYARROW
 10
19447.35480555209
 20
1776.0
 30
0.0
 41
50.012451171875
 42
50.012451171875
 43
50.012451171875
 50
180.0
  0
TEXT
  5
C8
  8
U14
  6
CONTINUOUS
 62
     0
 10
19914.88789734897
 20
1786.0
 30
0.0
 40
64.98828125000011
  1
1108
  7
_______
  0
POINT
  5
C9
  8
DEFPOINTS
 62
     0
 10
20555.35480555209
 20
1921.104650724501
 30
0.0
  0
POINT
  5
CA
  8
DEFPOINTS
 62
     0
 10
19447.35480555209
 20
1921.104650724501
 30
0.0
  0
POINT
  5
CB
  8
DEFPOINTS
 62
     0
 10
19447.35480555209
 20
1776.0
 30
0.0
  0
ENDBLK
  5
77
  8
0
  0
BLOCK
  8
0
  2
*D4
 70
     1
 10
0.0
 20
0.0
 30
0.0
  3
*D4
  1

  0
LINE
  5
CC
  8
U14
  6
CONTINUOUS
 62
     0
 10
19422.35480555208
 20
1921.104650724501
 30
0.0
 11
19300.0
 21
1921.104650724502
 31
0.0
  0
LINE
  5
CD
  8
U14
  6
CONTINUOUS
 62
     0
 10
19422.35480555208
 20
2411.104650724502
 30
0.0
 11
19300.0
 21
2411.104650724502
 31
0.0
  0
LINE
  5
CE
  8
U14
  6
CONTINUOUS
 62
     0
 10
19340.0
 20
1971.117101896377
 30
0.0
 11
19340.0
 21
2361.092199552627
 31
0.0
  0
INSERT
  5
CF
  8
U14
 62
     0
  2
VW_EMPTYARROW
 10
19340.0
 20
1921.104650724502
 30
0.0
 41
50.012451171875
 42
50.012451171875
 43
50.012451171875
 50
270.0
  0
INSERT
  5
D4
  8
U14
 62
     0
  2
VW_EMPTYARROW
 10
19340.0
 20
2411.104650724502
 30
0.0
 41
50.012451171875
 42
50.012451171875
 43
50.012451171875
 50
90.0
  0
TEXT
  5
D9
  8
U14
  6
CONTINUOUS
 62
     0
 10
19330.0
 20
2103.066017912002
 30
0.0
 40
64.98828125000011
  1
490
 50
90.0
  7
_______
  0
POINT
  5
DA
  8
DEFPOINTS
 62
     0
 10
19462.35480555208
 20
1921.104650724501
 30
0.0
  0
POINT
  5
DB
  8
DEFPOINTS
 62
     0
 10
19462.35480555208
 20
2411.104650724502
 30
0.0
  0
POINT
  5
DC
  8
DEFPOINTS
 62
     0
 10
19340.0
 20
2411.104650724502
 30
0.0
  0
ENDBLK
  5
7A
  8
0
  0
BLOCK
  8
0
  2
*D5
 70
     1
 10
0.0
 20
0.0
 30
0.0
  3
*D5
  1

  0
LINE
  5
DD
  8
U14
  6
CONTINUOUS
 62
     0
 10
19480.85480555205
 20
1914.104650724501
 30
0.0
 11
19247.0
 21
1914.104650724501
 31
0.0
  0
LINE
  5
DE
  8
U14
  6
CONTINUOUS
 62
     0
 10
19477.35480555205
 20
1921.104650724501
 30
0.0
 11
19247.0
 21
1921.104650724501
 31
0.0
  0
LINE
  5
DF
  8
U14
  6
CONTINUOUS
 62
     0
 10
19287.0
 20
1914.104650724501
 30
0.0
 11
19287.0
 21
1762.755396818251
 31
0.0
  0
LINE
  5
E0
  8
U14
  6
CONTINUOUS
 62
     0
 10
19287.0
 20
1914.104650724501
 30
0.0
 11
19287.0
 21
1921.104650724501
 31
0.0
  0
LINE
  5
E1
  8
U14
  6
CONTINUOUS
 62
     0
 10
19287.0
 20
1864.092199552626
 30
0.0
 11
19287.0
 21
1814.079748380751
 31
0.0
  0
LINE
  5
E6
  8
U14
  6
CONTINUOUS
 62
     0
 10
19287.0
 20
1971.117101896376
 30
0.0
 11
19287.0
 21
2021.129553068251
 31
0.0
  0
INSERT
  5
EB
  8
U14
 62
     0
  2
VW_EMPTYARROW
 10
19287.0
 20
1914.104650724501
 30
0.0
 41
50.012451171875
 42
50.012451171875
 43
50.012451171875
 50
90.0
  0
INSERT
  5
EC
  8
U14
 62
     0
  2
VW_EMPTYARROW
 10
19287.0
 20
1921.104650724501
 30
0.0
 41
50.012451171875
 42
50.012451171875
 43
50.012451171875
 50
270.0
  0
TEXT
  5
ED
  8
U14
  6
CONTINUOUS
 62
     0
 10
19277.0
 20
1767.491346037001
 30
0.0
 40
64.98828125000011
  1
7
 50
90.0
  7
_______
  0
POINT
  5
EE
  8
DEFPOINTS
 62
     0
 10
19520.85480555205
 20
1914.104650724501
 30
0.0
  0
POINT
  5
361
  8
DEFPOINTS
 62
     0
 10
19517.35480555205
 20
1921.104650724501
 30
0.0
  0
POINT
  5
362
  8
DEFPOINTS
 62
     0
 10
19340.0
 20
1921.104650724501
 30
0.0
  0
ENDBLK
  5
7D
  8
0
  0
BLOCK
  8
0
  2
*D6
 70
     1
 10
0.0
 20
0.0
 30
0.0
  3
*D6
  1

  0
LINE
  5
EF
  8
U14
  6
CONTINUOUS
 62
     0
 10
20555.35480555205
 20
1911.104650724501
 30
0.0
 11
20555.35480555205
 21
1787.333333333333
 31
0.0
  0
LINE
  5
F0
  8
U14
  6
CONTINUOUS
 62
     0
 10
20561.35480555205
 20
1914.604650724501
 30
0.0
 11
20561.35480555205
 21
1787.333333333333
 31
0.0
  0
LINE
  5
F1
  8
U14
  6
CONTINUOUS
 62
     0
 10
20561.35480555205
 20
1827.333333333333
 30
0.0
 11
20714.32876648955
 21
1827.333333333333
 31
0.0
  0
LINE
  5
F2
  8
U14
  6
CONTINUOUS
 62
     0
 10
20555.35480555205
 20
1827.333333333333
 30
0.0
 11
20561.35480555205
 21
1827.333333333333
 31
0.0
  0
LINE
  5
F3
  8
U14
  6
CONTINUOUS
 62
     0
 10
20505.34235438017
 20
1827.333333333333
 30
0.0
 11
20455.3299032083
 21
1827.333333333333
 31
0.0
  0
LINE
  5
F8
  8
U14
  6
CONTINUOUS
 62
     0
 10
20611.36725672392
 20
1827.333333333333
 30
0.0
 11
20661.3797078958
 21
1827.333333333333
 31
0.0
  0
INSERT
  5
FD
  8
U14
 62
     0
  2
VW_EMPTYARROW
 10
20555.35480555205
 20
1827.333333333333
 30
0.0
 41
50.012451171875
 42
50.012451171875
 43
50.012451171875
  0
INSERT
  5
FE
  8
U14
 62
     0
  2
VW_EMPTYARROW
 10
20561.35480555205
 20
1827.333333333333
 30
0.0
 41
50.012451171875
 42
50.012451171875
 43
50.012451171875
 50
180.0
  0
TEXT
  5
FF
  8
U14
  6
CONTINUOUS
 62
     0
 10
20666.76553992705
 20
1837.333333333333
 30
0.0
 40
64.98828125000011
  1
6
  7
_______
  0
POINT
  5
100
  8
DEFPOINTS
 62
     0
 10
20555.35480555205
 20
1951.104650724501
 30
0.0
  0
POINT
  5
364
  8
DEFPOINTS
 62
     0
 10
20561.35480555205
 20
1954.604650724501
 30
0.0
  0
POINT
  5
365
  8
DEFPOINTS
 62
     0
 10
20561.35480555205
 20
1776.0
 30
0.0
  0
ENDBLK
  5
80
  8
0
  0
BLOCK
  8
0
  2
*D7
 70
     1
 10
0.0
 20
0.0
 30
0.0
  3
*D7
  1

  0
LINE
  5
101
  8
U14
  6
CONTINUOUS
 62
     0
 10
21625.64629939737
 20
2126.104650724501
 30
0.0
 11
21625.64629939737
 21
1736.0
 31
0.0
  0
LINE
  5
102
  8
U14
  6
CONTINUOUS
 62
     0
 10
20875.64629939736
 20
2126.104650724503
 30
0.0
 11
20875.64629939736
 21
1736.0
 31
0.0
  0
LINE
  5
103
  8
U14
  6
CONTINUOUS
 62
     0
 10
21575.63384822549
 20
1776.0
 30
0.0
 11
20925.65875056924
 21
1776.0
 31
0.0
  0
INSERT
  5
104
  8
U14
 62
     0
  2
VW_EMPTYARROW
 10
21625.64629939737
 20
1776.0
 30
0.0
 41
50.012451171875
 42
50.012451171875
 43
50.012451171875
  0
INSERT
  5
109
  8
U14
 62
     0
  2
VW_EMPTYARROW
 10
20875.64629939736
 20
1776.0
 30
0.0
 41
50.012451171875
 42
50.012451171875
 43
50.012451171875
 50
180.0
  0
TEXT
  5
10E
  8
U14
  6
CONTINUOUS
 62
     0
 10
21186.30790095986
 20
1786.0
 30
0.0
 40
64.98828125000011
  1
750
  7
_______
  0
POINT
  5
10F
  8
DEFPOINTS
 62
     0
 10
21625.64629939737
 20
2166.104650724501
 30
0.0
  0
POINT
  5
110
  8
DEFPOINTS
 62
     0
 10
20875.64629939736
 20
2166.104650724503
 30
0.0
  0
POINT
  5
111
  8
DEFPOINTS
 62
     0
 10
20875.64629939736
 20
1776.0
 30
0.0
  0
ENDBLK
  5
83
  8
0
  0
BLOCK
  8
0
  2
*D8
 70
     1
 10
0.0
 20
0.0
 30
0.0
  3
*D8
  1

  0
LINE
  5
112
  8
U14
  6
CONTINUOUS
 62
     0
 10
19447.35480555209
 20
1881.104650724501
 30
0.0
 11
19447.35480555209
 21
1604.0
 31
0.0
  0
LINE
  5
113
  8
U14
  6
CONTINUOUS
 62
     0
 10
20561.35480555205
 20
1914.604650724501
 30
0.0
 11
20561.35480555205
 21
1604.0
 31
0.0
  0
LINE
  5
114
  8
U14
  6
CONTINUOUS
 62
     0
 10
19497.36725672397
 20
1644.0
 30
0.0
 11
20511.34235438017
 21
1644.0
 31
0.0
  0
INSERT
  5
115
  8
U14
 62
     0
  2
VW_EMPTYARROW
 10
19447.35480555209
 20
1644.0
 30
0.0
 41
50.012451171875
 42
50.012451171875
 43
50.012451171875
 50
180.0
  0
INSERT
  5
11A
  8
U14
 62
     0
  2
VW_EMPTYARROW
 10
20561.35480555205
 20
1644.0
 30
0.0
 41
50.012451171875
 42
50.012451171875
 43
50.012451171875
  0
TEXT
  5
11F
  8
U14
  6
CONTINUOUS
 62
     0
 10
19917.23801453644
 20
1654.0
 30
0.0
 40
64.98828125000011
  1
1114
  7
_______
  0
POINT
  5
120
  8
DEFPOINTS
 62
     0
 10
19447.35480555209
 20
1921.104650724501
 30
0.0
  0
POINT
  5
121
  8
DEFPOINTS
 62
     0
 10
20561.35480555205
 20
1954.604650724501
 30
0.0
  0
POINT
  5
122
  8
DEFPOINTS
 62
     0
 10
20561.35480555205
 20
1644.0
 30
0.0
  0
ENDBLK
  5
86
  8
0
  0
BLOCK
  8
0
  2
*D9
 70
     1
 10
0.0
 20
0.0
 30
0.0
  3
*D9
  1

  0
LINE
  5
123
  8
U14
  6
CONTINUOUS
 62
     0
 10
19497.35480555206
 20
1914.104650724501
 30
0.0
 11
19158.0
 21
1914.104650724502
 31
0.0
  0
LINE
  5
124
  8
U14
  6
CONTINUOUS
 62
     0
 10
19407.35480555209
 20
2411.104650724502
 30
0.0
 11
19158.0
 21
2411.104650724502
 31
0.0
  0
LINE
  5
125
  8
U14
  6
CONTINUOUS
 62
     0
 10
19198.0
 20
1964.117101896377
 30
0.0
 11
19198.0
 21
2361.092199552627
 31
0.0
  0
INSERT
  5
126
  8
U14
 62
     0
  2
VW_EMPTYARROW
 10
19198.0
 20
1914.104650724502
 30
0.0
 41
50.012451171875
 42
50.012451171875
 43
50.012451171875
 50
270.0
  0
INSERT
  5
12B
  8
U14
 62
     0
  2
VW_EMPTYARROW
 10
19198.0
 20
2411.104650724502
 30
0.0
 41
50.012451171875
 42
50.012451171875
 43
50.012451171875
 50
90.0
  0
TEXT
  5
130
  8
U14
  6
CONTINUOUS
 62
     0
 10
19188.0
 20
2100.735806974502
 30
0.0
 40
64.98828125000011
  1
497
 50
90.0
  7
_______
  0
POINT
  5
131
  8
DEFPOINTS
 62
     0
 10
19537.35480555206
 20
1914.104650724501
 30
0.0
  0
POINT
  5
132
  8
DEFPOINTS
 62
     0
 10
19447.35480555209
 20
2411.104650724502
 30
0.0
  0
POINT
  5
133
  8
DEFPOINTS
 62
     0
 10
19198.0
 20
2411.104650724502
 30
0.0
  0
ENDBLK
  5
89
  8
0
  0
BLOCK
  8
0
  2
*D10
 70
     1
 10
0.0
 20
0.0
 30
0.0
  3
*D10
  1

  0
LINE
  5
134
  8
U14
  6
CONTINUOUS
 62
     0
 10
21384.64629939737
 20
2401.104650724502
 30
0.0
 11
21384.64629939737
 21
2693.0
 31
0.0
  0
LINE
  5
135
  8
U14
  6
CONTINUOUS
 62
     0
 10
21186.64629939737
 20
2401.104650724502
 30
0.0
 11
21186.64629939737
 21
2693.0
 31
0.0
  0
LINE
  5
136
  8
U14
  6
CONTINUOUS
 62
     0
 10
21334.63384822549
 20
2653.0
 30
0.0
 11
21236.65875056924
 21
2653.0
 31
0.0
  0
INSERT
  5
137
  8
U14
 62
     0
  2
VW_EMPTYARROW
 10
21384.64629939737
 20
2653.0
 30
0.0
 41
50.012451171875
 42
50.012451171875
 43
50.012451171875
  0
INSERT
  5
13C
  8
U14
 62
     0
  2
VW_EMPTYARROW
 10
21186.64629939737
 20
2653.0
 30
0.0
 41
50.012451171875
 42
50.012451171875
 43
50.012451171875
 50
180.0
  0
TEXT
  5
141
  8
U14
  6
CONTINUOUS
 62
     0
 10
21191.11354866432
 20
2663.0
 30
0.0
 40
64.98828125000011
  1
198
  7
_______
  0
POINT
  5
142
  8
DEFPOINTS
 62
     0
 10
21384.64629939737
 20
2361.104650724502
 30
0.0
  0
POINT
  5
143
  8
DEFPOINTS
 62
     0
 10
21186.64629939737
 20
2361.104650724502
 30
0.0
  0
POINT
  5
144
  8
DEFPOINTS
 62
     0
 10
21186.64629939737
 20
2550.0
 30
0.0
  0
ENDBLK
  5
8C
  8
0
  0
BLOCK
  8
0
  2
*D11
 70
     1
 10
0.0
 20
0.0
 30
0.0
  3
*D11
  1

  0
LINE
  5
145
  8
U14
  6
CONTINUOUS
 62
     0
 10
20505.35480554595
 20
2846.869361293695
 30
0.0
 11
20839.66666666667
 21
2846.869361293695
 31
0.0
  0
LINE
  5
146
  8
U14
  6
CONTINUOUS
 62
     0
 10
20505.35480554595
 20
3016.683572680696
 30
0.0
 11
20839.66666666667
 21
3016.683572680696
 31
0.0
  0
LINE
  5
147
  8
U14
  6
CONTINUOUS
 62
     0
 10
20799.66666666667
 20
2896.88181246557
 30
0.0
 11
20799.66666666667
 21
2966.671121508821
 31
0.0
  0
INSERT
  5
148
  8
U14
 62
     0
  2
VW_EMPTYARROW
 10
20799.66666666667
 20
2846.869361293695
 30
0.0
 41
50.012451171875
 42
50.012451171875
 43
50.012451171875
 50
270.0
  0
INSERT
  5
14D
  8
U14
 62
     0
  2
VW_EMPTYARROW
 10
20799.66666666667
 20
3016.683572680696
 30
0.0
 41
50.012451171875
 42
50.012451171875
 43
50.012451171875
 50
90.0
  0
TEXT
  5
152
  8
U14
  6
CONTINUOUS
 62
     0
 10
20789.66666666667
 20
2699.243291015624
 30
0.0
 40
64.98828125000011
  1
169.8142
 50
90.0
  7
_______
  0
POINT
  5
153
  8
DEFPOINTS
 62
     0
 10
20465.35480554595
 20
2846.869361293695
 30
0.0
  0
POINT
  5
154
  8
DEFPOINTS
 62
     0
 10
20465.35480554595
 20
3016.683572680696
 30
0.0
  0
POINT
  5
155
  8
DEFPOINTS
 62
     0
 10
20710.0
 20
3016.683572680696
 30
0.0
  0
ENDBLK
  5
8F
  8
0
  0
BLOCK
  8
0
  2
VW_EMPTYARROW
 70
     0
 10
0.0
 20
0.0
 30
0.0
  3
VW_EMPTYARROW
  1

  0
LINE
  5
A4
  8
0
  6
BYBLOCK
 62
     0
 10
0.0
 20
0.0
 30
0.0
 11
-1.0
 21
0.0
 31
0.0
  0
POLYLINE
  5
A5
  8
0
  6
CONTINUOUS
 62
     0
 66
     1
 10
0.0
 20
0.0
 30
0.0
 70
   128
  0
VERTEX
  5
A6
  8
0
  6
CONTINUOUS
 62
     0
 10
-1.0
 20
0.2679491924311228
 30
0.0
  0
VERTEX
  5
A7
  8
0
  6
CONTINUOUS
 62
     0
 10
0.0
 20
0.0
 30
0.0
  0
VERTEX
  5
A8
  8
0
  6
CONTINUOUS
 62
     0
 10
-0.9999999999999999
 20
-0.267949192431123
 30
0.0
  0
SEQEND
  5
A9
  8
0
  6
CONTINUOUS
 62
     0
  0
ENDBLK
  5
A3
  8
0
  0
ENDSEC
  0
SECTION
  2
ENTITIES
  0
LINE
  5
156
  8
U14
  6
CONTINUOUS
 62
     7
 10
18192.62228883203
 20
4601.479040510167
 30
0.0
 11
21792.62228883203
 21
4601.479040510167
 31
0.0
  0
LINE
  5
157
  8
U14
  6
CONTINUOUS
 62
     7
 10
21792.62228883203
 20
-598.5209594898329
 30
0.0
 11
18192.62228883203
 21
-598.5209594898329
 31
0.0
  0
LINE
  5
158
  8
U14
  6
CONTINUOUS
 62
     7
 10
18192.62228883203
 20
-598.5209594898329
 30
0.0
 11
18192.62228883203
 21
4601.479040510167
 31
0.0
  0
LINE
  5
159
  8
U14
  6
CONTINUOUS
 62
     7
 10
21792.62228883203
 20
4601.479040510167
 30
0.0
 11
21792.62228883203
 21
-598.5209594898329
 31
0.0
  0
LINE
  5
15A
  8
U14
  6
CONTINUOUS
 62
     7
 10
19992.62228883203
 20
-148.5209594898329
 30
0.0
 11
21792.62228883203
 21
-148.5209594898329
 31
0.0
  0
LINE
  5
15B
  8
U14
  6
CONTINUOUS
 62
     7
 10
19992.62228883203
 20
-598.5209594898329
 30
0.0
 11
19992.62228883203
 21
-148.5209594898329
 31
0.0
  0
TEXT
  5
15C
  8
U14
 62
     7
 10
20010.62228883203
 20
-202.5246699064996
 30
0.0
 40
32.49414062499999
  1
NOTE
  7
_______
 11
20010.62228883203
 21
-170.0305292814996
 31
0.0
 73
     3
  0
LINE
  5
15D
  8
U14
  6
CONTINUOUS
 62
     7
 10
20692.62228883203
 20
-598.5209594898329
 30
0.0
 11
20692.62228883203
 21
-148.5209594898329
 31
0.0
  0
TEXT
  5
15E
  8
U14
 62
     7
 10
20710.62228883203
 20
-202.5246699064996
 30
0.0
 40
32.49414062499999
  1
TITLE
  7
_______
 11
20710.62228883203
 21
-170.0305292814996
 31
0.0
 73
     3
  0
LINE
  5
15F
  8
U14
  6
CONTINUOUS
 62
     7
 10
19992.62228883203
 20
-398.5209594898329
 30
0.0
 11
21792.62228883203
 21
-398.5209594898329
 31
0.0
  0
TEXT
  5
160
  8
U14
 62
     7
 10
20960.62228883203
 20
-451.3982699064986
 30
0.0
 40
32.49414062499999
  1
DRAWN
  7
_______
 11
20960.62228883203
 21
-418.9041292814986
 31
0.0
 73
     3
  0
TEXT
  5
161
  8
U14
 62
     7
 10
20460.62228883203
 20
-451.3982699064986
 30
0.0
 40
32.49414062499999
  1
DATE
  7
_______
 11
20460.62228883203
 21
-418.9041292814986
 31
0.0
 73
     3
  0
TEXT
  5
162
  8
U14
 62
     7
 10
20260.62228883203
 20
-451.3982699064986
 30
0.0
 40
32.49414062499999
  1
SCALE
  7
_______
 11
20260.62228883203
 21
-418.9041292814986
 31
0.0
 73
     3
  0
TEXT
  5
163
  8
U14
 62
     7
 10
20710.62228883203
 20
-451.3982699064986
 30
0.0
 40
32.49414062499999
  1
DESIGN
  7
_______
 11
20710.62228883203
 21
-418.9041292814986
 31
0.0
 73
     3
  0
TEXT
  5
164
  8
U14
 62
     7
 10
21460.62228883203
 20
-451.3982699064986
 30
0.0
 40
32.49414062499999
  1
DRAWING NO.
  7
_______
 11
21460.62228883203
 21
-418.9041292814986
 31
0.0
 73
     3
  0
TEXT
  5
165
  8
U14
 62
     7
 10
21210.62228883203
 20
-451.3982699064986
 30
0.0
 40
32.49414062499999
  1
CHECK
  7
_______
 11
21210.62228883203
 21
-418.9041292814986
 31
0.0
 73
     3
  0
LINE
  5
166
  8
U14
  6
CONTINUOUS
 62
     7
 10
20280.12228883203
 20
-573.5209594898329
 30
0.0
 11
20355.12228883203
 21
-498.5209594898329
 31
0.0
  0
TEXT
  5
167
  8
U14
 62
     7
 10
20287.62228883203
 20
-524.5296699064997
 30
0.0
 40
32.49414062499999
  1
1
  7
_______
 11
20287.62228883203
 21
-492.0355292814997
 31
0.0
 73
     3
  0
LINE
  5
168
  8
U14
  6
CONTINUOUS
 62
     7
 10
20242.62228883203
 20
-598.5209594898329
 30
0.0
 11
20242.62228883203
 21
-398.5209594898329
 31
0.0
  0
LINE
  5
169
  8
U14
  6
CONTINUOUS
 62
     7
 10
20442.62228883203
 20
-598.5209594898329
 30
0.0
 11
20442.62228883203
 21
-398.5209594898329
 31
0.0
  0
LINE
  5
16A
  8
U14
  6
CONTINUOUS
 62
     7
 10
20942.62228883203
 20
-398.5209594898329
 30
0.0
 11
20942.62228883203
 21
-598.5209594898329
 31
0.0
  0
LINE
  5
16B
  8
U14
  6
CONTINUOUS
 62
     7
 10
21442.62228883203
 20
-398.5209594898329
 30
0.0
 11
21442.62228883203
 21
-598.5209594898329
 31
0.0
  0
LINE
  5
16C
  8
U14
  6
CONTINUOUS
 62
     7
 10
21192.62228883203
 20
-598.5209594898329
 30
0.0
 11
21192.62228883203
 21
-398.5209594898329
 31
0.0
  0
TEXT
  5
16D
  8
U14
 62
     7
 10
20499.75308883203
 20
-545.0778699064999
 30
0.0
 40
32.49414062499999
  1
2024.8
  7
_______
 11
20499.75308883203
 21
-512.5837292814999
 31
0.0
 73
     3
  0
TEXT
  5
16E
  8
U14
 62
     7
 10
20342.62228883203
 20
-562.0296699064997
 30
0.0
 40
32.49414062499999
  1
20
  7
_______
 11
20342.62228883203
 21
-529.5355292814997
 31
0.0
 73
     3
  0
TEXT
  5
16F
  8
U14
 62
     7
 10
20070.2889554987
 20
-566.6606469898338
 30
0.0
 40
64.98828124999999
  1
A4
  7
_______
 11
20070.2889554987
 21
-501.6723657398338
 31
0.0
 73
     3
  0
TEXT
  5
170
  8
U14
 62
     7
 10
20011.7889554987
 20
-454.739903239833
 30
0.0
 40
32.49414062499999
  1
PAPER SIZE
  7
_______
 11
20011.7889554987
 21
-422.245762614833
 31
0.0
 73
     3
  0
TEXT
  5
171
  8
U14
 62
     7
 10
18247.81499396984
 20
-735.3237589650249
 30
0.0
 40
70.40397135416666
  1
Hibino-Intersound Corporation
  7
_______
 11
18247.81499396984
 21
-664.9197876108583
 31
0.0
 73
     3
  0
TEXT
  5
172
  8
U14
 62
     7
 10
20396.23448243631
 20
-728.3019938992362
 30
0.0
 40
70.40397135416666
  1
ヒビノインターサウンド株式会社
  7
_______
 11
20396.23448243631
 21
-657.8980225450696
 31
0.0
 73
     3
  0
LINE
  5
173
  8
U14
  6
CONTINUOUS
 62
     7
 10
18342.62228883203
 20
4401.479040510167
 30
0.0
 11
21592.62228883203
 21
4401.479040510167
 31
0.0
  0
LINE
  5
174
  8
U14
  6
CONTINUOUS
 62
     7
 10
18342.62228883203
 20
4326.479040510167
 30
0.0
 11
21592.62228883203
 21
4326.479040510167
 31
0.0
  0
LINE
  5
175
  8
U14
  6
CONTINUOUS
 62
     7
 10
18342.62228883203
 20
4176.479040510167
 30
0.0
 11
21592.62228883203
 21
4176.479040510167
 31
0.0
  0
LINE
  5
176
  8
U14
  6
CONTINUOUS
 62
     7
 10
18342.62228883203
 20
4251.479040510167
 30
0.0
 11
21592.62228883203
 21
4251.479040510167
 31
0.0
  0
LINE
  5
177
  8
U14
  6
CONTINUOUS
 62
     7
 10
18342.62228883203
 20
4401.479040510167
 30
0.0
 11
18342.62228883203
 21
3501.479040510167
 31
0.0
  0
TEXT
  5
178
  8
U14
 62
     7
 10
18367.62228883203
 20
4463.599674885167
 30
0.0
 40
48.7412109375
  1
仕様
  7
_______
 11
18367.62228883203
 21
4512.340885822667
 31
0.0
 73
     3
  0
LINE
  5
179
  8
U14
  6
CONTINUOUS
 62
     7
 10
18992.62228883203
 20
4401.479040510167
 30
0.0
 11
18992.62228883203
 21
3501.479040510167
 31
0.0
  0
LINE
  5
17A
  8
U14
  6
CONTINUOUS
 62
     7
 10
21592.62228883203
 20
4401.479040510167
 30
0.0
 11
21592.62228883203
 21
3501.479040510167
 31
0.0
  0
LINE
  5
17B
  8
U14
  6
CONTINUOUS
 62
     7
 10
18342.62228883203
 20
4101.479040510167
 30
0.0
 11
21592.62228883203
 21
4101.479040510167
 31
0.0
  0
LINE
  5
17C
  8
U14
  6
CONTINUOUS
 62
     7
 10
18342.62228883203
 20
4026.479040510167
 30
0.0
 11
21592.62228883203
 21
4026.479040510167
 31
0.0
  0
LINE
  5
17D
  8
U14
  6
CONTINUOUS
 62
     7
 10
18342.62228883203
 20
3951.479040510167
 30
0.0
 11
21592.62228883203
 21
3951.479040510167
 31
0.0
  0
LINE
  5
17E
  8
U14
  6
CONTINUOUS
 62
     7
 10
18342.62228883203
 20
3876.479040510167
 30
0.0
 11
21592.62228883203
 21
3876.479040510167
 31
0.0
  0
LINE
  5
17F
  8
U14
  6
CONTINUOUS
 62
     7
 10
18342.62228883203
 20
3801.479040510167
 30
0.0
 11
21592.62228883203
 21
3801.479040510167
 31
0.0
  0
LINE
  5
180
  8
U14
  6
CONTINUOUS
 62
     7
 10
18342.62228883203
 20
3726.479040510167
 30
0.0
 11
21592.62228883203
 21
3726.479040510167
 31
0.0
  0
LINE
  5
181
  8
U14
  6
CONTINUOUS
 62
     7
 10
18342.62228883203
 20
3651.479040510167
 30
0.0
 11
21592.62228883203
 21
3651.479040510167
 31
0.0
  0
LINE
  5
182
  8
U14
  6
CONTINUOUS
 62
     7
 10
18342.62228883203
 20
3576.479040510167
 30
0.0
 11
21592.62228883203
 21
3576.479040510167
 31
0.0
  0
TEXT
  5
183
  8
U14
 62
     7
 10
18357.98581995809
 20
3738.463696509806
 30
0.0
 40
37.90983072916668
  1
エンクロージャー
  7
_______
 11
18357.98581995809
 21
3776.373527238972
 31
0.0
 73
     3
  0
TEXT
  5
184
  8
U14
 62
     7
 10
19030.98478089951
 20
3588.824033174066
 30
0.0
 40
37.90983072916668
  1
1114(W)×497(H)×750(D)mm  突起物/Leg（下駄足）部含む。
  7
_______
 11
19030.98478089951
 21
3626.733863903232
 31
0.0
 73
     3
  0
TEXT
  5
185
  8
U14
 62
     7
 10
19031.04098661453
 20
3665.055363368653
 30
0.0
 40
37.90983072916668
  1
ポリウレア樹脂塗装（IP54相当）標準：黒
  7
_______
 11
19031.04098661453
 21
3702.965194097819
 31
0.0
 73
     3
  0
TEXT
  5
186
  8
U14
 62
     7
 10
18360.507393723
 20
3666.01940016153
 30
0.0
 40
37.90983072916668
  1
仕上げ
  7
_______
 11
18360.507393723
 21
3703.929230890697
 31
0.0
 73
     3
  0
TEXT
  5
187
  8
U14
 62
     7
 10
18360.64739031647
 20
3815.771676306824
 30
0.0
 40
37.90983072916668
  1
入力コネクター
  7
_______
 11
18360.64739031647
 21
3853.681507035991
 31
0.0
 73
     3
  0
TEXT
  5
188
  8
U14
 62
     7
 10
18359.241871842
 20
3889.292682459243
 30
0.0
 40
37.90983072916668
  1
公称インピーダンス
  7
_______
 11
18359.241871842
 21
3927.202513188409
 31
0.0
 73
     3
  0
TEXT
  5
189
  8
U14
 62
     7
 10
19030.99657988524
 20
3889.921557423749
 30
0.0
 40
37.90983072916666
  1
4Ω（±1）
  7
_______
 11
19030.99657988524
 21
3927.831388152915
 31
0.0
 73
     3
  0
TEXT
  5
18A
  8
U14
 62
     7
 10
18359.21983197216
 20
4339.162954653259
 30
0.0
 40
37.90983072916668
  1
形式
  7
_______
 11
18359.21983197216
 21
4377.072785382426
 31
0.0
 73
     3
  0
TEXT
  5
18B
  8
U14
 62
     7
 10
18360.35445559352
 20
4265.204796132221
 30
0.0
 40
37.90983072916668
  1
周波数特性
  7
_______
 11
18360.35445559352
 21
4303.114626861387
 31
0.0
 73
     3
  0
TEXT
  5
18C
  8
U14
 62
     7
 10
18359.62663249962
 20
4190.708160494843
 30
0.0
 40
37.90983072916668
  1
許容入力(AES/ピーク）
  7
_______
 11
18359.62663249962
 21
4228.61799122401
 31
0.0
 73
     3
  0
TEXT
  5
18D
  8
U14
 62
     7
 10
18359.91307416396
 20
4115.286315156577
 30
0.0
 40
37.90983072916668
  1
感度(1W/1m)
  7
_______
 11
18359.91307416396
 21
4153.196145885744
 31
0.0
 73
     3
  0
TEXT
  5
18E
  8
U14
 62
     7
 10
18361.1254385557
 20
4039.664054597732
 30
0.0
 40
37.90983072916668
  1
最大音圧レベル
  7
_______
 11
18361.1254385557
 21
4077.573885326899
 31
0.0
 73
     3
  0
TEXT
  5
18F
  8
U14
 62
     7
 10
18345.13599660611
 20
3965.212356449194
 30
0.0
 40
37.90983072916668
  1
ドライバー構成
  7
_______
 11
18345.13599660611
 21
4003.122187178361
 31
0.0
 73
     3
  0
TEXT
  5
190
  8
U14
 62
     7
 10
18359.00387977376
 20
3591.817278284527
 30
0.0
 40
37.90983072916668
  1
寸法
  7
_______
 11
18359.00387977376
 21
3629.727109013694
 31
0.0
 73
     3
  0
TEXT
  5
191
  8
U14
 62
     7
 10
19030.0768991928
 20
3517.241986796434
 30
0.0
 40
37.90983072916668
  1
約77kg
  7
_______
 11
19030.0768991928
 21
3555.1518175256
 31
0.0
 73
     3
  0
TEXT
  5
192
  8
U14
 62
     7
 10
18359.10920758956
 20
3517.094653687464
 30
0.0
 40
37.90983072916668
  1
重量
  7
_______
 11
18359.10920758956
 21
3555.00448441663
 31
0.0
 73
     3
  0
TEXT
  5
193
  8
U14
 62
     7
 10
19033.01890026186
 20
4263.188889354539
 30
0.0
 40
37.90983072916668
  1
30Hz～150KHz(-6dB)
  7
_______
 11
19033.01890026186
 21
4301.098720083706
 31
0.0
 73
     3
  0
TEXT
  5
194
  8
U14
 62
     7
 10
19027.95973967247
 20
4189.599275122498
 30
0.0
 40
37.90983072916666
  1
2500W/10000W
  7
_______
 11
19027.95973967247
 21
4227.509105851665
 31
0.0
 73
     3
  0
TEXT
  5
195
  8
U14
 62
     7
 10
19030.60599388419
 20
4113.991527096528
 30
0.0
 40
37.90983072916666
  1
104dB (ハーフスペース）
  7
_______
 11
19030.60599388419
 21
4151.901357825695
 31
0.0
 73
     3
  0
TEXT
  5
196
  8
U14
 62
     7
 10
19030.99657988524
 20
3966.308426320679
 30
0.0
 40
37.90983072916666
  1
2×18インチネオジウム低歪率ウーファーユニット、4インチ（101.6mm）ボイスコイル、2×1250W（AES）
  7
_______
 11
19030.99657988524
 21
4004.218257049845
 31
0.0
 73
     3
  0
TEXT
  5
197
  8
U14
 62
     7
 10
19029.74203979263
 20
3742.333759540672
 30
0.0
 40
37.90983072916668
  1
合板
  7
_______
 11
19029.74203979263
 21
3780.243590269839
 31
0.0
 73
     3
  0
TEXT
  5
198
  8
U14
 62
     7
 10
19036.36722303433
 20
4339.387072674233
 30
0.0
 40
37.90983072916666
  1
18インチサブウーファー　スピーカー
  7
_______
 11
19036.36722303433
 21
4377.2969034034
 31
0.0
 73
     3
  0
LINE
  5
199
  8
U14
  6
CONTINUOUS
 62
     7
 10
18342.62228883203
 20
3501.479040510167
 30
0.0
 11
21592.62228883203
 21
3501.479040510167
 31
0.0
  0
TEXT
  5
19A
  8
U14
 62
     7
 10
18322.5
 20
147.1399999999999
 30
0.0
 40
48.7412109375
  1
(単位：mm)
  7
_______
 11
18322.5
 21
195.8812109374999
 31
0.0
 73
     3
  0
TEXT
  5
19B
  8
U14
 62
     7
 10
18392.62228883203
 20
-517.5908032398324
 30
0.0
 40
32.49414062499999
  1
仕様および外観は予告なく変更されることがありますので、ご了承ください。
  7
_______
 11
18392.62228883203
 21
-485.0966626148324
 31
0.0
 73
     3
  0
TEXT
  5
19C
  8
U14
 62
     7
 10
21139.3968882563
 20
-365.6096394935785
 30
0.0
 40
48.7412109375
  1
U4
  7
_______
 11
21139.3968882563
 21
-316.8684285560785
 31
0.0
 73
     3
  0
TEXT
  5
19D
  8
U14
 62
     7
 10
21021.36743381892
 20
-227.2966180797685
 30
0.0
 40
48.7412109375
  1
CODA AUDIO
  7
_______
 11
21021.36743381892
 21
-178.5554071422685
 31
0.0
 73
     3
  0
TEXT
  5
19E
  8
U14
 62
     7
 10
20987.62228883203
 20
-517.0669361589521
 30
0.0
 40
32.49414062499999
  1
Kojima 
  7
_______
 11
20987.62228883203
 21
-484.5727955339521
 31
0.0
 73
     3
  0
TEXT
  5
19F
  8
U14
 62
     7
 10
20987.62228883203
 20
-559.4002694922851
 30
0.0
 40
32.49414062499999
  1
  Shohei
  7
_______
 11
20987.62228883203
 21
-526.9061288672851
 31
0.0
 73
     3
  0
TEXT
  5
1A0
  8
U14
 62
     7
 10
19029.46299247981
 20
4043.313642275732
 30
0.0
 40
37.90983072916666
  1
144dB(ピンクノイズ、クレストファクター 6dB）
  7
_______
 11
19029.46299247981
 21
4081.223473004899
 31
0.0
 73
     3
  0
TEXT
  5
1A1
  8
U14
 62
     7
 10
19037.73251791845
 20
3813.233799596852
 30
0.0
 40
37.90983072916666
  1
2×Neutrik NL4MP
  7
_______
 11
19037.73251791845
 21
3851.143630326018
 31
0.0
 73
     3
  0
LINE
  5
1A2
  8
U14
  6
CONTINUOUS
 62
     7
 10
20306.82867182668
 20
-217.7242677949384
 30
0.0
 11
20306.82867182668
 21
-257.7242677949384
 31
0.0
  0
LINE
  5
1A3
  8
U14
  6
CONTINUOUS
 62
     7
 10
20247.45367182668
 20
-227.7242677949384
 30
0.0
 11
20247.45367182668
 21
-247.7242677949384
 31
0.0
  0
LINE
  5
1A4
  8
U14
  6
CONTINUOUS
 62
     7
 10
20247.45367182668
 20
-227.7242677949384
 30
0.0
 11
20306.82867182668
 21
-217.7242677949384
 31
0.0
  0
LINE
  5
1A5
  8
U14
  6
CONTINUOUS
 62
     7
 10
20247.45367182668
 20
-247.7242677949384
 30
0.0
 11
20306.82867182668
 21
-257.7242677949384
 31
0.0
  0
CIRCLE
  5
1A6
  8
U14
  6
CONTINUOUS
 62
     7
 10
20213.07867182668
 20
-237.7242677949384
 30
0.0
 40
19.99999999999962
  0
CIRCLE
  5
1A7
  8
U14
  6
CONTINUOUS
 62
     7
 10
20213.07867182668
 20
-237.7242677949384
 30
0.0
 40
9.999999999999437
  0
INSERT
  5
1A8
  8
U14
 62
     7
  2
____-1
 10
19992.62228883203
 20
1926.657085217015
 30
0.0
  0
LINE
  5
1A9
  8
U14
  6
______-6
 62
     7
 10
20213.07867182668
 20
-237.7242677949384
 30
0.0
 11
20319.32867182668
 21
-237.7242677949384
 31
0.0
  0
LINE
  5
1AA
  8
U14
  6
CONTINUOUS
 62
     7
 10
20213.07867182668
 20
-257.7242677949384
 30
0.0
 11
20213.07867182668
 21
-227.7242677949384
 31
0.0
  0
TEXT
  5
1AB
  8
U14
 62
     7
 10
20843.70367182668
 20
-284.1309344616052
 30
0.0
 40
32.49414062499999
  1
18インチサブウーファースピーカー
  7
_______
 11
20843.70367182668
 21
-251.6367938366052
 31
0.0
 73
     3
  0
INSERT
  5
1AC
  8
U14
 62
     7
  2
CALLOUT
 10
19035.0
 20
1285.0
 30
0.0
  0
CIRCLE
  5
1AD
  8
U14
  6
CONTINUOUS
 62
     7
 10
19492.35480554618
 20
421.4057353998155
 30
0.0
 40
4.0
  0
CIRCLE
  5
1AE
  8
U14
  6
CONTINUOUS
 62
     7
 10
19492.35480554618
 20
421.4057353998155
 30
0.0
 40
7.5
  0
CIRCLE
  5
1AF
  8
U14
  6
CONTINUOUS
 62
     7
 10
19552.35480554618
 20
501.4057353998155
 30
0.0
 40
4.0
  0
CIRCLE
  5
1B0
  8
U14
  6
CONTINUOUS
 62
     7
 10
19552.35480554618
 20
501.4057353998155
 30
0.0
 40
7.5
  0
CIRCLE
  5
1B1
  8
U14
  6
CONTINUOUS
 62
     7
 10
19492.35480554618
 20
161.4057353998153
 30
0.0
 40
4.0
  0
CIRCLE
  5
1B2
  8
U14
  6
CONTINUOUS
 62
     7
 10
19492.35480554618
 20
161.4057353998153
 30
0.0
 40
7.5
  0
CIRCLE
  5
1B3
  8
U14
  6
CONTINUOUS
 62
     7
 10
19552.35480554618
 20
81.40573539981506
 30
0.0
 40
4.0
  0
CIRCLE
  5
1B4
  8
U14
  6
CONTINUOUS
 62
     7
 10
19552.35480554618
 20
81.40573539981506
 30
0.0
 40
7.5
  0
CIRCLE
  5
1B5
  8
U14
  6
CONTINUOUS
 62
     7
 10
19492.35480554618
 20
81.40573539981506
 30
0.0
 40
4.0
  0
CIRCLE
  5
1B6
  8
U14
  6
CONTINUOUS
 62
     7
 10
19492.35480554618
 20
81.40573539981506
 30
0.0
 40
7.5
  0
CIRCLE
  5
1B7
  8
U14
  6
CONTINUOUS
 62
     7
 10
19552.35480554618
 20
161.4057353998153
 30
0.0
 40
4.0
  0
CIRCLE
  5
1B8
  8
U14
  6
CONTINUOUS
 62
     7
 10
19552.35480554618
 20
161.4057353998153
 30
0.0
 40
7.5
  0
CIRCLE
  5
1B9
  8
U14
  6
CONTINUOUS
 62
     7
 10
19492.35480554618
 20
501.4057353998155
 30
0.0
 40
4.0
  0
CIRCLE
  5
1BA
  8
U14
  6
CONTINUOUS
 62
     7
 10
19492.35480554618
 20
501.4057353998155
 30
0.0
 40
7.5
  0
CIRCLE
  5
1BB
  8
U14
  6
CONTINUOUS
 62
     7
 10
19552.35480554618
 20
421.4057353998155
 30
0.0
 40
4.0
  0
CIRCLE
  5
1BC
  8
U14
  6
CONTINUOUS
 62
     7
 10
19552.35480554618
 20
421.4057353998155
 30
0.0
 40
7.5
  0
CIRCLE
  5
1BD
  8
U14
  6
CONTINUOUS
 62
     7
 10
20510.35480554618
 20
421.4057353998155
 30
0.0
 40
4.0
  0
CIRCLE
  5
1BE
  8
U14
  6
CONTINUOUS
 62
     7
 10
20510.35480554618
 20
421.4057353998155
 30
0.0
 40
7.5
  0
CIRCLE
  5
1BF
  8
U14
  6
CONTINUOUS
 62
     7
 10
20450.35480554618
 20
501.4057353998155
 30
0.0
 40
4.0
  0
CIRCLE
  5
1C0
  8
U14
  6
CONTINUOUS
 62
     7
 10
20450.35480554618
 20
501.4057353998155
 30
0.0
 40
7.5
  0
CIRCLE
  5
1C1
  8
U14
  6
CONTINUOUS
 62
     7
 10
20510.35480554618
 20
161.4057353998153
 30
0.0
 40
4.0
  0
CIRCLE
  5
1C2
  8
U14
  6
CONTINUOUS
 62
     7
 10
20510.35480554618
 20
161.4057353998153
 30
0.0
 40
7.5
  0
CIRCLE
  5
1C3
  8
U14
  6
CONTINUOUS
 62
     7
 10
20450.35480554618
 20
81.40573539981506
 30
0.0
 40
4.0
  0
CIRCLE
  5
1C4
  8
U14
  6
CONTINUOUS
 62
     7
 10
20450.35480554618
 20
81.40573539981506
 30
0.0
 40
7.5
  0
CIRCLE
  5
1C5
  8
U14
  6
CONTINUOUS
 62
     7
 10
20510.35480554618
 20
81.40573539981506
 30
0.0
 40
4.0
  0
CIRCLE
  5
1C6
  8
U14
  6
CONTINUOUS
 62
     7
 10
20510.35480554618
 20
81.40573539981506
 30
0.0
 40
7.5
  0
CIRCLE
  5
1C7
  8
U14
  6
CONTINUOUS
 62
     7
 10
20450.35480554618
 20
161.4057353998153
 30
0.0
 40
4.0
  0
CIRCLE
  5
1C8
  8
U14
  6
CONTINUOUS
 62
     7
 10
20450.35480554618
 20
161.4057353998153
 30
0.0
 40
7.5
  0
CIRCLE
  5
1C9
  8
U14
  6
CONTINUOUS
 62
     7
 10
20510.35480554618
 20
501.4057353998155
 30
0.0
 40
4.0
  0
CIRCLE
  5
1CA
  8
U14
  6
CONTINUOUS
 62
     7
 10
20510.35480554618
 20
501.4057353998155
 30
0.0
 40
7.5
  0
CIRCLE
  5
1CB
  8
U14
  6
CONTINUOUS
 62
     7
 10
20450.35480554618
 20
421.4057353998155
 30
0.0
 40
4.0
  0
CIRCLE
  5
1CC
  8
U14
  6
CONTINUOUS
 62
     7
 10
20450.35480554618
 20
421.4057353998155
 30
0.0
 40
7.5
  0
ARC
  5
1CD
  8
U14
  6
CONTINUOUS
 62
     7
 10
19444.85480554618
 20
469.9057353998157
 30
0.0
 40
3.5
 50
180.0
 51
270.0
  0
ARC
  5
1CE
  8
U14
  6
CONTINUOUS
 62
     7
 10
19444.85480554618
 20
502.905735399816
 30
0.0
 40
3.5
 50
90.0
 51
180.0
  0
ARC
  5
1CF
  8
U14
  6
CONTINUOUS
 62
     7
 10
19444.85480554618
 20
112.9057353998153
 30
0.0
 40
3.5
 50
90.0
 51
180.0
  0
LINE
  5
1D0
  8
U14
  6
CONTINUOUS
 62
     7
 10
19444.85480554618
 20
466.4057353998157
 30
0.0
 11
19447.35480554618
 21
466.4057353998157
 31
0.0
  0
LINE
  5
1D1
  8
U14
  6
CONTINUOUS
 62
     7
 10
19444.85480554618
 20
506.4057353998157
 30
0.0
 11
19447.35480554618
 21
506.4057353998157
 31
0.0
  0
LINE
  5
1D2
  8
U14
  6
CONTINUOUS
 62
     7
 10
19444.85480554618
 20
116.4057353998153
 30
0.0
 11
19447.35480554618
 21
116.4057353998153
 31
0.0
  0
LINE
  5
1D3
  8
U14
  6
CONTINUOUS
 62
     7
 10
19444.85480554618
 20
76.40573539981528
 30
0.0
 11
19447.35480554618
 21
76.40573539981528
 31
0.0
  0
LINE
  5
1D4
  8
U14
  6
CONTINUOUS
 62
     7
 10
19447.35480554618
 20
46.40573539981551
 30
0.0
 11
19462.35480554618
 21
46.40573539981551
 31
0.0
  0
LINE
  5
1D5
  8
U14
  6
CONTINUOUS
 62
     7
 10
19447.35480554618
 20
46.40573539981551
 30
0.0
 11
19447.35480554618
 21
536.4057353998155
 31
0.0
  0
LINE
  5
1D6
  8
U14
  6
CONTINUOUS
 62
     7
 10
19447.35480554618
 20
536.4057353998155
 30
0.0
 11
19462.35480554618
 21
536.4057353998155
 31
0.0
  0
ARC
  5
1D7
  8
U14
  6
CONTINUOUS
 62
     7
 10
19444.85480554618
 20
79.90573539981506
 30
0.0
 40
3.5
 50
180.0
 51
270.0
  0
ARC
  5
1D8
  8
U14
  6
CONTINUOUS
 62
     7
 10
20421.35480554618
 20
251.905762510552
 30
0.0
 40
36.0
 50
180.0
 51
0.0
  0
ARC
  5
1D9
  8
U14
  6
CONTINUOUS
 62
     7
 10
20421.35480554618
 20
330.905762510552
 30
0.0
 40
36.0
 50
0.0
 51
180.0
  0
LINE
  5
1DA
  8
U14
  6
CONTINUOUS
 62
     7
 10
19462.35480554618
 20
536.4057353998155
 30
0.0
 11
19462.35480554618
 21
46.40573539981551
 31
0.0
  0
LINE
  5
1DB
  8
U14
  6
CONTINUOUS
 62
     7
 10
20555.35480554618
 20
46.40573539981551
 30
0.0
 11
20555.35480554618
 21
536.4057353998155
 31
0.0
  0
LINE
  5
1DC
  8
U14
  6
CONTINUOUS
 62
     7
 10
20555.35480554618
 20
46.40573539981551
 30
0.0
 11
20540.35480554618
 21
46.40573539981551
 31
0.0
  0
LINE
  5
1DD
  8
U14
  6
CONTINUOUS
 62
     7
 10
20555.35480554618
 20
536.4057353998155
 30
0.0
 11
20540.35480554618
 21
536.4057353998155
 31
0.0
  0
ARC
  5
1DE
  8
U14
  6
CONTINUOUS
 62
     7
 10
19553.85480554618
 20
42.90573539981506
 30
0.0
 40
3.499999999999545
 50
270.0
 51
0.0
  0
LINE
  5
1DF
  8
U14
  6
CONTINUOUS
 62
     7
 10
20540.35480554618
 20
536.4057353998155
 30
0.0
 11
20540.35480554618
 21
46.40573539981551
 31
0.0
  0
LINE
  5
1E0
  8
U14
  6
CONTINUOUS
 62
     7
 10
20540.35480554618
 20
521.4057353998155
 30
0.0
 11
19462.35480554618
 21
521.4057353998155
 31
0.0
  0
LINE
  5
1E1
  8
U14
  6
CONTINUOUS
 62
     7
 10
20540.35480554618
 20
536.4057353998155
 30
0.0
 11
19462.35480554618
 21
536.4057353998155
 31
0.0
  0
LINE
  5
1E2
  8
U14
  6
CONTINUOUS
 62
     7
 10
19462.35480554618
 20
521.4057353998155
 30
0.0
 11
19462.35480554618
 21
536.4057353998155
 31
0.0
  0
ARC
  5
1E3
  8
U14
  6
CONTINUOUS
 62
     7
 10
19520.85480554618
 20
42.90573539981506
 30
0.0
 40
3.5
 50
180.0
 51
270.0
  0
ARC
  5
1E4
  8
U14
  6
CONTINUOUS
 62
     7
 10
20448.85480554618
 20
42.90573539981506
 30
0.0
 40
3.5
 50
180.0
 51
270.0
  0
LINE
  5
1E5
  8
U14
  6
CONTINUOUS
 62
     7
 10
20540.35480554618
 20
521.4057353998155
 30
0.0
 11
20540.35480554618
 21
536.4057353998155
 31
0.0
  0
LINE
  5
1E6
  8
U14
  6
CONTINUOUS
 62
     7
 10
20540.35480554618
 20
61.40573539981551
 30
0.0
 11
19462.35480554618
 21
61.40573539981551
 31
0.0
  0
LINE
  5
1E7
  8
U14
  6
CONTINUOUS
 62
     7
 10
20540.35480554618
 20
521.4057353998155
 30
0.0
 11
19462.35480554618
 21
521.4057353998155
 31
0.0
  0
LINE
  5
1E8
  8
U14
  6
CONTINUOUS
 62
     7
 10
19462.35480554618
 20
61.40573539981551
 30
0.0
 11
19462.35480554618
 21
521.4057353998155
 31
0.0
  0
ARC
  5
1E9
  8
U14
  6
CONTINUOUS
 62
     7
 10
20481.85480554618
 20
42.90573539981506
 30
0.0
 40
3.499999999999545
 50
270.0
 51
0.0000000000074465
  0
LINE
  5
1EA
  8
U14
  6
CONTINUOUS
 62
     7
 10
20385.35480554618
 20
251.9057625105518
 30
0.0
 11
20385.35480554618
 21
330.9057625105518
 31
0.0
  0
LINE
  5
1EB
  8
U14
  6
CONTINUOUS
 62
     7
 10
20457.35480554618
 20
330.905762510552
 30
0.0
 11
20457.35480554618
 21
251.905762510552
 31
0.0
  0
LINE
  5
1EC
  8
U14
  6
CONTINUOUS
 62
     7
 10
20540.35480554618
 20
61.40573539981551
 30
0.0
 11
20540.35480554618
 21
521.4057353998155
 31
0.0
  0
LINE
  5
1ED
  8
U14
  6
CONTINUOUS
 62
     7
 10
20540.35480554618
 20
46.40573539981551
 30
0.0
 11
19462.35480554618
 21
46.40573539981551
 31
0.0
  0
LINE
  5
1EE
  8
U14
  6
CONTINUOUS
 62
     7
 10
20540.35480554618
 20
61.40573539981551
 30
0.0
 11
19462.35480554618
 21
61.40573539981551
 31
0.0
  0
LINE
  5
1EF
  8
U14
  6
CONTINUOUS
 62
     7
 10
20540.35480554618
 20
61.40573539981551
 30
0.0
 11
20540.35480554618
 21
46.40573539981551
 31
0.0
  0
LINE
  5
1F0
  8
U14
  6
CONTINUOUS
 62
     7
 10
19462.35480554618
 20
61.40573539981551
 30
0.0
 11
19462.35480554618
 21
46.40573539981551
 31
0.0
  0
LINE
  5
1F1
  8
U14
  6
CONTINUOUS
 62
     7
 10
19557.35480554618
 20
42.90573539981551
 30
0.0
 11
19557.35480554618
 21
46.40573539981551
 31
0.0
  0
LINE
  5
1F2
  8
U14
  6
CONTINUOUS
 62
     7
 10
19517.35480554618
 20
42.90573539981551
 30
0.0
 11
19517.35480554618
 21
46.40573539981551
 31
0.0
  0
LINE
  5
1F3
  8
U14
  6
CONTINUOUS
 62
     7
 10
20445.35480554618
 20
42.90573539981551
 30
0.0
 11
20445.35480554618
 21
46.40573539981551
 31
0.0
  0
LINE
  5
1F4
  8
U14
  6
CONTINUOUS
 62
     7
 10
20485.35480554618
 20
42.90573539981551
 30
0.0
 11
20485.35480554618
 21
46.40573539981551
 31
0.0
  0
LINE
  5
1F5
  8
U14
  6
CONTINUOUS
 62
     7
 10
19441.35480554618
 20
469.9057353998157
 30
0.0
 11
19441.35480554618
 21
486.4057353998157
 31
0.0
  0
LINE
  5
1F6
  8
U14
  6
CONTINUOUS
 62
     7
 10
19441.35480554618
 20
486.405735399816
 30
0.0
 11
19441.35480554618
 21
502.905735399816
 31
0.0
  0
LINE
  5
1F7
  8
U14
  6
CONTINUOUS
 62
     7
 10
19441.35480554618
 20
112.9057353998153
 30
0.0
 11
19441.35480554618
 21
96.40573539981528
 31
0.0
  0
LINE
  5
1F8
  8
U14
  6
CONTINUOUS
 62
     7
 10
19441.35480554618
 20
96.40573539981506
 30
0.0
 11
19441.35480554618
 21
79.90573539981506
 31
0.0
  0
LINE
  5
1F9
  8
U14
  6
CONTINUOUS
 62
     7
 10
19553.85480554618
 20
39.40573539981551
 30
0.0
 11
19537.35480554618
 21
39.40573539981551
 31
0.0
  0
LINE
  5
1FA
  8
U14
  6
CONTINUOUS
 62
     7
 10
19537.35480554618
 20
39.40573539981551
 30
0.0
 11
19520.85480554618
 21
39.40573539981551
 31
0.0
  0
LINE
  5
1FB
  8
U14
  6
CONTINUOUS
 62
     7
 10
20448.85480554618
 20
39.40573539981551
 30
0.0
 11
20465.35480554618
 21
39.40573539981551
 31
0.0
  0
LINE
  5
1FC
  8
U14
  6
CONTINUOUS
 62
     7
 10
20465.35480554618
 20
39.40573539981551
 30
0.0
 11
20481.85480554618
 21
39.40573539981551
 31
0.0
  0
CIRCLE
  5
1FD
  8
U14
  6
CONTINUOUS
 62
     7
 10
20430.86211714164
 20
249.1933949004651
 30
0.0
 40
1.700503411440877
  0
CIRCLE
  5
1FE
  8
U14
  6
CONTINUOUS
 62
     7
 10
20421.35480554618
 20
330.195762510552
 30
0.0
 40
12.0
  0
CIRCLE
  5
1FF
  8
U14
  6
CONTINUOUS
 62
     7
 10
20411.85596550476
 20
342.2007105095206
 30
0.0
 40
1.700378106128483
  0
CIRCLE
  5
200
  8
U14
  6
CONTINUOUS
 62
     7
 10
20430.85645344144
 20
318.2006748370268
 30
0.0
 40
1.700360393133451
  0
CIRCLE
  5
201
  8
U14
  6
CONTINUOUS
 62
     7
 10
20411.86195060497
 20
273.1934332450724
 30
0.0
 40
1.700126878495212
  0
CIRCLE
  5
202
  8
U14
  6
CONTINUOUS
 62
     7
 10
20421.36140641614
 20
261.1949955117336
 30
0.0
 40
12.0
  0
CIRCLE
  5
203
  8
U14
  6
CONTINUOUS
 62
     7
 10
20421.35596550476
 20
330.2007105095206
 30
0.0
 40
11.75
  0
LINE
  5
204
  8
U14
  6
CONTINUOUS
 62
     7
 10
20418.85597630708
 20
338.8465099374444
 30
0.0
 11
20418.85597630708
 21
340.2007274667412
 31
0.0
  0
ARC
  5
205
  8
U14
  6
CONTINUOUS
 62
     7
 10
20421.35596550476
 20
330.2007105095206
 30
0.0
 40
9.0
 50
106.1276202131367
 51
260.4059317731861
  0
LINE
  5
206
  8
U14
  6
CONTINUOUS
 62
     7
 10
20419.85596343248
 20
320.2007465402276
 30
0.0
 11
20419.85596343248
 21
321.3265590707451
 31
0.0
  0
LINE
  5
207
  8
U14
  6
CONTINUOUS
 62
     7
 10
20419.85596343248
 20
320.2007465402276
 30
0.0
 11
20422.85598441332
 21
320.2007465402276
 31
0.0
  0
LINE
  5
208
  8
U14
  6
CONTINUOUS
 62
     7
 10
20422.85598441332
 20
321.3265590707451
 30
0.0
 11
20422.85598441332
 21
320.2007465402276
 31
0.0
  0
ARC
  5
209
  8
U14
  6
CONTINUOUS
 62
     7
 10
20421.35596550476
 20
330.2007105095206
 30
0.0
 40
8.999999999999625
 50
279.5940682268139
 51
73.87237978686336
  0
LINE
  5
20A
  8
U14
  6
CONTINUOUS
 62
     7
 10
20423.85597153871
 20
340.2007274667412
 30
0.0
 11
20423.85597153871
 21
338.8465099374444
 31
0.0
  0
LINE
  5
20B
  8
U14
  6
CONTINUOUS
 62
     7
 10
20423.85597153871
 20
340.2007274667412
 30
0.0
 11
20418.85597630708
 21
340.2007274667412
 31
0.0
  0
CIRCLE
  5
20C
  8
U14
  6
CONTINUOUS
 62
     7
 10
20421.35596550476
 20
330.2007105095206
 30
0.0
 40
2.75
  0
CIRCLE
  5
20D
  8
U14
  6
CONTINUOUS
 62
     7
 10
20421.35596550476
 20
330.2007105095206
 30
0.0
 40
6.0
  0
CIRCLE
  5
20E
  8
U14
  6
CONTINUOUS
 62
     7
 10
20411.85596550476
 20
342.2007105095206
 30
0.0
 40
1.5
  0
CIRCLE
  5
20F
  8
U14
  6
CONTINUOUS
 62
     7
 10
20430.85596550476
 20
318.2007105095208
 30
0.0
 40
1.5
  0
CIRCLE
  5
210
  8
U14
  6
CONTINUOUS
 62
     7
 10
20421.36195060497
 20
261.1934332450728
 30
0.0
 40
11.75
  0
LINE
  5
211
  8
U14
  6
CONTINUOUS
 62
     7
 10
20418.86193677156
 20
269.8392324487359
 30
0.0
 11
20418.86193677156
 21
271.1934499780327
 31
0.0
  0
ARC
  5
212
  8
U14
  6
CONTINUOUS
 62
     7
 10
20421.36195060497
 20
261.1934332450728
 30
0.0
 40
9.0
 50
106.1276202131367
 51
260.4059317731861
  0
LINE
  5
213
  8
U14
  6
CONTINUOUS
 62
     7
 10
20419.86192389696
 20
251.1934690515191
 30
0.0
 11
20419.86192389696
 21
252.3192815820366
 31
0.0
  0
LINE
  5
214
  8
U14
  6
CONTINUOUS
 62
     7
 10
20419.86192389696
 20
251.1934690515191
 30
0.0
 11
20422.86194487779
 21
251.1934690515191
 31
0.0
  0
LINE
  5
215
  8
U14
  6
CONTINUOUS
 62
     7
 10
20422.86194487779
 20
252.3192815820366
 30
0.0
 11
20422.86194487779
 21
251.1934690515191
 31
0.0
  0
ARC
  5
216
  8
U14
  6
CONTINUOUS
 62
     7
 10
20421.36195060497
 20
261.1934332450728
 30
0.0
 40
9.000000000000231
 50
279.5940682268367
 51
73.87237978686336
  0
LINE
  5
217
  8
U14
  6
CONTINUOUS
 62
     7
 10
20423.86193200319
 20
271.1934499780327
 30
0.0
 11
20423.86193200319
 21
269.8392324487359
 31
0.0
  0
LINE
  5
218
  8
U14
  6
CONTINUOUS
 62
     7
 10
20423.86193200319
 20
271.1934499780327
 30
0.0
 11
20418.86193677156
 21
271.1934499780327
 31
0.0
  0
CIRCLE
  5
219
  8
U14
  6
CONTINUOUS
 62
     7
 10
20421.36195060497
 20
261.1934332450728
 30
0.0
 40
2.75
  0
CIRCLE
  5
21A
  8
U14
  6
CONTINUOUS
 62
     7
 10
20421.36195060497
 20
261.1934332450728
 30
0.0
 40
6.0
  0
CIRCLE
  5
21B
  8
U14
  6
CONTINUOUS
 62
     7
 10
20430.86195060497
 20
249.1934332450728
 30
0.0
 40
1.5
  0
CIRCLE
  5
21C
  8
U14
  6
CONTINUOUS
 62
     7
 10
20411.86195060497
 20
273.1934332450724
 30
0.0
 40
1.5
  0
ARC
  5
21D
  8
U14
  6
CONTINUOUS
 62
     7
 10
19520.85480555205
 20
1917.604650724501
 30
0.0
 40
3.5
 50
179.9999999999926
 51
270.0
  0
LINE
  5
21E
  8
U14
  6
CONTINUOUS
 62
     7
 10
19517.35480555205
 20
1917.604650724501
 30
0.0
 11
19517.35480555205
 21
1921.104650724501
 31
0.0
  0
LINE
  5
21F
  8
U14
  6
CONTINUOUS
 62
     7
 10
19557.35480555205
 20
1917.604650724501
 30
0.0
 11
19557.35480555205
 21
1921.104650724501
 31
0.0
  0
ARC
  5
220
  8
U14
  6
CONTINUOUS
 62
     7
 10
19553.85480555205
 20
1917.604650724501
 30
0.0
 40
3.5
 50
270.0
 51
0.0
  0
ARC
  5
221
  8
U14
  6
CONTINUOUS
 62
     7
 10
20481.85480555205
 20
1917.604650724501
 30
0.0
 40
3.5
 50
270.0
 51
0.0
  0
LINE
  5
222
  8
U14
  6
CONTINUOUS
 62
     7
 10
20485.35480555205
 20
1917.604650724501
 30
0.0
 11
20485.35480555205
 21
1921.104650724501
 31
0.0
  0
LINE
  5
223
  8
U14
  6
CONTINUOUS
 62
     7
 10
20445.35480555205
 20
1917.604650724501
 30
0.0
 11
20445.35480555205
 21
1921.104650724501
 31
0.0
  0
ARC
  5
224
  8
U14
  6
CONTINUOUS
 62
     7
 10
20448.85480555205
 20
1917.604650724501
 30
0.0
 40
3.5
 50
180.0
 51
270.0
  0
LINE
  5
225
  8
U14
  6
CONTINUOUS
 62
     7
 10
20540.35480555208
 20
1922.604650724501
 30
0.0
 11
20540.35480555208
 21
1921.104650724501
 31
0.0
  0
LINE
  5
226
  8
U14
  6
CONTINUOUS
 62
     7
 10
19462.35480555208
 20
1921.104650724501
 30
0.0
 11
19462.35480555208
 21
1922.604650724501
 31
0.0
  0
LINE
  5
227
  8
U14
  6
CONTINUOUS
 62
     7
 10
20540.35480555208
 20
1921.104650724501
 30
0.0
 11
19462.35480555208
 21
1921.104650724501
 31
0.0
  0
LINE
  5
228
  8
U14
  6
CONTINUOUS
 62
     7
 10
20476.35480555211
 20
2146.084615663144
 30
0.0
 11
20516.35480555211
 21
2146.084615663144
 31
0.0
  0
LINE
  5
229
  8
U14
  6
CONTINUOUS
 62
     7
 10
20516.35480555211
 20
2186.124685785859
 30
0.0
 11
20476.35480555211
 21
2186.124685785859
 31
0.0
  0
LINE
  5
22A
  8
U14
  6
CONTINUOUS
 62
     7
 10
20476.35480555211
 20
2146.104650724501
 30
0.0
 11
20516.35480555211
 21
2146.104650724501
 31
0.0
  0
LINE
  5
22B
  8
U14
  6
CONTINUOUS
 62
     7
 10
20516.35480555211
 20
2186.104650724501
 30
0.0
 11
20476.35480555211
 21
2186.104650724501
 31
0.0
  0
LINE
  5
22C
  8
U14
  6
CONTINUOUS
 62
     7
 10
19459.35480555209
 20
1922.604650724501
 30
0.0
 11
20543.35480555209
 21
1922.604650724501
 31
0.0
  0
LINE
  5
22D
  8
U14
  6
CONTINUOUS
 62
     7
 10
19459.35480555209
 20
2409.604650724502
 30
0.0
 11
20543.35480555209
 21
2409.604650724502
 31
0.0
  0
LINE
  5
22E
  8
U14
  6
CONTINUOUS
 62
     7
 10
19462.35480555208
 20
2409.604650724502
 30
0.0
 11
19462.35480555208
 21
2411.104650724502
 31
0.0
  0
LINE
  5
22F
  8
U14
  6
CONTINUOUS
 62
     7
 10
20540.35480555208
 20
2411.104650724502
 30
0.0
 11
20540.35480555208
 21
2409.604650724502
 31
0.0
  0
LINE
  5
230
  8
U14
  6
CONTINUOUS
 62
     7
 10
19462.35480555208
 20
2411.104650724502
 30
0.0
 11
20540.35480555208
 21
2411.104650724502
 31
0.0
  0
LINE
  5
231
  8
U14
  6
CONTINUOUS
 62
     7
 10
19462.35480555208
 20
1921.104650724501
 30
0.0
 11
19462.35480555208
 21
1922.604650724501
 31
0.0
  0
LINE
  5
232
  8
U14
  6
CONTINUOUS
 62
     7
 10
19462.35480555208
 20
2409.604650724501
 30
0.0
 11
19462.35480555208
 21
2411.104650724502
 31
0.0
  0
LINE
  5
233
  8
U14
  6
CONTINUOUS
 62
     7
 10
19459.35480555209
 20
1925.604650724501
 30
0.0
 11
19458.35480555209
 21
1925.604650724501
 31
0.0
  0
LINE
  5
234
  8
U14
  6
CONTINUOUS
 62
     7
 10
19459.35480555209
 20
2406.604650724501
 30
0.0
 11
19458.35480555209
 21
2406.604650724501
 31
0.0
  0
LINE
  5
235
  8
U14
  6
CONTINUOUS
 62
     7
 10
19462.35480555208
 20
2411.104650724502
 30
0.0
 11
19458.35480555208
 21
2411.104650724502
 31
0.0
  0
LINE
  5
236
  8
U14
  6
CONTINUOUS
 62
     7
 10
19458.35480555208
 20
1921.104650724501
 30
0.0
 11
19462.35480555208
 21
1921.104650724501
 31
0.0
  0
LINE
  5
237
  8
U14
  6
CONTINUOUS
 62
     7
 10
19447.35480555209
 20
2411.104650724502
 30
0.0
 11
19458.35480555209
 21
2411.104650724502
 31
0.0
  0
LINE
  5
238
  8
U14
  6
CONTINUOUS
 62
     7
 10
19447.35480555209
 20
1921.104650724501
 30
0.0
 11
19458.35480555209
 21
1921.104650724501
 31
0.0
  0
LINE
  5
239
  8
U14
  6
CONTINUOUS
 62
     7
 10
20540.35480555208
 20
2409.604650724502
 30
0.0
 11
20540.35480555208
 21
2411.104650724502
 31
0.0
  0
LINE
  5
23A
  8
U14
  6
CONTINUOUS
 62
     7
 10
20540.35480555208
 20
1921.104650724501
 30
0.0
 11
20540.35480555208
 21
1922.604650724501
 31
0.0
  0
LINE
  5
23B
  8
U14
  6
CONTINUOUS
 62
     7
 10
20543.35480555209
 20
1925.604650724501
 30
0.0
 11
20544.35480555209
 21
1925.604650724501
 31
0.0
  0
LINE
  5
23C
  8
U14
  6
CONTINUOUS
 62
     7
 10
20543.35480555209
 20
2406.604650724501
 30
0.0
 11
20544.35480555209
 21
2406.604650724501
 31
0.0
  0
LINE
  5
23D
  8
U14
  6
CONTINUOUS
 62
     7
 10
20540.35480555208
 20
2411.104650724502
 30
0.0
 11
20544.35480555208
 21
2411.104650724502
 31
0.0
  0
LINE
  5
23E
  8
U14
  6
CONTINUOUS
 62
     7
 10
20544.35480555208
 20
1921.104650724501
 30
0.0
 11
20540.35480555208
 21
1921.104650724501
 31
0.0
  0
LINE
  5
23F
  8
U14
  6
CONTINUOUS
 62
     7
 10
20555.35480555209
 20
2411.104650724502
 30
0.0
 11
20544.35480555209
 21
2411.104650724502
 31
0.0
  0
LINE
  5
240
  8
U14
  6
CONTINUOUS
 62
     7
 10
20555.35480555209
 20
1921.104650724501
 30
0.0
 11
20544.35480555209
 21
1921.104650724501
 31
0.0
  0
LINE
  5
241
  8
U14
  6
CONTINUOUS
 62
     7
 10
20557.85480555205
 20
1951.104650724501
 30
0.0
 11
20555.35480555205
 21
1951.104650724501
 31
0.0
  0
LINE
  5
242
  8
U14
  6
CONTINUOUS
 62
     7
 10
20557.85480555205
 20
1991.104650724501
 30
0.0
 11
20555.35480555205
 21
1991.104650724501
 31
0.0
  0
ARC
  5
243
  8
U14
  6
CONTINUOUS
 62
     7
 10
20557.85480555205
 20
1987.604650724501
 30
0.0
 40
3.5
 50
0.0
 51
90.0
  0
ARC
  5
244
  8
U14
  6
CONTINUOUS
 62
     7
 10
20557.85480555205
 20
1954.604650724501
 30
0.0
 40
3.5
 50
270.0
 51
0.0
  0
LINE
  5
245
  8
U14
  6
CONTINUOUS
 62
     7
 10
20557.85480555205
 20
2381.104650724502
 30
0.0
 11
20555.35480555205
 21
2381.104650724502
 31
0.0
  0
LINE
  5
246
  8
U14
  6
CONTINUOUS
 62
     7
 10
20557.85480555205
 20
2341.104650724502
 30
0.0
 11
20555.35480555205
 21
2341.104650724502
 31
0.0
  0
ARC
  5
247
  8
U14
  6
CONTINUOUS
 62
     7
 10
20557.85480555205
 20
2344.604650724502
 30
0.0
 40
3.5
 50
270.0
 51
0.0
  0
ARC
  5
248
  8
U14
  6
CONTINUOUS
 62
     7
 10
20557.85480555205
 20
2377.604650724502
 30
0.0
 40
3.5
 50
0.0
 51
90.0
  0
LINE
  5
249
  8
U14
  6
CONTINUOUS
 62
     7
 10
19537.35480555206
 20
1914.104650724501
 30
0.0
 11
19520.85480555205
 21
1914.104650724501
 31
0.0
  0
LINE
  5
24A
  8
U14
  6
CONTINUOUS
 62
     7
 10
19553.85480555205
 20
1914.104650724501
 30
0.0
 11
19537.35480555206
 21
1914.104650724501
 31
0.0
  0
LINE
  5
24B
  8
U14
  6
CONTINUOUS
 62
     7
 10
20465.35480555206
 20
1914.104650724501
 30
0.0
 11
20481.85480555205
 21
1914.104650724501
 31
0.0
  0
LINE
  5
24C
  8
U14
  6
CONTINUOUS
 62
     7
 10
20448.85480555205
 20
1914.104650724501
 30
0.0
 11
20465.35480555206
 21
1914.104650724501
 31
0.0
  0
LINE
  5
24D
  8
U14
  6
CONTINUOUS
 62
     7
 10
20543.35480555211
 20
1944.386565618277
 30
0.0
 11
20543.35480555211
 21
2387.822735830729
 31
0.0
  0
LINE
  5
24E
  8
U14
  6
CONTINUOUS
 62
     7
 10
19459.35480555211
 20
1944.386565618276
 30
0.0
 11
19459.35480555211
 21
2387.822735830729
 31
0.0
  0
LINE
  5
24F
  8
U14
  6
CONTINUOUS
 62
     7
 10
20516.35480555211
 20
2186.124685785847
 30
0.0
 11
20516.35480555211
 21
2146.084615663149
 31
0.0
  0
LINE
  5
250
  8
U14
  6
CONTINUOUS
 62
     7
 10
20476.35480555211
 20
2146.084615663157
 30
0.0
 11
20476.35480555211
 21
2186.124685785854
 31
0.0
  0
LINE
  5
251
  8
U14
  6
CONTINUOUS
 62
     7
 10
19459.35480555211
 20
2387.822735830883
 30
0.0
 11
19459.35480555209
 21
2409.604650724501
 31
0.0
  0
LINE
  5
252
  8
U14
  6
CONTINUOUS
 62
     7
 10
20543.35480555211
 20
2387.822735830883
 30
0.0
 11
20543.35480555209
 21
2409.604650724501
 31
0.0
  0
LINE
  5
253
  8
U14
  6
CONTINUOUS
 62
     7
 10
19459.35480555209
 20
1922.604650724501
 30
0.0
 11
19459.35480555211
 21
1944.38656561812
 31
0.0
  0
LINE
  5
254
  8
U14
  6
CONTINUOUS
 62
     7
 10
20543.35480555209
 20
1922.604650724501
 30
0.0
 11
20543.35480555211
 21
1944.38656561812
 31
0.0
  0
LINE
  5
255
  8
U14
  6
CONTINUOUS
 62
     7
 10
19458.35480555211
 20
2387.989149204743
 30
0.0
 11
19458.35480555209
 21
2411.104650724502
 31
0.0
  0
LINE
  5
256
  8
U14
  6
CONTINUOUS
 62
     7
 10
19458.35480555211
 20
1944.220152244417
 30
0.0
 11
19458.35480555211
 21
2387.98914920459
 31
0.0
  0
LINE
  5
257
  8
U14
  6
CONTINUOUS
 62
     7
 10
19458.35480555209
 20
1921.104650724501
 30
0.0
 11
19458.35480555211
 21
1944.220152244261
 31
0.0
  0
LINE
  5
258
  8
U14
  6
CONTINUOUS
 62
     7
 10
19447.35480555211
 20
2387.989149204743
 30
0.0
 11
19447.35480555209
 21
2411.104650724502
 31
0.0
  0
LINE
  5
259
  8
U14
  6
CONTINUOUS
 62
     7
 10
19447.35480555209
 20
1921.104650724501
 30
0.0
 11
19447.35480555211
 21
1944.220152244261
 31
0.0
  0
LINE
  5
25A
  8
U14
  6
CONTINUOUS
 62
     7
 10
19447.35480555211
 20
1944.220152244417
 30
0.0
 11
19447.35480555211
 21
2387.98914920459
 31
0.0
  0
LINE
  5
25B
  8
U14
  6
CONTINUOUS
 62
     7
 10
20544.35480555209
 20
1921.104650724501
 30
0.0
 11
20544.35480555211
 21
1944.220152244261
 31
0.0
  0
LINE
  5
25C
  8
U14
  6
CONTINUOUS
 62
     7
 10
20544.35480555211
 20
1944.220152244417
 30
0.0
 11
20544.35480555211
 21
2387.98914920459
 31
0.0
  0
LINE
  5
25D
  8
U14
  6
CONTINUOUS
 62
     7
 10
20544.35480555211
 20
2387.989149204743
 30
0.0
 11
20544.35480555209
 21
2411.104650724502
 31
0.0
  0
LINE
  5
25E
  8
U14
  6
CONTINUOUS
 62
     7
 10
20555.35480555211
 20
2387.989149204743
 30
0.0
 11
20555.35480555209
 21
2411.104650724502
 31
0.0
  0
LINE
  5
25F
  8
U14
  6
CONTINUOUS
 62
     7
 10
20555.35480555209
 20
1921.104650724501
 30
0.0
 11
20555.35480555211
 21
1944.220152244261
 31
0.0
  0
LINE
  5
260
  8
U14
  6
CONTINUOUS
 62
     7
 10
20555.35480555211
 20
1944.220152244417
 30
0.0
 11
20555.35480555211
 21
2387.98914920459
 31
0.0
  0
LINE
  5
261
  8
U14
  6
CONTINUOUS
 62
     7
 10
20561.35480555205
 20
1954.604650724501
 30
0.0
 11
20561.35480555205
 21
1987.604650724501
 31
0.0
  0
LINE
  5
262
  8
U14
  6
CONTINUOUS
 62
     7
 10
20561.35480555205
 20
2377.604650724502
 30
0.0
 11
20561.35480555205
 21
2344.604650724502
 31
0.0
  0
CIRCLE
  5
263
  8
U14
  6
CONTINUOUS
 62
     7
 10
20029.63907679342
 20
1102.214358458542
 30
0.0
 40
3.5
  0
CIRCLE
  5
264
  8
U14
  6
CONTINUOUS
 62
     7
 10
19973.07053429846
 20
1158.782900953432
 30
0.0
 40
3.5
  0
CIRCLE
  5
265
  8
U14
  6
CONTINUOUS
 62
     7
 10
20029.63907679339
 20
1158.782900953465
 30
0.0
 40
3.5
  0
CIRCLE
  5
266
  8
U14
  6
CONTINUOUS
 62
     7
 10
19973.07053429849
 20
1102.21435845851
 30
0.0
 40
3.5
  0
ARC
  5
267
  8
U14
  6
CONTINUOUS
 62
     7
 10
20001.35480554594
 20
1130.498629705987
 30
0.0
 40
9.250000000000275
 50
225.0000000000597
 51
45.00000000005974
  0
ARC
  5
268
  8
U14
  6
CONTINUOUS
 62
     7
 10
20001.35480554594
 20
1130.498629705987
 30
0.0
 40
10.2499999999998
 50
225.0000000000647
 51
45.00000000006472
  0
ARC
  5
269
  8
U14
  6
CONTINUOUS
 62
     7
 10
20001.35480554594
 20
1130.498629705987
 30
0.0
 40
52.49999999999986
 50
45.00000000006458
 51
225.0000000000646
  0
ARC
  5
26A
  8
U14
  6
CONTINUOUS
 62
     7
 10
19973.07053429849
 20
1102.21435845851
 30
0.0
 40
4.000000000000032
 50
225.0000000000645
 51
45.00000000006449
  0
ARC
  5
26B
  8
U14
  6
CONTINUOUS
 62
     7
 10
19973.07053429849
 20
1102.21435845851
 30
0.0
 40
6.500000000001098
 50
225.0000000000567
 51
44.99999879263842
  0
ARC
  5
26C
  8
U14
  6
CONTINUOUS
 62
     7
 10
20029.63907679342
 20
1102.214358458542
 30
0.0
 40
4.000000000000032
 50
225.0000000000645
 51
45.00000000006449
  0
ARC
  5
26D
  8
U14
  6
CONTINUOUS
 62
     7
 10
20029.63907679342
 20
1102.214358458542
 30
0.0
 40
6.500000000001098
 50
225.0000000000567
 51
45.0000000000567
  0
ARC
  5
26E
  8
U14
  6
CONTINUOUS
 62
     7
 10
20029.63907679339
 20
1158.782900953467
 30
0.0
 40
4.000000000000032
 50
225.0000000000645
 51
45.00000000006449
  0
ARC
  5
26F
  8
U14
  6
CONTINUOUS
 62
     7
 10
20029.63907679339
 20
1158.782900953467
 30
0.0
 40
6.500000000001098
 50
225.0000000000567
 51
44.99999879263842
  0
ARC
  5
270
  8
U14
  6
CONTINUOUS
 62
     7
 10
19973.07053429846
 20
1158.782900953434
 30
0.0
 40
4.000000000000032
 50
225.0000000000645
 51
45.00000000006449
  0
ARC
  5
271
  8
U14
  6
CONTINUOUS
 62
     7
 10
19973.07053429846
 20
1158.782900953434
 30
0.0
 40
6.500000000001098
 50
225.0000000000567
 51
45.0000000000567
  0
ARC
  5
272
  8
U14
  6
CONTINUOUS
 62
     7
 10
20001.35480554594
 20
1130.498629705987
 30
0.0
 40
52.49999999999986
 50
225.0000000000646
 51
45.00000120748282
  0
ARC
  5
273
  8
U14
  6
CONTINUOUS
 62
     7
 10
20001.35480554594
 20
1130.498629705987
 30
0.0
 40
10.2499999999998
 50
45.00000000006471
 51
225.0000000000647
  0
ARC
  5
274
  8
U14
  6
CONTINUOUS
 62
     7
 10
19973.07053429846
 20
1158.782900953432
 30
0.0
 40
6.500000000001098
 50
45.00000000005669
 51
225.0000000000567
  0
ARC
  5
275
  8
U14
  6
CONTINUOUS
 62
     7
 10
20029.63907679339
 20
1158.782900953467
 30
0.0
 40
6.500000000001098
 50
45.00000000005669
 51
225.0000000000567
  0
ARC
  5
276
  8
U14
  6
CONTINUOUS
 62
     7
 10
20029.63907679342
 20
1102.214358458542
 30
0.0
 40
6.500000000001098
 50
45.00000000005669
 51
225.0000000000567
  0
ARC
  5
277
  8
U14
  6
CONTINUOUS
 62
     7
 10
19973.07053429849
 20
1102.21435845851
 30
0.0
 40
6.500000000001098
 50
45.00000000005669
 51
225.0000000000567
  0
ARC
  5
278
  8
U14
  6
CONTINUOUS
 62
     7
 10
19973.07053429846
 20
1158.782900953434
 30
0.0
 40
4.000000000000032
 50
45.00000000006448
 51
225.0000000000645
  0
ARC
  5
279
  8
U14
  6
CONTINUOUS
 62
     7
 10
19973.07053429849
 20
1102.21435845851
 30
0.0
 40
4.000000000000032
 50
45.00000000006448
 51
225.0000000000645
  0
ARC
  5
27A
  8
U14
  6
CONTINUOUS
 62
     7
 10
20029.63907679342
 20
1102.214358458542
 30
0.0
 40
4.000000000000032
 50
45.00000000006448
 51
225.0000000000645
  0
ARC
  5
27B
  8
U14
  6
CONTINUOUS
 62
     7
 10
20029.63907679339
 20
1158.782900953467
 30
0.0
 40
4.000000000000032
 50
45.00000000006448
 51
225.0000000000645
  0
ARC
  5
27C
  8
U14
  6
CONTINUOUS
 62
     7
 10
20001.35480554594
 20
1130.498629705987
 30
0.0
 40
9.250000000000275
 50
45.00000000005975
 51
225.0000000000597
  0
LINE
  5
27D
  8
U14
  6
CONTINUOUS
 62
     7
 10
20027.07020857391
 20
1156.405735399503
 30
0.0
 11
20032.20794501287
 21
1156.405735399506
 31
0.0
  0
LINE
  5
27E
  8
U14
  6
CONTINUOUS
 62
     7
 10
19970.50166607898
 20
1156.40573539947
 30
0.0
 11
19975.63940251795
 21
1156.405735399472
 31
0.0
  0
ARC
  5
27F
  8
U14
  6
CONTINUOUS
 62
     7
 10
20234.35480554614
 20
789.5915240126265
 30
0.0
 40
6.0
 50
180.0
 51
0.0
  0
LINE
  5
280
  8
U14
  6
CONTINUOUS
 62
     7
 10
20235.50950500776
 20
791.5915240126265
 30
0.0
 11
20233.20010608452
 21
791.5915240126246
 31
0.0
  0
LINE
  5
281
  8
U14
  6
CONTINUOUS
 62
     7
 10
20236.66420554615
 20
789.5915240126265
 30
0.0
 11
20235.50950500776
 21
791.5915240126265
 31
0.0
  0
LINE
  5
282
  8
U14
  6
CONTINUOUS
 62
     7
 10
20235.50950500777
 20
787.5915240126265
 30
0.0
 11
20236.66420554615
 21
789.5915240126265
 31
0.0
  0
LINE
  5
283
  8
U14
  6
CONTINUOUS
 62
     7
 10
20233.20010608453
 20
787.5915240126246
 30
0.0
 11
20235.50950500777
 21
787.5915240126265
 31
0.0
  0
LINE
  5
284
  8
U14
  6
CONTINUOUS
 62
     7
 10
20232.04540554614
 20
789.5915240126246
 30
0.0
 11
20233.20010608453
 21
787.5915240126246
 31
0.0
  0
LINE
  5
285
  8
U14
  6
CONTINUOUS
 62
     7
 10
20233.20010608452
 20
791.5915240126246
 30
0.0
 11
20232.04540554614
 21
789.5915240126246
 31
0.0
  0
ARC
  5
286
  8
U14
  6
CONTINUOUS
 62
     7
 10
20234.35480554614
 20
789.5915240126265
 30
0.0
 40
6.0
 50
0.0
 51
180.0
  0
ARC
  5
287
  8
U14
  6
CONTINUOUS
 62
     7
 10
19499.35480554614
 20
789.5915240121899
 30
0.0
 40
3.5
 50
0.0
 51
180.0
  0
ARC
  5
288
  8
U14
  6
CONTINUOUS
 62
     7
 10
19768.35480554614
 20
789.59152401235
 30
0.0
 40
3.5
 50
0.0
 51
180.0
  0
ARC
  5
289
  8
U14
  6
CONTINUOUS
 62
     7
 10
20001.35480554614
 20
789.5915240124882
 30
0.0
 40
3.5
 50
0.0
 51
180.0
  0
ARC
  5
28A
  8
U14
  6
CONTINUOUS
 62
     7
 10
20234.35480554614
 20
789.5915240126265
 30
0.0
 40
3.5
 50
0.0
 51
180.0
  0
ARC
  5
28B
  8
U14
  6
CONTINUOUS
 62
     7
 10
20503.35480554614
 20
789.5915240127847
 30
0.0
 40
3.5
 50
0.0
 51
180.0
  0
LINE
  5
28C
  8
U14
  6
CONTINUOUS
 62
     7
 10
20516.35480554618
 20
738.0060135733161
 30
0.0
 11
20476.35480554618
 21
738.0060135732924
 31
0.0
  0
LINE
  5
28D
  8
U14
  6
CONTINUOUS
 62
     7
 10
20543.35480554614
 20
801.5915240128083
 30
0.0
 11
20543.35480554615
 21
774.5915240128083
 31
0.0
  0
ARC
  5
28E
  8
U14
  6
CONTINUOUS
 62
     7
 10
19499.35480554614
 20
789.5915240121899
 30
0.0
 40
3.5
 50
180.0
 51
0.0
  0
ARC
  5
28F
  8
U14
  6
CONTINUOUS
 62
     7
 10
19768.35480554614
 20
789.59152401235
 30
0.0
 40
3.5
 50
180.0
 51
0.0
  0
ARC
  5
290
  8
U14
  6
CONTINUOUS
 62
     7
 10
20001.35480554614
 20
789.5915240124882
 30
0.0
 40
3.5
 50
180.0
 51
0.0
  0
ARC
  5
291
  8
U14
  6
CONTINUOUS
 62
     7
 10
20234.35480554614
 20
789.5915240126265
 30
0.0
 40
3.5
 50
180.0
 51
0.0
  0
ARC
  5
292
  8
U14
  6
CONTINUOUS
 62
     7
 10
20503.35480554614
 20
789.5915240127847
 30
0.0
 40
3.5
 50
180.0
 51
0.0
  0
LINE
  5
293
  8
U14
  6
CONTINUOUS
 62
     7
 10
19459.35480554614
 20
801.5915240121662
 30
0.0
 11
20543.35480554614
 21
801.5915240128083
 31
0.0
  0
LINE
  5
294
  8
U14
  6
CONTINUOUS
 62
     7
 10
19459.35480554614
 20
801.5915240121662
 30
0.0
 11
19459.35480554615
 21
774.5915240121662
 31
0.0
  0
LINE
  5
295
  8
U14
  6
CONTINUOUS
 62
     7
 10
19459.35480554618
 20
737.9057353991661
 30
0.0
 11
20476.35480554618
 21
737.90573539977
 31
0.0
  0
LINE
  5
296
  8
U14
  6
CONTINUOUS
 62
     7
 10
20516.35480554618
 20
737.9057353997937
 30
0.0
 11
20543.35480554618
 21
737.9057353998082
 31
0.0
  0
LINE
  5
297
  8
U14
  6
CONTINUOUS
 62
     7
 10
19462.35480554614
 20
801.5915240121681
 30
0.0
 11
19462.35480554614
 21
802.5915240121662
 31
0.0
  0
LINE
  5
298
  8
U14
  6
CONTINUOUS
 62
     7
 10
19462.35480554573
 20
1486.405735399168
 30
0.0
 11
19462.35480554614
 21
802.5915240121662
 31
0.0
  0
LINE
  5
299
  8
U14
  6
CONTINUOUS
 62
     7
 10
20540.35480554573
 20
1486.405735399806
 30
0.0
 11
20540.35480554614
 21
802.5915240128047
 31
0.0
  0
LINE
  5
29A
  8
U14
  6
CONTINUOUS
 62
     7
 10
20540.35480554614
 20
802.5915240128047
 30
0.0
 11
20540.35480554614
 21
801.5915240128065
 31
0.0
  0
LINE
  5
29B
  8
U14
  6
CONTINUOUS
 62
     7
 10
19462.35480554614
 20
802.5915240121662
 30
0.0
 11
20540.35480554614
 21
802.5915240128047
 31
0.0
  0
LINE
  5
29C
  8
U14
  6
CONTINUOUS
 62
     7
 10
19462.35480554573
 20
1486.405735399168
 30
0.0
 11
20540.35480554573
 21
1486.405735399806
 31
0.0
  0
CIRCLE
  5
29D
  8
U14
  6
CONTINUOUS
 62
     7
 10
20001.35480554594
 20
1130.498629705987
 30
0.0
 40
53.5
  0
LINE
  5
29E
  8
U14
  6
CONTINUOUS
 62
     7
 10
20444.35480554611
 20
844.5915240127483
 30
0.0
 11
20444.35480554577
 21
1416.40573539975
 31
0.0
  0
ARC
  5
29F
  8
U14
  6
CONTINUOUS
 62
     7
 10
20465.35480554577
 20
1416.405735399763
 30
0.0
 40
21.0
 50
0.0
 51
180.0
  0
LINE
  5
2A0
  8
U14
  6
CONTINUOUS
 62
     7
 10
20486.35480554577
 20
1416.405735399777
 30
0.0
 11
20486.35480554611
 21
844.5915240127738
 31
0.0
  0
ARC
  5
2A1
  8
U14
  6
CONTINUOUS
 62
     7
 10
20465.35480554611
 20
844.5915240127629
 30
0.0
 40
21.0
 50
180.0
 51
0.0
  0
LINE
  5
2A2
  8
U14
  6
CONTINUOUS
 62
     7
 10
19558.35480554578
 20
1416.405735399226
 30
0.0
 11
19558.35480554611
 21
844.5915240122245
 31
0.0
  0
ARC
  5
2A3
  8
U14
  6
CONTINUOUS
 62
     7
 10
19537.35480554611
 20
844.5915240122135
 30
0.0
 40
21.0
 50
180.0
 51
0.0
  0
LINE
  5
2A4
  8
U14
  6
CONTINUOUS
 62
     7
 10
19516.35480554611
 20
844.591524012199
 30
0.0
 11
19516.35480554577
 21
1416.405735399203
 31
0.0
  0
ARC
  5
2A5
  8
U14
  6
CONTINUOUS
 62
     7
 10
19537.35480554577
 20
1416.405735399213
 30
0.0
 40
21.0
 50
0.0
 51
180.0
  0
LINE
  5
2A6
  8
U14
  6
CONTINUOUS
 62
     7
 10
19462.35480554614
 20
802.5915240121681
 30
0.0
 11
19462.35480554573
 21
1486.405735399168
 31
0.0
  0
LINE
  5
2A7
  8
U14
  6
CONTINUOUS
 62
     7
 10
19462.35480554614
 20
801.5915240121681
 30
0.0
 11
19462.35480554614
 21
802.5915240121681
 31
0.0
  0
LINE
  5
2A8
  8
U14
  6
CONTINUOUS
 62
     7
 10
19462.35480554614
 20
802.5915240121681
 30
0.0
 11
19458.35480554614
 21
802.5915240121662
 31
0.0
  0
LINE
  5
2A9
  8
U14
  6
CONTINUOUS
 62
     7
 10
19458.35480554614
 20
802.5915240121662
 30
0.0
 11
19458.35480554615
 21
774.5915240121662
 31
0.0
  0
LINE
  5
2AA
  8
U14
  6
CONTINUOUS
 62
     7
 10
19447.35480554573
 20
1486.405735399159
 30
0.0
 11
19462.35480554573
 21
1486.405735399168
 31
0.0
  0
LINE
  5
2AB
  8
U14
  6
CONTINUOUS
 62
     7
 10
19447.35480554573
 20
1486.405735399159
 30
0.0
 11
19447.35480554615
 21
774.591524012159
 31
0.0
  0
LINE
  5
2AC
  8
U14
  6
CONTINUOUS
 62
     7
 10
19458.35480554617
 20
740.9057353991661
 30
0.0
 11
19459.35480554617
 21
740.9057353991661
 31
0.0
  0
LINE
  5
2AD
  8
U14
  6
CONTINUOUS
 62
     7
 10
19447.35480554618
 20
736.4057353991589
 30
0.0
 11
19458.35480554618
 21
736.4057353991661
 31
0.0
  0
LINE
  5
2AE
  8
U14
  6
CONTINUOUS
 62
     7
 10
20540.35480554614
 20
801.5915240128065
 30
0.0
 11
20540.35480554614
 21
802.5915240128065
 31
0.0
  0
LINE
  5
2AF
  8
U14
  6
CONTINUOUS
 62
     7
 10
20540.35480554614
 20
802.5915240128065
 30
0.0
 11
20540.35480554573
 21
1486.405735399806
 31
0.0
  0
LINE
  5
2B0
  8
U14
  6
CONTINUOUS
 62
     7
 10
20540.35480554614
 20
802.5915240128065
 30
0.0
 11
20544.35480554614
 21
802.5915240128102
 31
0.0
  0
LINE
  5
2B1
  8
U14
  6
CONTINUOUS
 62
     7
 10
20544.35480554614
 20
802.5915240128102
 30
0.0
 11
20544.35480554615
 21
774.5915240128102
 31
0.0
  0
LINE
  5
2B2
  8
U14
  6
CONTINUOUS
 62
     7
 10
20555.35480554573
 20
1486.405735399816
 30
0.0
 11
20555.35480554615
 21
774.5915240128156
 31
0.0
  0
LINE
  5
2B3
  8
U14
  6
CONTINUOUS
 62
     7
 10
20555.35480554573
 20
1486.405735399816
 30
0.0
 11
20540.35480554573
 21
1486.405735399806
 31
0.0
  0
LINE
  5
2B4
  8
U14
  6
CONTINUOUS
 62
     7
 10
20543.35480554617
 20
740.9057353998082
 30
0.0
 11
20544.35480554617
 21
740.90573539981
 31
0.0
  0
LINE
  5
2B5
  8
U14
  6
CONTINUOUS
 62
     7
 10
20544.35480554618
 20
736.40573539981
 30
0.0
 11
20555.35480554618
 21
736.4057353998155
 31
0.0
  0
ARC
  5
2B6
  8
U14
  6
CONTINUOUS
 62
     7
 10
20557.85480554575
 20
1462.905735399817
 30
0.0
 40
3.5
 50
0.0
 51
90.0
  0
LINE
  5
2B7
  8
U14
  6
CONTINUOUS
 62
     7
 10
20557.85480554587
 20
1246.405735399817
 30
0.0
 11
20555.35480554587
 21
1246.405735399816
 31
0.0
  0
LINE
  5
2B8
  8
U14
  6
CONTINUOUS
 62
     7
 10
20561.35480554586
 20
1266.405735399819
 30
0.0
 11
20561.35480554575
 21
1446.405735399819
 31
0.0
  0
LINE
  5
2B9
  8
U14
  6
CONTINUOUS
 62
     7
 10
20555.35480554574
 20
1466.405735399816
 30
0.0
 11
20557.85480554574
 21
1466.405735399817
 31
0.0
  0
ARC
  5
2BA
  8
U14
  6
CONTINUOUS
 62
     7
 10
20557.85480554587
 20
1249.905735399817
 30
0.0
 40
3.5
 50
270.0
 51
0.0
  0
ARC
  5
2BB
  8
U14
  6
CONTINUOUS
 62
     7
 10
20557.85480554599
 20
1042.905735399817
 30
0.0
 40
3.5
 50
0.0
 51
90.0
  0
LINE
  5
2BC
  8
U14
  6
CONTINUOUS
 62
     7
 10
20557.85480554612
 20
826.4057353998173
 30
0.0
 11
20555.35480554612
 21
826.4057353998155
 31
0.0
  0
LINE
  5
2BD
  8
U14
  6
CONTINUOUS
 62
     7
 10
20561.35480554611
 20
846.4057353998192
 30
0.0
 11
20561.354805546
 21
1026.405735399819
 31
0.0
  0
LINE
  5
2BE
  8
U14
  6
CONTINUOUS
 62
     7
 10
20555.35480554599
 20
1046.405735399816
 30
0.0
 11
20557.85480554599
 21
1046.405735399817
 31
0.0
  0
ARC
  5
2BF
  8
U14
  6
CONTINUOUS
 62
     7
 10
20557.85480554612
 20
829.9057353998173
 30
0.0
 40
3.5
 50
270.0
 51
0.0
  0
LINE
  5
2C0
  8
U14
  6
CONTINUOUS
 62
     7
 10
20543.35480554618
 20
737.9057353998082
 30
0.0
 11
20543.35480554617
 21
750.2427660700446
 31
0.0
  0
LINE
  5
2C1
  8
U14
  6
CONTINUOUS
 62
     7
 10
19459.35480554618
 20
737.9057353991661
 30
0.0
 11
19459.35480554617
 21
750.2427660694025
 31
0.0
  0
LINE
  5
2C2
  8
U14
  6
CONTINUOUS
 62
     7
 10
20516.35480554618
 20
738.0060135733179
 30
0.0
 11
20516.35480554618
 21
737.9057353997937
 31
0.0
  0
LINE
  5
2C3
  8
U14
  6
CONTINUOUS
 62
     7
 10
20476.35480554618
 20
737.90573539977
 30
0.0
 11
20476.35480554618
 21
738.0060135732924
 31
0.0
  0
LINE
  5
2C4
  8
U14
  6
CONTINUOUS
 62
     7
 10
19459.35480554617
 20
750.2427660694207
 30
0.0
 11
19459.35480554615
 21
774.5915240121662
 31
0.0
  0
LINE
  5
2C5
  8
U14
  6
CONTINUOUS
 62
     7
 10
20543.35480554617
 20
750.2427660700628
 30
0.0
 11
20543.35480554615
 21
774.5915240128083
 31
0.0
  0
LINE
  5
2C6
  8
U14
  6
CONTINUOUS
 62
     7
 10
19458.35480554617
 20
748.7520257872088
 30
0.0
 11
19458.35480554615
 21
774.5915240121644
 31
0.0
  0
LINE
  5
2C7
  8
U14
  6
CONTINUOUS
 62
     7
 10
19458.35480554618
 20
736.4057353991661
 30
0.0
 11
19458.35480554617
 21
748.7520257871925
 31
0.0
  0
LINE
  5
2C8
  8
U14
  6
CONTINUOUS
 62
     7
 10
19447.35480554617
 20
748.7520257872015
 30
0.0
 11
19447.35480554615
 21
774.5915240121572
 31
0.0
  0
LINE
  5
2C9
  8
U14
  6
CONTINUOUS
 62
     7
 10
19447.35480554618
 20
736.4057353991589
 30
0.0
 11
19447.35480554617
 21
748.7520257871852
 31
0.0
  0
LINE
  5
2CA
  8
U14
  6
CONTINUOUS
 62
     7
 10
20544.35480554618
 20
736.40573539981
 30
0.0
 11
20544.35480554617
 21
748.7520257878364
 31
0.0
  0
LINE
  5
2CB
  8
U14
  6
CONTINUOUS
 62
     7
 10
20544.35480554617
 20
748.7520257878527
 30
0.0
 11
20544.35480554615
 21
774.5915240128083
 31
0.0
  0
LINE
  5
2CC
  8
U14
  6
CONTINUOUS
 62
     7
 10
20555.35480554617
 20
748.7520257878582
 30
0.0
 11
20555.35480554615
 21
774.5915240128138
 31
0.0
  0
LINE
  5
2CD
  8
U14
  6
CONTINUOUS
 62
     7
 10
20555.35480554618
 20
736.4057353998155
 30
0.0
 11
20555.35480554617
 21
748.7520257878418
 31
0.0
  0
LINE
  5
2CE
  8
U14
  6
CONTINUOUS
 62
     7
 10
20561.35480554574
 20
1462.905735399819
 30
0.0
 11
20561.35480554575
 21
1446.405735399819
 31
0.0
  0
LINE
  5
2CF
  8
U14
  6
CONTINUOUS
 62
     7
 10
20561.35480554586
 20
1266.405735399819
 30
0.0
 11
20561.35480554587
 21
1249.905735399819
 31
0.0
  0
LINE
  5
2D0
  8
U14
  6
CONTINUOUS
 62
     7
 10
20561.35480554599
 20
1042.905735399819
 30
0.0
 11
20561.354805546
 21
1026.405735399819
 31
0.0
  0
LINE
  5
2D1
  8
U14
  6
CONTINUOUS
 62
     7
 10
20561.35480554611
 20
846.4057353998192
 30
0.0
 11
20561.35480554612
 21
829.9057353998192
 31
0.0
  0
ARC
  5
2D2
  8
U14
  6
CONTINUOUS
 62
     7
 10
19537.35480554595
 20
2825.869361293693
 30
0.0
 40
3.199999999999818
 50
90.0
 51
270.0
  0
ARC
  5
2D3
  8
U14
  6
CONTINUOUS
 62
     7
 10
19537.35480554595
 20
2825.869361293691
 30
0.0
 40
6.300000000000182
 50
90.0
 51
270.0
  0
ARC
  5
2D4
  8
U14
  6
CONTINUOUS
 62
     7
 10
19537.35480554595
 20
2645.869361293693
 30
0.0
 40
3.199999999999818
 50
90.0
 51
270.0
  0
ARC
  5
2D5
  8
U14
  6
CONTINUOUS
 62
     7
 10
19537.35480554595
 20
2645.869361293691
 30
0.0
 40
6.300000000000182
 50
90.0
 51
270.0
  0
ARC
  5
2D6
  8
U14
  6
CONTINUOUS
 62
     7
 10
19537.35480554595
 20
2645.869361293693
 30
0.0
 40
20.0
 50
180.0
 51
270.0
  0
ARC
  5
2D7
  8
U14
  6
CONTINUOUS
 62
     7
 10
19537.35480554595
 20
2825.869361293693
 30
0.0
 40
20.0
 50
90.0
 51
180.0
  0
ARC
  5
2D8
  8
U14
  6
CONTINUOUS
 62
     7
 10
19537.35480554595
 20
2645.869361293691
 30
0.0
 40
6.300000000000182
 50
270.0
 51
90.0
  0
ARC
  5
2D9
  8
U14
  6
CONTINUOUS
 62
     7
 10
19537.35480554595
 20
2825.869361293691
 30
0.0
 40
6.300000000000182
 50
270.0
 51
90.0
  0
ARC
  5
2DA
  8
U14
  6
CONTINUOUS
 62
     7
 10
19537.35480554595
 20
2825.869361293693
 30
0.0
 40
20.0
 50
0.0
 51
90.0
  0
LINE
  5
2DB
  8
U14
  6
CONTINUOUS
 62
     7
 10
19517.35480554595
 20
2645.869361293693
 30
0.0
 11
19517.35480554595
 21
2825.869361293693
 31
0.0
  0
ARC
  5
2DC
  8
U14
  6
CONTINUOUS
 62
     7
 10
19537.35480554595
 20
2645.869361293693
 30
0.0
 40
20.0
 50
270.0
 51
0.0
  0
LINE
  5
2DD
  8
U14
  6
CONTINUOUS
 62
     7
 10
19557.35480554595
 20
2825.869361293693
 30
0.0
 11
19557.35480554595
 21
2645.869361293693
 31
0.0
  0
ARC
  5
2DE
  8
U14
  6
CONTINUOUS
 62
     7
 10
19537.35480554595
 20
2825.869361293693
 30
0.0
 40
3.199999999999818
 50
270.0
 51
90.0
  0
ARC
  5
2DF
  8
U14
  6
CONTINUOUS
 62
     7
 10
19537.35480554595
 20
2645.869361293693
 30
0.0
 40
3.199999999999818
 50
270.0
 51
90.0
  0
ARC
  5
2E0
  8
U14
  6
CONTINUOUS
 62
     7
 10
19537.35480554595
 20
3037.683572680693
 30
0.0
 40
3.199999999999818
 50
90.0
 51
270.0
  0
ARC
  5
2E1
  8
U14
  6
CONTINUOUS
 62
     7
 10
19537.35480554595
 20
3037.683572680691
 30
0.0
 40
6.300000000000182
 50
90.0
 51
270.0
  0
ARC
  5
2E2
  8
U14
  6
CONTINUOUS
 62
     7
 10
19537.35480554595
 20
3217.683572680694
 30
0.0
 40
3.199999999999818
 50
90.0
 51
270.0
  0
ARC
  5
2E3
  8
U14
  6
CONTINUOUS
 62
     7
 10
19537.35480554595
 20
3217.683572680693
 30
0.0
 40
6.300000000000182
 50
90.0
 51
270.0
  0
ARC
  5
2E4
  8
U14
  6
CONTINUOUS
 62
     7
 10
19537.35480554595
 20
3217.683572680693
 30
0.0
 40
20.0
 50
90.0
 51
180.0
  0
ARC
  5
2E5
  8
U14
  6
CONTINUOUS
 62
     7
 10
19537.35480554595
 20
3037.683572680694
 30
0.0
 40
20.0
 50
180.0
 51
270.0
  0
ARC
  5
2E6
  8
U14
  6
CONTINUOUS
 62
     7
 10
19537.35480554595
 20
3217.683572680693
 30
0.0
 40
6.300000000000182
 50
270.0
 51
90.0
  0
ARC
  5
2E7
  8
U14
  6
CONTINUOUS
 62
     7
 10
19537.35480554595
 20
3037.683572680691
 30
0.0
 40
6.300000000000182
 50
270.0
 51
90.0
  0
ARC
  5
2E8
  8
U14
  6
CONTINUOUS
 62
     7
 10
19537.35480554595
 20
3037.683572680694
 30
0.0
 40
20.0
 50
270.0
 51
0.0
  0
LINE
  5
2E9
  8
U14
  6
CONTINUOUS
 62
     7
 10
19517.35480554595
 20
3217.683572680694
 30
0.0
 11
19517.35480554595
 21
3037.683572680693
 31
0.0
  0
ARC
  5
2EA
  8
U14
  6
CONTINUOUS
 62
     7
 10
19537.35480554595
 20
3217.683572680693
 30
0.0
 40
20.0
 50
0.0
 51
90.0
  0
LINE
  5
2EB
  8
U14
  6
CONTINUOUS
 62
     7
 10
19557.35480554595
 20
3037.683572680693
 30
0.0
 11
19557.35480554595
 21
3217.683572680694
 31
0.0
  0
ARC
  5
2EC
  8
U14
  6
CONTINUOUS
 62
     7
 10
19537.35480554595
 20
3037.683572680693
 30
0.0
 40
3.199999999999818
 50
270.0
 51
90.0
  0
ARC
  5
2ED
  8
U14
  6
CONTINUOUS
 62
     7
 10
19537.35480554595
 20
3217.683572680694
 30
0.0
 40
3.199999999999818
 50
270.0
 51
90.0
  0
ARC
  5
2EE
  8
U14
  6
CONTINUOUS
 62
     7
 10
20465.35480554595
 20
2825.869361293693
 30
0.0
 40
3.199999999999818
 50
270.0
 51
90.0
  0
ARC
  5
2EF
  8
U14
  6
CONTINUOUS
 62
     7
 10
20465.35480554595
 20
2825.869361293691
 30
0.0
 40
6.300000000000182
 50
270.0
 51
90.0
  0
ARC
  5
2F0
  8
U14
  6
CONTINUOUS
 62
     7
 10
20465.35480554595
 20
2645.869361293693
 30
0.0
 40
3.199999999999818
 50
270.0
 51
90.0
  0
ARC
  5
2F1
  8
U14
  6
CONTINUOUS
 62
     7
 10
20465.35480554595
 20
2645.869361293691
 30
0.0
 40
6.300000000000182
 50
270.0
 51
90.0
  0
ARC
  5
2F2
  8
U14
  6
CONTINUOUS
 62
     7
 10
20465.35480554595
 20
2645.869361293693
 30
0.0
 40
20.0
 50
270.0
 51
0.0
  0
ARC
  5
2F3
  8
U14
  6
CONTINUOUS
 62
     7
 10
20465.35480554595
 20
2825.869361293693
 30
0.0
 40
20.0
 50
0.0
 51
90.0
  0
ARC
  5
2F4
  8
U14
  6
CONTINUOUS
 62
     7
 10
20465.35480554595
 20
2645.869361293691
 30
0.0
 40
6.300000000000182
 50
90.0
 51
270.0
  0
ARC
  5
2F5
  8
U14
  6
CONTINUOUS
 62
     7
 10
20465.35480554595
 20
2825.869361293691
 30
0.0
 40
6.300000000000182
 50
90.0
 51
270.0
  0
ARC
  5
2F6
  8
U14
  6
CONTINUOUS
 62
     7
 10
20465.35480554595
 20
2825.869361293693
 30
0.0
 40
20.0
 50
90.0
 51
180.0
  0
LINE
  5
2F7
  8
U14
  6
CONTINUOUS
 62
     7
 10
20485.35480554595
 20
2645.869361293693
 30
0.0
 11
20485.35480554595
 21
2825.869361293693
 31
0.0
  0
ARC
  5
2F8
  8
U14
  6
CONTINUOUS
 62
     7
 10
20465.35480554595
 20
2645.869361293693
 30
0.0
 40
20.0
 50
180.0
 51
270.0
  0
LINE
  5
2F9
  8
U14
  6
CONTINUOUS
 62
     7
 10
20445.35480554595
 20
2825.869361293693
 30
0.0
 11
20445.35480554595
 21
2645.869361293693
 31
0.0
  0
ARC
  5
2FA
  8
U14
  6
CONTINUOUS
 62
     7
 10
20465.35480554595
 20
2825.869361293693
 30
0.0
 40
3.199999999999818
 50
90.0
 51
270.0
  0
ARC
  5
2FB
  8
U14
  6
CONTINUOUS
 62
     7
 10
20465.35480554595
 20
2645.869361293693
 30
0.0
 40
3.199999999999818
 50
90.0
 51
270.0
  0
ARC
  5
2FC
  8
U14
  6
CONTINUOUS
 62
     7
 10
20465.35480554595
 20
3037.683572680693
 30
0.0
 40
3.199999999999818
 50
270.0
 51
90.0
  0
ARC
  5
2FD
  8
U14
  6
CONTINUOUS
 62
     7
 10
20465.35480554595
 20
3037.683572680691
 30
0.0
 40
6.300000000000182
 50
270.0
 51
90.0
  0
ARC
  5
2FE
  8
U14
  6
CONTINUOUS
 62
     7
 10
20465.35480554595
 20
3217.683572680693
 30
0.0
 40
3.199999999999818
 50
270.0
 51
90.0
  0
ARC
  5
2FF
  8
U14
  6
CONTINUOUS
 62
     7
 10
20465.35480554595
 20
3217.683572680691
 30
0.0
 40
6.300000000000182
 50
270.0
 51
90.0
  0
ARC
  5
300
  8
U14
  6
CONTINUOUS
 62
     7
 10
20465.35480554595
 20
3217.683572680693
 30
0.0
 40
20.0
 50
0.0
 51
90.0
  0
ARC
  5
301
  8
U14
  6
CONTINUOUS
 62
     7
 10
20465.35480554595
 20
3037.683572680693
 30
0.0
 40
20.0
 50
270.0
 51
0.0
  0
ARC
  5
302
  8
U14
  6
CONTINUOUS
 62
     7
 10
20465.35480554595
 20
3217.683572680691
 30
0.0
 40
6.300000000000182
 50
90.0
 51
270.0
  0
ARC
  5
303
  8
U14
  6
CONTINUOUS
 62
     7
 10
20465.35480554595
 20
3037.683572680691
 30
0.0
 40
6.300000000000182
 50
90.0
 51
270.0
  0
ARC
  5
304
  8
U14
  6
CONTINUOUS
 62
     7
 10
20465.35480554595
 20
3037.683572680693
 30
0.0
 40
20.0
 50
180.0
 51
270.0
  0
LINE
  5
305
  8
U14
  6
CONTINUOUS
 62
     7
 10
20485.35480554595
 20
3217.683572680693
 30
0.0
 11
20485.35480554595
 21
3037.683572680693
 31
0.0
  0
ARC
  5
306
  8
U14
  6
CONTINUOUS
 62
     7
 10
20465.35480554595
 20
3217.683572680693
 30
0.0
 40
20.0
 50
90.0
 51
180.0
  0
LINE
  5
307
  8
U14
  6
CONTINUOUS
 62
     7
 10
20445.35480554595
 20
3037.683572680693
 30
0.0
 11
20445.35480554595
 21
3217.683572680693
 31
0.0
  0
ARC
  5
308
  8
U14
  6
CONTINUOUS
 62
     7
 10
20465.35480554595
 20
3037.683572680693
 30
0.0
 40
3.199999999999818
 50
90.0
 51
270.0
  0
ARC
  5
309
  8
U14
  6
CONTINUOUS
 62
     7
 10
20465.35480554595
 20
3217.683572680693
 30
0.0
 40
3.199999999999818
 50
90.0
 51
270.0
  0
LINE
  5
30A
  8
U14
  6
CONTINUOUS
 62
     7
 10
20540.35480554595
 20
3260.683572680694
 30
0.0
 11
20540.35480554595
 21
3259.683572680696
 31
0.0
  0
LINE
  5
30B
  8
U14
  6
CONTINUOUS
 62
     7
 10
20540.35480554595
 20
2575.869361293695
 30
0.0
 11
20540.35480554595
 21
3259.683572680696
 31
0.0
  0
LINE
  5
30C
  8
U14
  6
CONTINUOUS
 62
     7
 10
19462.35480554595
 20
2575.869361293695
 30
0.0
 11
19462.35480554595
 21
3259.683572680696
 31
0.0
  0
LINE
  5
30D
  8
U14
  6
CONTINUOUS
 62
     7
 10
19462.35480554595
 20
3259.683572680696
 30
0.0
 11
19462.35480554595
 21
3260.683572680694
 31
0.0
  0
LINE
  5
30E
  8
U14
  6
CONTINUOUS
 62
     7
 10
20540.35480554595
 20
3259.683572680696
 30
0.0
 11
19462.35480554595
 21
3259.683572680696
 31
0.0
  0
LINE
  5
30F
  8
U14
  6
CONTINUOUS
 62
     7
 10
19462.35480554595
 20
2575.869361293695
 30
0.0
 11
20540.35480554595
 21
2575.869361293695
 31
0.0
  0
LINE
  5
310
  8
U14
  6
CONTINUOUS
 62
     7
 10
19558.35480554595
 20
3217.683572680696
 30
0.0
 11
19558.35480554595
 21
3037.683572680696
 31
0.0
  0
ARC
  5
311
  8
U14
  6
CONTINUOUS
 62
     7
 10
19537.35480554595
 20
3037.683572680696
 30
0.0
 40
21.0
 50
180.0
 51
0.0
  0
LINE
  5
312
  8
U14
  6
CONTINUOUS
 62
     7
 10
19516.35480554595
 20
3037.683572680696
 30
0.0
 11
19516.35480554595
 21
3217.683572680696
 31
0.0
  0
ARC
  5
313
  8
U14
  6
CONTINUOUS
 62
     7
 10
19537.35480554595
 20
3217.683572680696
 30
0.0
 40
21.0
 50
0.0
 51
180.0
  0
LINE
  5
314
  8
U14
  6
CONTINUOUS
 62
     7
 10
20444.35480554595
 20
3037.683572680696
 30
0.0
 11
20444.35480554595
 21
3217.683572680696
 31
0.0
  0
ARC
  5
315
  8
U14
  6
CONTINUOUS
 62
     7
 10
20465.35480554595
 20
3217.683572680696
 30
0.0
 40
21.0
 50
0.0
 51
180.0
  0
LINE
  5
316
  8
U14
  6
CONTINUOUS
 62
     7
 10
20486.35480554595
 20
3217.683572680696
 30
0.0
 11
20486.35480554595
 21
3037.683572680696
 31
0.0
  0
ARC
  5
317
  8
U14
  6
CONTINUOUS
 62
     7
 10
20465.35480554595
 20
3037.683572680696
 30
0.0
 40
21.0
 50
180.0
 51
0.0
  0
LINE
  5
318
  8
U14
  6
CONTINUOUS
 62
     7
 10
20486.35480554595
 20
2825.869361293693
 30
0.0
 11
20486.35480554595
 21
2645.869361293693
 31
0.0
  0
ARC
  5
319
  8
U14
  6
CONTINUOUS
 62
     7
 10
20465.35480554595
 20
2645.869361293695
 30
0.0
 40
21.0
 50
180.0
 51
0.0
  0
LINE
  5
31A
  8
U14
  6
CONTINUOUS
 62
     7
 10
20444.35480554595
 20
2645.869361293693
 30
0.0
 11
20444.35480554595
 21
2825.869361293693
 31
0.0
  0
ARC
  5
31B
  8
U14
  6
CONTINUOUS
 62
     7
 10
20465.35480554595
 20
2825.869361293695
 30
0.0
 40
21.0
 50
0.0
 51
180.0
  0
LINE
  5
31C
  8
U14
  6
CONTINUOUS
 62
     7
 10
19516.35480554595
 20
2645.869361293693
 30
0.0
 11
19516.35480554595
 21
2825.869361293693
 31
0.0
  0
ARC
  5
31D
  8
U14
  6
CONTINUOUS
 62
     7
 10
19537.35480554595
 20
2825.869361293695
 30
0.0
 40
21.0
 50
0.0
 51
180.0
  0
LINE
  5
31E
  8
U14
  6
CONTINUOUS
 62
     7
 10
19558.35480554595
 20
2825.869361293693
 30
0.0
 11
19558.35480554595
 21
2645.869361293693
 31
0.0
  0
ARC
  5
31F
  8
U14
  6
CONTINUOUS
 62
     7
 10
19537.35480554595
 20
2645.869361293695
 30
0.0
 40
21.0
 50
180.0
 51
0.0
  0
CIRCLE
  5
320
  8
U14
  6
CONTINUOUS
 62
     7
 10
20234.35480554595
 20
3272.683572680833
 30
0.0
 40
3.0
  0
CIRCLE
  5
321
  8
U14
  6
CONTINUOUS
 62
     7
 10
20234.35480554595
 20
3272.683572680833
 30
0.0
 40
2.386600000001636
  0
ARC
  5
322
  8
U14
  6
CONTINUOUS
 62
     7
 10
19499.35480554595
 20
3272.683572680694
 30
0.0
 40
3.5
 50
180.0
 51
0.0
  0
ARC
  5
323
  8
U14
  6
CONTINUOUS
 62
     7
 10
19768.35480554595
 20
3272.683572680694
 30
0.0
 40
3.5
 50
180.0
 51
0.0
  0
ARC
  5
324
  8
U14
  6
CONTINUOUS
 62
     7
 10
20001.35480554595
 20
3272.683572680694
 30
0.0
 40
3.5
 50
180.0
 51
0.0
  0
ARC
  5
325
  8
U14
  6
CONTINUOUS
 62
     7
 10
20234.35480554595
 20
3272.683572680694
 30
0.0
 40
3.5
 50
180.0
 51
0.0
  0
ARC
  5
326
  8
U14
  6
CONTINUOUS
 62
     7
 10
20503.35480554595
 20
3272.683572680694
 30
0.0
 40
3.5
 50
180.0
 51
0.0
  0
LINE
  5
327
  8
U14
  6
CONTINUOUS
 62
     7
 10
20476.35480554595
 20
3324.269083120238
 30
0.0
 11
20516.35480554595
 21
3324.269083120238
 31
0.0
  0
LINE
  5
328
  8
U14
  6
CONTINUOUS
 62
     7
 10
19459.35480554595
 20
3287.683572680694
 30
0.0
 11
19459.35480554595
 21
3260.683572680694
 31
0.0
  0
LINE
  5
329
  8
U14
  6
CONTINUOUS
 62
     7
 10
19459.35480554595
 20
3260.683572680694
 30
0.0
 11
20543.35480554595
 21
3260.683572680694
 31
0.0
  0
ARC
  5
32A
  8
U14
  6
CONTINUOUS
 62
     7
 10
19499.35480554595
 20
3272.683572680694
 30
0.0
 40
3.5
 50
0.0
 51
180.0
  0
ARC
  5
32B
  8
U14
  6
CONTINUOUS
 62
     7
 10
19768.35480554595
 20
3272.683572680694
 30
0.0
 40
3.5
 50
0.0
 51
180.0
  0
ARC
  5
32C
  8
U14
  6
CONTINUOUS
 62
     7
 10
20001.35480554595
 20
3272.683572680694
 30
0.0
 40
3.5
 50
0.0
 51
180.0
  0
ARC
  5
32D
  8
U14
  6
CONTINUOUS
 62
     7
 10
20234.35480554595
 20
3272.683572680694
 30
0.0
 40
3.5
 50
0.0
 51
180.0
  0
ARC
  5
32E
  8
U14
  6
CONTINUOUS
 62
     7
 10
20503.35480554595
 20
3272.683572680694
 30
0.0
 40
3.5
 50
0.0
 51
180.0
  0
LINE
  5
32F
  8
U14
  6
CONTINUOUS
 62
     7
 10
20543.35480554595
 20
3287.683572680694
 30
0.0
 11
20543.35480554595
 21
3260.683572680694
 31
0.0
  0
LINE
  5
330
  8
U14
  6
CONTINUOUS
 62
     7
 10
19459.35480554595
 20
3324.369361293767
 30
0.0
 11
20476.35480554595
 21
3324.369361293767
 31
0.0
  0
LINE
  5
331
  8
U14
  6
CONTINUOUS
 62
     7
 10
20516.35480554595
 20
3324.369361293767
 30
0.0
 11
20543.35480554595
 21
3324.369361293767
 31
0.0
  0
LINE
  5
332
  8
U14
  6
CONTINUOUS
 62
     7
 10
19462.35480554595
 20
3259.683572680694
 30
0.0
 11
19462.35480554595
 21
3260.683572680694
 31
0.0
  0
LINE
  5
333
  8
U14
  6
CONTINUOUS
 62
     7
 10
19462.35480554595
 20
2575.869361293695
 30
0.0
 11
19462.35480554595
 21
3259.683572680694
 31
0.0
  0
LINE
  5
334
  8
U14
  6
CONTINUOUS
 62
     7
 10
19458.35480554595
 20
3259.683572680694
 30
0.0
 11
19462.35480554595
 21
3259.683572680694
 31
0.0
  0
LINE
  5
335
  8
U14
  6
CONTINUOUS
 62
     7
 10
19458.35480554595
 20
3287.683572680694
 30
0.0
 11
19458.35480554595
 21
3259.683572680694
 31
0.0
  0
LINE
  5
336
  8
U14
  6
CONTINUOUS
 62
     7
 10
19447.35480554595
 20
2575.869361293695
 30
0.0
 11
19462.35480554595
 21
2575.869361293695
 31
0.0
  0
LINE
  5
337
  8
U14
  6
CONTINUOUS
 62
     7
 10
19447.35480554595
 20
3287.683572680694
 30
0.0
 11
19447.35480554595
 21
2575.869361293695
 31
0.0
  0
LINE
  5
338
  8
U14
  6
CONTINUOUS
 62
     7
 10
19458.35480554595
 20
3321.369361293767
 30
0.0
 11
19459.35480554595
 21
3321.369361293767
 31
0.0
  0
LINE
  5
339
  8
U14
  6
CONTINUOUS
 62
     7
 10
19447.35480554595
 20
3325.869361293767
 30
0.0
 11
19458.35480554595
 21
3325.869361293767
 31
0.0
  0
LINE
  5
33A
  8
U14
  6
CONTINUOUS
 62
     7
 10
20540.35480554595
 20
3259.683572680694
 30
0.0
 11
20540.35480554595
 21
3260.683572680694
 31
0.0
  0
LINE
  5
33B
  8
U14
  6
CONTINUOUS
 62
     7
 10
20540.35480554595
 20
2575.869361293695
 30
0.0
 11
20540.35480554595
 21
3259.683572680694
 31
0.0
  0
LINE
  5
33C
  8
U14
  6
CONTINUOUS
 62
     7
 10
20544.35480554595
 20
3259.683572680694
 30
0.0
 11
20540.35480554595
 21
3259.683572680694
 31
0.0
  0
LINE
  5
33D
  8
U14
  6
CONTINUOUS
 62
     7
 10
20544.35480554595
 20
3287.683572680694
 30
0.0
 11
20544.35480554595
 21
3259.683572680694
 31
0.0
  0
LINE
  5
33E
  8
U14
  6
CONTINUOUS
 62
     7
 10
20555.35480554595
 20
2575.869361293695
 30
0.0
 11
20540.35480554595
 21
2575.869361293695
 31
0.0
  0
LINE
  5
33F
  8
U14
  6
CONTINUOUS
 62
     7
 10
20555.35480554595
 20
3287.683572680694
 30
0.0
 11
20555.35480554595
 21
2575.869361293695
 31
0.0
  0
LINE
  5
340
  8
U14
  6
CONTINUOUS
 62
     7
 10
20543.35480554595
 20
3321.369361293767
 30
0.0
 11
20544.35480554595
 21
3321.369361293767
 31
0.0
  0
LINE
  5
341
  8
U14
  6
CONTINUOUS
 62
     7
 10
20544.35480554595
 20
3325.869361293767
 30
0.0
 11
20555.35480554595
 21
3325.869361293767
 31
0.0
  0
ARC
  5
342
  8
U14
  6
CONTINUOUS
 62
     7
 10
20557.85480554595
 20
2599.369361293709
 30
0.0
 40
3.5
 50
270.0
 51
0.0
  0
LINE
  5
343
  8
U14
  6
CONTINUOUS
 62
     7
 10
20557.85480554595
 20
2815.869361293709
 30
0.0
 11
20555.35480554595
 21
2815.869361293709
 31
0.0
  0
LINE
  5
344
  8
U14
  6
CONTINUOUS
 62
     7
 10
20561.35480554595
 20
2795.869361293704
 30
0.0
 11
20561.35480554595
 21
2615.869361293704
 31
0.0
  0
LINE
  5
345
  8
U14
  6
CONTINUOUS
 62
     7
 10
20557.85480554595
 20
2595.869361293709
 30
0.0
 11
20555.35480554595
 21
2595.869361293709
 31
0.0
  0
ARC
  5
346
  8
U14
  6
CONTINUOUS
 62
     7
 10
20557.85480554595
 20
2812.369361293709
 30
0.0
 40
3.5
 50
0.0
 51
90.0
  0
ARC
  5
347
  8
U14
  6
CONTINUOUS
 62
     7
 10
20557.85480554595
 20
3019.369361293709
 30
0.0
 40
3.5
 50
270.0
 51
0.0
  0
LINE
  5
348
  8
U14
  6
CONTINUOUS
 62
     7
 10
20557.85480554595
 20
3235.869361293709
 30
0.0
 11
20555.35480554595
 21
3235.869361293709
 31
0.0
  0
LINE
  5
349
  8
U14
  6
CONTINUOUS
 62
     7
 10
20561.35480554595
 20
3215.869361293704
 30
0.0
 11
20561.35480554595
 21
3035.869361293704
 31
0.0
  0
LINE
  5
34A
  8
U14
  6
CONTINUOUS
 62
     7
 10
20557.85480554595
 20
3015.869361293709
 30
0.0
 11
20555.35480554595
 21
3015.869361293709
 31
0.0
  0
ARC
  5
34B
  8
U14
  6
CONTINUOUS
 62
     7
 10
20557.85480554595
 20
3232.369361293709
 30
0.0
 40
3.5
 50
0.0
 51
90.0
  0
LINE
  5
34C
  8
U14
  6
CONTINUOUS
 62
     7
 10
20543.35480554595
 20
3312.032330623464
 30
0.0
 11
20543.35480554595
 21
3324.369361293765
 31
0.0
  0
LINE
  5
34D
  8
U14
  6
CONTINUOUS
 62
     7
 10
19459.35480554595
 20
3312.032330623464
 30
0.0
 11
19459.35480554595
 21
3324.369361293765
 31
0.0
  0
LINE
  5
34E
  8
U14
  6
CONTINUOUS
 62
     7
 10
20516.35480554595
 20
3324.369361293767
 30
0.0
 11
20516.35480554595
 21
3324.269083120238
 31
0.0
  0
LINE
  5
34F
  8
U14
  6
CONTINUOUS
 62
     7
 10
20476.35480554595
 20
3324.269083120238
 30
0.0
 11
20476.35480554595
 21
3324.369361293767
 31
0.0
  0
LINE
  5
350
  8
U14
  6
CONTINUOUS
 62
     7
 10
19459.35480554595
 20
3287.683572680694
 30
0.0
 11
19459.35480554595
 21
3312.032330623447
 31
0.0
  0
LINE
  5
351
  8
U14
  6
CONTINUOUS
 62
     7
 10
20543.35480554595
 20
3287.683572680694
 30
0.0
 11
20543.35480554595
 21
3312.032330623447
 31
0.0
  0
LINE
  5
352
  8
U14
  6
CONTINUOUS
 62
     7
 10
19458.35480554595
 20
3313.523070905675
 30
0.0
 11
19458.35480554595
 21
3325.869361293767
 31
0.0
  0
LINE
  5
353
  8
U14
  6
CONTINUOUS
 62
     7
 10
19458.35480554595
 20
3287.683572680694
 30
0.0
 11
19458.35480554595
 21
3313.523070905655
 31
0.0
  0
LINE
  5
354
  8
U14
  6
CONTINUOUS
 62
     7
 10
19447.35480554595
 20
3287.683572680694
 30
0.0
 11
19447.35480554595
 21
3313.523070905655
 31
0.0
  0
LINE
  5
355
  8
U14
  6
CONTINUOUS
 62
     7
 10
19447.35480554595
 20
3313.523070905675
 30
0.0
 11
19447.35480554595
 21
3325.869361293767
 31
0.0
  0
LINE
  5
356
  8
U14
  6
CONTINUOUS
 62
     7
 10
20544.35480554595
 20
3287.683572680694
 30
0.0
 11
20544.35480554595
 21
3313.523070905655
 31
0.0
  0
LINE
  5
357
  8
U14
  6
CONTINUOUS
 62
     7
 10
20544.35480554595
 20
3313.523070905675
 30
0.0
 11
20544.35480554595
 21
3325.869361293767
 31
0.0
  0
LINE
  5
358
  8
U14
  6
CONTINUOUS
 62
     7
 10
20555.35480554595
 20
3287.683572680694
 30
0.0
 11
20555.35480554595
 21
3313.523070905655
 31
0.0
  0
LINE
  5
359
  8
U14
  6
CONTINUOUS
 62
     7
 10
20555.35480554595
 20
3313.523070905675
 30
0.0
 11
20555.35480554595
 21
3325.869361293767
 31
0.0
  0
LINE
  5
35A
  8
U14
  6
CONTINUOUS
 62
     7
 10
20561.35480554595
 20
2599.369361293709
 30
0.0
 11
20561.35480554595
 21
2615.869361293704
 31
0.0
  0
LINE
  5
35B
  8
U14
  6
CONTINUOUS
 62
     7
 10
20561.35480554595
 20
2795.869361293704
 30
0.0
 11
20561.35480554595
 21
2812.369361293709
 31
0.0
  0
LINE
  5
35C
  8
U14
  6
CONTINUOUS
 62
     7
 10
20561.35480554595
 20
3019.369361293709
 30
0.0
 11
20561.35480554595
 21
3035.869361293704
 31
0.0
  0
LINE
  5
35D
  8
U14
  6
CONTINUOUS
 62
     7
 10
20561.35480554595
 20
3215.869361293704
 30
0.0
 11
20561.35480554595
 21
3232.369361293709
 31
0.0
  0
DIMENSION
  5
35E
  8
U14
  6
CONTINUOUS
 62
     7
  2
*D3
 10
19447.35480555209
 20
1776.0
 30
0.0
 11
20001.35480555209
 21
1818.494140625
 31
0.0
 70
    32
  3
HIBINO
 13
20555.35480555209
 23
1921.104650724501
 33
0.0
 14
19447.35480555209
 24
1921.104650724501
 34
0.0
  0
DIMENSION
  5
35F
  8
U14
  6
CONTINUOUS
 62
     7
  2
*D4
 10
19340.0
 20
2411.104650724502
 30
0.0
 11
19297.505859375
 21
2166.104650724502
 31
0.0
 70
    32
  3
HIBINO
 13
19462.35480555208
 23
1921.104650724501
 33
0.0
 14
19462.35480555208
 24
2411.104650724502
 34
0.0
 50
-90.0
  0
DIMENSION
  5
360
  8
U14
  6
CONTINUOUS
 62
     7
  2
*D5
 10
19287.0
 20
1921.104650724501
 30
0.0
 11
19287.0
 21
1788.417572599501
 31
0.0
 70
   160
  3
HIBINO
 13
19520.85480555205
 23
1914.104650724501
 33
0.0
 14
19517.35480555205
 24
1921.104650724501
 34
0.0
 50
-90.0
  0
DIMENSION
  5
363
  8
U14
  6
CONTINUOUS
 62
     7
  2
*D6
 10
20561.35480555205
 20
1827.333333333333
 30
0.0
 11
20687.85423719267
 21
1827.333333333333
 31
0.0
 70
   160
  3
HIBINO
 13
20555.35480555205
 23
1951.104650724501
 33
0.0
 14
20561.35480555205
 24
1954.604650724501
 34
0.0
  0
ARC
  5
366
  8
U14
  6
CONTINUOUS
 62
     7
 10
21572.14629939729
 20
1917.604650724501
 30
0.0
 40
3.5
 50
270.0
 51
0.0
  0
LINE
  5
367
  8
U14
  6
CONTINUOUS
 62
     7
 10
21355.64629939729
 20
1917.604650724501
 30
0.0
 11
21355.64629939729
 21
1921.104650724501
 31
0.0
  0
LINE
  5
368
  8
U14
  6
CONTINUOUS
 62
     7
 10
21375.6462993973
 20
1914.104650724501
 30
0.0
 11
21555.6462993973
 21
1914.104650724501
 31
0.0
  0
LINE
  5
369
  8
U14
  6
CONTINUOUS
 62
     7
 10
21575.64629939729
 20
1921.104650724501
 30
0.0
 11
21575.64629939729
 21
1917.604650724501
 31
0.0
  0
ARC
  5
36A
  8
U14
  6
CONTINUOUS
 62
     7
 10
21359.14629939729
 20
1917.604650724501
 30
0.0
 40
3.5
 50
180.0
 51
270.0
  0
ARC
  5
36B
  8
U14
  6
CONTINUOUS
 62
     7
 10
20967.33208801028
 20
1917.604650724501
 30
0.0
 40
3.5
 50
180.0
 51
270.0
  0
LINE
  5
36C
  8
U14
  6
CONTINUOUS
 62
     7
 10
21183.83208801028
 20
1917.604650724501
 30
0.0
 11
21183.83208801028
 21
1921.104650724501
 31
0.0
  0
LINE
  5
36D
  8
U14
  6
CONTINUOUS
 62
     7
 10
21163.8320880103
 20
1914.104650724501
 30
0.0
 11
20983.8320880103
 21
1914.104650724501
 31
0.0
  0
LINE
  5
36E
  8
U14
  6
CONTINUOUS
 62
     7
 10
20963.83208801028
 20
1917.604650724501
 30
0.0
 11
20963.83208801028
 21
1921.104650724501
 31
0.0
  0
ARC
  5
36F
  8
U14
  6
CONTINUOUS
 62
     7
 10
21180.33208801028
 20
1917.604650724501
 30
0.0
 40
3.5
 50
270.0
 51
0.0
  0
LINE
  5
370
  8
U14
  6
CONTINUOUS
 62
     7
 10
21585.64629939737
 20
2340.104650724502
 30
0.0
 11
21405.64629939737
 21
2340.104650724502
 31
0.0
  0
ARC
  5
371
  8
U14
  6
CONTINUOUS
 62
     7
 10
21405.64629939737
 20
2361.104650724502
 30
0.0
 40
21.0
 50
90.0
 51
270.0
  0
LINE
  5
372
  8
U14
  6
CONTINUOUS
 62
     7
 10
21405.64629939737
 20
2382.104650724502
 30
0.0
 11
21585.64629939737
 21
2382.104650724502
 31
0.0
  0
ARC
  5
373
  8
U14
  6
CONTINUOUS
 62
     7
 10
21585.64629939737
 20
2361.104650724502
 30
0.0
 40
21.0
 50
270.0
 51
90.0
  0
LINE
  5
374
  8
U14
  6
CONTINUOUS
 62
     7
 10
21585.64629939737
 20
1950.104650724502
 30
0.0
 11
21405.64629939737
 21
1950.104650724502
 31
0.0
  0
ARC
  5
375
  8
U14
  6
CONTINUOUS
 62
     7
 10
21405.64629939737
 20
1971.104650724502
 30
0.0
 40
21.0
 50
90.0
 51
270.0
  0
LINE
  5
376
  8
U14
  6
CONTINUOUS
 62
     7
 10
21405.64629939737
 20
1992.104650724502
 30
0.0
 11
21585.64629939737
 21
1992.104650724502
 31
0.0
  0
ARC
  5
377
  8
U14
  6
CONTINUOUS
 62
     7
 10
21585.64629939737
 20
1971.104650724502
 30
0.0
 40
21.0
 50
270.0
 51
90.0
  0
LINE
  5
378
  8
U14
  6
CONTINUOUS
 62
     7
 10
21165.64629939737
 20
1950.104650724502
 30
0.0
 11
20985.64629939737
 21
1950.104650724502
 31
0.0
  0
ARC
  5
379
  8
U14
  6
CONTINUOUS
 62
     7
 10
20985.64629939737
 20
1971.104650724502
 30
0.0
 40
21.0
 50
90.0
 51
270.0
  0
LINE
  5
37A
  8
U14
  6
CONTINUOUS
 62
     7
 10
20985.64629939737
 20
1992.104650724502
 30
0.0
 11
21165.64629939737
 21
1992.104650724502
 31
0.0
  0
ARC
  5
37B
  8
U14
  6
CONTINUOUS
 62
     7
 10
21165.64629939737
 20
1971.104650724502
 30
0.0
 40
21.0
 50
270.0
 51
90.0
  0
LINE
  5
37C
  8
U14
  6
CONTINUOUS
 62
     7
 10
21165.64629939737
 20
2340.104650724502
 30
0.0
 11
20985.64629939737
 21
2340.104650724502
 31
0.0
  0
ARC
  5
37D
  8
U14
  6
CONTINUOUS
 62
     7
 10
20985.64629939737
 20
2361.104650724502
 30
0.0
 40
21.0
 50
90.0
 51
270.0
  0
LINE
  5
37E
  8
U14
  6
CONTINUOUS
 62
     7
 10
20985.64629939737
 20
2382.104650724502
 30
0.0
 11
21165.64629939737
 21
2382.104650724502
 31
0.0
  0
ARC
  5
37F
  8
U14
  6
CONTINUOUS
 62
     7
 10
21165.64629939737
 20
2361.104650724502
 30
0.0
 40
21.0
 50
270.0
 51
90.0
  0
LINE
  5
380
  8
U14
  6
CONTINUOUS
 62
     7
 10
21625.64629939737
 20
2411.104650724502
 30
0.0
 11
20913.83208801036
 21
2411.104650724502
 31
0.0
  0
ARC
  5
381
  8
U14
  6
CONTINUOUS
 62
     7
 10
21465.64629939738
 20
2201.104650724511
 30
0.0
 40
14.99999999998245
 50
356.973369851339
 51
93.02663014874082
  0
ARC
  5
382
  8
U14
  6
CONTINUOUS
 62
     7
 10
21430.64629939736
 20
2331.104650724515
 30
0.0
 40
120.0000000000203
 50
253.4371671140015
 51
286.5628328859985
  0
ARC
  5
383
  8
U14
  6
CONTINUOUS
 62
     7
 10
21395.64629939738
 20
2201.10465072446
 30
0.0
 40
15.00000000002488
 50
86.9733698512675
 51
183.0265272403391
  0
ARC
  5
384
  8
U14
  6
CONTINUOUS
 62
     7
 10
21265.64629939725
 20
2166.104672845187
 30
0.0
 40
120.0000000001185
 50
343.4371694966194
 51
16.5628352685693
  0
ARC
  5
385
  8
U14
  6
CONTINUOUS
 62
     7
 10
21395.64629939741
 20
2131.104650724556
 30
0.0
 40
15.00000000006165
 50
176.9732669435795
 51
273.0266301483214
  0
ARC
  5
386
  8
U14
  6
CONTINUOUS
 62
     7
 10
21595.64629939737
 20
2166.104650724502
 30
0.0
 40
120.0000000000058
 50
163.437167113995
 51
196.562832886005
  0
ARC
  5
387
  8
U14
  6
CONTINUOUS
 62
     7
 10
21465.64629939738
 20
2131.104650724476
 30
0.0
 40
14.99999999998401
 50
266.9733698512592
 51
3.026630148713082
  0
ARC
  5
388
  8
U14
  6
CONTINUOUS
 62
     7
 10
21430.64629939738
 20
2001.104650724531
 30
0.0
 40
119.9999999999649
 50
73.43716711400269
 51
106.5628328859973
  0
ARC
  5
389
  8
U14
  6
CONTINUOUS
 62
     7
 10
21105.64629939735
 20
2201.10465072446
 30
0.0
 40
15.00000000002399
 50
356.9734727596609
 51
93.02663014873254
  0
ARC
  5
38A
  8
U14
  6
CONTINUOUS
 62
     7
 10
21070.64629939737
 20
2331.104650724515
 30
0.0
 40
120.0000000000207
 50
253.4371671140016
 51
286.5628328859984
  0
ARC
  5
38B
  8
U14
  6
CONTINUOUS
 62
     7
 10
21035.64629939735
 20
2201.104650724511
 30
0.0
 40
14.99999999998332
 50
86.97336985125912
 51
183.026630148661
  0
ARC
  5
38C
  8
U14
  6
CONTINUOUS
 62
     7
 10
20905.64629939736
 20
2166.104650724501
 30
0.0
 40
120.0000000000055
 50
343.4371671139954
 51
16.56283288600446
  0
ARC
  5
38D
  8
U14
  6
CONTINUOUS
 62
     7
 10
21035.64629939735
 20
2131.104650724476
 30
0.0
 40
14.99999999998317
 50
176.9733698512869
 51
273.0266301487407
  0
ARC
  5
38E
  8
U14
  6
CONTINUOUS
 62
     7
 10
21235.64629939748
 20
2166.104672845187
 30
0.0
 40
120.0000000001177
 50
163.4371647314308
 51
196.5628305033807
  0
ARC
  5
38F
  8
U14
  6
CONTINUOUS
 62
     7
 10
21105.64629939733
 20
2131.104650724556
 30
0.0
 40
15.00000000006199
 50
266.9733698516786
 51
3.026733056420539
  0
ARC
  5
390
  8
U14
  6
CONTINUOUS
 62
     7
 10
21070.64629939735
 20
2001.10465072453
 30
0.0
 40
119.9999999999656
 50
73.43716711400278
 51
106.5628328859972
  0
ARC
  5
391
  8
U14
  6
CONTINUOUS
 62
     7
 10
20913.83208801036
 20
2385.104650724502
 30
0.0
 40
25.99999999999932
 50
90.0
 51
173.6303650530837
  0
LINE
  5
392
  8
U14
  6
CONTINUOUS
 62
     7
 10
21625.64629939737
 20
1921.104650724501
 30
0.0
 11
21625.64629939737
 21
2411.104650724502
 31
0.0
  0
LINE
  5
393
  8
U14
  6
CONTINUOUS
 62
     7
 10
20913.83208801036
 20
1921.104650724501
 30
0.0
 11
21625.64629939737
 21
1921.104650724501
 31
0.0
  0
ARC
  5
394
  8
U14
  6
CONTINUOUS
 62
     7
 10
20913.83208801036
 20
1947.104650724501
 30
0.0
 40
25.99999999999956
 50
186.3696349469159
 51
270.0
  0
ARC
  5
395
  8
U14
  6
CONTINUOUS
 62
     7
 10
22875.64629939737
 20
2166.104650724502
 30
0.0
 40
2000.000000000007
 50
173.6303650530836
 51
186.3696349469163
  0
ARC
  5
396
  8
U14
  6
CONTINUOUS
 62
     7
 10
21405.64629939737
 20
1971.104650724501
 30
0.0
 40
3.200000000000728
 50
180.0
 51
0.0
  0
ARC
  5
397
  8
U14
  6
CONTINUOUS
 62
     7
 10
21405.64629939737
 20
1971.104650724501
 30
0.0
 40
6.299999999999272
 50
180.0
 51
0.0
  0
ARC
  5
398
  8
U14
  6
CONTINUOUS
 62
     7
 10
21585.64629939737
 20
1971.104650724501
 30
0.0
 40
3.200000000000728
 50
180.0
 51
0.0
  0
ARC
  5
399
  8
U14
  6
CONTINUOUS
 62
     7
 10
21585.64629939737
 20
1971.104650724501
 30
0.0
 40
6.299999999999272
 50
180.0
 51
0.0
  0
ARC
  5
39A
  8
U14
  6
CONTINUOUS
 62
     7
 10
21585.64629939737
 20
1971.104650724501
 30
0.0
 40
19.99999999999977
 50
270.0
 51
0.0
  0
ARC
  5
39B
  8
U14
  6
CONTINUOUS
 62
     7
 10
21405.64629939737
 20
1971.104650724501
 30
0.0
 40
20.0
 50
180.0
 51
270.0
  0
ARC
  5
39C
  8
U14
  6
CONTINUOUS
 62
     7
 10
21585.64629939737
 20
1971.104650724501
 30
0.0
 40
6.299999999999272
 50
0.0
 51
180.0
  0
ARC
  5
39D
  8
U14
  6
CONTINUOUS
 62
     7
 10
21405.64629939737
 20
1971.104650724501
 30
0.0
 40
6.299999999999272
 50
0.0
 51
180.0
  0
ARC
  5
39E
  8
U14
  6
CONTINUOUS
 62
     7
 10
21405.64629939737
 20
1971.104650724502
 30
0.0
 40
19.99999999999977
 50
90.0
 51
180.0
  0
LINE
  5
39F
  8
U14
  6
CONTINUOUS
 62
     7
 10
21585.64629939737
 20
1951.104650724501
 30
0.0
 11
21405.64629939737
 21
1951.104650724501
 31
0.0
  0
ARC
  5
3A0
  8
U14
  6
CONTINUOUS
 62
     7
 10
21585.64629939737
 20
1971.104650724502
 30
0.0
 40
20.0
 50
0.0
 51
90.0
  0
LINE
  5
3A1
  8
U14
  6
CONTINUOUS
 62
     7
 10
21405.64629939737
 20
1991.104650724501
 30
0.0
 11
21585.64629939737
 21
1991.104650724501
 31
0.0
  0
ARC
  5
3A2
  8
U14
  6
CONTINUOUS
 62
     7
 10
21405.64629939737
 20
1971.104650724501
 30
0.0
 40
3.200000000000728
 50
0.0
 51
180.0
  0
ARC
  5
3A3
  8
U14
  6
CONTINUOUS
 62
     7
 10
21585.64629939737
 20
1971.104650724501
 30
0.0
 40
3.200000000000728
 50
0.0
 51
180.0
  0
ARC
  5
3A4
  8
U14
  6
CONTINUOUS
 62
     7
 10
20985.64629939737
 20
1971.104650724501
 30
0.0
 40
3.200000000000728
 50
180.0
 51
0.0
  0
ARC
  5
3A5
  8
U14
  6
CONTINUOUS
 62
     7
 10
20985.64629939737
 20
1971.104650724501
 30
0.0
 40
6.299999999999272
 50
180.0
 51
0.0
  0
ARC
  5
3A6
  8
U14
  6
CONTINUOUS
 62
     7
 10
21165.64629939737
 20
1971.104650724501
 30
0.0
 40
3.200000000000728
 50
180.0
 51
0.0
  0
ARC
  5
3A7
  8
U14
  6
CONTINUOUS
 62
     7
 10
21165.64629939737
 20
1971.104650724501
 30
0.0
 40
6.299999999999272
 50
180.0
 51
0.0
  0
ARC
  5
3A8
  8
U14
  6
CONTINUOUS
 62
     7
 10
21165.64629939737
 20
1971.104650724501
 30
0.0
 40
19.99999999999977
 50
270.0
 51
0.0
  0
ARC
  5
3A9
  8
U14
  6
CONTINUOUS
 62
     7
 10
20985.64629939737
 20
1971.104650724501
 30
0.0
 40
20.0
 50
180.0
 51
270.0
  0
ARC
  5
3AA
  8
U14
  6
CONTINUOUS
 62
     7
 10
21165.64629939737
 20
1971.104650724501
 30
0.0
 40
6.299999999999272
 50
0.0
 51
180.0
  0
ARC
  5
3AB
  8
U14
  6
CONTINUOUS
 62
     7
 10
20985.64629939737
 20
1971.104650724501
 30
0.0
 40
6.299999999999272
 50
0.0
 51
180.0
  0
ARC
  5
3AC
  8
U14
  6
CONTINUOUS
 62
     7
 10
20985.64629939737
 20
1971.104650724502
 30
0.0
 40
19.99999999999977
 50
90.0
 51
180.0
  0
LINE
  5
3AD
  8
U14
  6
CONTINUOUS
 62
     7
 10
21165.64629939737
 20
1951.104650724501
 30
0.0
 11
20985.64629939737
 21
1951.104650724501
 31
0.0
  0
ARC
  5
3AE
  8
U14
  6
CONTINUOUS
 62
     7
 10
21165.64629939737
 20
1971.104650724502
 30
0.0
 40
20.0
 50
0.0
 51
90.0
  0
LINE
  5
3AF
  8
U14
  6
CONTINUOUS
 62
     7
 10
20985.64629939737
 20
1991.104650724501
 30
0.0
 11
21165.64629939737
 21
1991.104650724501
 31
0.0
  0
ARC
  5
3B0
  8
U14
  6
CONTINUOUS
 62
     7
 10
20985.64629939737
 20
1971.104650724501
 30
0.0
 40
3.200000000000728
 50
0.0
 51
180.0
  0
ARC
  5
3B1
  8
U14
  6
CONTINUOUS
 62
     7
 10
21165.64629939737
 20
1971.104650724501
 30
0.0
 40
3.200000000000728
 50
0.0
 51
180.0
  0
ARC
  5
3B2
  8
U14
  6
CONTINUOUS
 62
     7
 10
21405.64629939737
 20
2361.104650724502
 30
0.0
 40
3.200000000000728
 50
0.0
 51
180.0
  0
ARC
  5
3B3
  8
U14
  6
CONTINUOUS
 62
     7
 10
21405.64629939737
 20
2361.104650724502
 30
0.0
 40
6.299999999999272
 50
0.0
 51
180.0
  0
ARC
  5
3B4
  8
U14
  6
CONTINUOUS
 62
     7
 10
21585.64629939737
 20
2361.104650724502
 30
0.0
 40
3.200000000000728
 50
0.0
 51
180.0
  0
ARC
  5
3B5
  8
U14
  6
CONTINUOUS
 62
     7
 10
21585.64629939737
 20
2361.104650724502
 30
0.0
 40
6.299999999999272
 50
0.0
 51
180.0
  0
ARC
  5
3B6
  8
U14
  6
CONTINUOUS
 62
     7
 10
21585.64629939737
 20
2361.104650724502
 30
0.0
 40
20.0
 50
0.0
 51
90.0
  0
ARC
  5
3B7
  8
U14
  6
CONTINUOUS
 62
     7
 10
21405.64629939737
 20
2361.104650724502
 30
0.0
 40
19.99999999999977
 50
90.0
 51
180.0
  0
ARC
  5
3B8
  8
U14
  6
CONTINUOUS
 62
     7
 10
21585.64629939737
 20
2361.104650724502
 30
0.0
 40
6.299999999999272
 50
180.0
 51
0.0
  0
ARC
  5
3B9
  8
U14
  6
CONTINUOUS
 62
     7
 10
21405.64629939737
 20
2361.104650724502
 30
0.0
 40
6.299999999999272
 50
180.0
 51
0.0
  0
ARC
  5
3BA
  8
U14
  6
CONTINUOUS
 62
     7
 10
21405.64629939737
 20
2361.104650724502
 30
0.0
 40
20.0
 50
180.0
 51
270.0
  0
LINE
  5
3BB
  8
U14
  6
CONTINUOUS
 62
     7
 10
21585.64629939737
 20
2381.104650724502
 30
0.0
 11
21405.64629939737
 21
2381.104650724502
 31
0.0
  0
ARC
  5
3BC
  8
U14
  6
CONTINUOUS
 62
     7
 10
21585.64629939737
 20
2361.104650724502
 30
0.0
 40
19.99999999999977
 50
270.0
 51
0.0
  0
LINE
  5
3BD
  8
U14
  6
CONTINUOUS
 62
     7
 10
21405.64629939737
 20
2341.104650724502
 30
0.0
 11
21585.64629939737
 21
2341.104650724502
 31
0.0
  0
ARC
  5
3BE
  8
U14
  6
CONTINUOUS
 62
     7
 10
21405.64629939737
 20
2361.104650724502
 30
0.0
 40
3.200000000000728
 50
180.0
 51
0.0
  0
ARC
  5
3BF
  8
U14
  6
CONTINUOUS
 62
     7
 10
21585.64629939737
 20
2361.104650724502
 30
0.0
 40
3.200000000000728
 50
180.0
 51
0.0
  0
ARC
  5
3C0
  8
U14
  6
CONTINUOUS
 62
     7
 10
20985.64629939737
 20
2361.104650724502
 30
0.0
 40
3.200000000000728
 50
0.0
 51
180.0
  0
ARC
  5
3C1
  8
U14
  6
CONTINUOUS
 62
     7
 10
20985.64629939737
 20
2361.104650724502
 30
0.0
 40
6.299999999999272
 50
0.0
 51
180.0
  0
ARC
  5
3C2
  8
U14
  6
CONTINUOUS
 62
     7
 10
21165.64629939737
 20
2361.104650724502
 30
0.0
 40
3.200000000000728
 50
0.0
 51
180.0
  0
ARC
  5
3C3
  8
U14
  6
CONTINUOUS
 62
     7
 10
21165.64629939737
 20
2361.104650724502
 30
0.0
 40
6.299999999999272
 50
0.0
 51
180.0
  0
ARC
  5
3C4
  8
U14
  6
CONTINUOUS
 62
     7
 10
21165.64629939737
 20
2361.104650724502
 30
0.0
 40
20.0
 50
0.0
 51
90.0
  0
ARC
  5
3C5
  8
U14
  6
CONTINUOUS
 62
     7
 10
20985.64629939737
 20
2361.104650724502
 30
0.0
 40
19.99999999999977
 50
90.0
 51
180.0
  0
ARC
  5
3C6
  8
U14
  6
CONTINUOUS
 62
     7
 10
21165.64629939737
 20
2361.104650724502
 30
0.0
 40
6.299999999999272
 50
180.0
 51
0.0
  0
ARC
  5
3C7
  8
U14
  6
CONTINUOUS
 62
     7
 10
20985.64629939737
 20
2361.104650724502
 30
0.0
 40
6.299999999999272
 50
180.0
 51
0.0
  0
ARC
  5
3C8
  8
U14
  6
CONTINUOUS
 62
     7
 10
20985.64629939737
 20
2361.104650724502
 30
0.0
 40
20.0
 50
180.0
 51
270.0
  0
LINE
  5
3C9
  8
U14
  6
CONTINUOUS
 62
     7
 10
21165.64629939737
 20
2381.104650724502
 30
0.0
 11
20985.64629939737
 21
2381.104650724502
 31
0.0
  0
ARC
  5
3CA
  8
U14
  6
CONTINUOUS
 62
     7
 10
21165.64629939737
 20
2361.104650724502
 30
0.0
 40
19.99999999999977
 50
270.0
 51
0.0
  0
LINE
  5
3CB
  8
U14
  6
CONTINUOUS
 62
     7
 10
20985.64629939737
 20
2341.104650724502
 30
0.0
 11
21165.64629939737
 21
2341.104650724502
 31
0.0
  0
ARC
  5
3CC
  8
U14
  6
CONTINUOUS
 62
     7
 10
20985.64629939737
 20
2361.104650724502
 30
0.0
 40
3.200000000000728
 50
180.0
 51
0.0
  0
ARC
  5
3CD
  8
U14
  6
CONTINUOUS
 62
     7
 10
21165.64629939737
 20
2361.104650724502
 30
0.0
 40
3.200000000000728
 50
180.0
 51
0.0
  0
LINE
  5
3CE
  8
U14
  6
CONTINUOUS
 62
     7
 10
21572.14629939729
 20
1914.104650724501
 30
0.0
 11
21555.6462993973
 21
1914.104650724501
 31
0.0
  0
LINE
  5
3CF
  8
U14
  6
CONTINUOUS
 62
     7
 10
21375.6462993973
 20
1914.104650724501
 30
0.0
 11
21359.14629939729
 21
1914.104650724501
 31
0.0
  0
LINE
  5
3D0
  8
U14
  6
CONTINUOUS
 62
     7
 10
20967.33208801028
 20
1914.104650724501
 30
0.0
 11
20983.8320880103
 21
1914.104650724501
 31
0.0
  0
LINE
  5
3D1
  8
U14
  6
CONTINUOUS
 62
     7
 10
21163.8320880103
 20
1914.104650724501
 30
0.0
 11
21180.33208801028
 21
1914.104650724501
 31
0.0
  0
ARC
  5
3D2
  8
U14
  6
CONTINUOUS
 62
     7
 10
18349.13542293583
 20
1917.604650724501
 30
0.0
 40
3.5
 50
180.0
 51
270.0
  0
LINE
  5
3D3
  8
U14
  6
CONTINUOUS
 62
     7
 10
18565.63542293583
 20
1917.604650724501
 30
0.0
 11
18565.63542293583
 21
1921.104650724501
 31
0.0
  0
LINE
  5
3D4
  8
U14
  6
CONTINUOUS
 62
     7
 10
18545.63542293584
 20
1914.104650724501
 30
0.0
 11
18365.63542293584
 21
1914.104650724501
 31
0.0
  0
LINE
  5
3D5
  8
U14
  6
CONTINUOUS
 62
     7
 10
18345.63542293583
 20
1917.604650724501
 30
0.0
 11
18345.63542293583
 21
1921.104650724501
 31
0.0
  0
ARC
  5
3D6
  8
U14
  6
CONTINUOUS
 62
     7
 10
18562.13542293583
 20
1917.604650724501
 30
0.0
 40
3.5
 50
270.0
 51
0.0
  0
ARC
  5
3D7
  8
U14
  6
CONTINUOUS
 62
     7
 10
18953.94963432283
 20
1917.604650724501
 30
0.0
 40
3.5
 50
270.0
 51
0.0
  0
LINE
  5
3D8
  8
U14
  6
CONTINUOUS
 62
     7
 10
18737.44963432283
 20
1917.604650724501
 30
0.0
 11
18737.44963432283
 21
1921.104650724501
 31
0.0
  0
LINE
  5
3D9
  8
U14
  6
CONTINUOUS
 62
     7
 10
18757.44963432284
 20
1914.104650724501
 30
0.0
 11
18937.44963432284
 21
1914.104650724501
 31
0.0
  0
LINE
  5
3DA
  8
U14
  6
CONTINUOUS
 62
     7
 10
18957.44963432283
 20
1921.104650724501
 30
0.0
 11
18957.44963432283
 21
1917.604650724501
 31
0.0
  0
ARC
  5
3DB
  8
U14
  6
CONTINUOUS
 62
     7
 10
18740.94963432283
 20
1917.604650724501
 30
0.0
 40
3.5
 50
180.0
 51
270.0
  0
CIRCLE
  5
3DC
  8
U14
  6
CONTINUOUS
 62
     7
 10
18670.63542293586
 20
2166.104650724501
 30
0.0
 40
53.5
  0
LINE
  5
3DD
  8
U14
  6
CONTINUOUS
 62
     7
 10
18295.63542293586
 20
2411.104650724502
 30
0.0
 11
19007.44963432286
 21
2411.104650724502
 31
0.0
  0
ARC
  5
3DE
  8
U14
  6
CONTINUOUS
 62
     7
 10
18455.63542293584
 20
2201.104650724511
 30
0.0
 40
14.99999999998355
 50
86.97336985125916
 51
183.026630148661
  0
ARC
  5
3DF
  8
U14
  6
CONTINUOUS
 62
     7
 10
18490.63542293586
 20
2331.104650724515
 30
0.0
 40
120.0000000000205
 50
253.4371671140015
 51
286.5628328859985
  0
ARC
  5
3E0
  8
U14
  6
CONTINUOUS
 62
     7
 10
18525.63542293585
 20
2201.10465072446
 30
0.0
 40
15.00000000002399
 50
356.9734727596609
 51
93.02663014873248
  0
ARC
  5
3E1
  8
U14
  6
CONTINUOUS
 62
     7
 10
18655.63542293597
 20
2166.104672845187
 30
0.0
 40
120.0000000001177
 50
163.4371647314308
 51
196.5628305033806
  0
ARC
  5
3E2
  8
U14
  6
CONTINUOUS
 62
     7
 10
18525.63542293582
 20
2131.104650724556
 30
0.0
 40
15.00000000006222
 50
266.9733698516786
 51
3.026733056420539
  0
ARC
  5
3E3
  8
U14
  6
CONTINUOUS
 62
     7
 10
18325.63542293585
 20
2166.104650724502
 30
0.0
 40
120.0000000000057
 50
343.4371671139951
 51
16.56283288600491
  0
ARC
  5
3E4
  8
U14
  6
CONTINUOUS
 62
     7
 10
18455.63542293584
 20
2131.104650724476
 30
0.0
 40
14.99999999998317
 50
176.9733698512869
 51
273.0266301487408
  0
ARC
  5
3E5
  8
U14
  6
CONTINUOUS
 62
     7
 10
18490.63542293584
 20
2001.104650724531
 30
0.0
 40
119.9999999999647
 50
73.43716711400265
 51
106.5628328859974
  0
ARC
  5
3E6
  8
U14
  6
CONTINUOUS
 62
     7
 10
18815.63542293587
 20
2201.10465072446
 30
0.0
 40
15.00000000002488
 50
86.9733698512675
 51
183.0265272403391
  0
ARC
  5
3E7
  8
U14
  6
CONTINUOUS
 62
     7
 10
18850.63542293586
 20
2331.104650724515
 30
0.0
 40
120.0000000000211
 50
253.4371671140016
 51
286.5628328859984
  0
ARC
  5
3E8
  8
U14
  6
CONTINUOUS
 62
     7
 10
18885.63542293588
 20
2201.104650724511
 30
0.0
 40
14.99999999998245
 50
356.973369851339
 51
93.02663014874086
  0
ARC
  5
3E9
  8
U14
  6
CONTINUOUS
 62
     7
 10
19015.63542293587
 20
2166.104650724501
 30
0.0
 40
120.0000000000056
 50
163.4371671139953
 51
196.5628328860047
  0
ARC
  5
3EA
  8
U14
  6
CONTINUOUS
 62
     7
 10
18885.63542293588
 20
2131.104650724476
 30
0.0
 40
14.99999999998423
 50
266.9733698512593
 51
3.026630148713082
  0
ARC
  5
3EB
  8
U14
  6
CONTINUOUS
 62
     7
 10
18685.63542293574
 20
2166.104672845187
 30
0.0
 40
120.0000000001185
 50
343.4371694966194
 51
16.5628352685693
  0
ARC
  5
3EC
  8
U14
  6
CONTINUOUS
 62
     7
 10
18815.6354229359
 20
2131.104650724556
 30
0.0
 40
15.00000000006165
 50
176.9732669435795
 51
273.0266301483214
  0
ARC
  5
3ED
  8
U14
  6
CONTINUOUS
 62
     7
 10
18850.63542293587
 20
2001.10465072453
 30
0.0
 40
119.9999999999652
 50
73.43716711400273
 51
106.5628328859973
  0
ARC
  5
3EE
  8
U14
  6
CONTINUOUS
 62
     7
 10
19007.44963432286
 20
2385.104650724502
 30
0.0
 40
25.99999999999959
 50
6.369634946916348
 51
90.0
  0
LINE
  5
3EF
  8
U14
  6
CONTINUOUS
 62
     7
 10
18295.63542293586
 20
1921.104650724501
 30
0.0
 11
18295.63542293586
 21
2411.104650724502
 31
0.0
  0
LINE
  5
3F0
  8
U14
  6
CONTINUOUS
 62
     7
 10
19007.44963432286
 20
1921.104650724501
 30
0.0
 11
18295.63542293586
 21
1921.104650724501
 31
0.0
  0
ARC
  5
3F1
  8
U14
  6
CONTINUOUS
 62
     7
 10
19007.44963432286
 20
1947.104650724501
 30
0.0
 40
26.0
 50
270.0
 51
353.6303650530842
  0
ARC
  5
3F2
  8
U14
  6
CONTINUOUS
 62
     7
 10
17045.63542293585
 20
2166.104650724502
 30
0.0
 40
2000.000000000007
 50
353.6303650530837
 51
6.369634946916449
  0
CIRCLE
  5
3F3
  8
U14
  6
CONTINUOUS
 62
     7
 10
18698.91969418332
 20
2194.388921971963
 30
0.0
 40
3.5
  0
CIRCLE
  5
3F4
  8
U14
  6
CONTINUOUS
 62
     7
 10
18642.35115168839
 20
2137.82037947704
 30
0.0
 40
3.5
  0
CIRCLE
  5
3F5
  8
U14
  6
CONTINUOUS
 62
     7
 10
18698.91969418332
 20
2137.82037947704
 30
0.0
 40
3.5
  0
CIRCLE
  5
3F6
  8
U14
  6
CONTINUOUS
 62
     7
 10
18642.35115168839
 20
2194.388921971963
 30
0.0
 40
3.5
  0
ARC
  5
3F7
  8
U14
  6
CONTINUOUS
 62
     7
 10
18670.63542293586
 20
2166.104650724501
 30
0.0
 40
9.250000000000597
 50
314.9999999999383
 51
134.9999999999383
  0
ARC
  5
3F8
  8
U14
  6
CONTINUOUS
 62
     7
 10
18670.63542293586
 20
2166.104650724501
 30
0.0
 40
10.24999999999996
 50
314.9999999999344
 51
134.9999999999344
  0
ARC
  5
3F9
  8
U14
  6
CONTINUOUS
 62
     7
 10
18670.63542293586
 20
2166.104650724501
 30
0.0
 40
52.50000000000003
 50
134.9999999999353
 51
314.9999999999354
  0
ARC
  5
3FA
  8
U14
  6
CONTINUOUS
 62
     7
 10
18642.3511516884
 20
2194.388921971964
 30
0.0
 40
4.000000000000032
 50
314.9999999999355
 51
134.9999999999355
  0
ARC
  5
3FB
  8
U14
  6
CONTINUOUS
 62
     7
 10
18642.3511516884
 20
2194.388921971964
 30
0.0
 40
6.500000000000616
 50
314.9999999999475
 51
134.9999999999476
  0
ARC
  5
3FC
  8
U14
  6
CONTINUOUS
 62
     7
 10
18698.91969418332
 20
2194.388921971963
 30
0.0
 40
4.000000000000032
 50
314.9999999999355
 51
134.9999999999355
  0
ARC
  5
3FD
  8
U14
  6
CONTINUOUS
 62
     7
 10
18698.91969418332
 20
2194.388921971963
 30
0.0
 40
6.500000000000616
 50
314.9999999999475
 51
134.9999999999476
  0
ARC
  5
3FE
  8
U14
  6
CONTINUOUS
 62
     7
 10
18698.91969418332
 20
2137.820379477039
 30
0.0
 40
4.000000000000032
 50
314.9999999999355
 51
134.9999999999355
  0
ARC
  5
3FF
  8
U14
  6
CONTINUOUS
 62
     7
 10
18698.91969418332
 20
2137.820379477039
 30
0.0
 40
6.500000000000616
 50
314.9999999999475
 51
134.9999999999476
  0
ARC
  5
400
  8
U14
  6
CONTINUOUS
 62
     7
 10
18642.3511516884
 20
2137.82037947704
 30
0.0
 40
4.000000000000032
 50
314.9999999999355
 51
134.9999999999355
  0
ARC
  5
401
  8
U14
  6
CONTINUOUS
 62
     7
 10
18642.3511516884
 20
2137.82037947704
 30
0.0
 40
6.500000000000616
 50
314.9999999999475
 51
134.9999999999476
  0
ARC
  5
402
  8
U14
  6
CONTINUOUS
 62
     7
 10
18670.63542293586
 20
2166.104650724501
 30
0.0
 40
52.49999999999986
 50
314.9999999999354
 51
134.9999999999354
  0
ARC
  5
403
  8
U14
  6
CONTINUOUS
 62
     7
 10
18670.63542293586
 20
2166.104650724501
 30
0.0
 40
10.24999999999996
 50
134.9999999999344
 51
314.9999999999344
  0
ARC
  5
404
  8
U14
  6
CONTINUOUS
 62
     7
 10
18642.3511516884
 20
2137.82037947704
 30
0.0
 40
6.500000000000455
 50
134.999999999949
 51
314.999999999949
  0
ARC
  5
405
  8
U14
  6
CONTINUOUS
 62
     7
 10
18698.91969418332
 20
2137.820379477039
 30
0.0
 40
6.500000000000616
 50
134.9999999999476
 51
314.9999999999475
  0
ARC
  5
406
  8
U14
  6
CONTINUOUS
 62
     7
 10
18698.91969418332
 20
2194.388921971963
 30
0.0
 40
6.500000000000455
 50
134.999999999949
 51
314.999999999949
  0
ARC
  5
407
  8
U14
  6
CONTINUOUS
 62
     7
 10
18642.3511516884
 20
2194.388921971964
 30
0.0
 40
6.500000000000616
 50
134.9999999999476
 51
314.9999999999475
  0
ARC
  5
408
  8
U14
  6
CONTINUOUS
 62
     7
 10
18642.3511516884
 20
2137.82037947704
 30
0.0
 40
4.000000000000193
 50
134.9999999999332
 51
314.9999999999333
  0
ARC
  5
409
  8
U14
  6
CONTINUOUS
 62
     7
 10
18642.3511516884
 20
2194.388921971964
 30
0.0
 40
4.000000000000032
 50
134.9999999999355
 51
314.9999999999355
  0
ARC
  5
40A
  8
U14
  6
CONTINUOUS
 62
     7
 10
18698.91969418332
 20
2194.388921971963
 30
0.0
 40
4.000000000000032
 50
134.9999999999355
 51
314.9999999999355
  0
ARC
  5
40B
  8
U14
  6
CONTINUOUS
 62
     7
 10
18698.91969418332
 20
2137.820379477039
 30
0.0
 40
4.000000000000032
 50
134.9999999999355
 51
314.9999999999355
  0
ARC
  5
40C
  8
U14
  6
CONTINUOUS
 62
     7
 10
18670.63542293586
 20
2166.104650724501
 30
0.0
 40
9.250000000000597
 50
134.9999999999383
 51
314.9999999999383
  0
LINE
  5
40D
  8
U14
  6
CONTINUOUS
 62
     7
 10
18349.13542293583
 20
1914.104650724501
 30
0.0
 11
18365.63542293584
 21
1914.104650724501
 31
0.0
  0
LINE
  5
40E
  8
U14
  6
CONTINUOUS
 62
     7
 10
18545.63542293584
 20
1914.104650724501
 30
0.0
 11
18562.13542293583
 21
1914.104650724501
 31
0.0
  0
LINE
  5
40F
  8
U14
  6
CONTINUOUS
 62
     7
 10
18953.94963432283
 20
1914.104650724501
 30
0.0
 11
18937.44963432284
 21
1914.104650724501
 31
0.0
  0
LINE
  5
410
  8
U14
  6
CONTINUOUS
 62
     7
 10
18757.44963432284
 20
1914.104650724501
 30
0.0
 11
18740.94963432283
 21
1914.104650724501
 31
0.0
  0
DIMENSION
  5
411
  8
U14
  6
CONTINUOUS
 62
     7
  2
*D7
 10
20875.64629939736
 20
1776.0
 30
0.0
 11
21250.64629939736
 21
1818.494140625
 31
0.0
 70
    32
  3
HIBINO
 13
21625.64629939737
 23
2166.104650724501
 33
0.0
 14
20875.64629939736
 24
2166.104650724503
 34
0.0
  0
DIMENSION
  5
412
  8
U14
  6
CONTINUOUS
 62
     7
  2
*D8
 10
20561.35480555205
 20
1644.0
 30
0.0
 11
20004.35480555207
 21
1686.494140625
 31
0.0
 70
    32
  3
HIBINO
 13
19447.35480555209
 23
1921.104650724501
 33
0.0
 14
20561.35480555205
 24
1954.604650724501
 34
0.0
  0
DIMENSION
  5
413
  8
U14
  6
CONTINUOUS
 62
     7
  2
*D9
 10
19198.0
 20
2411.104650724502
 30
0.0
 11
19155.505859375
 21
2162.604650724502
 31
0.0
 70
    32
  3
HIBINO
 13
19537.35480555206
 23
1914.104650724501
 33
0.0
 14
19447.35480555209
 24
2411.104650724502
 34
0.0
 50
-90.0
  0
DIMENSION
  5
414
  8
U14
  6
CONTINUOUS
 62
     7
  2
*D10
 10
21186.64629939737
 20
2653.0
 30
0.0
 11
21256.4592654612
 21
2653.0
 31
0.0
 70
   160
  3
HIBINO
 13
21384.64629939737
 23
2361.104650724502
 33
0.0
 14
21186.64629939737
 24
2361.104650724502
 34
0.0
  0
DIMENSION
  5
415
  8
U14
  6
CONTINUOUS
 62
     7
  2
*D11
 10
20799.66666666667
 20
3016.683572680696
 30
0.0
 11
20799.66666666667
 21
2870.0
 31
0.0
 70
   160
  3
HIBINO
 13
20465.35480554595
 23
2846.869361293695
 33
0.0
 14
20465.35480554595
 24
3016.683572680696
 34
0.0
 50
-90.0
  0
TEXT
  5
416
  8
U14
 62
     7
 10
20966.0
 20
3082.791111111111
 30
0.0
 40
43.32552083333333
  1
参考: 
  7
_______
 11
20966.0
 21
3126.116631944445
 31
0.0
 73
     3
  0
TEXT
  5
417
  8
U14
 62
     7
 10
20966.0
 20
3026.346666666667
 30
0.0
 40
43.32552083333333
  1
　安全用にラッシングベルトを
  7
_______
 11
20966.0
 21
3069.6721875
 31
0.0
 73
     3
  0
TEXT
  5
418
  8
U14
 62
     7
 10
20966.0
 20
2969.902222222222
 30
0.0
 40
43.32552083333333
  1
使用した設置をする場合。底面
  7
_______
 11
20966.0
 21
3013.227743055556
 31
0.0
 73
     3
  0
TEXT
  5
419
  8
U14
 62
     7
 10
20966.0
 20
2913.457777777778
 30
0.0
 40
43.32552083333333
  1
の突起物「Leg（下駄足）」間
  7
_______
 11
20966.0
 21
2956.783298611111
 31
0.0
 73
     3
  0
TEXT
  5
41A
  8
U14
 62
     7
 10
20966.0
 20
2857.013333333333
 30
0.0
 40
43.32552083333333
  1
に、厚さ5mm以内のベルトを通
  7
_______
 11
20966.0
 21
2900.338854166667
 31
0.0
 73
     3
  0
TEXT
  5
41B
  8
U14
 62
     7
 10
20966.0
 20
2800.568888888889
 30
0.0
 40
43.32552083333333
  1
過させる事が可能です。
  7
_______
 11
20966.0
 21
2843.894409722222
 31
0.0
 73
     3
  0
VIEWPORT
  5
41C
 67
     1
  8
0
 10
128.5
 20
97.5
 30
0.0
 40
314.226
 41
222.18
 68
     1
 69
     1
1001
ACAD
1000
MVIEW
1002
{
1070
    16
1010
0.0
1020
0.0
1030
0.0
1010
0.0
1020
0.0
1030
1.0
1040
0.0
1040
222.18
1040
128.5
1040
97.5
1040
50.0
1040
0.0
1040
0.0
1070
     0
1070
   100
1070
     0
1070
     3
1070
     0
1070
     0
1070
     0
1070
     0
1040
0.0
1040
0.0
1040
0.0
1040
10.0
1040
10.0
1040
10.0
1040
10.0
1070
     0
1002
{
1002
}
1002
}
  0
ENDSEC
  0
EOF
