  0
SECTION
  2
HEADER
  9
$ACADVER
  1
AC1009
  9
$DWGCODEPAGE
  3
dos932
  9
$INSBASE
 10
0.0
 20
0.0
 30
0.0
  9
$EXTMIN
 10
-810.0900928509554
 20
-1981.885020288821
 30
0.0
  9
$EXTMAX
 10
2789.909907149045
 20
3367.758890297482
 30
0.0
  9
$LIMMIN
 10
0.0
 20
0.0
  9
$LIMMAX
 10
12.0
 20
9.0
  9
$ORTHOMODE
 70
     0
  9
$REGENMODE
 70
     1
  9
$FILLMODE
 70
     1
  9
$QTEXTMODE
 70
     0
  9
$MIRRTEXT
 70
     1
  9
$DRAGMODE
 70
     2
  9
$LTSCALE
 40
20.0
  9
$OSMODE
 70
    37
  9
$ATTMODE
 70
     1
  9
$TEXTSIZE
 40
0.2
  9
$TRACEWID
 40
1.0
  9
$TEXTSTYLE
  7
STANDARD
  9
$CLAYER
  8
H10H
  9
$CELTYPE
  6
BYLAYER
  9
$CECOLOR
 62
   256
  9
$DIMSCALE
 40
1.0
  9
$DIMASZ
 40
50.012451171875
  9
$DIMEXO
 40
39.99999999999999
  9
$DIMDLI
 40
100.0
  9
$DIMRND
 40
0.0
  9
$DIMDLE
 40
0.0
  9
$DIMEXE
 40
39.99999999999999
  9
$DIMTP
 40
0.0
  9
$DIMTM
 40
0.0
  9
$DIMTXT
 40
64.98828125000011
  9
$DIMCEN
 40
0.0
  9
$DIMTSZ
 40
0.0
  9
$DIMTOL
 70
     0
  9
$DIMLIM
 70
     0
  9
$DIMTIH
 70
     0
  9
$DIMTOH
 70
     0
  9
$DIMSE1
 70
     0
  9
$DIMSE2
 70
     0
  9
$DIMTAD
 70
     1
  9
$DIMZIN
 70
     8
  9
$DIMBLK
  1
VW_EMPTYARROW
  9
$DIMASO
 70
     1
  9
$DIMSHO
 70
     1
  9
$DIMPOST
  1
<>
  9
$DIMAPOST
  1
[]
  9
$DIMALT
 70
     0
  9
$DIMALTD
 70
     2
  9
$DIMALTF
 40
1.0
  9
$DIMLFAC
 40
1.0
  9
$DIMTOFL
 70
     1
  9
$DIMTVP
 40
0.0
  9
$DIMTIX
 70
     1
  9
$DIMSOXD
 70
     0
  9
$DIMSAH
 70
     0
  9
$DIMBLK1
  1
VW_EMPTYARROW
  9
$DIMBLK2
  1
VW_EMPTYARROW
  9
$DIMSTYLE
  2
HIBINO
  9
$DIMCLRD
 70
     0
  9
$DIMCLRE
 70
     0
  9
$DIMCLRT
 70
     0
  9
$DIMTFAC
 40
1.0
  9
$DIMGAP
 40
9.999999999999998
  9
$LUNITS
 70
     2
  9
$LUPREC
 70
     2
  9
$SKETCHINC
 40
0.1
  9
$FILLETRAD
 40
0.0
  9
$AUNITS
 70
     0
  9
$AUPREC
 70
     2
  9
$MENU
  1
.
  9
$ELEVATION
 40
0.0
  9
$PELEVATION
 40
0.0
  9
$THICKNESS
 40
0.0
  9
$LIMCHECK
 70
     0
  9
$CHAMFERA
 40
0.0
  9
$CHAMFERB
 40
0.0
  9
$SKPOLY
 70
     0
  9
$TDCREATE
 40
2460763.599787928
  9
$TDUPDATE
 40
2460763.599791667
  9
$TDINDWG
 40
0.0000000116
  9
$TDUSRTIMER
 40
0.0000000116
  9
$USRTIMER
 70
     1
  9
$ANGBASE
 50
0.0
  9
$ANGDIR
 70
     0
  9
$PDMODE
 70
     1
  9
$PDSIZE
 40
-2.0
  9
$PLINEWID
 40
0.0
  9
$COORDS
 70
     1
  9
$SPLFRAME
 70
     0
  9
$SPLINETYPE
 70
     6
  9
$SPLINESEGS
 70
     8
  9
$ATTDIA
 70
     0
  9
$ATTREQ
 70
     1
  9
$HANDLING
 70
     1
  9
$HANDSEED
  5
3F8
  9
$SURFTAB1
 70
     6
  9
$SURFTAB2
 70
     6
  9
$SURFTYPE
 70
     6
  9
$SURFU
 70
     6
  9
$SURFV
 70
     6
  9
$UCSNAME
  2

  9
$UCSORG
 10
0.0
 20
0.0
 30
0.0
  9
$UCSXDIR
 10
1.0
 20
0.0
 30
0.0
  9
$UCSYDIR
 10
0.0
 20
1.0
 30
0.0
  9
$PUCSNAME
  2

  9
$PUCSORG
 10
0.0
 20
0.0
 30
0.0
  9
$PUCSXDIR
 10
1.0
 20
0.0
 30
0.0
  9
$PUCSYDIR
 10
0.0
 20
1.0
 30
0.0
  9
$USERI1
 70
     0
  9
$USERI2
 70
     0
  9
$USERI3
 70
     0
  9
$USERI4
 70
     0
  9
$USERI5
 70
     0
  9
$USERR1
 40
0.0
  9
$USERR2
 40
0.0
  9
$USERR3
 40
0.0
  9
$USERR4
 40
0.0
  9
$USERR5
 40
0.0
  9
$WORLDVIEW
 70
     1
  9
$SHADEDGE
 70
     3
  9
$SHADEDIF
 70
    70
  9
$TILEMODE
 70
     1
  9
$MAXACTVP
 70
    64
  9
$PLIMCHECK
 70
     0
  9
$PEXTMIN
 10
1.000000000000000E+20
 20
1.000000000000000E+20
 30
1.000000000000000E+20
  9
$PEXTMAX
 10
-1.000000000000000E+20
 20
-1.000000000000000E+20
 30
-1.000000000000000E+20
  9
$PLIMMIN
 10
-20.0
 20
-7.5
  9
$PLIMMAX
 10
277.0
 20
202.5
  9
$UNITMODE
 70
     0
  9
$VISRETAIN
 70
     1
  9
$PLINEGEN
 70
     0
  9
$PSLTSCALE
 70
     1
  0
ENDSEC
  0
SECTION
  2
TABLES
  0
TABLE
  2
VPORT
 70
     1
  0
VPORT
  2
*ACTIVE
 70
     0
 10
0.0
 20
0.0
 11
1.0
 21
1.0
 12
989.9099071490446
 22
692.9369350043307
 13
0.0
 23
0.0
 14
0.5
 24
0.5
 15
0.5
 25
0.5
 16
0.0
 26
0.0
 36
1.0
 17
0.0
 27
0.0
 37
0.0
 40
5349.643910586303
 41
0.672941986451852
 42
2000.0
 43
0.0
 44
0.0
 50
0.0
 51
0.0
 71
     0
 72
   100
 73
     1
 74
     3
 75
     0
 76
     0
 77
     0
 78
     0
  0
ENDTAB
  0
TABLE
  2
LTYPE
 70
    12
  0
LTYPE
  2
CONTINUOUS
 70
     0
  3
Solid line
 72
    65
 73
     0
 40
0.0
  0
LTYPE
  2
ACISOWELD
 70
     0
  3

 72
    65
 73
     2
 40
7.499999999999999
 49
4.999999999999999
 49
-2.5
  0
LTYPE
  2
______-10
 70
     0
  3

 72
    65
 73
     6
 40
30.1625
 49
19.05
 49
-1.411154174804687
 49
3.527691650390625
 49
-1.411154174804687
 49
3.175
 49
-1.5875
  0
LTYPE
  2
______-9
 70
     0
  3

 72
    65
 73
     4
 40
25.4
 49
19.05
 49
-1.411154174804687
 49
3.527691650390625
 49
-1.411154174804687
  0
LTYPE
  2
______-8
 70
     0
  3

 72
    65
 73
     6
 40
6.35
 49
3.175
 49
-1.058074951171875
 49
0.352691650390625
 49
-0.7057708740234374
 49
0.352691650390625
 49
-0.7057708740234374
  0
LTYPE
  2
______-7
 70
     0
  3

 72
    65
 73
     6
 40
9.524999999999999
 49
3.175
 49
-1.058074951171875
 49
3.175
 49
-1.058462524414062
 49
0.352691650390625
 49
-0.7057708740234374
  0
LTYPE
  2
______-6
 70
     0
  3

 72
    65
 73
     4
 40
5.291537475585937
 49
3.175
 49
-1.058074951171875
 49
0.352691650390625
 49
-0.7057708740234374
  0
LTYPE
  2
______-5
 70
     0
  3

 72
    65
 73
     2
 40
1.058074951171875
 49
0.352691650390625
 49
-0.70538330078125
  0
LTYPE
  2
______-4
 70
     0
  3

 72
    65
 73
     2
 40
7.7607666015625
 49
6.702691650390625
 49
-1.058074951171875
  0
LTYPE
  2
______-3
 70
     0
  3

 72
    65
 73
     2
 40
6.35
 49
5.291537475585937
 49
-1.058462524414062
  0
LTYPE
  2
______-2
 70
     0
  3

 72
    65
 73
     2
 40
3.527691650390625
 49
2.469229125976562
 49
-1.058462524414062
  0
LTYPE
  2
______-1
 70
     0
  3

 72
    65
 73
     4
 40
1.016
 49
0.6349999999999999
 49
-0.127
 49
0.1269999999999999
 49
-0.1269999999999999
  0
ENDTAB
  0
TABLE
  2
LAYER
 70
     3
  0
LAYER
  2
0
 70
     0
 62
     7
  6
CONTINUOUS
  0
LAYER
  2
H10H
 70
     0
 62
     7
  6
CONTINUOUS
  0
LAYER
  2
DEFPOINTS
 70
     0
 62
     7
  6
CONTINUOUS
  0
ENDTAB
  0
TABLE
  2
STYLE
 70
     2
  0
STYLE
  2
STANDARD
 70
     0
 40
0.0
 41
1.0
 50
0.0
 71
     0
 42
0.2
  3
txt
  4
BIGFONT.SHX
  0
STYLE
  2
_______
 70
     0
 40
0.0
 41
1.0
 50
0.0
 71
     0
 42
0.2
  3

  4
ＭＳ ゴシック
  0
ENDTAB
  0
TABLE
  2
VIEW
 70
     0
  0
ENDTAB
  0
TABLE
  2
UCS
 70
     0
  0
ENDTAB
  0
TABLE
  2
APPID
 70
     3
  0
APPID
  2
ACAD
 70
     0
  0
APPID
  2
ACAECLAYERSTANDARD
 70
     0
  0
APPID
  2
ACADANNOTATIVE
 70
     0
  0
ENDTAB
  0
TABLE
  2
DIMSTYLE
 70
     2
  0
DIMSTYLE
  2
STANDARD
 70
     0
  3

  4

  5

  6

  7

 40
1.0
 41
0.18
 42
0.0625
 43
0.38
 44
0.18
 45
0.0
 46
0.0
 47
0.0
 48
0.0
140
0.18
141
0.09
142
0.0
143
25.4
144
1.0
145
0.0
146
1.0
147
0.09
 71
     0
 72
     0
 73
     1
 74
     1
 75
     0
 76
     0
 77
     0
 78
     0
170
     0
171
     2
172
     0
173
     0
174
     0
175
     0
176
     0
177
     0
178
     0
  0
DIMSTYLE
  2
HIBINO
 70
     0
  3
<>
  4
[]
  5
VW_EMPTYARROW
  6
VW_EMPTYARROW
  7
VW_EMPTYARROW
 40
1.0
 41
50.012451171875
 42
39.99999999999999
 43
100.0
 44
39.99999999999999
 45
0.0
 46
0.0
 47
0.0
 48
0.0
140
64.98828125000011
141
0.0
142
0.0
143
1.0
144
1.0
145
0.0
146
1.0
147
9.999999999999998
 71
     0
 72
     0
 73
     0
 74
     0
 75
     0
 76
     0
 77
     1
 78
     8
170
     0
171
     2
172
     1
173
     0
174
     1
175
     0
176
     0
177
     0
178
     0
  0
ENDTAB
  0
ENDSEC
  0
SECTION
  2
BLOCKS
  0
BLOCK
  8
0
  2
$MODEL_SPACE
 70
     0
 10
0.0
 20
0.0
 30
0.0
  3
$MODEL_SPACE
  1

  0
ENDBLK
  5
21
  8
0
  0
BLOCK
 67
     1
  8
0
  2
$PAPER_SPACE
 70
     0
 10
0.0
 20
0.0
 30
0.0
  3
$PAPER_SPACE
  1

  0
ENDBLK
  5
1D
 67
     1
  8
0
  0
BLOCK
  8
0
  2
____
 70
     0
 10
0.0
 20
0.0
 30
0.0
  3
____
  1

  0
ARC
  5
C0
  8
0
  6
CONTINUOUS
 62
     7
 10
711.4795415673757
 20
259.6466929703361
 30
0.0
 40
108.0000000000018
 50
270.0
 51
289.9322704722531
  0
ARC
  5
C1
  8
0
  6
CONTINUOUS
 62
     7
 10
663.4795415673757
 20
221.9805024819966
 30
0.0
 40
2.0
 50
270.0
 51
315.0
  0
ARC
  5
C2
  8
0
  6
CONTINUOUS
 62
     7
 10
671.4795415673757
 20
263.6466929703342
 30
0.0
 40
4.600000000000263
 50
224.999999999992
 51
270.0
  0
ARC
  5
C3
  8
0
  6
CONTINUOUS
 62
     7
 10
728.2196569375533
 20
169.9065776001562
 30
0.0
 40
4.600000000000263
 50
135.000000000008
 51
270.0
  0
ARC
  5
C4
  8
0
  6
CONTINUOUS
 62
     7
 10
673.4795415673757
 20
171.6466929703342
 30
0.0
 40
4.5
 50
270.0
 51
90.0
  0
ARC
  5
C5
  8
0
  6
CONTINUOUS
 62
     7
 10
749.4795415673757
 20
171.6466929703342
 30
0.0
 40
4.5
 50
270.0
 51
90.0
  0
ARC
  5
C6
  8
0
  6
CONTINUOUS
 62
     7
 10
681.4795415673775
 20
176.9182214505477
 30
0.0
 40
20.0
 50
180.0
 51
250.0677295277457
  0
ARC
  5
C7
  8
0
  6
CONTINUOUS
 62
     7
 10
711.4795415673775
 20
259.6466929703329
 30
0.0
 40
107.9999999999988
 50
250.0677295277468
 51
270.0
  0
ARC
  5
C8
  8
0
  6
CONTINUOUS
 62
     7
 10
741.4795415673757
 20
176.9182214505477
 30
0.0
 40
19.99999999999979
 50
289.9322704722531
 51
0.0
  0
ARC
  5
C9
  8
0
  6
CONTINUOUS
 62
     7
 10
663.4795415673757
 20
221.9805024819966
 30
0.0
 40
2.0
 50
180.0
 51
270.0
  0
ARC
  5
CA
  8
0
  6
CONTINUOUS
 62
     7
 10
674.4795415673757
 20
223.6466929703342
 30
0.0
 40
4.599999999999941
 50
315.000000000004
 51
135.000000000012
  0
ARC
  5
CB
  8
0
  6
CONTINUOUS
 62
     7
 10
671.4795415673793
 20
199.9991749596902
 30
0.0
 40
10.00000000000008
 50
135.0000000000092
 51
179.9999999999922
  0
ARC
  5
CC
  8
0
  6
CONTINUOUS
 62
     7
 10
671.4795415673775
 20
284.2942109809815
 30
0.0
 40
10.00000000000045
 50
180.0
 51
224.9999999999926
  0
ARC
  5
CD
  8
0
  6
CONTINUOUS
 62
     7
 10
671.4795415673757
 20
263.6466929703342
 30
0.0
 40
4.600000000000364
 50
270.0
 51
44.99999999999199
  0
ARC
  5
CE
  8
0
  6
CONTINUOUS
 62
     7
 10
663.4795415673757
 20
262.3128834586714
 30
0.0
 40
2.000000000000016
 50
44.9999999999908
 51
180.0
  0
ARC
  5
CF
  8
0
  6
CONTINUOUS
 62
     7
 10
728.2196569375533
 20
169.9065776001567
 30
0.0
 40
4.600000000000364
 50
270.0
 51
315.000000000008
  0
ARC
  5
D0
  8
0
  6
CONTINUOUS
 62
     7
 10
674.4795415673757
 20
223.6466929703342
 30
0.0
 40
71.40000000000003
 50
315.000000000009
 51
30.00000000001495
  0
ARC
  5
D1
  8
0
  6
CONTINUOUS
 62
     7
 10
740.297472254993
 20
261.6466929703338
 30
0.0
 40
4.599999999999899
 50
30.00000000001642
 51
210.0000000000164
  0
ARC
  5
D2
  8
0
  6
CONTINUOUS
 62
     7
 10
674.4795415673757
 20
223.6466929703342
 30
0.0
 40
80.60000000000024
 50
315.0000000000092
 51
30.00000000001518
  0
ARC
  5
D3
  8
0
  6
CONTINUOUS
 62
     7
 10
671.4795415673757
 20
187.6466929703342
 30
0.0
 40
4.599999999999909
 50
90.0
 51
270.0
  0
ARC
  5
D4
  8
0
  6
CONTINUOUS
 62
     7
 10
671.4795415673757
 20
263.6466929703342
 30
0.0
 40
71.40000000000055
 50
270.0
 51
329.9999999999847
  0
ARC
  5
D5
  8
0
  6
CONTINUOUS
 62
     7
 10
737.297472254993
 20
225.6466929703342
 30
0.0
 40
4.599999999999899
 50
329.9999999999836
 51
149.9999999999836
  0
LINE
  5
D6
  8
0
  6
CONTINUOUS
 62
     7
 10
665.9795415673757
 20
526.6466929703342
 30
0.0
 11
756.9795415673757
 21
526.6466929703342
 31
0.0
  0
LINE
  5
D7
  8
0
  6
CONTINUOUS
 62
     7
 10
661.4795415673757
 20
522.1466929703342
 30
0.0
 11
665.9795415673757
 21
522.1466929703342
 31
0.0
  0
ARC
  5
D8
  8
0
  6
CONTINUOUS
 62
     7
 10
671.4795415673757
 20
263.6466929703342
 30
0.0
 40
80.60000000000036
 50
270.0
 51
329.9999999999849
  0
ARC
  5
D9
  8
0
  6
CONTINUOUS
 62
     7
 10
756.9795415673757
 20
522.1466929703342
 30
0.0
 40
4.5
 50
0.0
 51
90.0
  0
ARC
  5
DA
  8
0
  6
CONTINUOUS
 62
     7
 10
756.9795415673757
 20
522.1466929703342
 30
0.0
 40
1.5
 50
0.0
 51
90.0
  0
ARC
  5
DB
  8
0
  6
CONTINUOUS
 62
     7
 10
665.9795415673757
 20
522.1466929703342
 30
0.0
 40
4.5
 50
90.0
 51
180.0
  0
ARC
  5
DC
  8
0
  6
CONTINUOUS
 62
     7
 10
665.9795415673757
 20
522.1466929703342
 30
0.0
 40
1.5
 50
90.0
 51
180.0
  0
ARC
  5
DD
  8
0
  6
CONTINUOUS
 62
     7
 10
673.4795415673757
 20
171.6466929703342
 30
0.0
 40
4.5
 50
90.0
 51
270.0
  0
LINE
  5
DE
  8
0
  6
CONTINUOUS
 62
     7
 10
756.9795415673757
 20
522.1466929703342
 30
0.0
 11
761.4795415673757
 21
522.1466929703342
 31
0.0
  0
LINE
  5
DF
  8
0
  6
CONTINUOUS
 62
     7
 10
661.4795415673757
 20
522.1466929703342
 30
0.0
 11
661.4795415673757
 21
284.2942109809815
 31
0.0
  0
LINE
  5
E0
  8
0
  6
CONTINUOUS
 62
     7
 10
661.4795415673757
 20
262.3128834586714
 30
0.0
 11
661.4795415673757
 21
221.9805024819966
 31
0.0
  0
ARC
  5
E1
  8
0
  6
CONTINUOUS
 62
     7
 10
749.4795415673757
 20
171.6466929703342
 30
0.0
 40
4.5
 50
90.0
 51
270.0
  0
LINE
  5
E2
  8
0
  6
CONTINUOUS
 62
     7
 10
661.4795415673793
 20
199.9991749596911
 30
0.0
 11
661.4795415673775
 21
176.9182214505499
 31
0.0
  0
LINE
  5
E3
  8
0
  6
CONTINUOUS
 62
     7
 10
761.4795415673757
 20
176.9182214505477
 30
0.0
 11
761.4795415673757
 21
522.1466929703342
 31
0.0
  0
LINE
  5
E4
  8
0
  6
CONTINUOUS
 62
     7
 10
664.893755129749
 20
220.5662889196233
 30
0.0
 11
671.2268503739174
 21
226.8993841637921
 31
0.0
  0
LINE
  5
E5
  8
0
  6
CONTINUOUS
 62
     7
 10
677.732232760834
 20
220.3940017768759
 30
0.0
 11
664.4084737555145
 21
207.0702427715551
 31
0.0
  0
LINE
  5
E6
  8
0
  6
CONTINUOUS
 62
     7
 10
664.4084737555108
 20
277.2231431691157
 30
0.0
 11
674.732232760834
 21
266.8993841637921
 31
0.0
  0
LINE
  5
E7
  8
0
  6
CONTINUOUS
 62
     7
 10
668.2268503739192
 20
260.3940017768759
 30
0.0
 11
664.8937551297508
 21
263.7270970210438
 31
0.0
  0
LINE
  5
E8
  8
0
  6
CONTINUOUS
 62
     7
 10
665.9795415673757
 20
522.1466929703342
 30
0.0
 11
665.9795415673757
 21
526.6466929703342
 31
0.0
  0
LINE
  5
E9
  8
0
  6
CONTINUOUS
 62
     7
 10
756.9795415673757
 20
526.6466929703342
 30
0.0
 11
756.9795415673757
 21
522.1466929703342
 31
0.0
  0
ENDBLK
  5
61
  8
0
  0
BLOCK
  8
0
  2
*D2
 70
     1
 10
0.0
 20
0.0
 30
0.0
  3
*D2
  1

  0
LINE
  5
EA
  8
H10H
  6
CONTINUOUS
 62
     0
 10
519.5666666666862
 20
1219.583627974665
 30
0.0
 11
299.6165181745097
 21
1219.583627974665
 31
0.0
  0
LINE
  5
EB
  8
H10H
  6
CONTINUOUS
 62
     0
 10
518.0666666666971
 20
844.5836279746618
 30
0.0
 11
299.6165181745097
 21
844.5836279746618
 31
0.0
  0
LINE
  5
EC
  8
H10H
  6
CONTINUOUS
 62
     0
 10
339.6165181745097
 20
1169.57117680279
 30
0.0
 11
339.6165181745097
 21
894.5960791465368
 31
0.0
  0
INSERT
  5
ED
  8
H10H
 62
     0
  2
VW_EMPTYARROW
 10
339.6165181745097
 20
1219.583627974665
 30
0.0
 41
50.012451171875
 42
50.012451171875
 43
50.012451171875
 50
90.0
  0
INSERT
  5
F2
  8
H10H
 62
     0
  2
VW_EMPTYARROW
 10
339.6165181745097
 20
844.5836279746618
 30
0.0
 41
50.012451171875
 42
50.012451171875
 43
50.012451171875
 50
270.0
  0
TEXT
  5
F7
  8
H10H
 62
     0
 10
329.6165181745097
 20
969.4024307090381
 30
0.0
 40
64.98828125000011
  1
375
 50
90.0
  7
_______
1001
ACADANNOTATIVE
1000
AnnotativeData
1002
{
1070
     1
1070
     0
1002
}
  0
POINT
  5
F8
  8
DEFPOINTS
 62
     0
 10
559.5666666666862
 20
1219.583627974665
 30
0.0
  0
POINT
  5
F9
  8
DEFPOINTS
 62
     0
 10
558.0666666666971
 20
844.5836279746618
 30
0.0
  0
POINT
  5
FA
  8
DEFPOINTS
 62
     0
 10
339.6165181745097
 20
844.5836279746618
 30
0.0
  0
ENDBLK
  5
64
  8
0
  0
BLOCK
  8
0
  2
*D3
 70
     1
 10
0.0
 20
0.0
 30
0.0
  3
*D3
  1

  0
LINE
  5
FB
  8
H10H
  6
CONTINUOUS
 62
     0
 10
1241.066666666701
 20
804.5836279746645
 30
0.0
 11
1241.066666666701
 21
582.5983064142658
 31
0.0
  0
LINE
  5
FC
  8
H10H
  6
CONTINUOUS
 62
     0
 10
555.0666666666971
 20
804.5836279746618
 30
0.0
 11
555.0666666666971
 21
582.5983064142658
 31
0.0
  0
LINE
  5
FD
  8
H10H
  6
CONTINUOUS
 62
     0
 10
1191.054215494826
 20
622.5983064142658
 30
0.0
 11
605.0791178385721
 21
622.5983064142658
 31
0.0
  0
INSERT
  5
FE
  8
H10H
 62
     0
  2
VW_EMPTYARROW
 10
1241.066666666701
 20
622.5983064142658
 30
0.0
 41
50.012451171875
 42
50.012451171875
 43
50.012451171875
  0
INSERT
  5
103
  8
H10H
 62
     0
  2
VW_EMPTYARROW
 10
555.0666666666971
 20
622.5983064142658
 30
0.0
 41
50.012451171875
 42
50.012451171875
 43
50.012451171875
 50
180.0
  0
TEXT
  5
108
  8
H10H
 62
     0
 10
834.7355865885737
 20
632.5983064142657
 30
0.0
 40
64.98828125000011
  1
686
  7
_______
1001
ACADANNOTATIVE
1000
AnnotativeData
1002
{
1070
     1
1070
     0
1002
}
  0
POINT
  5
109
  8
DEFPOINTS
 62
     0
 10
1241.066666666701
 20
844.5836279746645
 30
0.0
  0
POINT
  5
10A
  8
DEFPOINTS
 62
     0
 10
555.0666666666971
 20
844.5836279746618
 30
0.0
  0
POINT
  5
10B
  8
DEFPOINTS
 62
     0
 10
555.0666666666971
 20
622.5983064142658
 30
0.0
  0
ENDBLK
  5
67
  8
0
  0
BLOCK
  8
0
  2
*D4
 70
     1
 10
0.0
 20
0.0
 30
0.0
  3
*D4
  1

  0
LINE
  5
10C
  8
H10H
  6
CONTINUOUS
 62
     0
 10
1751.38944871642
 20
829.8551564548779
 30
0.0
 11
1751.38944871642
 21
632.5983064142657
 31
0.0
  0
LINE
  5
10D
  8
H10H
  6
CONTINUOUS
 62
     0
 10
1651.389448716422
 20
829.8551564548779
 30
0.0
 11
1651.389448716422
 21
632.5983064142657
 31
0.0
  0
LINE
  5
10E
  8
H10H
  6
CONTINUOUS
 62
     0
 10
1751.38944871642
 20
672.5983064142657
 30
0.0
 11
1986.573585435171
 21
672.5983064142657
 31
0.0
  0
LINE
  5
10F
  8
H10H
  6
CONTINUOUS
 62
     0
 10
1751.38944871642
 20
672.5983064142657
 30
0.0
 11
1651.389448716422
 21
672.5983064142657
 31
0.0
  0
LINE
  5
110
  8
H10H
  6
CONTINUOUS
 62
     0
 10
1801.401899888295
 20
672.5983064142657
 30
0.0
 11
1851.41435106017
 21
672.5983064142657
 31
0.0
  0
LINE
  5
115
  8
H10H
  6
CONTINUOUS
 62
     0
 10
1601.376997544547
 20
672.5983064142657
 30
0.0
 11
1551.364546372672
 21
672.5983064142657
 31
0.0
  0
INSERT
  5
11A
  8
H10H
 62
     0
  2
VW_EMPTYARROW
 10
1751.38944871642
 20
672.5983064142657
 30
0.0
 41
50.012451171875
 42
50.012451171875
 43
50.012451171875
 50
180.0
  0
INSERT
  5
11B
  8
H10H
 62
     0
  2
VW_EMPTYARROW
 10
1651.389448716422
 20
672.5983064142657
 30
0.0
 41
50.012451171875
 42
50.012451171875
 43
50.012451171875
  0
TEXT
  5
11C
  8
H10H
 62
     0
 10
1853.16083934142
 20
682.5983064142657
 30
0.0
 40
64.98828125000011
  1
100
  7
_______
1001
ACADANNOTATIVE
1000
AnnotativeData
1002
{
1070
     1
1070
     0
1002
}
  0
POINT
  5
11D
  8
DEFPOINTS
 62
     0
 10
1751.38944871642
 20
869.8551564548779
 30
0.0
  0
POINT
  5
3AA
  8
DEFPOINTS
 62
     0
 10
1651.389448716422
 20
869.8551564548779
 30
0.0
  0
POINT
  5
3AB
  8
DEFPOINTS
 62
     0
 10
1651.389448716422
 20
672.5983064142657
 30
0.0
  0
ENDBLK
  5
6A
  8
0
  0
BLOCK
  8
0
  2
*D5
 70
     1
 10
0.0
 20
0.0
 30
0.0
  3
*D5
  1

  0
LINE
  5
11E
  8
H10H
  6
CONTINUOUS
 62
     0
 10
898.0666666666953
 20
1732.058842585746
 30
0.0
 11
898.0666666666953
 21
1530.598306414226
 31
0.0
  0
LINE
  5
11F
  8
H10H
  6
CONTINUOUS
 62
     0
 10
748.0666666666953
 20
1732.058842585702
 30
0.0
 11
748.0666666666953
 21
1530.598306414226
 31
0.0
  0
LINE
  5
120
  8
H10H
  6
CONTINUOUS
 62
     0
 10
848.0542154948203
 20
1570.598306414226
 30
0.0
 11
798.0791178385703
 21
1570.598306414226
 31
0.0
  0
INSERT
  5
121
  8
H10H
 62
     0
  2
VW_EMPTYARROW
 10
898.0666666666953
 20
1570.598306414226
 30
0.0
 41
50.012451171875
 42
50.012451171875
 43
50.012451171875
  0
INSERT
  5
126
  8
H10H
 62
     0
  2
VW_EMPTYARROW
 10
748.0666666666953
 20
1570.598306414226
 30
0.0
 41
50.012451171875
 42
50.012451171875
 43
50.012451171875
 50
180.0
  0
TEXT
  5
12B
  8
H10H
 62
     0
 10
757.2335377604452
 20
1580.598306414226
 30
0.0
 40
64.98828125000011
  1
150
  7
_______
1001
ACADANNOTATIVE
1000
AnnotativeData
1002
{
1070
     1
1070
     0
1002
}
  0
POINT
  5
12C
  8
DEFPOINTS
 62
     0
 10
898.0666666666953
 20
1772.058842585746
 30
0.0
  0
POINT
  5
12D
  8
DEFPOINTS
 62
     0
 10
748.0666666666953
 20
1772.058842585702
 30
0.0
  0
POINT
  5
12E
  8
DEFPOINTS
 62
     0
 10
748.0666666666953
 20
1570.598306414226
 30
0.0
  0
ENDBLK
  5
6D
  8
0
  0
BLOCK
  8
0
  2
*D6
 70
     1
 10
0.0
 20
0.0
 30
0.0
  3
*D6
  1

  0
LINE
  5
12F
  8
H10H
  6
CONTINUOUS
 62
     0
 10
1048.066666666695
 20
1732.058842585791
 30
0.0
 11
1048.066666666695
 21
1530.598306414269
 31
0.0
  0
LINE
  5
130
  8
H10H
  6
CONTINUOUS
 62
     0
 10
898.0666666666953
 20
1732.058842585746
 30
0.0
 11
898.0666666666953
 21
1530.598306414269
 31
0.0
  0
LINE
  5
131
  8
H10H
  6
CONTINUOUS
 62
     0
 10
998.0542154948203
 20
1570.598306414269
 30
0.0
 11
948.0791178385703
 21
1570.598306414269
 31
0.0
  0
INSERT
  5
132
  8
H10H
 62
     0
  2
VW_EMPTYARROW
 10
1048.066666666695
 20
1570.598306414269
 30
0.0
 41
50.012451171875
 42
50.012451171875
 43
50.012451171875
  0
INSERT
  5
137
  8
H10H
 62
     0
  2
VW_EMPTYARROW
 10
898.0666666666953
 20
1570.598306414269
 30
0.0
 41
50.012451171875
 42
50.012451171875
 43
50.012451171875
 50
180.0
  0
TEXT
  5
13C
  8
H10H
 62
     0
 10
907.2335377604452
 20
1580.598306414269
 30
0.0
 40
64.98828125000011
  1
150
  7
_______
1001
ACADANNOTATIVE
1000
AnnotativeData
1002
{
1070
     1
1070
     0
1002
}
  0
POINT
  5
13D
  8
DEFPOINTS
 62
     0
 10
1048.066666666695
 20
1772.058842585791
 30
0.0
  0
POINT
  5
13E
  8
DEFPOINTS
 62
     0
 10
898.0666666666953
 20
1772.058842585746
 30
0.0
  0
POINT
  5
13F
  8
DEFPOINTS
 62
     0
 10
898.0666666666953
 20
1570.598306414269
 30
0.0
  0
ENDBLK
  5
70
  8
0
  0
BLOCK
  8
0
  2
*D7
 70
     1
 10
0.0
 20
0.0
 30
0.0
  3
*D7
  1

  0
LINE
  5
140
  8
H10H
  6
CONTINUOUS
 62
     0
 10
1198.066666666695
 20
1732.058842585835
 30
0.0
 11
1198.066666666695
 21
1530.598306414315
 31
0.0
  0
LINE
  5
141
  8
H10H
  6
CONTINUOUS
 62
     0
 10
1048.066666666695
 20
1732.058842585791
 30
0.0
 11
1048.066666666695
 21
1530.598306414315
 31
0.0
  0
LINE
  5
142
  8
H10H
  6
CONTINUOUS
 62
     0
 10
1148.05421549482
 20
1570.598306414315
 30
0.0
 11
1098.07911783857
 21
1570.598306414315
 31
0.0
  0
INSERT
  5
143
  8
H10H
 62
     0
  2
VW_EMPTYARROW
 10
1198.066666666695
 20
1570.598306414315
 30
0.0
 41
50.012451171875
 42
50.012451171875
 43
50.012451171875
  0
INSERT
  5
148
  8
H10H
 62
     0
  2
VW_EMPTYARROW
 10
1048.066666666695
 20
1570.598306414315
 30
0.0
 41
50.012451171875
 42
50.012451171875
 43
50.012451171875
 50
180.0
  0
TEXT
  5
14D
  8
H10H
 62
     0
 10
1057.233537760445
 20
1580.598306414315
 30
0.0
 40
64.98828125000011
  1
150
  7
_______
1001
ACADANNOTATIVE
1000
AnnotativeData
1002
{
1070
     1
1070
     0
1002
}
  0
POINT
  5
14E
  8
DEFPOINTS
 62
     0
 10
1198.066666666695
 20
1772.058842585835
 30
0.0
  0
POINT
  5
14F
  8
DEFPOINTS
 62
     0
 10
1048.066666666695
 20
1772.058842585791
 30
0.0
  0
POINT
  5
150
  8
DEFPOINTS
 62
     0
 10
1048.066666666695
 20
1570.598306414315
 30
0.0
  0
ENDBLK
  5
73
  8
0
  0
BLOCK
  8
0
  2
*D8
 70
     1
 10
0.0
 20
0.0
 30
0.0
  3
*D8
  1

  0
LINE
  5
151
  8
H10H
  6
CONTINUOUS
 62
     0
 10
598.0666666666953
 20
1732.058842585657
 30
0.0
 11
598.0666666666953
 21
1530.598306414226
 31
0.0
  0
LINE
  5
152
  8
H10H
  6
CONTINUOUS
 62
     0
 10
748.0666666666953
 20
1732.058842585702
 30
0.0
 11
748.0666666666953
 21
1530.598306414226
 31
0.0
  0
LINE
  5
153
  8
H10H
  6
CONTINUOUS
 62
     0
 10
648.0791178385703
 20
1570.598306414226
 30
0.0
 11
698.0542154948203
 21
1570.598306414226
 31
0.0
  0
INSERT
  5
154
  8
H10H
 62
     0
  2
VW_EMPTYARROW
 10
598.0666666666953
 20
1570.598306414226
 30
0.0
 41
50.012451171875
 42
50.012451171875
 43
50.012451171875
 50
180.0
  0
INSERT
  5
159
  8
H10H
 62
     0
  2
VW_EMPTYARROW
 10
748.0666666666953
 20
1570.598306414226
 30
0.0
 41
50.012451171875
 42
50.012451171875
 43
50.012451171875
  0
TEXT
  5
15E
  8
H10H
 62
     0
 10
607.2335377604452
 20
1580.598306414226
 30
0.0
 40
64.98828125000011
  1
150
  7
_______
1001
ACADANNOTATIVE
1000
AnnotativeData
1002
{
1070
     1
1070
     0
1002
}
  0
POINT
  5
15F
  8
DEFPOINTS
 62
     0
 10
598.0666666666953
 20
1772.058842585657
 30
0.0
  0
POINT
  5
160
  8
DEFPOINTS
 62
     0
 10
748.0666666666953
 20
1772.058842585702
 30
0.0
  0
POINT
  5
161
  8
DEFPOINTS
 62
     0
 10
748.0666666666953
 20
1570.598306414226
 30
0.0
  0
ENDBLK
  5
76
  8
0
  0
BLOCK
  8
0
  2
*D9
 70
     1
 10
0.0
 20
0.0
 30
0.0
  3
*D9
  1

  0
LINE
  5
162
  8
H10H
  6
CONTINUOUS
 62
     0
 10
1241.066666666683
 20
1862.058842585846
 30
0.0
 11
1241.066666666683
 21
2010.598306414266
 31
0.0
  0
LINE
  5
163
  8
H10H
  6
CONTINUOUS
 62
     0
 10
1148.066666666686
 20
1842.058842585821
 30
0.0
 11
1148.066666666686
 21
2010.598306414266
 31
0.0
  0
LINE
  5
164
  8
H10H
  6
CONTINUOUS
 62
     0
 10
1241.066666666683
 20
1970.598306414266
 30
0.0
 11
1148.066666666686
 21
1970.598306414266
 31
0.0
  0
LINE
  5
165
  8
H10H
  6
CONTINUOUS
 62
     0
 10
1291.079117838558
 20
1970.598306414266
 30
0.0
 11
1341.091569010433
 21
1970.598306414266
 31
0.0
  0
LINE
  5
16A
  8
H10H
  6
CONTINUOUS
 62
     0
 10
1098.054215494811
 20
1970.598306414266
 30
0.0
 11
1048.041764322936
 21
1970.598306414266
 31
0.0
  0
INSERT
  5
16F
  8
H10H
 62
     0
  2
VW_EMPTYARROW
 10
1241.066666666683
 20
1970.598306414266
 30
0.0
 41
50.012451171875
 42
50.012451171875
 43
50.012451171875
 50
180.0
  0
INSERT
  5
170
  8
H10H
 62
     0
  2
VW_EMPTYARROW
 10
1148.066666666686
 20
1970.598306414266
 30
0.0
 41
50.012451171875
 42
50.012451171875
 43
50.012451171875
  0
TEXT
  5
171
  8
H10H
 62
     0
 10
1152.681719401059
 20
1980.598306414266
 30
0.0
 40
64.98828125000011
  1
93
  7
_______
1001
ACADANNOTATIVE
1000
AnnotativeData
1002
{
1070
     1
1070
     0
1002
}
  0
POINT
  5
172
  8
DEFPOINTS
 62
     0
 10
1241.066666666683
 20
1822.058842585846
 30
0.0
  0
POINT
  5
3C7
  8
DEFPOINTS
 62
     0
 10
1148.066666666686
 20
1802.058842585821
 30
0.0
  0
POINT
  5
3C8
  8
DEFPOINTS
 62
     0
 10
1148.066666666686
 20
1970.598306414266
 30
0.0
  0
ENDBLK
  5
79
  8
0
  0
BLOCK
  8
0
  2
*D10
 70
     1
 10
0.0
 20
0.0
 30
0.0
  3
*D10
  1

  0
LINE
  5
173
  8
H10H
  6
CONTINUOUS
 62
     0
 10
648.0666666666862
 20
1842.058842585671
 30
0.0
 11
648.0666666666862
 21
2010.598306414266
 31
0.0
  0
LINE
  5
174
  8
H10H
  6
CONTINUOUS
 62
     0
 10
1148.066666666686
 20
1842.058842585821
 30
0.0
 11
1148.066666666686
 21
2010.598306414266
 31
0.0
  0
LINE
  5
175
  8
H10H
  6
CONTINUOUS
 62
     0
 10
698.0791178385612
 20
1970.598306414266
 30
0.0
 11
1098.054215494811
 21
1970.598306414266
 31
0.0
  0
INSERT
  5
176
  8
H10H
 62
     0
  2
VW_EMPTYARROW
 10
648.0666666666862
 20
1970.598306414266
 30
0.0
 41
50.012451171875
 42
50.012451171875
 43
50.012451171875
 50
180.0
  0
INSERT
  5
17B
  8
H10H
 62
     0
  2
VW_EMPTYARROW
 10
1148.066666666686
 20
1970.598306414266
 30
0.0
 41
50.012451171875
 42
50.012451171875
 43
50.012451171875
  0
TEXT
  5
180
  8
H10H
 62
     0
 10
834.5406217448111
 20
1980.598306414266
 30
0.0
 40
64.98828125000011
  1
500
  7
_______
1001
ACADANNOTATIVE
1000
AnnotativeData
1002
{
1070
     1
1070
     0
1002
}
  0
POINT
  5
181
  8
DEFPOINTS
 62
     0
 10
648.0666666666862
 20
1802.058842585671
 30
0.0
  0
POINT
  5
182
  8
DEFPOINTS
 62
     0
 10
1148.066666666686
 20
1802.058842585821
 30
0.0
  0
POINT
  5
183
  8
DEFPOINTS
 62
     0
 10
1148.066666666686
 20
1970.598306414266
 30
0.0
  0
ENDBLK
  5
7C
  8
0
  0
BLOCK
  8
0
  2
*D11
 70
     1
 10
0.0
 20
0.0
 30
0.0
  3
*D11
  1

  0
LINE
  5
184
  8
H10H
  6
CONTINUOUS
 62
     0
 10
555.0666666666789
 20
1862.058842585642
 30
0.0
 11
555.0666666666789
 21
2010.598306414266
 31
0.0
  0
LINE
  5
185
  8
H10H
  6
CONTINUOUS
 62
     0
 10
648.0666666666862
 20
1842.058842585671
 30
0.0
 11
648.0666666666862
 21
2010.598306414266
 31
0.0
  0
LINE
  5
186
  8
H10H
  6
CONTINUOUS
 62
     0
 10
555.0666666666789
 20
1970.598306414266
 30
0.0
 11
648.0666666666862
 21
1970.598306414266
 31
0.0
  0
LINE
  5
187
  8
H10H
  6
CONTINUOUS
 62
     0
 10
505.0542154948039
 20
1970.598306414266
 30
0.0
 11
455.0417643229289
 21
1970.598306414266
 31
0.0
  0
LINE
  5
18C
  8
H10H
  6
CONTINUOUS
 62
     0
 10
698.0791178385612
 20
1970.598306414266
 30
0.0
 11
748.0915690104362
 21
1970.598306414266
 31
0.0
  0
INSERT
  5
191
  8
H10H
 62
     0
  2
VW_EMPTYARROW
 10
555.0666666666789
 20
1970.598306414266
 30
0.0
 41
50.012451171875
 42
50.012451171875
 43
50.012451171875
  0
INSERT
  5
192
  8
H10H
 62
     0
  2
VW_EMPTYARROW
 10
648.0666666666862
 20
1970.598306414266
 30
0.0
 41
50.012451171875
 42
50.012451171875
 43
50.012451171875
 50
180.0
  0
TEXT
  5
193
  8
H10H
 62
     0
 10
559.6817194010574
 20
1980.598306414266
 30
0.0
 40
64.98828125000011
  1
93
  7
_______
1001
ACADANNOTATIVE
1000
AnnotativeData
1002
{
1070
     1
1070
     0
1002
}
  0
POINT
  5
194
  8
DEFPOINTS
 62
     0
 10
555.0666666666789
 20
1822.058842585642
 30
0.0
  0
POINT
  5
3CB
  8
DEFPOINTS
 62
     0
 10
648.0666666666862
 20
1802.058842585671
 30
0.0
  0
POINT
  5
3CC
  8
DEFPOINTS
 62
     0
 10
648.0666666666862
 20
1970.598306414266
 30
0.0
  0
ENDBLK
  5
7F
  8
0
  0
BLOCK
  8
0
  2
*D12
 70
     1
 10
0.0
 20
0.0
 30
0.0
  3
*D12
  1

  0
LINE
  5
195
  8
H10H
  6
CONTINUOUS
 62
     0
 10
1241.066666666714
 20
1682.058842585848
 30
0.0
 11
1241.066666666714
 21
1585.201371661855
 31
0.0
  0
LINE
  5
196
  8
H10H
  6
CONTINUOUS
 62
     0
 10
1198.066666666695
 20
1732.058842585835
 30
0.0
 11
1198.066666666695
 21
1585.201371661855
 31
0.0
  0
LINE
  5
197
  8
H10H
  6
CONTINUOUS
 62
     0
 10
1241.066666666714
 20
1625.201371661855
 30
0.0
 11
1437.907717447964
 21
1625.201371661855
 31
0.0
  0
LINE
  5
198
  8
H10H
  6
CONTINUOUS
 62
     0
 10
1241.066666666714
 20
1625.201371661855
 30
0.0
 11
1198.066666666695
 21
1625.201371661855
 31
0.0
  0
LINE
  5
199
  8
H10H
  6
CONTINUOUS
 62
     0
 10
1291.079117838589
 20
1625.201371661855
 30
0.0
 11
1341.091569010464
 21
1625.201371661855
 31
0.0
  0
LINE
  5
19E
  8
H10H
  6
CONTINUOUS
 62
     0
 10
1148.05421549482
 20
1625.201371661855
 30
0.0
 11
1098.041764322945
 21
1625.201371661855
 31
0.0
  0
INSERT
  5
1A3
  8
H10H
 62
     0
  2
VW_EMPTYARROW
 10
1241.066666666714
 20
1625.201371661855
 30
0.0
 41
50.012451171875
 42
50.012451171875
 43
50.012451171875
 50
180.0
  0
INSERT
  5
1A4
  8
H10H
 62
     0
  2
VW_EMPTYARROW
 10
1198.066666666695
 20
1625.201371661855
 30
0.0
 41
50.012451171875
 42
50.012451171875
 43
50.012451171875
  0
TEXT
  5
1A5
  8
H10H
 62
     0
 10
1348.427049479213
 20
1635.201371661855
 30
0.0
 40
64.98828125000011
  1
43
  7
_______
1001
ACADANNOTATIVE
1000
AnnotativeData
1002
{
1070
     1
1070
     0
1002
}
  0
POINT
  5
1A6
  8
DEFPOINTS
 62
     0
 10
1241.066666666714
 20
1722.058842585848
 30
0.0
  0
POINT
  5
3CE
  8
DEFPOINTS
 62
     0
 10
1198.066666666695
 20
1772.058842585835
 30
0.0
  0
POINT
  5
3CF
  8
DEFPOINTS
 62
     0
 10
1198.066666666695
 20
1625.201371661855
 30
0.0
  0
ENDBLK
  5
82
  8
0
  0
BLOCK
  8
0
  2
*D13
 70
     1
 10
0.0
 20
0.0
 30
0.0
  3
*D13
  1

  0
LINE
  5
1A7
  8
H10H
  6
CONTINUOUS
 62
     0
 10
555.0666666667098
 20
1682.058842585644
 30
0.0
 11
555.0666666667098
 21
1589.764973080933
 31
0.0
  0
LINE
  5
1A8
  8
H10H
  6
CONTINUOUS
 62
     0
 10
598.0666666666953
 20
1732.058842585657
 30
0.0
 11
598.0666666666953
 21
1589.764973080933
 31
0.0
  0
LINE
  5
1A9
  8
H10H
  6
CONTINUOUS
 62
     0
 10
555.0666666667098
 20
1629.764973080933
 30
0.0
 11
358.2256158854597
 21
1629.764973080933
 31
0.0
  0
LINE
  5
1AA
  8
H10H
  6
CONTINUOUS
 62
     0
 10
555.0666666667098
 20
1629.764973080933
 30
0.0
 11
598.0666666666953
 21
1629.764973080933
 31
0.0
  0
LINE
  5
1AB
  8
H10H
  6
CONTINUOUS
 62
     0
 10
505.0542154948348
 20
1629.764973080933
 30
0.0
 11
455.0417643229598
 21
1629.764973080933
 31
0.0
  0
LINE
  5
1B0
  8
H10H
  6
CONTINUOUS
 62
     0
 10
648.0791178385703
 20
1629.764973080933
 30
0.0
 11
698.0915690104453
 21
1629.764973080933
 31
0.0
  0
INSERT
  5
1B5
  8
H10H
 62
     0
  2
VW_EMPTYARROW
 10
555.0666666667098
 20
1629.764973080933
 30
0.0
 41
50.012451171875
 42
50.012451171875
 43
50.012451171875
  0
INSERT
  5
1B6
  8
H10H
 62
     0
  2
VW_EMPTYARROW
 10
598.0666666666953
 20
1629.764973080933
 30
0.0
 41
50.012451171875
 42
50.012451171875
 43
50.012451171875
 50
180.0
  0
TEXT
  5
1B7
  8
H10H
 62
     0
 10
365.5610963542097
 20
1639.764973080933
 30
0.0
 40
64.98828125000011
  1
43
  7
_______
1001
ACADANNOTATIVE
1000
AnnotativeData
1002
{
1070
     1
1070
     0
1002
}
  0
POINT
  5
1B8
  8
DEFPOINTS
 62
     0
 10
555.0666666667098
 20
1722.058842585644
 30
0.0
  0
POINT
  5
3D1
  8
DEFPOINTS
 62
     0
 10
598.0666666666953
 20
1772.058842585657
 30
0.0
  0
POINT
  5
3D2
  8
DEFPOINTS
 62
     0
 10
598.0666666666953
 20
1629.764973080933
 30
0.0
  0
ENDBLK
  5
85
  8
0
  0
BLOCK
  8
0
  2
*D14
 70
     1
 10
0.0
 20
0.0
 30
0.0
  3
*D14
  1

  0
LINE
  5
1B9
  8
H10H
  6
CONTINUOUS
 62
     0
 10
608.0666666667044
 20
1742.058842585659
 30
0.0
 11
438.9360693179707
 21
1742.058842585608
 31
0.0
  0
LINE
  5
1BA
  8
H10H
  6
CONTINUOUS
 62
     0
 10
608.0666666666862
 20
1802.058842585659
 30
0.0
 11
438.9360693179525
 21
1802.058842585608
 31
0.0
  0
LINE
  5
1BB
  8
H10H
  6
CONTINUOUS
 62
     0
 10
478.9360693179525
 20
1802.05884258562
 30
0.0
 11
478.9360693178929
 21
1998.63994024187
 31
0.0
  0
LINE
  5
1BC
  8
H10H
  6
CONTINUOUS
 62
     0
 10
478.9360693179707
 20
1742.05884258562
 30
0.0
 11
478.9360693179525
 21
1802.05884258562
 31
0.0
  0
LINE
  5
1BD
  8
H10H
  6
CONTINUOUS
 62
     0
 10
478.9360693179859
 20
1692.046391413745
 30
0.0
 11
478.936069318001
 21
1642.03394024187
 31
0.0
  0
LINE
  5
1C2
  8
H10H
  6
CONTINUOUS
 62
     0
 10
478.9360693179373
 20
1852.071293757495
 30
0.0
 11
478.9360693179221
 21
1902.08374492937
 31
0.0
  0
INSERT
  5
1C7
  8
H10H
 62
     0
  2
VW_EMPTYARROW
 10
478.9360693179707
 20
1742.05884258562
 30
0.0
 41
50.012451171875
 42
50.012451171875
 43
50.012451171875
 50
90.00000000001738
  0
INSERT
  5
1C8
  8
H10H
 62
     0
  2
VW_EMPTYARROW
 10
478.9360693179525
 20
1802.05884258562
 30
0.0
 41
50.012451171875
 42
50.012451171875
 43
50.012451171875
 50
270.0000000000173
  0
TEXT
  5
1C9
  8
H10H
 62
     0
 10
468.9360693179203
 20
1907.469576960617
 30
0.0
 40
64.98828125000011
  1
60
 50
90.00000000001738
  7
_______
1001
ACADANNOTATIVE
1000
AnnotativeData
1002
{
1070
     1
1070
     0
1002
}
  0
POINT
  5
1CA
  8
DEFPOINTS
 62
     0
 10
648.0666666667044
 20
1742.058842585671
 30
0.0
  0
POINT
  5
3D4
  8
DEFPOINTS
 62
     0
 10
648.0666666666862
 20
1802.058842585671
 30
0.0
  0
POINT
  5
3D5
  8
DEFPOINTS
 62
     0
 10
478.9360693179525
 20
1802.05884258562
 30
0.0
  0
ENDBLK
  5
88
  8
0
  0
BLOCK
  8
0
  2
_______-1
 70
     0
 10
0.0
 20
0.0
 30
0.0
  3
_______-1
  1

  0
LINE
  5
1CB
  8
0
  6
CONTINUOUS
 62
     7
 10
127.0
 20
0.0
 30
0.0
 11
0.0
 21
0.0
 31
0.0
  0
LINE
  5
1CC
  8
0
  6
CONTINUOUS
 62
     7
 10
0.0
 20
0.0
 30
0.0
 11
-203.9333333333047
 21
-131.941157414165
 31
0.0
  0
POLYLINE
  5
1CD
  8
0
  6
CONTINUOUS
 62
     7
 66
     1
 10
0.0
 20
0.0
 30
0.0
 70
   128
  0
VERTEX
  5
1CE
  8
0
  6
CONTINUOUS
 62
     7
 10
-141.0658228569053
 20
-112.7206305946059
 30
0.0
  0
VERTEX
  5
1CF
  8
0
  6
CONTINUOUS
 62
     7
 10
-203.9333333333047
 20
-131.941157414165
 30
0.0
  0
VERTEX
  5
1D0
  8
0
  6
CONTINUOUS
 62
     7
 10
-159.098735597838
 20
-83.86193767610703
 30
0.0
  0
SEQEND
  5
1D1
  8
0
  6
CONTINUOUS
 62
     7
  0
TEXT
  5
1D2
  8
0
 62
   178
 10
128.190625
 20
-22.85999999999999
 30
0.0
 40
48.74121093749999
  1
M10用12.8Φ サスペンションポイント 
  7
_______
 11
128.190625
 21
25.8812109375
 31
0.0
 73
     3
  0
TEXT
  5
1D3
  8
0
 62
   178
 10
128.190625
 20
-86.35999999999999
 30
0.0
 40
48.74121093749999
  1
9箇所の穴の寸法は全て同じです。
  7
_______
 11
128.190625
 21
-37.6187890625
 31
0.0
 73
     3
  0
ENDBLK
  5
8B
  8
0
  0
BLOCK
  8
0
  2
____-1
 70
     0
 10
0.0
 20
0.0
 30
0.0
  3
____-1
  1

  0
ARC
  5
1D4
  8
0
  6
CONTINUOUS
 62
     7
 10
1249.357532377427
 20
-1350.034112570632
 30
0.0
 40
108.0000000000023
 50
270.0
 51
289.9322704722531
  0
ARC
  5
1D5
  8
0
  6
CONTINUOUS
 62
     7
 10
1201.357532377427
 20
-1387.700303058972
 30
0.0
 40
2.0
 50
270.0
 51
315.0000000000092
  0
ARC
  5
1D6
  8
0
  6
CONTINUOUS
 62
     7
 10
1209.357532377427
 20
-1346.034112570634
 30
0.0
 40
4.600000000000102
 50
224.99999999999
 51
270.0
  0
ARC
  5
1D7
  8
0
  6
CONTINUOUS
 62
     7
 10
1266.097647747604
 20
-1439.774227940812
 30
0.0
 40
4.600000000000102
 50
135.00000000001
 51
270.0
  0
ARC
  5
1D8
  8
0
  6
CONTINUOUS
 62
     7
 10
1211.357532377427
 20
-1438.034112570634
 30
0.0
 40
4.5
 50
270.0
 51
90.0
  0
ARC
  5
1D9
  8
0
  6
CONTINUOUS
 62
     7
 10
1287.357532377427
 20
-1438.034112570634
 30
0.0
 40
4.5
 50
270.0
 51
90.0
  0
ARC
  5
1DA
  8
0
  6
CONTINUOUS
 62
     7
 10
1219.357532377429
 20
-1432.76258409042
 30
0.0
 40
20.0
 50
180.0
 51
250.0677295277471
  0
ARC
  5
1DB
  8
0
  6
CONTINUOUS
 62
     7
 10
1249.357532377429
 20
-1350.034112570635
 30
0.0
 40
107.9999999999986
 50
250.067729527747
 51
270.0
  0
ARC
  5
1DC
  8
0
  6
CONTINUOUS
 62
     7
 10
1279.357532377427
 20
-1432.762584090421
 30
0.0
 40
19.99999999999979
 50
289.9322704722531
 51
0.0
  0
ARC
  5
1DD
  8
0
  6
CONTINUOUS
 62
     7
 10
1201.357532377427
 20
-1387.700303058972
 30
0.0
 40
2.0
 50
180.0
 51
270.0
  0
ARC
  5
1DE
  8
0
  6
CONTINUOUS
 62
     7
 10
1212.357532377427
 20
-1386.034112570634
 30
0.0
 40
4.600000000000102
 50
315.00000000001
 51
135.00000000001
  0
ARC
  5
1DF
  8
0
  6
CONTINUOUS
 62
     7
 10
1209.35753237743
 20
-1409.681630581278
 30
0.0
 40
9.99999999999992
 50
135.0000000000101
 51
179.9999999999935
  0
ARC
  5
1E0
  8
0
  6
CONTINUOUS
 62
     7
 10
1209.357532377429
 20
-1325.386594559987
 30
0.0
 40
10.0
 50
180.0
 51
224.9999999999908
  0
ARC
  5
1E1
  8
0
  6
CONTINUOUS
 62
     7
 10
1209.357532377427
 20
-1346.034112570634
 30
0.0
 40
4.599999999999909
 50
270.0
 51
44.99999999998997
  0
ARC
  5
1E2
  8
0
  6
CONTINUOUS
 62
     7
 10
1201.357532377427
 20
-1347.367922082297
 30
0.0
 40
2.000000000000016
 50
44.9999999999908
 51
180.0
  0
ARC
  5
1E3
  8
0
  6
CONTINUOUS
 62
     7
 10
1266.097647747604
 20
-1439.774227940812
 30
0.0
 40
4.600000000000364
 50
270.0
 51
315.000000000008
  0
ARC
  5
1E4
  8
0
  6
CONTINUOUS
 62
     7
 10
1212.357532377427
 20
-1386.034112570634
 30
0.0
 40
71.40000000000003
 50
315.000000000009
 51
30.00000000001495
  0
ARC
  5
1E5
  8
0
  6
CONTINUOUS
 62
     7
 10
1278.175463065044
 20
-1348.034112570634
 30
0.0
 40
4.599999999999899
 50
30.00000000001642
 51
210.0000000000164
  0
ARC
  5
1E6
  8
0
  6
CONTINUOUS
 62
     7
 10
1212.357532377427
 20
-1386.034112570634
 30
0.0
 40
80.60000000000007
 50
315.0000000000093
 51
30.00000000001518
  0
ARC
  5
1E7
  8
0
  6
CONTINUOUS
 62
     7
 10
1209.357532377427
 20
-1422.034112570634
 30
0.0
 40
4.599999999999909
 50
90.0
 51
270.0
  0
ARC
  5
1E8
  8
0
  6
CONTINUOUS
 62
     7
 10
1209.357532377427
 20
-1346.034112570634
 30
0.0
 40
71.40000000000009
 50
270.0
 51
329.9999999999851
  0
ARC
  5
1E9
  8
0
  6
CONTINUOUS
 62
     7
 10
1275.175463065044
 20
-1384.034112570634
 30
0.0
 40
4.599999999999899
 50
329.9999999999836
 51
149.9999999999836
  0
LINE
  5
1EA
  8
0
  6
CONTINUOUS
 62
     7
 10
1203.857532377427
 20
-1083.034112570634
 30
0.0
 11
1294.857532377427
 21
-1083.034112570634
 31
0.0
  0
LINE
  5
1EB
  8
0
  6
CONTINUOUS
 62
     7
 10
1199.357532377427
 20
-1087.534112570634
 30
0.0
 11
1203.857532377427
 21
-1087.534112570634
 31
0.0
  0
ARC
  5
1EC
  8
0
  6
CONTINUOUS
 62
     7
 10
1209.357532377427
 20
-1346.034112570634
 30
0.0
 40
80.60000000000014
 50
270.0
 51
329.9999999999849
  0
ARC
  5
1ED
  8
0
  6
CONTINUOUS
 62
     7
 10
1294.857532377427
 20
-1087.534112570634
 30
0.0
 40
4.5
 50
0.0
 51
90.0
  0
ARC
  5
1EE
  8
0
  6
CONTINUOUS
 62
     7
 10
1294.857532377427
 20
-1087.534112570634
 30
0.0
 40
1.5
 50
0.0
 51
90.0
  0
ARC
  5
1EF
  8
0
  6
CONTINUOUS
 62
     7
 10
1203.857532377427
 20
-1087.534112570634
 30
0.0
 40
4.5
 50
90.0
 51
180.0
  0
ARC
  5
1F0
  8
0
  6
CONTINUOUS
 62
     7
 10
1203.857532377427
 20
-1087.534112570634
 30
0.0
 40
1.5
 50
90.0
 51
180.0
  0
ARC
  5
1F1
  8
0
  6
CONTINUOUS
 62
     7
 10
1211.357532377427
 20
-1438.034112570634
 30
0.0
 40
4.5
 50
90.0
 51
270.0
  0
LINE
  5
1F2
  8
0
  6
CONTINUOUS
 62
     7
 10
1294.857532377427
 20
-1087.534112570634
 30
0.0
 11
1299.357532377427
 21
-1087.534112570634
 31
0.0
  0
LINE
  5
1F3
  8
0
  6
CONTINUOUS
 62
     7
 10
1199.357532377427
 20
-1087.534112570634
 30
0.0
 11
1199.357532377427
 21
-1325.386594559987
 31
0.0
  0
LINE
  5
1F4
  8
0
  6
CONTINUOUS
 62
     7
 10
1199.357532377427
 20
-1347.367922082297
 30
0.0
 11
1199.357532377427
 21
-1387.700303058972
 31
0.0
  0
ARC
  5
1F5
  8
0
  6
CONTINUOUS
 62
     7
 10
1287.357532377427
 20
-1438.034112570634
 30
0.0
 40
4.5
 50
90.0
 51
270.0
  0
LINE
  5
1F6
  8
0
  6
CONTINUOUS
 62
     7
 10
1199.35753237743
 20
-1409.681630581277
 30
0.0
 11
1199.357532377429
 21
-1432.762584090418
 31
0.0
  0
LINE
  5
1F7
  8
0
  6
CONTINUOUS
 62
     7
 10
1299.357532377427
 20
-1432.762584090421
 30
0.0
 11
1299.357532377427
 21
-1087.534112570634
 31
0.0
  0
LINE
  5
1F8
  8
0
  6
CONTINUOUS
 62
     7
 10
1202.7717459398
 20
-1389.114516621345
 30
0.0
 11
1209.104841183968
 21
-1382.781421377176
 31
0.0
  0
LINE
  5
1F9
  8
0
  6
CONTINUOUS
 62
     7
 10
1215.610223570885
 20
-1389.286803764092
 30
0.0
 11
1202.286464565566
 21
-1402.610562769413
 31
0.0
  0
LINE
  5
1FA
  8
0
  6
CONTINUOUS
 62
     7
 10
1202.286464565562
 20
-1332.457662371853
 30
0.0
 11
1212.610223570885
 21
-1342.781421377176
 31
0.0
  0
LINE
  5
1FB
  8
0
  6
CONTINUOUS
 62
     7
 10
1206.10484118397
 20
-1349.286803764092
 30
0.0
 11
1202.771745939802
 21
-1345.953708519924
 31
0.0
  0
LINE
  5
1FC
  8
0
  6
CONTINUOUS
 62
     7
 10
1203.857532377427
 20
-1087.534112570634
 30
0.0
 11
1203.857532377427
 21
-1083.034112570634
 31
0.0
  0
LINE
  5
1FD
  8
0
  6
CONTINUOUS
 62
     7
 10
1294.857532377427
 20
-1083.034112570634
 30
0.0
 11
1294.857532377427
 21
-1087.534112570634
 31
0.0
  0
ENDBLK
  5
8E
  8
0
  0
BLOCK
  8
0
  2
____-2
 70
     0
 10
0.0
 20
0.0
 30
0.0
  3
____-2
  1

  0
ARC
  5
1FE
  8
0
  6
______-5
 62
     7
 10
1282.55048501061
 20
-1492.036935004329
 30
0.0
 40
31.80000000000064
 50
270.0
 51
329.9999999999987
  0
LINE
  5
1FF
  8
0
  6
______-5
 62
     7
 10
1282.550485010601
 20
-1523.83693500433
 30
0.0
 11
1112.917658540754
 21
-1523.836935004283
 31
0.0
  0
LINE
  5
200
  8
0
  6
______-5
 62
     7
 10
1350.459473579871
 20
-1438.015116511804
 30
0.0
 11
1310.090092850951
 21
-1507.93693500434
 31
0.0
  0
CIRCLE
  5
201
  8
0
  6
______-5
 62
     7
 10
1208.910223570863
 20
-1421.83693500431
 30
0.0
 40
4.5
  0
CIRCLE
  5
202
  8
0
  6
______-5
 62
     7
 10
1321.694833261699
 20
-1383.836935004345
 30
0.0
 40
4.5
  0
CIRCLE
  5
203
  8
0
  6
______-5
 62
     7
 10
1208.910223570884
 20
-1345.83693500431
 30
0.0
 40
4.5
  0
LINE
  5
204
  8
0
  6
______-5
 62
     7
 10
1062.917658540754
 20
-1523.836935004265
 30
0.0
 11
1112.917658540753
 21
-1523.836935004283
 31
0.0
  0
ARC
  5
205
  8
0
  6
______-5
 62
     7
 10
1062.91765854076
 20
-1506.836935004265
 30
0.0
 40
17.00000000000068
 50
186.5213482014775
 51
270.0
  0
ARC
  5
206
  8
0
  6
______-5
 62
     7
 10
2138.910223570898
 20
-1383.836935004588
 30
0.0
 40
1100.000000000027
 50
173.4786517986272
 51
186.5213482013729
  0
ARC
  5
207
  8
0
  6
______-5
 62
     7
 10
1062.917658540832
 20
-1260.836935004265
 30
0.0
 40
17.00000000000091
 50
90.0
 51
173.4786517985225
  0
LINE
  5
208
  8
0
  6
______-5
 62
     7
 10
1358.645250489876
 20
-1243.836935004354
 30
0.0
 11
1062.917658540838
 21
-1243.836935004265
 31
0.0
  0
ARC
  5
209
  8
0
  6
______-5
 62
     7
 10
1358.645250489858
 20
-1303.836935004354
 30
0.0
 40
59.99999999999964
 50
329.9999999999993
 51
90.0
  0
LINE
  5
20A
  8
0
  6
______-5
 62
     7
 10
1350.459473579868
 20
-1438.015116511808
 30
0.0
 11
1410.606774716916
 21
-1333.836935004368
 31
0.0
  0
ARC
  5
20B
  8
0
  6
______-5
 62
     7
 10
1324.478711466362
 20
-1423.015116511815
 30
0.0
 40
29.9999999999741
 50
304.2782237982278
 51
329.9999999999994
  0
ARC
  5
20C
  8
0
  6
______-5
 62
     7
 10
1093.426964747722
 20
-1084.029239165936
 30
0.0
 40
440.239362691671
 50
272.5374823978601
 51
304.2782237982277
  0
CIRCLE
  5
20D
  8
0
  6
______-5
 62
     7
 10
1208.910223570863
 20
-1421.83693500431
 30
0.0
 40
8.5
  0
CIRCLE
  5
20E
  8
0
  6
______-5
 62
     7
 10
1321.694833261699
 20
-1383.836935004345
 30
0.0
 40
8.5
  0
CIRCLE
  5
20F
  8
0
  6
______-5
 62
     7
 10
1208.910223570884
 20
-1345.83693500431
 30
0.0
 40
8.5
  0
ARC
  5
210
  8
0
  6
______-5
 62
     7
 10
1321.694833261699
 20
-1383.836935004345
 30
0.0
 40
3.399999999999653
 50
329.9999999999382
 51
149.9999999999383
  0
ARC
  5
211
  8
0
  6
______-5
 62
     7
 10
1321.694833261699
 20
-1383.836935004345
 30
0.0
 40
4.399999999999325
 50
329.9999999999976
 51
149.9999999999976
  0
ARC
  5
212
  8
0
  6
______-5
 62
     7
 10
1321.694833261699
 20
-1383.836935004345
 30
0.0
 40
3.399999999999653
 50
149.9999999999383
 51
329.9999999999382
  0
ARC
  5
213
  8
0
  6
______-5
 62
     7
 10
1321.694833261699
 20
-1383.836935004345
 30
0.0
 40
4.399999999999325
 50
149.9999999999977
 51
329.9999999999976
  0
ARC
  5
214
  8
0
  6
______-5
 62
     7
 10
1208.910223570862
 20
-1421.83693500431
 30
0.0
 40
4.400000000000091
 50
270.0
 51
90.0
  0
ARC
  5
215
  8
0
  6
______-5
 62
     7
 10
1208.910223570862
 20
-1421.83693500431
 30
0.0
 40
3.400000000000091
 50
270.0
 51
90.0
  0
ARC
  5
216
  8
0
  6
______-5
 62
     7
 10
1208.910223570862
 20
-1421.83693500431
 30
0.0
 40
4.400000000000091
 50
90.0
 51
270.0
  0
ARC
  5
217
  8
0
  6
______-5
 62
     7
 10
1208.910223570863
 20
-1421.83693500431
 30
0.0
 40
3.400000000000091
 50
90.0
 51
270.0
  0
ARC
  5
218
  8
0
  6
______-5
 62
     7
 10
1208.910223570883
 20
-1345.83693500431
 30
0.0
 40
4.400000000000091
 50
270.0
 51
90.0
  0
ARC
  5
219
  8
0
  6
______-5
 62
     7
 10
1208.910223570883
 20
-1345.83693500431
 30
0.0
 40
3.400000000000091
 50
270.0
 51
90.0
  0
ARC
  5
21A
  8
0
  6
______-5
 62
     7
 10
1208.910223570883
 20
-1345.83693500431
 30
0.0
 40
4.400000000000091
 50
90.0
 51
270.0
  0
ARC
  5
21B
  8
0
  6
______-5
 62
     7
 10
1208.910223570884
 20
-1345.83693500431
 30
0.0
 40
3.400000000000091
 50
90.0
 51
270.0
  0
ENDBLK
  5
91
  8
0
  0
BLOCK
  8
0
  2
____-3
 70
     0
 10
0.0
 20
0.0
 30
0.0
  3
____-3
  1

  0
ARC
  5
21C
  8
0
  6
CONTINUOUS
 62
     3
 10
1345.784560719024
 20
-1435.629718317749
 30
0.0
 40
31.8000000000008
 50
300.0000000000003
 51
359.9999999999989
  0
LINE
  5
21D
  8
0
  6
CONTINUOUS
 62
     3
 10
1361.684560719016
 20
-1463.1693261581
 30
0.0
 11
1214.778223680348
 21
-1547.985739392982
 31
0.0
  0
LINE
  5
21E
  8
0
  6
CONTINUOUS
 62
     3
 10
1377.584560719048
 20
-1354.89095685996
 30
0.0
 11
1377.584560719026
 21
-1435.62971831776
 31
0.0
  0
CIRCLE
  5
21F
  8
0
  6
CONTINUOUS
 62
     3
 10
1246.910223570865
 20
-1411.654865691938
 30
0.0
 40
4.499999999999779
  0
CIRCLE
  5
220
  8
0
  6
CONTINUOUS
 62
     3
 10
1325.584560719059
 20
-1322.353595502742
 30
0.0
 40
4.499999999999975
  0
CIRCLE
  5
221
  8
0
  6
CONTINUOUS
 62
     3
 10
1208.910223570884
 20
-1345.83693500431
 30
0.0
 40
4.499999999999975
  0
LINE
  5
222
  8
0
  6
CONTINUOUS
 62
     3
 10
1171.476953491117
 20
-1572.985739392966
 30
0.0
 11
1214.778223680347
 21
-1547.985739392983
 31
0.0
  0
ARC
  5
223
  8
0
  6
CONTINUOUS
 62
     3
 10
1162.976953491122
 20
-1558.263307528628
 30
0.0
 40
17.00000000000065
 50
216.5213482014777
 51
300.0000000000005
  0
ARC
  5
224
  8
0
  6
CONTINUOUS
 62
     3
 10
2033.313849090562
 20
-913.7459003483532
 30
0.0
 40
1100.000000000025
 50
203.4786517986272
 51
216.5213482013729
  0
ARC
  5
225
  8
0
  6
CONTINUOUS
 62
     3
 10
1039.976953491185
 20
-1345.221058197619
 30
0.0
 40
17.00000000000083
 50
120.0000000000002
 51
203.4786517985232
  0
LINE
  5
226
  8
0
  6
CONTINUOUS
 62
     3
 10
1287.5845607191
 20
-1182.634830358839
 30
0.0
 11
1031.476953491189
 21
-1330.498626333281
 31
0.0
  0
ARC
  5
227
  8
0
  6
CONTINUOUS
 62
     3
 10
1317.584560719084
 20
-1234.596354585915
 30
0.0
 40
59.99999999999955
 50
359.9999999999995
 51
120.0
  0
LINE
  5
228
  8
0
  6
CONTINUOUS
 62
     3
 10
1377.584560719048
 20
-1354.890956859964
 30
0.0
 11
1377.584560719084
 21
-1234.596354585931
 31
0.0
  0
ARC
  5
229
  8
0
  6
CONTINUOUS
 62
     3
 10
1347.584560719075
 20
-1354.890956859956
 30
0.0
 40
29.99999999997379
 50
334.2782237982274
 51
359.9999999999991
  0
ARC
  5
22A
  8
0
  6
CONTINUOUS
 62
     3
 10
977.9949397990254
 20
-1176.846448913589
 30
0.0
 40
440.239362691671
 50
302.5374823978601
 51
334.2782237982277
  0
CIRCLE
  5
22B
  8
0
  6
CONTINUOUS
 62
     3
 10
1246.910223570865
 20
-1411.654865691938
 30
0.0
 40
8.49999999999991
  0
CIRCLE
  5
22C
  8
0
  6
CONTINUOUS
 62
     3
 10
1325.584560719059
 20
-1322.353595502742
 30
0.0
 40
8.49999999999991
  0
CIRCLE
  5
22D
  8
0
  6
CONTINUOUS
 62
     3
 10
1208.910223570884
 20
-1345.83693500431
 30
0.0
 40
8.49999999999991
  0
ARC
  5
22E
  8
0
  6
CONTINUOUS
 62
     3
 10
1325.584560719059
 20
-1322.353595502742
 30
0.0
 40
3.400000000000091
 50
359.9999999999426
 51
179.9999999999425
  0
ARC
  5
22F
  8
0
  6
CONTINUOUS
 62
     3
 10
1325.584560719059
 20
-1322.353595502742
 30
0.0
 40
4.399999999999636
 50
0.0000000000029559
 51
180.0
  0
ARC
  5
230
  8
0
  6
CONTINUOUS
 62
     3
 10
1325.584560719059
 20
-1322.353595502742
 30
0.0
 40
3.400000000000091
 50
179.9999999999426
 51
359.9999999999426
  0
ARC
  5
231
  8
0
  6
CONTINUOUS
 62
     3
 10
1325.584560719059
 20
-1322.353595502742
 30
0.0
 40
4.399999999999636
 50
180.0
 51
0.0000000000029559
  0
ARC
  5
232
  8
0
  6
CONTINUOUS
 62
     3
 10
1246.910223570865
 20
-1411.654865691939
 30
0.0
 40
4.399999999999719
 50
299.9999999999994
 51
120.0000000000016
  0
ARC
  5
233
  8
0
  6
CONTINUOUS
 62
     3
 10
1246.910223570865
 20
-1411.654865691939
 30
0.0
 40
3.399999999999834
 50
299.9999999999981
 51
120.0000000000028
  0
ARC
  5
234
  8
0
  6
CONTINUOUS
 62
     3
 10
1246.910223570865
 20
-1411.654865691939
 30
0.0
 40
4.40000000000034
 50
120.0000000000015
 51
299.9999999999994
  0
ARC
  5
235
  8
0
  6
CONTINUOUS
 62
     3
 10
1246.910223570865
 20
-1411.654865691938
 30
0.0
 40
3.400000000000258
 50
120.0000000000028
 51
299.9999999999981
  0
ARC
  5
236
  8
0
  6
CONTINUOUS
 62
     3
 10
1208.910223570883
 20
-1345.83693500431
 30
0.0
 40
4.399999999999916
 50
299.9999999999979
 51
120.0000000000031
  0
ARC
  5
237
  8
0
  6
CONTINUOUS
 62
     3
 10
1208.910223570883
 20
-1345.83693500431
 30
0.0
 40
3.399999999999834
 50
299.9999999999981
 51
120.0000000000047
  0
ARC
  5
238
  8
0
  6
CONTINUOUS
 62
     3
 10
1208.910223570883
 20
-1345.83693500431
 30
0.0
 40
4.400000000000142
 50
120.000000000003
 51
299.9999999999978
  0
ARC
  5
239
  8
0
  6
CONTINUOUS
 62
     3
 10
1208.910223570884
 20
-1345.83693500431
 30
0.0
 40
3.400000000000061
 50
120.0000000000047
 51
299.9999999999981
  0
ENDBLK
  5
94
  8
0
  0
BLOCK
  8
0
  2
____-4
 70
     0
 10
0.0
 20
0.0
 30
0.0
  3
____-4
  1

  0
ARC
  5
23A
  8
0
  6
CONTINUOUS
 62
     6
 10
1372.343268324049
 20
-1355.16259785619
 30
0.0
 40
31.80000000000037
 50
330.0000000000002
 51
29.99999999999937
  0
LINE
  5
23B
  8
0
  6
CONTINUOUS
 62
     6
 10
1399.88287616439
 20
-1371.062597856198
 30
0.0
 11
1315.066462929426
 21
-1517.968934894819
 31
0.0
  0
LINE
  5
23C
  8
0
  6
CONTINUOUS
 62
     6
 10
1359.51349543552
 20
-1269.34077936364
 30
0.0
 11
1399.882876164401
 21
-1339.262597856199
 31
0.0
  0
CIRCLE
  5
23D
  8
0
  6
CONTINUOUS
 62
     6
 10
1274.728154258491
 20
-1383.836935004329
 30
0.0
 40
4.500000000000172
  0
CIRCLE
  5
23E
  8
0
  6
CONTINUOUS
 62
     6
 10
1298.21149376013
 20
-1267.16259785617
 30
0.0
 40
4.500000000000172
  0
CIRCLE
  5
23F
  8
0
  6
CONTINUOUS
 62
     6
 10
1208.910223570884
 20
-1345.83693500431
 30
0.0
 40
4.500000000000172
  0
LINE
  5
240
  8
0
  6
CONTINUOUS
 62
     6
 10
1290.06646292941
 20
-1561.270205084032
 30
0.0
 11
1315.066462929425
 21
-1517.96893489482
 31
0.0
  0
ARC
  5
241
  8
0
  6
CONTINUOUS
 62
     6
 10
1275.344031065077
 20
-1552.770205084027
 30
0.0
 40
17.00000000000043
 50
246.5213482014789
 51
330.0000000000013
  0
ARC
  5
242
  8
0
  6
CONTINUOUS
 62
     6
 10
1706.819188914939
 20
-559.4333094849105
 30
0.0
 40
1100.000000000025
 50
233.4786517986272
 51
246.5213482013728
  0
ARC
  5
243
  8
0
  6
CONTINUOUS
 62
     6
 10
1062.301781734142
 20
-1429.770205083964
 30
0.0
 40
17.00000000000083
 50
149.9999999999999
 51
233.478651798524
  0
LINE
  5
244
  8
0
  6
CONTINUOUS
 62
     6
 10
1195.443145844406
 20
-1165.162597856138
 30
0.0
 11
1047.579349869809
 21
-1421.270205083959
 31
0.0
  0
ARC
  5
245
  8
0
  6
CONTINUOUS
 62
     6
 10
1247.404670071463
 20
-1195.162597856154
 30
0.0
 40
59.99999999999957
 50
29.99999999999973
 51
150.0
  0
LINE
  5
246
  8
0
  6
CONTINUOUS
 62
     6
 10
1359.513495435522
 20
-1269.340779363644
 30
0.0
 11
1299.366194298537
 21
-1165.162597856169
 31
0.0
  0
ARC
  5
247
  8
0
  6
CONTINUOUS
 62
     6
 10
1333.532733322009
 20
-1284.340779363624
 30
0.0
 40
29.99999999997329
 50
4.278223798227651
 51
29.99999999999985
  0
ARC
  5
248
  8
0
  6
CONTINUOUS
 62
     6
 10
924.4364786570018
 20
-1314.944522937794
 30
0.0
 40
440.2393626916706
 50
332.5374823978601
 51
4.278223798227714
  0
CIRCLE
  5
249
  8
0
  6
CONTINUOUS
 62
     6
 10
1274.728154258491
 20
-1383.836935004329
 30
0.0
 40
8.499999999999712
  0
CIRCLE
  5
24A
  8
0
  6
CONTINUOUS
 62
     6
 10
1298.21149376013
 20
-1267.16259785617
 30
0.0
 40
8.499999999999599
  0
CIRCLE
  5
24B
  8
0
  6
CONTINUOUS
 62
     6
 10
1208.910223570884
 20
-1345.83693500431
 30
0.0
 40
8.500000000000107
  0
ARC
  5
24C
  8
0
  6
CONTINUOUS
 62
     6
 10
1298.21149376013
 20
-1267.16259785617
 30
0.0
 40
3.399999999999848
 50
29.99999999994485
 51
209.999999999941
  0
ARC
  5
24D
  8
0
  6
CONTINUOUS
 62
     6
 10
1298.21149376013
 20
-1267.16259785617
 30
0.0
 40
4.399999999999439
 50
30.0000000000049
 51
209.9999999999994
  0
ARC
  5
24E
  8
0
  6
CONTINUOUS
 62
     6
 10
1298.21149376013
 20
-1267.16259785617
 30
0.0
 40
3.400000000000241
 50
209.999999999941
 51
29.99999999994483
  0
ARC
  5
24F
  8
0
  6
CONTINUOUS
 62
     6
 10
1298.21149376013
 20
-1267.16259785617
 30
0.0
 40
4.399999999999719
 50
209.9999999999994
 51
30.00000000000489
  0
ARC
  5
250
  8
0
  6
CONTINUOUS
 62
     6
 10
1274.728154258491
 20
-1383.83693500433
 30
0.0
 40
4.399999999999439
 50
329.9999999999951
 51
150.0000000000011
  0
ARC
  5
251
  8
0
  6
CONTINUOUS
 62
     6
 10
1274.728154258491
 20
-1383.83693500433
 30
0.0
 40
3.399999999999751
 50
329.9999999999966
 51
150.0000000000043
  0
ARC
  5
252
  8
0
  6
CONTINUOUS
 62
     6
 10
1274.728154258491
 20
-1383.83693500433
 30
0.0
 40
4.400000000000227
 50
150.000000000001
 51
329.9999999999951
  0
ARC
  5
253
  8
0
  6
CONTINUOUS
 62
     6
 10
1274.728154258491
 20
-1383.836935004329
 30
0.0
 40
3.400000000000424
 50
150.0000000000077
 51
329.9999999999967
  0
ARC
  5
254
  8
0
  6
CONTINUOUS
 62
     6
 10
1208.910223570884
 20
-1345.836935004311
 30
0.0
 40
4.399999999999832
 50
329.9999999999981
 51
150.0000000000066
  0
ARC
  5
255
  8
0
  6
CONTINUOUS
 62
     6
 10
1208.910223570884
 20
-1345.836935004311
 30
0.0
 40
3.400000000000144
 50
330.0000000000006
 51
150.0000000000039
  0
ARC
  5
256
  8
0
  6
CONTINUOUS
 62
     6
 10
1208.910223570884
 20
-1345.836935004311
 30
0.0
 40
4.400000000000507
 50
150.0000000000065
 51
329.9999999999981
  0
ARC
  5
257
  8
0
  6
CONTINUOUS
 62
     6
 10
1208.910223570884
 20
-1345.83693500431
 30
0.0
 40
3.400000000000424
 50
150.0000000000077
 51
329.9999999999967
  0
ENDBLK
  5
97
  8
0
  0
BLOCK
  8
0
  2
____-5
 70
     0
 10
0.0
 20
0.0
 30
0.0
  3
____-5
  1

  0
ARC
  5
258
  8
0
  6
CONTINUOUS
 62
     5
 10
1357.557532377446
 20
-1364.393851130886
 30
0.0
 40
31.80000000000064
 50
0.0000000000003979
 51
59.99999999999903
  0
LINE
  5
259
  8
0
  6
CONTINUOUS
 62
     5
 10
1389.357532377447
 20
-1364.393851130896
 30
0.0
 11
1389.3575323774
 21
-1534.026677600742
 31
0.0
  0
LINE
  5
25A
  8
0
  6
CONTINUOUS
 62
     5
 10
1303.53571388492
 20
-1296.484862561625
 30
0.0
 11
1373.457532377457
 21
-1336.854243290545
 31
0.0
  0
CIRCLE
  5
25B
  8
0
  6
CONTINUOUS
 62
     5
 10
1287.357532377427
 20
-1438.034112570634
 30
0.0
 40
4.500000000000455
  0
CIRCLE
  5
25C
  8
0
  6
CONTINUOUS
 62
     5
 10
1249.357532377461
 20
-1325.249502879797
 30
0.0
 40
4.5
  0
CIRCLE
  5
25D
  8
0
  6
CONTINUOUS
 62
     5
 10
1211.357532377427
 20
-1438.034112570612
 30
0.0
 40
4.500000000000455
  0
LINE
  5
25E
  8
0
  6
CONTINUOUS
 62
     5
 10
1389.357532377381
 20
-1584.026677600742
 30
0.0
 11
1389.3575323774
 21
-1534.026677600743
 31
0.0
  0
ARC
  5
25F
  8
0
  6
CONTINUOUS
 62
     5
 10
1372.357532377381
 20
-1584.026677600737
 30
0.0
 40
17.00000000000051
 50
276.5213482014791
 51
0.000000000000739
  0
ARC
  5
260
  8
0
  6
CONTINUOUS
 62
     5
 10
1249.357532377705
 20
-508.0341125705995
 30
0.0
 40
1100.000000000025
 50
263.4786517986272
 51
276.5213482013729
  0
ARC
  5
261
  8
0
  6
CONTINUOUS
 62
     5
 10
1126.357532377381
 20
-1584.026677600664
 30
0.0
 40
17.00000000000091
 50
180.0
 51
263.4786517985225
  0
LINE
  5
262
  8
0
  6
CONTINUOUS
 62
     5
 10
1109.35753237747
 20
-1288.29908565162
 30
0.0
 11
1109.357532377381
 21
-1584.026677600658
 31
0.0
  0
ARC
  5
263
  8
0
  6
CONTINUOUS
 62
     5
 10
1169.35753237747
 20
-1288.299085651638
 30
0.0
 40
59.99999999999961
 50
59.99999999999979
 51
179.9999999999998
  0
LINE
  5
264
  8
0
  6
CONTINUOUS
 62
     5
 10
1303.535713884924
 20
-1296.484862561628
 30
0.0
 11
1199.357532377485
 21
-1236.33756142458
 31
0.0
  0
ARC
  5
265
  8
0
  6
CONTINUOUS
 62
     5
 10
1288.535713884932
 20
-1322.465624675134
 30
0.0
 40
29.9999999999731
 50
34.27822379822812
 51
59.99999999999979
  0
ARC
  5
266
  8
0
  6
CONTINUOUS
 62
     5
 10
949.5498365390522
 20
-1553.517371393773
 30
0.0
 40
440.239362691671
 50
2.537482397860046
 51
34.27822379822764
  0
CIRCLE
  5
267
  8
0
  6
CONTINUOUS
 62
     5
 10
1287.357532377427
 20
-1438.034112570634
 30
0.0
 40
8.5
  0
CIRCLE
  5
268
  8
0
  6
CONTINUOUS
 62
     5
 10
1249.357532377461
 20
-1325.249502879797
 30
0.0
 40
8.499999999999545
  0
CIRCLE
  5
269
  8
0
  6
CONTINUOUS
 62
     5
 10
1211.357532377427
 20
-1438.034112570612
 30
0.0
 40
8.5
  0
ARC
  5
26A
  8
0
  6
CONTINUOUS
 62
     5
 10
1249.357532377461
 20
-1325.249502879797
 30
0.0
 40
3.39999999999985
 50
59.99999999994014
 51
239.999999999944
  0
ARC
  5
26B
  8
0
  6
CONTINUOUS
 62
     5
 10
1249.357532377461
 20
-1325.249502879797
 30
0.0
 40
4.399999999999294
 50
60.00000000000427
 51
240.0000000000006
  0
ARC
  5
26C
  8
0
  6
CONTINUOUS
 62
     5
 10
1249.357532377461
 20
-1325.249502879797
 30
0.0
 40
3.400000000000244
 50
239.999999999944
 51
59.99999999994016
  0
ARC
  5
26D
  8
0
  6
CONTINUOUS
 62
     5
 10
1249.357532377461
 20
-1325.249502879797
 30
0.0
 40
4.399999999999719
 50
240.0000000000006
 51
60.00000000000427
  0
ARC
  5
26E
  8
0
  6
CONTINUOUS
 62
     5
 10
1287.357532377427
 20
-1438.034112570634
 30
0.0
 40
4.400000000000091
 50
359.9999999999941
 51
180.000000000003
  0
ARC
  5
26F
  8
0
  6
CONTINUOUS
 62
     5
 10
1287.357532377427
 20
-1438.034112570634
 30
0.0
 40
3.400000000000091
 50
359.9999999999962
 51
180.0000000000038
  0
ARC
  5
270
  8
0
  6
CONTINUOUS
 62
     5
 10
1287.357532377427
 20
-1438.034112570634
 30
0.0
 40
4.400000000000091
 50
180.000000000003
 51
359.9999999999941
  0
ARC
  5
271
  8
0
  6
CONTINUOUS
 62
     5
 10
1287.357532377427
 20
-1438.034112570634
 30
0.0
 40
3.400000000000091
 50
180.0000000000077
 51
359.9999999999961
  0
ARC
  5
272
  8
0
  6
CONTINUOUS
 62
     5
 10
1211.357532377427
 20
-1438.034112570613
 30
0.0
 40
4.400000000000091
 50
359.999999999997
 51
180.0000000000059
  0
ARC
  5
273
  8
0
  6
CONTINUOUS
 62
     5
 10
1211.357532377427
 20
-1438.034112570613
 30
0.0
 40
3.400000000000091
 50
0.0
 51
180.0000000000038
  0
ARC
  5
274
  8
0
  6
CONTINUOUS
 62
     5
 10
1211.357532377427
 20
-1438.034112570613
 30
0.0
 40
4.400000000000546
 50
180.0000000000059
 51
359.999999999997
  0
ARC
  5
275
  8
0
  6
CONTINUOUS
 62
     5
 10
1211.357532377427
 20
-1438.034112570612
 30
0.0
 40
3.400000000000091
 50
180.0000000000077
 51
359.9999999999961
  0
ENDBLK
  5
9A
  8
0
  0
BLOCK
  8
0
  2
*D21
 70
     1
 10
0.0
 20
0.0
 30
0.0
  3
*D21
  1

  0
LINE
  5
276
  8
H10H
  6
CONTINUOUS
 62
     0
 10
1700.896253256215
 20
-690.9000000002584
 30
0.0
 11
1779.218100727436
 21
-690.9000000002584
 31
0.0
  0
LINE
  5
277
  8
H10H
  6
CONTINUOUS
 62
     0
 10
1747.251725072361
 20
-957.4917610168666
 30
0.0
 11
1836.798251891685
 21
-905.7920496527337
 31
0.0
  0
ARC
  5
27C
  8
H10H
  6
CONTINUOUS
 62
     0
 10
2209.002200032386
 20
-690.9000000002584
 30
0.0
 40
469.7840993049499
 50
186.1024995690628
 51
203.8975004309372
  0
INSERT
  5
281
  8
H10H
 62
     0
  2
VW_EMPTYARROW
 10
1739.218100727436
 20
-690.9000000002584
 30
0.0
 41
50.012451171875
 42
50.012451171875
 43
50.012451171875
 50
93.05124978453141
  0
INSERT
  5
282
  8
H10H
 62
     0
  2
VW_EMPTYARROW
 10
1802.157235740308
 20
-925.7920496527337
 30
0.0
 41
50.012451171875
 42
50.012451171875
 43
50.012451171875
 50
296.9487502154686
  0
TEXT
  5
283
  8
H10H
 62
     0
 10
1750.192415020039
 20
-755.0679154672632
 30
0.0
 40
64.98828125000011
  1
30°
 50
285.0
  7
_______
1001
ACADANNOTATIVE
1000
AnnotativeData
1002
{
1070
     1
1070
     0
1002
}
  0
POINT
  5
284
  8
DEFPOINTS
 62
     0
 10
2209.002200032386
 20
-690.9000000002584
 30
0.0
  0
POINT
  5
3E2
  8
DEFPOINTS
 62
     0
 10
1660.896253256215
 20
-690.9000000002584
 30
0.0
  0
POINT
  5
3E3
  8
DEFPOINTS
 62
     0
 10
1712.610708920984
 20
-977.4917610168666
 30
0.0
  0
POINT
  5
3E4
  8
DEFPOINTS
 62
     0
 10
1746.355176795014
 20
-772.4771527414632
 30
0.0
  0
ENDBLK
  5
9D
  8
0
  0
BLOCK
  8
0
  2
*D22
 70
     1
 10
0.0
 20
0.0
 30
0.0
  3
*D22
  1

  0
LINE
  5
285
  8
H10H
  6
CONTINUOUS
 62
     0
 10
1747.251725072361
 20
-957.4917610168666
 30
0.0
 11
1846.328043836084
 21
-900.2900217083138
 31
0.0
  0
LINE
  5
286
  8
H10H
  6
CONTINUOUS
 62
     0
 10
1972.778441759114
 20
-1120.415689909346
 30
0.0
 11
2007.065970387236
 21
-1061.027948259466
 31
0.0
  0
ARC
  5
28B
  8
H10H
  6
CONTINUOUS
 62
     0
 10
2226.638061407748
 20
-680.717930687802
 30
0.0
 40
479.144182041023
 50
215.983177690951
 51
234.016822309049
  0
INSERT
  5
290
  8
H10H
 62
     0
  2
VW_EMPTYARROW
 10
1811.687027684707
 20
-920.2900217083138
 30
0.0
 41
50.012451171875
 42
50.012451171875
 43
50.012451171875
 50
122.9915888454756
  0
INSERT
  5
291
  8
H10H
 62
     0
  2
VW_EMPTYARROW
 10
1987.065970387236
 20
-1095.668964410844
 30
0.0
 41
50.012451171875
 42
50.012451171875
 43
50.012451171875
 50
327.0084111545245
  0
TEXT
  5
292
  8
H10H
 62
     0
 10
1854.762511840537
 20
-972.3124460714384
 30
0.0
 40
64.98828125000011
  1
30°
 50
315.0000000000001
  7
_______
1001
ACADANNOTATIVE
1000
AnnotativeData
1002
{
1070
     1
1070
     0
1002
}
  0
POINT
  5
293
  8
DEFPOINTS
 62
     0
 10
2226.638061407748
 20
-680.717930687802
 30
0.0
  0
POINT
  5
3E6
  8
DEFPOINTS
 62
     0
 10
1712.610708920984
 20
-977.4917610168666
 30
0.0
  0
POINT
  5
3E7
  8
DEFPOINTS
 62
     0
 10
1952.778441759114
 20
-1155.056706060724
 30
0.0
  0
POINT
  5
3E8
  8
DEFPOINTS
 62
     0
 10
1859.592323302434
 20
-988.7058741571634
 30
0.0
  0
ENDBLK
  5
A0
  8
0
  0
BLOCK
  8
0
  2
*D23
 70
     1
 10
0.0
 20
0.0
 30
0.0
  3
*D23
  1

  0
LINE
  5
294
  8
H10H
  6
CONTINUOUS
 62
     0
 10
1972.778441759114
 20
-1120.415689909346
 30
0.0
 11
2010.892070391517
 21
-1054.400948657213
 31
0.0
  0
LINE
  5
295
  8
H10H
  6
CONTINUOUS
 62
     0
 10
2239.267439526749
 20
-1130.856368988259
 30
0.0
 11
2239.267439526749
 21
-1115.593944388158
 31
0.0
  0
ARC
  5
296
  8
H10H
  6
CONTINUOUS
 62
     0
 10
2239.267439526749
 20
-658.8432061176936
 30
0.0
 40
496.7507382704647
 50
245.7709305068569
 51
264.2290694931431
  0
INSERT
  5
29B
  8
H10H
 62
     0
  2
VW_EMPTYARROW
 10
1990.892070391517
 20
-1089.041964808591
 30
0.0
 41
50.012451171875
 42
50.012451171875
 43
50.012451171875
 50
152.8854652534284
  0
INSERT
  5
2A0
  8
H10H
 62
     0
  2
VW_EMPTYARROW
 10
2239.267439526749
 20
-1155.593944388159
 30
0.0
 41
50.012451171875
 42
50.012451171875
 43
50.012451171875
 50
357.1145347465716
  0
TEXT
  5
2A1
  8
H10H
 62
     0
 10
2058.454112176215
 20
-1114.315866201769
 30
0.0
 40
64.98828125000011
  1
30°
 50
345.0
  7
_______
1001
ACADANNOTATIVE
1000
AnnotativeData
1002
{
1070
     1
1070
     0
1002
}
  0
POINT
  5
2A2
  8
DEFPOINTS
 62
     0
 10
2239.267439526749
 20
-658.8432061176936
 30
0.0
  0
POINT
  5
2A3
  8
DEFPOINTS
 62
     0
 10
1952.778441759114
 20
-1155.056706060724
 30
0.0
  0
POINT
  5
3EA
  8
DEFPOINTS
 62
     0
 10
2239.267439526749
 20
-1170.856368988259
 30
0.0
  0
POINT
  5
3EB
  8
DEFPOINTS
 62
     0
 10
2069.368680826353
 20
-1125.636209240402
 30
0.0
  0
ENDBLK
  5
A3
  8
0
  0
BLOCK
  8
0
  2
VW_EMPTYARROW
 70
     0
 10
0.0
 20
0.0
 30
0.0
  3
VW_EMPTYARROW
  1

  0
LINE
  5
BA
  8
0
  6
BYBLOCK
 62
     0
 10
0.0
 20
0.0
 30
0.0
 11
-1.0
 21
0.0
 31
0.0
  0
POLYLINE
  5
BB
  8
0
  6
CONTINUOUS
 62
     0
 66
     1
 10
0.0
 20
0.0
 30
0.0
 70
   128
  0
VERTEX
  5
BC
  8
0
  6
CONTINUOUS
 62
     0
 10
-1.0
 20
0.2679491924311228
 30
0.0
  0
VERTEX
  5
BD
  8
0
  6
CONTINUOUS
 62
     0
 10
0.0
 20
0.0
 30
0.0
  0
VERTEX
  5
BE
  8
0
  6
CONTINUOUS
 62
     0
 10
-0.9999999999999999
 20
-0.267949192431123
 30
0.0
  0
SEQEND
  5
BF
  8
0
  6
CONTINUOUS
 62
     0
  0
ENDBLK
  5
B9
  8
0
  0
ENDSEC
  0
SECTION
  2
ENTITIES
  0
LINE
  5
2A4
  8
H10H
  6
CONTINUOUS
 62
     7
 10
-810.0900928509554
 20
3367.758890297482
 30
0.0
 11
2789.909907149045
 21
3367.758890297482
 31
0.0
  0
LINE
  5
2A5
  8
H10H
  6
CONTINUOUS
 62
     7
 10
2789.909907149045
 20
-1832.241109702518
 30
0.0
 11
-810.0900928509554
 21
-1832.241109702518
 31
0.0
  0
LINE
  5
2A6
  8
H10H
  6
CONTINUOUS
 62
     7
 10
-810.0900928509554
 20
-1832.241109702518
 30
0.0
 11
-810.0900928509554
 21
3367.758890297482
 31
0.0
  0
LINE
  5
2A7
  8
H10H
  6
CONTINUOUS
 62
     7
 10
2789.909907149045
 20
3367.758890297482
 30
0.0
 11
2789.909907149045
 21
-1832.241109702518
 31
0.0
  0
LINE
  5
2A8
  8
H10H
  6
CONTINUOUS
 62
     7
 10
989.9099071490446
 20
-1382.241109702518
 30
0.0
 11
2789.909907149045
 21
-1382.241109702518
 31
0.0
  0
LINE
  5
2A9
  8
H10H
  6
CONTINUOUS
 62
     7
 10
989.9099071490446
 20
-1832.241109702518
 30
0.0
 11
989.9099071490446
 21
-1382.241109702518
 31
0.0
  0
TEXT
  5
2AA
  8
H10H
 62
     7
 10
1007.909907149045
 20
-1436.244820119184
 30
0.0
 40
32.49414062499999
  1
NOTE
  7
_______
 11
1007.909907149045
 21
-1403.750679494184
 31
0.0
 73
     3
  0
LINE
  5
2AB
  8
H10H
  6
CONTINUOUS
 62
     7
 10
1689.909907149045
 20
-1832.241109702518
 30
0.0
 11
1689.909907149045
 21
-1382.241109702518
 31
0.0
  0
TEXT
  5
2AC
  8
H10H
 62
     7
 10
1707.909907149045
 20
-1436.244820119184
 30
0.0
 40
32.49414062499999
  1
TITLE
  7
_______
 11
1707.909907149045
 21
-1403.750679494184
 31
0.0
 73
     3
  0
LINE
  5
2AD
  8
H10H
  6
CONTINUOUS
 62
     7
 10
989.9099071490446
 20
-1632.241109702518
 30
0.0
 11
2789.909907149045
 21
-1632.241109702518
 31
0.0
  0
TEXT
  5
2AE
  8
H10H
 62
     7
 10
1957.909907149045
 20
-1685.118420119183
 30
0.0
 40
32.49414062499999
  1
DRAWN
  7
_______
 11
1957.909907149045
 21
-1652.624279494183
 31
0.0
 73
     3
  0
TEXT
  5
2AF
  8
H10H
 62
     7
 10
1457.909907149045
 20
-1685.118420119183
 30
0.0
 40
32.49414062499999
  1
DATE
  7
_______
 11
1457.909907149045
 21
-1652.624279494183
 31
0.0
 73
     3
  0
TEXT
  5
2B0
  8
H10H
 62
     7
 10
1257.909907149045
 20
-1685.118420119183
 30
0.0
 40
32.49414062499999
  1
SCALE
  7
_______
 11
1257.909907149045
 21
-1652.624279494183
 31
0.0
 73
     3
  0
TEXT
  5
2B1
  8
H10H
 62
     7
 10
1707.909907149045
 20
-1685.118420119183
 30
0.0
 40
32.49414062499999
  1
DESIGN
  7
_______
 11
1707.909907149045
 21
-1652.624279494183
 31
0.0
 73
     3
  0
TEXT
  5
2B2
  8
H10H
 62
     7
 10
2457.909907149045
 20
-1685.118420119183
 30
0.0
 40
32.49414062499999
  1
DRAWING NO.
  7
_______
 11
2457.909907149045
 21
-1652.624279494183
 31
0.0
 73
     3
  0
TEXT
  5
2B3
  8
H10H
 62
     7
 10
2207.909907149045
 20
-1685.118420119183
 30
0.0
 40
32.49414062499999
  1
CHECK
  7
_______
 11
2207.909907149045
 21
-1652.624279494183
 31
0.0
 73
     3
  0
LINE
  5
2B4
  8
H10H
  6
CONTINUOUS
 62
     7
 10
1277.409907149044
 20
-1807.241109702518
 30
0.0
 11
1352.409907149045
 21
-1732.241109702518
 31
0.0
  0
TEXT
  5
2B5
  8
H10H
 62
     7
 10
1284.909907149044
 20
-1758.249820119184
 30
0.0
 40
32.49414062499999
  1
1
  7
_______
 11
1284.909907149044
 21
-1725.755679494184
 31
0.0
 73
     3
  0
LINE
  5
2B6
  8
H10H
  6
CONTINUOUS
 62
     7
 10
1239.909907149044
 20
-1832.241109702518
 30
0.0
 11
1239.909907149044
 21
-1632.241109702518
 31
0.0
  0
LINE
  5
2B7
  8
H10H
  6
CONTINUOUS
 62
     7
 10
1439.909907149045
 20
-1832.241109702518
 30
0.0
 11
1439.909907149045
 21
-1632.241109702518
 31
0.0
  0
LINE
  5
2B8
  8
H10H
  6
CONTINUOUS
 62
     7
 10
1939.909907149045
 20
-1632.241109702518
 30
0.0
 11
1939.909907149045
 21
-1832.241109702518
 31
0.0
  0
LINE
  5
2B9
  8
H10H
  6
CONTINUOUS
 62
     7
 10
2439.909907149045
 20
-1632.241109702518
 30
0.0
 11
2439.909907149045
 21
-1832.241109702518
 31
0.0
  0
LINE
  5
2BA
  8
H10H
  6
CONTINUOUS
 62
     7
 10
2189.909907149045
 20
-1832.241109702518
 30
0.0
 11
2189.909907149045
 21
-1632.241109702518
 31
0.0
  0
TEXT
  5
2BB
  8
H10H
 62
     7
 10
1487.040707149045
 20
-1778.798020119185
 30
0.0
 40
32.49414062499999
  1
2025.3
  7
_______
 11
1487.040707149045
 21
-1746.303879494185
 31
0.0
 73
     3
  0
TEXT
  5
2BC
  8
H10H
 62
     7
 10
1339.909907149045
 20
-1795.749820119184
 30
0.0
 40
32.49414062499999
  1
20
  7
_______
 11
1339.909907149045
 21
-1763.255679494184
 31
0.0
 73
     3
  0
TEXT
  5
2BD
  8
H10H
 62
     7
 10
1067.576573815712
 20
-1800.380797202518
 30
0.0
 40
64.98828124999999
  1
A4
  7
_______
 11
1067.576573815712
 21
-1735.392515952518
 31
0.0
 73
     3
  0
TEXT
  5
2BE
  8
H10H
 62
     7
 10
1009.076573815711
 20
-1688.460053452518
 30
0.0
 40
32.49414062499999
  1
PAPER SIZE
  7
_______
 11
1009.076573815711
 21
-1655.965912827518
 31
0.0
 73
     3
  0
TEXT
  5
2BF
  8
H10H
 62
     7
 10
-754.8973877131514
 20
-1969.04390917771
 30
0.0
 40
70.40397135416666
  1
Hibino-Intersound Corporation
  7
_______
 11
-754.8973877131514
 21
-1898.639937823543
 31
0.0
 73
     3
  0
TEXT
  5
2C0
  8
H10H
 62
     7
 10
1393.522100753323
 20
-1962.022144111921
 30
0.0
 40
70.40397135416666
  1
ヒビノインターサウンド株式会社
  7
_______
 11
1393.522100753323
 21
-1891.618172757754
 31
0.0
 73
     3
  0
LINE
  5
2C1
  8
H10H
  6
CONTINUOUS
 62
     7
 10
-640.0900928509554
 20
3127.758890297483
 30
0.0
 11
2609.909907149045
 21
3127.758890297483
 31
0.0
  0
LINE
  5
2C2
  8
H10H
  6
CONTINUOUS
 62
     7
 10
-640.0900928509554
 20
3052.758890297483
 30
0.0
 11
2609.909907149045
 21
3052.758890297483
 31
0.0
  0
LINE
  5
2C3
  8
H10H
  6
CONTINUOUS
 62
     7
 10
-640.0900928509554
 20
3127.758890297483
 30
0.0
 11
-640.0900928509554
 21
2602.758890297483
 31
0.0
  0
TEXT
  5
2C4
  8
H10H
 62
     7
 10
-615.0900928509554
 20
3189.879524672482
 30
0.0
 40
48.7412109375
  1
仕様
  7
_______
 11
-615.0900928509554
 21
3238.620735609982
 31
0.0
 73
     3
  0
LINE
  5
2C5
  8
H10H
  6
CONTINUOUS
 62
     7
 10
2609.909907149045
 20
3127.758890297483
 30
0.0
 11
2609.909907149045
 21
2602.758890297483
 31
0.0
  0
LINE
  5
2C6
  8
H10H
  6
CONTINUOUS
 62
     7
 10
-640.0900928509554
 20
2977.758890297483
 30
0.0
 11
2609.909907149045
 21
2977.758890297483
 31
0.0
  0
LINE
  5
2C7
  8
H10H
  6
CONTINUOUS
 62
     7
 10
-640.0900928509554
 20
2827.758890297483
 30
0.0
 11
2609.909907149045
 21
2827.758890297483
 31
0.0
  0
LINE
  5
2C8
  8
H10H
  6
CONTINUOUS
 62
     7
 10
-640.0900928509554
 20
2752.758890297483
 30
0.0
 11
2609.909907149045
 21
2752.758890297483
 31
0.0
  0
TEXT
  5
2C9
  8
H10H
 62
     7
 10
-624.7265617249013
 20
2989.743546297121
 30
0.0
 40
37.90983072916668
  1
本体
  7
_______
 11
-624.7265617249013
 21
3027.653377026288
 31
0.0
 73
     3
  0
TEXT
  5
2CA
  8
H10H
 62
     7
 10
28.32860493154215
 20
2841.335213155968
 30
0.0
 40
37.90983072916668
  1
塗装：黒色
  7
_______
 11
28.32860493154215
 21
2879.245043885135
 31
0.0
 73
     3
  0
TEXT
  5
2CB
  8
H10H
 62
     7
 10
-623.7085019092324
 20
2843.097128071843
 30
0.0
 40
37.90983072916668
  1
仕上げ
  7
_______
 11
-623.7085019092324
 21
2881.00695880101
 31
0.0
 73
     3
  0
TEXT
  5
2CC
  8
H10H
 62
     7
 10
-623.4925497108234
 20
3065.442804440575
 30
0.0
 40
37.90983072916668
  1
形式
  7
_______
 11
-623.4925497108234
 21
3103.352635169741
 31
0.0
 73
     3
  0
TEXT
  5
2CD
  8
H10H
 62
     7
 10
-623.7085019092324
 20
2768.097128071843
 30
0.0
 40
37.90983072916668
  1
寸法
  7
_______
 11
-623.7085019092324
 21
2806.00695880101
 31
0.0
 73
     3
  0
TEXT
  5
2CE
  8
H10H
 62
     7
 10
-623.6031740934225
 20
2693.37450347478
 30
0.0
 40
37.90983072916668
  1
重量
  7
_______
 11
-623.6031740934225
 21
2731.284334203946
 31
0.0
 73
     3
  0
TEXT
  5
2CF
  8
H10H
 62
     7
 10
27.02965810963792
 20
2993.613609327989
 30
0.0
 40
37.90983072916668
  1
炭素鋼
  7
_______
 11
27.02965810963792
 21
3031.523440057155
 31
0.0
 73
     3
  0
TEXT
  5
2D0
  8
H10H
 62
     7
 10
27.65484135134238
 20
3067.66692246155
 30
0.0
 40
37.90983072916666
  1
HOPS10i-Pro 横向き天吊り金具
  7
_______
 11
27.65484135134238
 21
3105.576753190716
 31
0.0
 73
     3
  0
LINE
  5
2D1
  8
H10H
  6
CONTINUOUS
 62
     7
 10
-640.0900928509554
 20
2677.758890297483
 30
0.0
 11
2609.909907149045
 21
2677.758890297483
 31
0.0
  0
TEXT
  5
2D2
  8
H10H
 62
     7
 10
-339.0774999999999
 20
178.89
 30
0.0
 40
48.7412109375
  1
(単位：mm)
  7
_______
 11
-339.0774999999999
 21
227.6312109375
 31
0.0
 73
     3
  0
TEXT
  5
2D3
  8
H10H
 62
     7
 10
-610.0900928509554
 20
-1751.310953452517
 30
0.0
 40
32.49414062499999
  1
仕様および外観は予告なく変更されることがあります、ご了承ください。
  7
_______
 11
-610.0900928509554
 21
-1718.816812827517
 31
0.0
 73
     3
  0
TEXT
  5
2D4
  8
H10H
 62
     7
 10
2059.236803411714
 20
-1511.016768292453
 30
0.0
 40
48.7412109375
  1
CODA AUDIO  
  7
_______
 72
     1
 11
2249.327526067964
 21
-1462.275557354953
 31
0.0
 73
     3
  0
TEXT
  5
2D5
  8
H10H
 62
     7
 10
2185.963951849214
 20
-1574.516768292453
 30
0.0
 40
48.7412109375
  1
H10H
  7
_______
 72
     1
 11
2249.327526067964
 21
-1525.775557354953
 31
0.0
 73
     3
  0
TEXT
  5
2D6
  8
H10H
 62
     7
 10
1984.909907149045
 20
-1750.787086371637
 30
0.0
 40
32.49414062499999
  1
Kojima 
  7
_______
 11
1984.909907149045
 21
-1718.292945746637
 31
0.0
 73
     3
  0
TEXT
  5
2D7
  8
H10H
 62
     7
 10
1984.909907149045
 20
-1793.12041970497
 30
0.0
 40
32.49414062499999
  1
  Shohei
  7
_______
 11
1984.909907149045
 21
-1760.62627907997
 31
0.0
 73
     3
  0
LINE
  5
2D8
  8
H10H
  6
CONTINUOUS
 62
     7
 10
1345.19721174322
 20
-1439.541286024089
 30
0.0
 11
1345.19721174322
 21
-1479.541286024089
 31
0.0
  0
LINE
  5
2D9
  8
H10H
  6
CONTINUOUS
 62
     7
 10
1285.82221174322
 20
-1449.541286024089
 30
0.0
 11
1285.82221174322
 21
-1469.541286024089
 31
0.0
  0
LINE
  5
2DA
  8
H10H
  6
CONTINUOUS
 62
     7
 10
1285.82221174322
 20
-1449.541286024089
 30
0.0
 11
1345.19721174322
 21
-1439.541286024089
 31
0.0
  0
LINE
  5
2DB
  8
H10H
  6
CONTINUOUS
 62
     7
 10
1285.82221174322
 20
-1469.541286024089
 30
0.0
 11
1345.19721174322
 21
-1479.541286024089
 31
0.0
  0
CIRCLE
  5
2DC
  8
H10H
  6
CONTINUOUS
 62
     7
 10
1251.44721174322
 20
-1459.541286024089
 30
0.0
 40
20.00000000000006
  0
CIRCLE
  5
2DD
  8
H10H
  6
CONTINUOUS
 62
     7
 10
1251.44721174322
 20
-1459.541286024089
 30
0.0
 40
9.99999999999984
  0
LINE
  5
2DE
  8
H10H
  6
______-6
 62
     7
 10
1226.44721174322
 20
-1459.541286024089
 30
0.0
 11
1276.44721174322
 21
-1459.541286024089
 31
0.0
  0
LINE
  5
2DF
  8
H10H
  6
______-6
 62
     7
 10
1251.44721174322
 20
-1484.541286024089
 30
0.0
 11
1251.44721174322
 21
-1434.541286024089
 31
0.0
  0
LINE
  5
2E0
  8
H10H
  6
______-6
 62
     7
 10
1251.44721174322
 20
-1459.541286024089
 30
0.0
 11
1357.69721174322
 21
-1459.541286024089
 31
0.0
  0
LINE
  5
2E1
  8
H10H
  6
CONTINUOUS
 62
     7
 10
1251.44721174322
 20
-1479.541286024089
 30
0.0
 11
1251.44721174322
 21
-1449.541286024089
 31
0.0
  0
LINE
  5
2E2
  8
H10H
  6
CONTINUOUS
 62
     7
 10
-640.0900928509554
 20
2602.758890297483
 30
0.0
 11
2609.909907149045
 21
2602.758890297483
 31
0.0
  0
TEXT
  5
2E3
  8
H10H
 62
     7
 10
-623.6031740934225
 20
2618.37450347478
 30
0.0
 40
37.90983072916668
  1
付属品
  7
_______
 11
-623.6031740934225
 21
2656.284334203946
 31
0.0
 73
     3
  0
TEXT
  5
2E4
  8
H10H
 62
     7
 10
28.27239921652165
 20
2690.103882961382
 30
0.0
 40
37.90983072916668
  1
約3.5kg
  7
_______
 11
28.27239921652165
 21
2728.013713690548
 31
0.0
 73
     3
  0
TEXT
  5
2E5
  8
H10H
 62
     7
 10
28.27239921652165
 20
2765.103882961382
 30
0.0
 40
37.90983072916668
  1
686(W)×375(H)×100(D)mm 突起物含まず
  7
_______
 11
28.27239921652165
 21
2803.013713690548
 31
0.0
 73
     3
  0
LINE
  5
2E6
  8
H10H
  6
CONTINUOUS
 62
     7
 10
-640.0900928509554
 20
2902.758890297483
 30
0.0
 11
2609.909907149045
 21
2902.758890297483
 31
0.0
  0
TEXT
  5
2E7
  8
H10H
 62
     7
 10
-623.7085019092324
 20
2918.097128071843
 30
0.0
 40
37.90983072916668
  1
サスペンションポイント
  7
_______
 11
-623.7085019092324
 21
2956.00695880101
 31
0.0
 73
     3
  0
TEXT
  5
2E8
  8
H10H
 62
     7
 10
28.32860493154215
 20
2916.335213155968
 30
0.0
 40
37.90983072916668
  1
M10用Φ12.8mm穴×9
  7
_______
 11
28.32860493154215
 21
2954.245043885135
 31
0.0
 73
     3
  0
POLYLINE
  5
2E9
  8
H10H
  6
CONTINUOUS
 62
     7
 66
     1
 10
0.0
 20
0.0
 30
0.0
 70
   129
  0
VERTEX
  5
2EA
  8
H10H
  6
CONTINUOUS
 62
     7
 10
1340.0
 20
-205.9438821710228
 30
0.0
 42
-0.414213562373095
 70
     2
 50
-0.000000000000007
  0
VERTEX
  5
2EB
  8
H10H
  6
CONTINUOUS
 62
     7
 10
1390.0
 20
-155.9438821710228
 30
0.0
  0
VERTEX
  5
2EC
  8
H10H
  6
CONTINUOUS
 62
     7
 10
2609.909907149045
 20
-155.9438821710228
 30
0.0
 42
-0.414213562373095
 70
     2
 50
1.871422178312110E+17
  0
VERTEX
  5
2ED
  8
H10H
  6
CONTINUOUS
 62
     7
 10
2659.909907149045
 20
-205.9438821710228
 30
0.0
  0
VERTEX
  5
2EE
  8
H10H
  6
CONTINUOUS
 62
     7
 10
2659.909907149045
 20
-1202.241109702518
 30
0.0
 42
-0.414213562373095
 70
     2
 50
-0.000000000000014
  0
VERTEX
  5
2EF
  8
H10H
  6
CONTINUOUS
 62
     7
 10
2609.909907149045
 20
-1252.241109702518
 30
0.0
  0
VERTEX
  5
2F0
  8
H10H
  6
CONTINUOUS
 62
     7
 10
1390.0
 20
-1252.241109702518
 30
0.0
 42
-0.414213562373095
 70
     2
 50
3.119036963853517E+17
  0
VERTEX
  5
2F1
  8
H10H
  6
CONTINUOUS
 62
     7
 10
1340.0
 20
-1202.241109702518
 30
0.0
  0
SEQEND
  5
2F2
  8
H10H
  6
CONTINUOUS
 62
     7
  0
TEXT
  5
2F3
  8
H10H
 62
     7
 10
1453.569953574522
 20
-245.0185721724075
 30
0.0
 40
43.32552083333333
  1
参考：取付イメージ
  7
_______
 11
1453.569953574522
 21
-201.6930513390741
 31
0.0
 73
     3
  0
LINE
  5
2F4
  8
H10H
  6
CONTINUOUS
 62
     7
 10
1236.566666666684
 20
1204.583627974665
 30
0.0
 11
559.5666666666843
 21
1204.583627974665
 31
0.0
  0
LINE
  5
2F5
  8
H10H
  6
CONTINUOUS
 62
     7
 10
1236.566666666684
 20
1215.083627974665
 30
0.0
 11
1236.566666666684
 21
1204.583627974665
 31
0.0
  0
LINE
  5
2F6
  8
H10H
  6
CONTINUOUS
 62
     7
 10
559.5666666666843
 20
1204.583627974665
 30
0.0
 11
559.5666666666843
 21
1215.083627974665
 31
0.0
  0
LINE
  5
2F7
  8
H10H
  6
CONTINUOUS
 62
     7
 10
559.5666666666862
 20
1219.583627974665
 30
0.0
 11
1236.566666666686
 21
1219.583627974665
 31
0.0
  0
LINE
  5
2F8
  8
H10H
  6
CONTINUOUS
 62
     7
 10
1238.066666666686
 20
970.160078173446
 30
0.0
 11
1238.06666666669
 21
959.8363191681224
 31
0.0
  0
LINE
  5
2F9
  8
H10H
  6
CONTINUOUS
 62
     7
 10
1241.066666666686
 20
970.160078173446
 30
0.0
 11
1241.06666666669
 21
959.8363191681224
 31
0.0
  0
LINE
  5
2FA
  8
H10H
  6
CONTINUOUS
 62
     7
 10
1238.06666666669
 20
912.9174374863269
 30
0.0
 11
1238.066666666686
 21
900.0071777758853
 31
0.0
  0
LINE
  5
2FB
  8
H10H
  6
CONTINUOUS
 62
     7
 10
1241.06666666669
 20
912.9174374863269
 30
0.0
 11
1241.066666666686
 21
900.0071777758853
 31
0.0
  0
LINE
  5
2FC
  8
H10H
  6
CONTINUOUS
 62
     7
 10
1241.066666666686
 20
912.9174374863269
 30
0.0
 11
1238.066666666686
 21
912.9174374863269
 31
0.0
  0
LINE
  5
2FD
  8
H10H
  6
CONTINUOUS
 62
     7
 10
1241.066666666701
 20
844.5836279746645
 30
0.0
 11
1238.066666666701
 21
844.5836279746645
 31
0.0
  0
LINE
  5
2FE
  8
H10H
  6
CONTINUOUS
 62
     7
 10
558.066666666688
 20
959.8363191681201
 30
0.0
 11
558.0666666666843
 21
970.1600781734433
 31
0.0
  0
LINE
  5
2FF
  8
H10H
  6
CONTINUOUS
 62
     7
 10
555.066666666688
 20
959.8363191681201
 30
0.0
 11
555.0666666666843
 21
970.1600781734433
 31
0.0
  0
LINE
  5
300
  8
H10H
  6
CONTINUOUS
 62
     7
 10
555.0666666666843
 20
957.2498184629994
 30
0.0
 11
558.0666666666843
 21
957.2498184629994
 31
0.0
  0
LINE
  5
301
  8
H10H
  6
CONTINUOUS
 62
     7
 10
558.0666666666843
 20
900.0071777758835
 30
0.0
 11
558.066666666688
 21
912.9174374863242
 31
0.0
  0
LINE
  5
302
  8
H10H
  6
CONTINUOUS
 62
     7
 10
555.0666666666843
 20
900.0071777758835
 30
0.0
 11
555.066666666688
 21
912.9174374863242
 31
0.0
  0
ARC
  5
303
  8
H10H
  6
CONTINUOUS
 62
     7
 10
1236.566666666686
 20
1215.083627974665
 30
0.0
 40
1.5
 50
0.0
 51
90.0
  0
LINE
  5
304
  8
H10H
  6
CONTINUOUS
 62
     7
 10
555.0666666666843
 20
977.231145985309
 30
0.0
 11
555.0666666666843
 21
1215.083627974665
 31
0.0
  0
LINE
  5
305
  8
H10H
  6
CONTINUOUS
 62
     7
 10
558.0666666666843
 20
977.2311459853095
 30
0.0
 11
558.0666666666843
 21
1215.083627974665
 31
0.0
  0
LINE
  5
306
  8
H10H
  6
CONTINUOUS
 62
     7
 10
558.0666666666843
 20
1215.083627974665
 30
0.0
 11
555.0666666666843
 21
1215.083627974665
 31
0.0
  0
ARC
  5
307
  8
H10H
  6
CONTINUOUS
 62
     7
 10
559.5666666666862
 20
1215.083627974665
 30
0.0
 40
1.5
 50
90.0
 51
180.0
  0
LINE
  5
308
  8
H10H
  6
CONTINUOUS
 62
     7
 10
555.0666666666825
 20
869.8551564548761
 30
0.0
 11
555.0666666666843
 21
892.9361099640214
 31
0.0
  0
LINE
  5
309
  8
H10H
  6
CONTINUOUS
 62
     7
 10
558.0666666666825
 20
869.8551564548761
 30
0.0
 11
558.0666666666843
 21
892.9361099640214
 31
0.0
  0
LINE
  5
30A
  8
H10H
  6
CONTINUOUS
 62
     7
 10
555.0666666666843
 20
914.9174374863242
 30
0.0
 11
555.0666666666843
 21
955.2498184630022
 31
0.0
  0
LINE
  5
30B
  8
H10H
  6
CONTINUOUS
 62
     7
 10
558.0666666666843
 20
914.9174374863242
 30
0.0
 11
558.0666666666843
 21
955.2498184630022
 31
0.0
  0
LINE
  5
30C
  8
H10H
  6
CONTINUOUS
 62
     7
 10
1241.066666666686
 20
892.9361099640214
 30
0.0
 11
1241.066666666686
 21
869.8551564548802
 31
0.0
  0
LINE
  5
30D
  8
H10H
  6
CONTINUOUS
 62
     7
 10
1238.066666666686
 20
892.9361099640214
 30
0.0
 11
1238.066666666686
 21
869.8551564548802
 31
0.0
  0
LINE
  5
30E
  8
H10H
  6
CONTINUOUS
 62
     7
 10
1241.066666666686
 20
955.2498184630017
 30
0.0
 11
1241.066666666686
 21
914.9174374863269
 31
0.0
  0
LINE
  5
30F
  8
H10H
  6
CONTINUOUS
 62
     7
 10
1238.066666666686
 20
955.2498184630017
 30
0.0
 11
1238.066666666686
 21
914.9174374863269
 31
0.0
  0
LINE
  5
310
  8
H10H
  6
CONTINUOUS
 62
     7
 10
1241.066666666684
 20
1215.083627974665
 30
0.0
 11
1241.066666666686
 21
977.2311459853117
 31
0.0
  0
LINE
  5
311
  8
H10H
  6
CONTINUOUS
 62
     7
 10
1238.066666666684
 20
1215.083627974665
 30
0.0
 11
1241.066666666684
 21
1215.083627974665
 31
0.0
  0
LINE
  5
312
  8
H10H
  6
CONTINUOUS
 62
     7
 10
1238.066666666684
 20
1215.083627974665
 30
0.0
 11
1238.066666666686
 21
977.2311459853117
 31
0.0
  0
ARC
  5
313
  8
H10H
  6
CONTINUOUS
 62
     7
 10
559.5666666666862
 20
1215.083627974665
 30
0.0
 40
4.5
 50
90.0
 51
180.0
  0
ARC
  5
314
  8
H10H
  6
CONTINUOUS
 62
     7
 10
1236.566666666686
 20
1215.083627974665
 30
0.0
 40
4.5
 50
0.0
 51
90.0
  0
LINE
  5
315
  8
H10H
  6
CONTINUOUS
 62
     7
 10
1238.066666666699
 20
853.1005690376842
 30
0.0
 11
1236.066666666699
 21
853.1005690376842
 31
0.0
  0
LINE
  5
316
  8
H10H
  6
CONTINUOUS
 62
     7
 10
1238.066666666699
 20
879.1005690376842
 30
0.0
 11
1236.066666666699
 21
879.1005690376842
 31
0.0
  0
LINE
  5
317
  8
H10H
  6
CONTINUOUS
 62
     7
 10
558.0666666666989
 20
1094.419410462959
 30
0.0
 11
560.0666666666989
 21
1094.419410462959
 31
0.0
  0
LINE
  5
318
  8
H10H
  6
CONTINUOUS
 62
     7
 10
558.0666666666989
 20
1144.419410462959
 30
0.0
 11
560.0666666666989
 21
1144.419410462959
 31
0.0
  0
LINE
  5
319
  8
H10H
  6
CONTINUOUS
 62
     7
 10
1236.066666666701
 20
1094.419410462959
 30
0.0
 11
1238.066666666701
 21
1094.419410462959
 31
0.0
  0
LINE
  5
31A
  8
H10H
  6
CONTINUOUS
 62
     7
 10
1236.066666666701
 20
1144.419410462959
 30
0.0
 11
1238.066666666701
 21
1144.419410462959
 31
0.0
  0
LINE
  5
31B
  8
H10H
  6
CONTINUOUS
 62
     7
 10
1238.066666666699
 20
913.5024746915296
 30
0.0
 11
1236.066666666699
 21
913.5024746915296
 31
0.0
  0
LINE
  5
31C
  8
H10H
  6
CONTINUOUS
 62
     7
 10
1238.066666666699
 20
963.5024746915296
 30
0.0
 11
1236.066666666699
 21
963.5024746915296
 31
0.0
  0
LINE
  5
31D
  8
H10H
  6
CONTINUOUS
 62
     7
 10
560.0666666666971
 20
913.5024746915296
 30
0.0
 11
558.0666666666971
 21
913.5024746915296
 31
0.0
  0
LINE
  5
31E
  8
H10H
  6
CONTINUOUS
 62
     7
 10
560.0666666666971
 20
963.5024746915296
 30
0.0
 11
558.0666666666971
 21
963.5024746915296
 31
0.0
  0
LINE
  5
31F
  8
H10H
  6
CONTINUOUS
 62
     7
 10
560.0666666666953
 20
853.1005690376842
 30
0.0
 11
558.0666666666953
 21
853.1005690376842
 31
0.0
  0
LINE
  5
320
  8
H10H
  6
CONTINUOUS
 62
     7
 10
560.0666666666971
 20
879.1005690376842
 30
0.0
 11
558.0666666666971
 21
879.1005690376842
 31
0.0
  0
LINE
  5
321
  8
H10H
  6
CONTINUOUS
 62
     7
 10
1241.066666666686
 20
957.2498184630017
 30
0.0
 11
1238.066666666686
 21
957.2498184630017
 31
0.0
  0
LINE
  5
322
  8
H10H
  6
CONTINUOUS
 62
     7
 10
555.0666666666843
 20
912.9174374863242
 30
0.0
 11
558.0666666666843
 21
912.9174374863242
 31
0.0
  0
LINE
  5
323
  8
H10H
  6
CONTINUOUS
 62
     7
 10
555.0666666666971
 20
844.5836279746618
 30
0.0
 11
558.0666666666971
 21
844.5836279746618
 31
0.0
  0
LINE
  5
324
  8
H10H
  6
CONTINUOUS
 62
     7
 10
1236.066666666697
 20
853.1005690376842
 30
0.0
 11
1236.066666666694
 21
871.0802061425047
 31
0.0
  0
LINE
  5
325
  8
H10H
  6
CONTINUOUS
 62
     7
 10
1236.066666666695
 20
871.0802061425047
 30
0.0
 11
1236.066666666699
 21
879.1005690376842
 31
0.0
  0
LINE
  5
326
  8
H10H
  6
CONTINUOUS
 62
     7
 10
560.0666666666916
 20
1119.419410462959
 30
0.0
 11
560.0666666666989
 21
1094.419410462959
 31
0.0
  0
LINE
  5
327
  8
H10H
  6
CONTINUOUS
 62
     7
 10
560.0666666666989
 20
1144.419410462959
 30
0.0
 11
560.0666666666916
 21
1119.419410462959
 31
0.0
  0
LINE
  5
328
  8
H10H
  6
CONTINUOUS
 62
     7
 10
1236.066666666694
 20
1119.419410462959
 30
0.0
 11
1236.066666666701
 21
1094.419410462959
 31
0.0
  0
LINE
  5
329
  8
H10H
  6
CONTINUOUS
 62
     7
 10
1236.066666666701
 20
1144.419410462959
 30
0.0
 11
1236.066666666694
 21
1119.419410462959
 31
0.0
  0
LINE
  5
32A
  8
H10H
  6
CONTINUOUS
 62
     7
 10
1236.066666666697
 20
913.5024746915296
 30
0.0
 11
1236.066666666692
 21
948.0786998931076
 31
0.0
  0
LINE
  5
32B
  8
H10H
  6
CONTINUOUS
 62
     7
 10
1236.066666666692
 20
948.0786998931076
 30
0.0
 11
1236.066666666697
 21
963.5024746915296
 31
0.0
  0
LINE
  5
32C
  8
H10H
  6
CONTINUOUS
 62
     7
 10
560.0666666666989
 20
913.5024746915296
 30
0.0
 11
560.0666666666934
 21
948.078699893108
 31
0.0
  0
LINE
  5
32D
  8
H10H
  6
CONTINUOUS
 62
     7
 10
560.0666666666916
 20
948.0786998931076
 30
0.0
 11
560.0666666666971
 21
963.5024746915296
 31
0.0
  0
LINE
  5
32E
  8
H10H
  6
CONTINUOUS
 62
     7
 10
560.0666666666934
 20
853.1005690376842
 30
0.0
 11
560.0666666666898
 21
871.0802061425047
 31
0.0
  0
LINE
  5
32F
  8
H10H
  6
CONTINUOUS
 62
     7
 10
560.0666666666934
 20
871.0802061425047
 30
0.0
 11
560.0666666666971
 21
879.1005690376842
 31
0.0
  0
LINE
  5
330
  8
H10H
  6
CONTINUOUS
 62
     7
 10
559.5666666666862
 20
1219.583627974665
 30
0.0
 11
559.5666666666843
 21
1215.083627974665
 31
0.0
  0
LINE
  5
331
  8
H10H
  6
CONTINUOUS
 62
     7
 10
1236.566666666684
 20
1215.083627974665
 30
0.0
 11
1236.566666666686
 21
1219.583627974665
 31
0.0
  0
LINE
  5
332
  8
H10H
  6
CONTINUOUS
 62
     7
 10
1238.066666666686
 20
955.2498184630017
 30
0.0
 11
1238.066666666686
 21
957.2498184630017
 31
0.0
  0
LINE
  5
333
  8
H10H
  6
CONTINUOUS
 62
     7
 10
1241.066666666688
 20
955.2498184630017
 30
0.0
 11
1241.066666666688
 21
957.2498184630017
 31
0.0
  0
LINE
  5
334
  8
H10H
  6
CONTINUOUS
 62
     7
 10
1241.06666666669
 20
959.8363191681219
 30
0.0
 11
1241.06666666669
 21
957.2498184630012
 31
0.0
  0
LINE
  5
335
  8
H10H
  6
CONTINUOUS
 62
     7
 10
1238.066666666692
 20
959.8363191681219
 30
0.0
 11
1238.066666666692
 21
957.2498184630012
 31
0.0
  0
LINE
  5
336
  8
H10H
  6
CONTINUOUS
 62
     7
 10
1238.066666666686
 20
970.1600781734464
 30
0.0
 11
1238.066666666686
 21
977.2311459853117
 31
0.0
  0
LINE
  5
337
  8
H10H
  6
CONTINUOUS
 62
     7
 10
1241.066666666686
 20
970.1600781734464
 30
0.0
 11
1241.066666666686
 21
977.2311459853117
 31
0.0
  0
LINE
  5
338
  8
H10H
  6
CONTINUOUS
 62
     7
 10
1238.066666666686
 20
892.9361099640214
 30
0.0
 11
1238.066666666686
 21
900.0071777758849
 31
0.0
  0
LINE
  5
339
  8
H10H
  6
CONTINUOUS
 62
     7
 10
1241.066666666686
 20
892.9361099640214
 30
0.0
 11
1241.066666666686
 21
900.0071777758849
 31
0.0
  0
LINE
  5
33A
  8
H10H
  6
CONTINUOUS
 62
     7
 10
1241.066666666686
 20
912.9174374863269
 30
0.0
 11
1241.066666666686
 21
914.9174374863269
 31
0.0
  0
LINE
  5
33B
  8
H10H
  6
CONTINUOUS
 62
     7
 10
1238.066666666686
 20
912.9174374863269
 30
0.0
 11
1238.066666666686
 21
914.9174374863269
 31
0.0
  0
LINE
  5
33C
  8
H10H
  6
CONTINUOUS
 62
     7
 10
1241.066666666701
 20
844.5836279746645
 30
0.0
 11
1241.06666666669
 21
851.0532311095012
 31
0.0
  0
LINE
  5
33D
  8
H10H
  6
CONTINUOUS
 62
     7
 10
1238.066666666701
 20
844.5836279746645
 30
0.0
 11
1238.06666666669
 21
851.0532311095012
 31
0.0
  0
LINE
  5
33E
  8
H10H
  6
CONTINUOUS
 62
     7
 10
1238.066666666688
 20
851.0532311094776
 30
0.0
 11
1238.066666666684
 21
869.8551564548779
 31
0.0
  0
LINE
  5
33F
  8
H10H
  6
CONTINUOUS
 62
     7
 10
1241.06666666669
 20
851.0532311094776
 30
0.0
 11
1241.066666666686
 21
869.8551564548779
 31
0.0
  0
LINE
  5
340
  8
H10H
  6
CONTINUOUS
 62
     7
 10
558.0666666666843
 20
977.2311459853095
 30
0.0
 11
558.0666666666843
 21
970.1600781734442
 31
0.0
  0
LINE
  5
341
  8
H10H
  6
CONTINUOUS
 62
     7
 10
555.0666666666843
 20
977.231145985309
 30
0.0
 11
555.0666666666843
 21
970.1600781734442
 31
0.0
  0
LINE
  5
342
  8
H10H
  6
CONTINUOUS
 62
     7
 10
558.066666666688
 20
957.249818462999
 30
0.0
 11
558.066666666688
 21
959.8363191681196
 31
0.0
  0
LINE
  5
343
  8
H10H
  6
CONTINUOUS
 62
     7
 10
555.066666666688
 20
957.249818462999
 30
0.0
 11
555.066666666688
 21
959.8363191681196
 31
0.0
  0
LINE
  5
344
  8
H10H
  6
CONTINUOUS
 62
     7
 10
555.0666666666843
 20
957.2498184629994
 30
0.0
 11
555.0666666666843
 21
955.2498184630022
 31
0.0
  0
LINE
  5
345
  8
H10H
  6
CONTINUOUS
 62
     7
 10
558.0666666666843
 20
957.2498184629994
 30
0.0
 11
558.0666666666843
 21
955.2498184630022
 31
0.0
  0
LINE
  5
346
  8
H10H
  6
CONTINUOUS
 62
     7
 10
558.0666666666843
 20
900.0071777758831
 30
0.0
 11
558.0666666666843
 21
892.9361099640214
 31
0.0
  0
LINE
  5
347
  8
H10H
  6
CONTINUOUS
 62
     7
 10
555.0666666666843
 20
900.0071777758831
 30
0.0
 11
555.0666666666843
 21
892.9361099640214
 31
0.0
  0
LINE
  5
348
  8
H10H
  6
CONTINUOUS
 62
     7
 10
558.0666666666843
 20
914.9174374863242
 30
0.0
 11
558.0666666666843
 21
912.9174374863242
 31
0.0
  0
LINE
  5
349
  8
H10H
  6
CONTINUOUS
 62
     7
 10
555.0666666666843
 20
914.9174374863242
 30
0.0
 11
555.0666666666843
 21
912.9174374863242
 31
0.0
  0
LINE
  5
34A
  8
H10H
  6
CONTINUOUS
 62
     7
 10
558.0666666666825
 20
869.8551564548761
 30
0.0
 11
558.0666666666862
 21
851.0532311094753
 31
0.0
  0
LINE
  5
34B
  8
H10H
  6
CONTINUOUS
 62
     7
 10
555.0666666666825
 20
869.8551564548761
 30
0.0
 11
555.0666666666862
 21
851.0532311094753
 31
0.0
  0
LINE
  5
34C
  8
H10H
  6
CONTINUOUS
 62
     7
 10
558.0666666666862
 20
851.0532311094994
 30
0.0
 11
558.0666666666971
 21
844.5836279746618
 31
0.0
  0
LINE
  5
34D
  8
H10H
  6
CONTINUOUS
 62
     7
 10
555.0666666666862
 20
851.0532311094994
 30
0.0
 11
555.0666666666971
 21
844.5836279746618
 31
0.0
  0
INSERT
  5
34E
  8
H10H
 62
     7
  2
____
 10
989.9099071490446
 20
692.9369350043303
 30
0.0
  0
LINE
  5
34F
  8
H10H
  6
CONTINUOUS
 62
     7
 10
1236.566666666681
 20
1822.058842585846
 30
0.0
 11
559.5666666666807
 21
1822.058842585646
 31
0.0
  0
LINE
  5
350
  8
H10H
  6
CONTINUOUS
 62
     7
 10
1236.566666666712
 20
1722.058842585846
 30
0.0
 11
559.5666666667116
 21
1722.058842585646
 31
0.0
  0
LINE
  5
351
  8
H10H
  6
CONTINUOUS
 62
     7
 10
1238.066666666714
 20
1722.058842585848
 30
0.0
 11
1241.066666666714
 21
1722.058842585848
 31
0.0
  0
LINE
  5
352
  8
H10H
  6
CONTINUOUS
 62
     7
 10
1238.066666666683
 20
1822.058842585846
 30
0.0
 11
1241.066666666683
 21
1822.058842585846
 31
0.0
  0
LINE
  5
353
  8
H10H
  6
CONTINUOUS
 62
     7
 10
558.0666666667098
 20
1722.058842585646
 30
0.0
 11
555.0666666667098
 21
1722.058842585644
 31
0.0
  0
LINE
  5
354
  8
H10H
  6
CONTINUOUS
 62
     7
 10
558.0666666666789
 20
1822.058842585646
 30
0.0
 11
555.0666666666789
 21
1822.058842585644
 31
0.0
  0
LINE
  5
355
  8
H10H
  6
CONTINUOUS
 62
     7
 10
1238.066666666712
 20
1722.058842585848
 30
0.0
 11
1238.066666666706
 21
1735.240660767651
 31
0.0
  0
LINE
  5
356
  8
H10H
  6
CONTINUOUS
 62
     7
 10
1241.066666666712
 20
1722.058842585848
 30
0.0
 11
1241.066666666706
 21
1735.240660767651
 31
0.0
  0
LINE
  5
357
  8
H10H
  6
CONTINUOUS
 62
     7
 10
1241.066666666697
 20
1772.058842585846
 30
0.0
 11
1241.066666666686
 21
1808.877024404106
 31
0.0
  0
LINE
  5
358
  8
H10H
  6
CONTINUOUS
 62
     7
 10
1238.066666666697
 20
1772.058842585846
 30
0.0
 11
1238.066666666686
 21
1808.877024404106
 31
0.0
  0
LINE
  5
359
  8
H10H
  6
CONTINUOUS
 62
     7
 10
1238.066666666684
 20
1808.877024404043
 30
0.0
 11
1238.066666666681
 21
1822.058842585846
 31
0.0
  0
LINE
  5
35A
  8
H10H
  6
CONTINUOUS
 62
     7
 10
1241.066666666686
 20
1808.877024404043
 30
0.0
 11
1241.066666666683
 21
1822.058842585846
 31
0.0
  0
LINE
  5
35B
  8
H10H
  6
CONTINUOUS
 62
     7
 10
558.0666666667044
 20
1735.240660767449
 30
0.0
 11
558.0666666667098
 21
1722.058842585646
 31
0.0
  0
LINE
  5
35C
  8
H10H
  6
CONTINUOUS
 62
     7
 10
555.0666666667044
 20
1735.240660767448
 30
0.0
 11
555.0666666667098
 21
1722.058842585644
 31
0.0
  0
LINE
  5
35D
  8
H10H
  6
CONTINUOUS
 62
     7
 10
558.0666666666789
 20
1822.058842585644
 30
0.0
 11
558.0666666666825
 21
1808.877024403841
 31
0.0
  0
LINE
  5
35E
  8
H10H
  6
CONTINUOUS
 62
     7
 10
555.0666666666789
 20
1822.058842585642
 30
0.0
 11
555.0666666666825
 21
1808.877024403839
 31
0.0
  0
LINE
  5
35F
  8
H10H
  6
CONTINUOUS
 62
     7
 10
558.0666666666825
 20
1808.877024403904
 30
0.0
 11
558.0666666667044
 21
1735.240660767384
 31
0.0
  0
LINE
  5
360
  8
H10H
  6
CONTINUOUS
 62
     7
 10
555.0666666666825
 20
1808.877024403903
 30
0.0
 11
555.0666666667044
 21
1735.240660767382
 31
0.0
  0
LINE
  5
361
  8
H10H
  6
CONTINUOUS
 62
     7
 10
1236.566666666683
 20
1817.558842585846
 30
0.0
 11
1238.066666666683
 21
1817.558842585848
 31
0.0
  0
LINE
  5
362
  8
H10H
  6
CONTINUOUS
 62
     7
 10
1238.06666666671
 20
1726.558842585848
 30
0.0
 11
1236.56666666671
 21
1726.558842585846
 31
0.0
  0
LINE
  5
363
  8
H10H
  6
CONTINUOUS
 62
     7
 10
558.0666666666825
 20
1817.558842585646
 30
0.0
 11
559.5666666666825
 21
1817.558842585646
 31
0.0
  0
LINE
  5
364
  8
H10H
  6
CONTINUOUS
 62
     7
 10
559.5666666667098
 20
1726.558842585646
 30
0.0
 11
558.0666666667098
 21
1726.558842585646
 31
0.0
  0
LINE
  5
365
  8
H10H
  6
CONTINUOUS
 62
     7
 10
1241.066666666708
 20
1735.240660767586
 30
0.0
 11
1241.066666666697
 21
1772.058842585848
 31
0.0
  0
LINE
  5
366
  8
H10H
  6
CONTINUOUS
 62
     7
 10
1238.066666666708
 20
1735.240660767586
 30
0.0
 11
1238.066666666697
 21
1772.058842585848
 31
0.0
  0
LINE
  5
367
  8
H10H
  6
CONTINUOUS
 62
     7
 10
558.0666666667025
 20
346.987841518363
 30
0.0
 11
560.0666666667025
 21
346.987841518363
 31
0.0
  0
LINE
  5
368
  8
H10H
  6
CONTINUOUS
 62
     7
 10
1236.066666666704
 20
346.9878415185631
 30
0.0
 11
1238.066666666704
 21
346.9878415185649
 31
0.0
  0
ARC
  5
369
  8
H10H
  6
CONTINUOUS
 62
     7
 10
1160.31574221864
 20
379.3066360941575
 30
0.0
 40
2.0
 50
0.0
 51
90.0
  0
LINE
  5
36A
  8
H10H
  6
CONTINUOUS
 62
     7
 10
1134.31574221864
 20
381.3066360941502
 30
0.0
 11
1160.31574221864
 21
381.3066360941575
 31
0.0
  0
ARC
  5
36B
  8
H10H
  6
CONTINUOUS
 62
     7
 10
1134.315742218642
 20
379.3066360941502
 30
0.0
 40
2.0
 50
90.0
 51
180.0
  0
LINE
  5
36C
  8
H10H
  6
CONTINUOUS
 62
     7
 10
1132.315742218646
 20
363.3066360941484
 30
0.0
 11
1132.31574221864
 21
379.3066360941484
 31
0.0
  0
ARC
  5
36D
  8
H10H
  6
CONTINUOUS
 62
     7
 10
1134.315742218646
 20
363.3066360941502
 30
0.0
 40
2.0
 50
180.0
 51
270.0
  0
LINE
  5
36E
  8
H10H
  6
CONTINUOUS
 62
     7
 10
1160.315742218646
 20
361.3066360941575
 30
0.0
 11
1134.315742218646
 21
361.3066360941502
 31
0.0
  0
ARC
  5
36F
  8
H10H
  6
CONTINUOUS
 62
     7
 10
1160.315742218646
 20
363.3066360941575
 30
0.0
 40
2.0
 50
270.0
 51
0.0
  0
LINE
  5
370
  8
H10H
  6
CONTINUOUS
 62
     7
 10
1162.31574221864
 20
379.3066360941575
 30
0.0
 11
1162.315742218646
 21
363.3066360941575
 31
0.0
  0
LINE
  5
371
  8
H10H
  6
CONTINUOUS
 62
     7
 10
1236.566666666683
 20
419.0588425858459
 30
0.0
 11
559.5666666666825
 21
419.0588425856458
 31
0.0
  0
LINE
  5
372
  8
H10H
  6
CONTINUOUS
 62
     7
 10
1236.566666666681
 20
422.0588425858459
 30
0.0
 11
1236.566666666683
 21
419.0588425858459
 31
0.0
  0
LINE
  5
373
  8
H10H
  6
CONTINUOUS
 62
     7
 10
1236.566666666681
 20
422.0588425858459
 30
0.0
 11
559.5666666666807
 21
422.0588425856458
 31
0.0
  0
LINE
  5
374
  8
H10H
  6
CONTINUOUS
 62
     7
 10
559.5666666666807
 20
422.0588425856458
 30
0.0
 11
559.5666666666825
 21
419.0588425856458
 31
0.0
  0
LINE
  5
375
  8
H10H
  6
CONTINUOUS
 62
     7
 10
1236.56666666671
 20
325.0588425858459
 30
0.0
 11
559.5666666667098
 21
325.0588425856458
 31
0.0
  0
LINE
  5
376
  8
H10H
  6
CONTINUOUS
 62
     7
 10
559.5666666667116
 20
322.0588425856458
 30
0.0
 11
559.5666666667098
 21
325.0588425856458
 31
0.0
  0
LINE
  5
377
  8
H10H
  6
CONTINUOUS
 62
     7
 10
1236.566666666712
 20
322.0588425858459
 30
0.0
 11
559.5666666667116
 21
322.0588425856458
 31
0.0
  0
LINE
  5
378
  8
H10H
  6
CONTINUOUS
 62
     7
 10
1236.566666666712
 20
322.0588425858459
 30
0.0
 11
1236.56666666671
 21
325.0588425858459
 31
0.0
  0
LINE
  5
379
  8
H10H
  6
CONTINUOUS
 62
     7
 10
1238.066666666714
 20
322.0588425858477
 30
0.0
 11
1241.066666666714
 21
322.0588425858477
 31
0.0
  0
LINE
  5
37A
  8
H10H
  6
CONTINUOUS
 62
     7
 10
1238.066666666683
 20
422.0588425858459
 30
0.0
 11
1241.066666666683
 21
422.0588425858459
 31
0.0
  0
LINE
  5
37B
  8
H10H
  6
CONTINUOUS
 62
     7
 10
558.0666666667098
 20
322.0588425856458
 30
0.0
 11
555.0666666667098
 21
322.058842585644
 31
0.0
  0
LINE
  5
37C
  8
H10H
  6
CONTINUOUS
 62
     7
 10
558.0666666666789
 20
422.0588425856458
 30
0.0
 11
555.0666666666789
 21
422.058842585644
 31
0.0
  0
LINE
  5
37D
  8
H10H
  6
CONTINUOUS
 62
     7
 10
1238.066666666694
 20
388.9422403386761
 30
0.0
 11
1236.066666666694
 21
388.9422403386743
 31
0.0
  0
LINE
  5
37E
  8
H10H
  6
CONTINUOUS
 62
     7
 10
1238.066666666701
 20
362.9422403386761
 30
0.0
 11
1236.066666666701
 21
362.9422403386743
 31
0.0
  0
LINE
  5
37F
  8
H10H
  6
CONTINUOUS
 62
     7
 10
1238.06666666669
 20
401.3598847544417
 30
0.0
 11
1236.06666666669
 21
401.3598847544399
 31
0.0
  0
LINE
  5
380
  8
H10H
  6
CONTINUOUS
 62
     7
 10
1238.066666666704
 20
351.3598847544417
 30
0.0
 11
1236.066666666704
 21
351.3598847544399
 31
0.0
  0
LINE
  5
381
  8
H10H
  6
CONTINUOUS
 62
     7
 10
560.066666666688
 20
401.3598847542398
 30
0.0
 11
558.066666666688
 21
401.3598847542398
 31
0.0
  0
LINE
  5
382
  8
H10H
  6
CONTINUOUS
 62
     7
 10
560.0666666667025
 20
351.3598847542398
 30
0.0
 11
558.0666666667025
 21
351.3598847542398
 31
0.0
  0
LINE
  5
383
  8
H10H
  6
CONTINUOUS
 62
     7
 10
560.0666666666898
 20
388.9422403384742
 30
0.0
 11
558.0666666666898
 21
388.9422403384742
 31
0.0
  0
LINE
  5
384
  8
H10H
  6
CONTINUOUS
 62
     7
 10
560.0666666666971
 20
362.9422403384742
 30
0.0
 11
558.0666666666971
 21
362.9422403384742
 31
0.0
  0
LINE
  5
385
  8
H10H
  6
CONTINUOUS
 62
     7
 10
1236.066666666701
 20
363.9337760611616
 30
0.0
 11
1236.066666666694
 21
388.9422403386743
 31
0.0
  0
LINE
  5
386
  8
H10H
  6
CONTINUOUS
 62
     7
 10
1236.066666666699
 20
362.9422403386725
 30
0.0
 11
1236.066666666699
 21
363.9337760611597
 31
0.0
  0
LINE
  5
387
  8
H10H
  6
CONTINUOUS
 62
     7
 10
560.0666666667025
 20
351.3598847542435
 30
0.0
 11
560.0666666667025
 21
346.987841518363
 31
0.0
  0
LINE
  5
388
  8
H10H
  6
CONTINUOUS
 62
     7
 10
1236.066666666704
 20
351.3598847544436
 30
0.0
 11
1236.066666666704
 21
346.9878415185631
 31
0.0
  0
LINE
  5
389
  8
H10H
  6
CONTINUOUS
 62
     7
 10
1236.066666666694
 20
388.9422403386889
 30
0.0
 11
1236.06666666669
 21
401.3598847544399
 31
0.0
  0
LINE
  5
38A
  8
H10H
  6
CONTINUOUS
 62
     7
 10
1236.066666666703
 20
353.2666842207618
 30
0.0
 11
1236.066666666701
 21
362.9422403386725
 31
0.0
  0
LINE
  5
38B
  8
H10H
  6
CONTINUOUS
 62
     7
 10
1236.066666666703
 20
351.3598847544399
 30
0.0
 11
1236.066666666701
 21
353.2666842207618
 31
0.0
  0
LINE
  5
38C
  8
H10H
  6
CONTINUOUS
 62
     7
 10
560.0666666666916
 20
388.9422403384888
 30
0.0
 11
560.066666666688
 21
401.3598847542398
 31
0.0
  0
LINE
  5
38D
  8
H10H
  6
CONTINUOUS
 62
     7
 10
560.0666666666971
 20
353.2666842205617
 30
0.0
 11
560.0666666666953
 21
362.9422403384724
 31
0.0
  0
LINE
  5
38E
  8
H10H
  6
CONTINUOUS
 62
     7
 10
560.0666666667025
 20
351.3598847542398
 30
0.0
 11
560.0666666667007
 21
353.2666842205617
 31
0.0
  0
LINE
  5
38F
  8
H10H
  6
CONTINUOUS
 62
     7
 10
560.0666666666971
 20
363.9337760609615
 30
0.0
 11
560.0666666666898
 21
388.9422403384742
 31
0.0
  0
LINE
  5
390
  8
H10H
  6
CONTINUOUS
 62
     7
 10
560.0666666666971
 20
362.9422403384742
 30
0.0
 11
560.0666666666971
 21
363.9337760609615
 31
0.0
  0
LINE
  5
391
  8
H10H
  6
CONTINUOUS
 62
     7
 10
1236.566666666683
 20
417.5588425858459
 30
0.0
 11
1236.566666666683
 21
419.0588425858459
 31
0.0
  0
LINE
  5
392
  8
H10H
  6
CONTINUOUS
 62
     7
 10
559.5666666666825
 20
419.0588425856458
 30
0.0
 11
559.5666666666825
 21
417.5588425856458
 31
0.0
  0
LINE
  5
393
  8
H10H
  6
CONTINUOUS
 62
     7
 10
559.5666666667098
 20
326.5588425856458
 30
0.0
 11
559.5666666667098
 21
325.0588425856458
 31
0.0
  0
LINE
  5
394
  8
H10H
  6
CONTINUOUS
 62
     7
 10
1236.56666666671
 20
325.0588425858459
 30
0.0
 11
1236.56666666671
 21
326.5588425858459
 31
0.0
  0
LINE
  5
395
  8
H10H
  6
CONTINUOUS
 62
     7
 10
1238.066666666712
 20
322.0588425858477
 30
0.0
 11
1238.066666666706
 21
335.2406607676512
 31
0.0
  0
LINE
  5
396
  8
H10H
  6
CONTINUOUS
 62
     7
 10
1241.066666666712
 20
322.0588425858477
 30
0.0
 11
1241.066666666706
 21
335.2406607676512
 31
0.0
  0
LINE
  5
397
  8
H10H
  6
CONTINUOUS
 62
     7
 10
1241.066666666697
 20
372.0588425858459
 30
0.0
 11
1241.066666666686
 21
408.8770244041061
 31
0.0
  0
LINE
  5
398
  8
H10H
  6
CONTINUOUS
 62
     7
 10
1238.066666666697
 20
372.0588425858459
 30
0.0
 11
1238.066666666686
 21
408.8770244041061
 31
0.0
  0
LINE
  5
399
  8
H10H
  6
CONTINUOUS
 62
     7
 10
1238.066666666684
 20
408.8770244040425
 30
0.0
 11
1238.066666666681
 21
422.0588425858459
 31
0.0
  0
LINE
  5
39A
  8
H10H
  6
CONTINUOUS
 62
     7
 10
1241.066666666686
 20
408.8770244040425
 30
0.0
 11
1241.066666666683
 21
422.0588425858459
 31
0.0
  0
LINE
  5
39B
  8
H10H
  6
CONTINUOUS
 62
     7
 10
558.0666666667044
 20
335.2406607674493
 30
0.0
 11
558.0666666667098
 21
322.0588425856458
 31
0.0
  0
LINE
  5
39C
  8
H10H
  6
CONTINUOUS
 62
     7
 10
555.0666666667044
 20
335.2406607674475
 30
0.0
 11
555.0666666667098
 21
322.058842585644
 31
0.0
  0
LINE
  5
39D
  8
H10H
  6
CONTINUOUS
 62
     7
 10
558.0666666666789
 20
422.058842585644
 30
0.0
 11
558.0666666666825
 21
408.8770244038406
 31
0.0
  0
LINE
  5
39E
  8
H10H
  6
CONTINUOUS
 62
     7
 10
555.0666666666789
 20
422.0588425856422
 30
0.0
 11
555.0666666666825
 21
408.8770244038387
 31
0.0
  0
LINE
  5
39F
  8
H10H
  6
CONTINUOUS
 62
     7
 10
558.0666666666825
 20
408.8770244039042
 30
0.0
 11
558.0666666667044
 21
335.2406607673838
 31
0.0
  0
LINE
  5
3A0
  8
H10H
  6
CONTINUOUS
 62
     7
 10
555.0666666666825
 20
408.8770244039024
 30
0.0
 11
555.0666666667044
 21
335.240660767382
 31
0.0
  0
LINE
  5
3A1
  8
H10H
  6
CONTINUOUS
 62
     7
 10
1236.566666666683
 20
417.5588425858459
 30
0.0
 11
1238.066666666683
 21
417.5588425858477
 31
0.0
  0
LINE
  5
3A2
  8
H10H
  6
CONTINUOUS
 62
     7
 10
1238.06666666671
 20
326.5588425858477
 30
0.0
 11
1236.56666666671
 21
326.5588425858459
 31
0.0
  0
LINE
  5
3A3
  8
H10H
  6
CONTINUOUS
 62
     7
 10
558.0666666666825
 20
417.5588425856458
 30
0.0
 11
559.5666666666825
 21
417.5588425856458
 31
0.0
  0
LINE
  5
3A4
  8
H10H
  6
CONTINUOUS
 62
     7
 10
559.5666666667098
 20
326.5588425856458
 30
0.0
 11
558.0666666667098
 21
326.5588425856458
 31
0.0
  0
LINE
  5
3A5
  8
H10H
  6
CONTINUOUS
 62
     7
 10
1241.066666666708
 20
335.2406607675857
 30
0.0
 11
1241.066666666697
 21
372.0588425858477
 31
0.0
  0
LINE
  5
3A6
  8
H10H
  6
CONTINUOUS
 62
     7
 10
1238.066666666708
 20
335.2406607675857
 30
0.0
 11
1238.066666666697
 21
372.0588425858477
 31
0.0
  0
DIMENSION
  5
3A7
  8
H10H
  6
CONTINUOUS
 62
     7
  2
*D2
 10
339.6165181745097
 20
844.5836279746618
 30
0.0
 11
297.1223775495097
 21
1032.083627974663
 31
0.0
 70
    32
  3
HIBINO
 13
559.5666666666862
 23
1219.583627974665
 33
0.0
 14
558.0666666666971
 24
844.5836279746618
 34
0.0
 50
-90.0
  0
DIMENSION
  5
3A8
  8
H10H
  6
CONTINUOUS
 62
     7
  2
*D3
 10
555.0666666666971
 20
622.5983064142658
 30
0.0
 11
898.0666666666989
 21
665.0924470392658
 31
0.0
 70
    32
  3
HIBINO
 13
1241.066666666701
 23
844.5836279746645
 33
0.0
 14
555.0666666666971
 24
844.5836279746618
 34
0.0
  0
DIMENSION
  5
3A9
  8
H10H
  6
CONTINUOUS
 62
     7
  2
*D4
 10
1651.389448716422
 20
672.5983064142657
 30
0.0
 11
1918.993968247671
 21
672.5983064142657
 31
0.0
 70
   160
  3
HIBINO
 13
1751.38944871642
 23
869.8551564548779
 33
0.0
 14
1651.389448716422
 24
869.8551564548779
 34
0.0
  0
CIRCLE
  5
3AC
  8
H10H
  6
CONTINUOUS
 62
     7
 10
1198.066666666695
 20
1772.058842585835
 30
0.0
 40
6.499999999999968
  0
CIRCLE
  5
3AD
  8
H10H
  6
CONTINUOUS
 62
     7
 10
1148.066666666686
 20
1802.058842585821
 30
0.0
 40
6.499999999999968
  0
CIRCLE
  5
3AE
  8
H10H
  6
CONTINUOUS
 62
     7
 10
1148.066666666704
 20
1742.058842585821
 30
0.0
 40
6.499999999999968
  0
CIRCLE
  5
3AF
  8
H10H
  6
CONTINUOUS
 62
     7
 10
1048.066666666695
 20
1772.058842585791
 30
0.0
 40
6.499999999999968
  0
CIRCLE
  5
3B0
  8
H10H
  6
CONTINUOUS
 62
     7
 10
898.0666666666953
 20
1772.058842585746
 30
0.0
 40
6.499999999999968
  0
CIRCLE
  5
3B1
  8
H10H
  6
CONTINUOUS
 62
     7
 10
748.0666666666953
 20
1772.058842585702
 30
0.0
 40
6.499999999999968
  0
CIRCLE
  5
3B2
  8
H10H
  6
CONTINUOUS
 62
     7
 10
598.0666666666953
 20
1772.058842585657
 30
0.0
 40
6.499999999999968
  0
CIRCLE
  5
3B3
  8
H10H
  6
CONTINUOUS
 62
     7
 10
648.0666666666862
 20
1802.058842585671
 30
0.0
 40
6.499999999999968
  0
CIRCLE
  5
3B4
  8
H10H
  6
CONTINUOUS
 62
     7
 10
648.0666666667044
 20
1742.058842585671
 30
0.0
 40
6.499999999999968
  0
CIRCLE
  5
3B5
  8
H10H
  6
CONTINUOUS
 62
     7
 10
1198.066666666695
 20
372.058842585835
 30
0.0
 40
6.499999999999968
  0
CIRCLE
  5
3B6
  8
H10H
  6
CONTINUOUS
 62
     7
 10
1148.066666666686
 20
402.0588425858205
 30
0.0
 40
6.499999999999968
  0
CIRCLE
  5
3B7
  8
H10H
  6
CONTINUOUS
 62
     7
 10
1148.066666666704
 20
342.0588425858205
 30
0.0
 40
6.499999999999968
  0
CIRCLE
  5
3B8
  8
H10H
  6
CONTINUOUS
 62
     7
 10
1048.066666666695
 20
372.0588425857914
 30
0.0
 40
6.499999999999968
  0
CIRCLE
  5
3B9
  8
H10H
  6
CONTINUOUS
 62
     7
 10
898.0666666666953
 20
372.0588425857459
 30
0.0
 40
6.499999999999968
  0
CIRCLE
  5
3BA
  8
H10H
  6
CONTINUOUS
 62
     7
 10
748.0666666666953
 20
372.0588425857022
 30
0.0
 40
6.499999999999968
  0
CIRCLE
  5
3BB
  8
H10H
  6
CONTINUOUS
 62
     7
 10
648.0666666666862
 20
402.0588425856713
 30
0.0
 40
6.499999999999968
  0
CIRCLE
  5
3BC
  8
H10H
  6
CONTINUOUS
 62
     7
 10
648.0666666667044
 20
342.0588425856713
 30
0.0
 40
6.499999999999968
  0
CIRCLE
  5
3BD
  8
H10H
  6
CONTINUOUS
 62
     7
 10
598.0666666666953
 20
372.0588425856567
 30
0.0
 40
6.499999999999968
  0
LINE
  5
3BE
  8
H10H
  6
CONTINUOUS
 62
     7
 10
559.5666666667098
 20
1726.558842585646
 30
0.0
 11
559.5666666667098
 21
1722.058842585646
 31
0.0
  0
LINE
  5
3BF
  8
H10H
  6
CONTINUOUS
 62
     7
 10
559.5666666666807
 20
1822.058842585646
 30
0.0
 11
559.5666666666807
 21
1817.558842585646
 31
0.0
  0
LINE
  5
3C0
  8
H10H
  6
CONTINUOUS
 62
     7
 10
1236.566666666681
 20
1822.058842585846
 30
0.0
 11
1236.566666666681
 21
1817.558842585846
 31
0.0
  0
LINE
  5
3C1
  8
H10H
  6
CONTINUOUS
 62
     7
 10
1236.56666666671
 20
1726.558842585846
 30
0.0
 11
1236.56666666671
 21
1722.058842585846
 31
0.0
  0
DIMENSION
  5
3C2
  8
H10H
  6
CONTINUOUS
 62
     7
  2
*D5
 10
748.0666666666953
 20
1570.598306414226
 30
0.0
 11
823.0666666666953
 21
1613.092447039226
 31
0.0
 70
    32
  3
HIBINO
 13
898.0666666666953
 23
1772.058842585746
 33
0.0
 14
748.0666666666953
 24
1772.058842585702
 34
0.0
  0
DIMENSION
  5
3C3
  8
H10H
  6
CONTINUOUS
 62
     7
  2
*D6
 10
898.0666666666953
 20
1570.598306414269
 30
0.0
 11
973.0666666666953
 21
1613.092447039269
 31
0.0
 70
    32
  3
HIBINO
 13
1048.066666666695
 23
1772.058842585791
 33
0.0
 14
898.0666666666953
 24
1772.058842585746
 34
0.0
  0
DIMENSION
  5
3C4
  8
H10H
  6
CONTINUOUS
 62
     7
  2
*D7
 10
1048.066666666695
 20
1570.598306414315
 30
0.0
 11
1123.066666666695
 21
1613.092447039315
 31
0.0
 70
    32
  3
HIBINO
 13
1198.066666666695
 23
1772.058842585835
 33
0.0
 14
1048.066666666695
 24
1772.058842585791
 34
0.0
  0
DIMENSION
  5
3C5
  8
H10H
  6
CONTINUOUS
 62
     7
  2
*D8
 10
748.0666666666953
 20
1570.598306414226
 30
0.0
 11
673.0666666666953
 21
1613.092447039226
 31
0.0
 70
    32
  3
HIBINO
 13
598.0666666666953
 23
1772.058842585657
 33
0.0
 14
748.0666666666953
 24
1772.058842585702
 34
0.0
  0
DIMENSION
  5
3C6
  8
H10H
  6
CONTINUOUS
 62
     7
  2
*D9
 10
1148.066666666686
 20
1970.598306414266
 30
0.0
 11
1194.566666666684
 21
2013.092447039266
 31
0.0
 70
    32
  3
HIBINO
 13
1241.066666666683
 23
1822.058842585846
 33
0.0
 14
1148.066666666686
 24
1802.058842585821
 34
0.0
  0
DIMENSION
  5
3C9
  8
H10H
  6
CONTINUOUS
 62
     7
  2
*D10
 10
1148.066666666686
 20
1970.598306414266
 30
0.0
 11
898.0666666666862
 21
2013.092447039266
 31
0.0
 70
    32
  3
HIBINO
 13
648.0666666666862
 23
1802.058842585671
 33
0.0
 14
1148.066666666686
 24
1802.058842585821
 34
0.0
  0
DIMENSION
  5
3CA
  8
H10H
  6
CONTINUOUS
 62
     7
  2
*D11
 10
648.0666666666862
 20
1970.598306414266
 30
0.0
 11
601.5666666666825
 21
2013.092447039266
 31
0.0
 70
    32
  3
HIBINO
 13
555.0666666666789
 23
1822.058842585642
 33
0.0
 14
648.0666666666862
 24
1802.058842585671
 34
0.0
  0
DIMENSION
  5
3CD
  8
H10H
  6
CONTINUOUS
 62
     7
  2
*D12
 10
1198.066666666695
 20
1625.201371661855
 30
0.0
 11
1389.499643229214
 21
1625.201371661855
 31
0.0
 70
   160
  3
HIBINO
 13
1241.066666666714
 23
1722.058842585848
 33
0.0
 14
1198.066666666695
 24
1772.058842585835
 34
0.0
  0
DIMENSION
  5
3D0
  8
H10H
  6
CONTINUOUS
 62
     7
  2
*D13
 10
598.0666666666953
 20
1629.764973080933
 30
0.0
 11
406.6336901042098
 21
1629.764973080933
 31
0.0
 70
   160
  3
HIBINO
 13
555.0666666667098
 23
1722.058842585644
 33
0.0
 14
598.0666666666953
 24
1772.058842585657
 34
0.0
  0
DIMENSION
  5
3D3
  8
H10H
  6
CONTINUOUS
 62
     7
  2
*D14
 10
478.9360693179525
 20
1802.05884258562
 30
0.0
 11
478.9360693179075
 21
1950.36184258562
 31
0.0
 70
   160
  3
HIBINO
 13
648.0666666667044
 23
1742.058842585671
 33
0.0
 14
648.0666666666862
 24
1802.058842585671
 34
0.0
 50
-89.99999999998263
  0
INSERT
  5
3D6
  8
H10H
 62
     7
  2
_______-1
 10
1402.0
 20
1904.0
 30
0.0
  0
LINE
  5
3D7
  8
H10H
  6
CONTINUOUS
 62
     7
 10
9.909907149044784
 20
3127.758890297483
 30
0.0
 11
9.909907149044784
 21
2602.758890297483
 31
0.0
  0
INSERT
  5
3D8
  8
H10H
 62
     7
  2
____-1
 10
989.9099071490446
 20
692.9369350043303
 30
0.0
  0
INSERT
  5
3D9
  8
H10H
 62
     7
  2
____-2
 10
989.9099071490446
 20
692.9369350043303
 30
0.0
  0
INSERT
  5
3DA
  8
H10H
 62
     3
  2
____-3
 10
989.9099071490446
 20
692.9369350043303
 30
0.0
  0
INSERT
  5
3DB
  8
H10H
 62
     6
  2
____-4
 10
989.9099071490446
 20
692.9369350043303
 30
0.0
  0
INSERT
  5
3DC
  8
H10H
 62
     5
  2
____-5
 10
989.9099071490446
 20
692.9369350043303
 30
0.0
  0
LINE
  5
3DD
  8
H10H
  6
CONTINUOUS
 62
     5
 10
2239.267439526749
 20
-915.0971775662945
 30
0.0
 11
2239.267439526749
 21
-1170.856368988259
 31
0.0
  0
LINE
  5
3DE
  8
H10H
  6
______-5
 62
     7
 10
2028.820130719916
 20
-690.9000000002584
 30
0.0
 11
1660.896253256215
 21
-690.9000000002584
 31
0.0
  0
LINE
  5
3DF
  8
H10H
  6
CONTINUOUS
 62
     6
 10
2146.729096063971
 20
-819.1243186434842
 30
0.0
 11
1952.778441759114
 21
-1155.056706060724
 31
0.0
  0
LINE
  5
3E0
  8
H10H
  6
CONTINUOUS
 62
     3
 10
2070.595812076702
 20
-770.8089653440361
 30
0.0
 11
1712.610708920984
 21
-977.4917610168666
 31
0.0
  0
DIMENSION
  5
3E1
  8
H10H
  6
CONTINUOUS
 62
     7
  2
*D21
 10
1746.355176795014
 20
-772.4771527414632
 30
0.0
 11
1755.225605733786
 21
-812.4890719867135
 31
0.0
 70
   165
  3
HIBINO
 13
1660.896253256215
 23
-690.9000000002584
 33
0.0
 14
1712.610708920984
 24
-977.4917610168666
 34
0.0
 15
2209.002200032386
 25
-690.9000000002584
 35
0.0
  0
DIMENSION
  5
3E5
  8
H10H
  6
CONTINUOUS
 62
     7
  2
*D22
 10
1859.592323302434
 20
-988.7058741571634
 30
0.0
 11
1887.831961120459
 21
-1019.524030975091
 31
0.0
 70
   165
  3
HIBINO
 13
1712.610708920984
 23
-977.4917610168666
 33
0.0
 14
1952.778441759114
 24
-1155.056706060724
 34
0.0
 15
2226.638061407748
 25
-680.717930687802
 35
0.0
  0
DIMENSION
  5
3E9
  8
H10H
  6
CONTINUOUS
 62
     7
  2
*D23
 10
2069.368680826353
 20
-1125.636209240402
 30
0.0
 11
2110.698887793615
 21
-1138.667573441297
 31
0.0
 70
   165
  3
HIBINO
 13
1952.778441759114
 23
-1155.056706060724
 33
0.0
 14
2239.267439526749
 24
-1170.856368988259
 34
0.0
 15
2239.267439526749
 25
-658.8432061176936
 35
0.0
  0
TEXT
  5
3EC
  8
H10H
 62
     7
 10
1618.705296588121
 20
-311.7777777777777
 30
0.0
 40
43.32552083333333
  1
※ 金具横面に取付位置の説明あり。
  7
_______
 11
1618.705296588121
 21
-268.4522569444443
 31
0.0
 73
     3
  0
TEXT
  5
3ED
  8
H10H
 62
     7
 10
28.27239921652165
 20
2615.103882961382
 30
0.0
 40
37.90983072916668
  1
スピーカー取付部用M8ネジ（T45)、ワッシャ　×各4
  7
_______
 11
28.27239921652165
 21
2653.013713690548
 31
0.0
 73
     3
  0
VIEWPORT
  5
A4
 67
     1
  8
0
 10
128.5
 20
97.5
 30
0.0
 40
314.226
 41
222.18
 68
     1
 69
     1
1001
ACAD
1000
MVIEW
1002
{
1070
    16
1010
0.0
1020
0.0
1030
0.0
1010
0.0
1020
0.0
1030
1.0
1040
0.0
1040
222.18
1040
128.5
1040
97.5
1040
50.0
1040
0.0
1040
0.0
1070
     0
1070
   100
1070
     0
1070
     3
1070
     0
1070
     0
1070
     0
1070
     0
1040
0.0
1040
0.0
1040
0.0
1040
10.0
1040
10.0
1040
10.0
1040
10.0
1070
     0
1002
{
1002
}
1002
}
  0
ENDSEC
  0
EOF
