  0
SECTION
  2
HEADER
  9
$ACADVER
  1
AC1009
  9
$DWGCODEPAGE
  3
dos932
  9
$INSBASE
 10
0.0
 20
0.0
 30
0.0
  9
$EXTMIN
 10
-810.0900928509554
 20
-1981.885020288821
 30
0.0
  9
$EXTMAX
 10
2789.909907149045
 20
3367.758890297482
 30
0.0
  9
$LIMMIN
 10
0.0
 20
0.0
  9
$LIMMAX
 10
12.0
 20
9.0
  9
$ORTHOMODE
 70
     0
  9
$REGENMODE
 70
     1
  9
$FILLMODE
 70
     1
  9
$QTEXTMODE
 70
     0
  9
$MIRRTEXT
 70
     1
  9
$DRAGMODE
 70
     2
  9
$LTSCALE
 40
20.0
  9
$OSMODE
 70
    37
  9
$ATTMODE
 70
     1
  9
$TEXTSIZE
 40
0.2
  9
$TRACEWID
 40
1.0
  9
$TEXTSTYLE
  7
STANDARD
  9
$CLAYER
  8
H10V
  9
$CELTYPE
  6
BYLAYER
  9
$CECOLOR
 62
   256
  9
$DIMSCALE
 40
1.0
  9
$DIMASZ
 40
50.012451171875
  9
$DIMEXO
 40
39.99999999999999
  9
$DIMDLI
 40
100.0
  9
$DIMRND
 40
0.0
  9
$DIMDLE
 40
0.0
  9
$DIMEXE
 40
39.99999999999999
  9
$DIMTP
 40
0.0
  9
$DIMTM
 40
0.0
  9
$DIMTXT
 40
64.98828125000011
  9
$DIMCEN
 40
0.0
  9
$DIMTSZ
 40
0.0
  9
$DIMTOL
 70
     0
  9
$DIMLIM
 70
     0
  9
$DIMTIH
 70
     0
  9
$DIMTOH
 70
     0
  9
$DIMSE1
 70
     0
  9
$DIMSE2
 70
     0
  9
$DIMTAD
 70
     1
  9
$DIMZIN
 70
     8
  9
$DIMBLK
  1
VW_EMPTYARROW
  9
$DIMASO
 70
     1
  9
$DIMSHO
 70
     1
  9
$DIMPOST
  1
<>
  9
$DIMAPOST
  1
[]
  9
$DIMALT
 70
     0
  9
$DIMALTD
 70
     2
  9
$DIMALTF
 40
1.0
  9
$DIMLFAC
 40
1.0
  9
$DIMTOFL
 70
     1
  9
$DIMTVP
 40
0.0
  9
$DIMTIX
 70
     1
  9
$DIMSOXD
 70
     0
  9
$DIMSAH
 70
     0
  9
$DIMBLK1
  1
VW_EMPTYARROW
  9
$DIMBLK2
  1
VW_EMPTYARROW
  9
$DIMSTYLE
  2
HIBINO
  9
$DIMCLRD
 70
     0
  9
$DIMCLRE
 70
     0
  9
$DIMCLRT
 70
     0
  9
$DIMTFAC
 40
1.0
  9
$DIMGAP
 40
9.999999999999998
  9
$LUNITS
 70
     2
  9
$LUPREC
 70
     2
  9
$SKETCHINC
 40
0.1
  9
$FILLETRAD
 40
0.0
  9
$AUNITS
 70
     0
  9
$AUPREC
 70
     2
  9
$MENU
  1
.
  9
$ELEVATION
 40
0.0
  9
$PELEVATION
 40
0.0
  9
$THICKNESS
 40
0.0
  9
$LIMCHECK
 70
     0
  9
$CHAMFERA
 40
0.0
  9
$CHAMFERB
 40
0.0
  9
$SKPOLY
 70
     0
  9
$TDCREATE
 40
2460763.599327767
  9
$TDUPDATE
 40
2460763.599330868
  9
$TDINDWG
 40
0.0000000116
  9
$TDUSRTIMER
 40
0.0000000116
  9
$USRTIMER
 70
     1
  9
$ANGBASE
 50
0.0
  9
$ANGDIR
 70
     0
  9
$PDMODE
 70
     1
  9
$PDSIZE
 40
-2.0
  9
$PLINEWID
 40
0.0
  9
$COORDS
 70
     1
  9
$SPLFRAME
 70
     0
  9
$SPLINETYPE
 70
     6
  9
$SPLINESEGS
 70
     8
  9
$ATTDIA
 70
     0
  9
$ATTREQ
 70
     1
  9
$HANDLING
 70
     1
  9
$HANDSEED
  5
65D
  9
$SURFTAB1
 70
     6
  9
$SURFTAB2
 70
     6
  9
$SURFTYPE
 70
     6
  9
$SURFU
 70
     6
  9
$SURFV
 70
     6
  9
$UCSNAME
  2

  9
$UCSORG
 10
0.0
 20
0.0
 30
0.0
  9
$UCSXDIR
 10
1.0
 20
0.0
 30
0.0
  9
$UCSYDIR
 10
0.0
 20
1.0
 30
0.0
  9
$PUCSNAME
  2

  9
$PUCSORG
 10
0.0
 20
0.0
 30
0.0
  9
$PUCSXDIR
 10
1.0
 20
0.0
 30
0.0
  9
$PUCSYDIR
 10
0.0
 20
1.0
 30
0.0
  9
$USERI1
 70
     0
  9
$USERI2
 70
     0
  9
$USERI3
 70
     0
  9
$USERI4
 70
     0
  9
$USERI5
 70
     0
  9
$USERR1
 40
0.0
  9
$USERR2
 40
0.0
  9
$USERR3
 40
0.0
  9
$USERR4
 40
0.0
  9
$USERR5
 40
0.0
  9
$WORLDVIEW
 70
     1
  9
$SHADEDGE
 70
     3
  9
$SHADEDIF
 70
    70
  9
$TILEMODE
 70
     1
  9
$MAXACTVP
 70
    64
  9
$PLIMCHECK
 70
     0
  9
$PEXTMIN
 10
1.000000000000000E+20
 20
1.000000000000000E+20
 30
1.000000000000000E+20
  9
$PEXTMAX
 10
-1.000000000000000E+20
 20
-1.000000000000000E+20
 30
-1.000000000000000E+20
  9
$PLIMMIN
 10
-20.0
 20
-7.5
  9
$PLIMMAX
 10
277.0
 20
202.5
  9
$UNITMODE
 70
     0
  9
$VISRETAIN
 70
     1
  9
$PLINEGEN
 70
     0
  9
$PSLTSCALE
 70
     1
  0
ENDSEC
  0
SECTION
  2
TABLES
  0
TABLE
  2
VPORT
 70
     1
  0
VPORT
  2
*ACTIVE
 70
     0
 10
0.0
 20
0.0
 11
1.0
 21
1.0
 12
989.9099071490446
 22
692.9369350043307
 13
0.0
 23
0.0
 14
0.5
 24
0.5
 15
0.5
 25
0.5
 16
0.0
 26
0.0
 36
1.0
 17
0.0
 27
0.0
 37
0.0
 40
5349.643910586303
 41
0.672941986451852
 42
2000.0
 43
0.0
 44
0.0
 50
0.0
 51
0.0
 71
     0
 72
   100
 73
     1
 74
     3
 75
     0
 76
     0
 77
     0
 78
     0
  0
ENDTAB
  0
TABLE
  2
LTYPE
 70
    12
  0
LTYPE
  2
CONTINUOUS
 70
     0
  3
Solid line
 72
    65
 73
     0
 40
0.0
  0
LTYPE
  2
ACISOWELD
 70
     0
  3

 72
    65
 73
     2
 40
7.499999999999999
 49
4.999999999999999
 49
-2.5
  0
LTYPE
  2
______-10
 70
     0
  3

 72
    65
 73
     6
 40
30.1625
 49
19.05
 49
-1.411154174804687
 49
3.527691650390625
 49
-1.411154174804687
 49
3.175
 49
-1.5875
  0
LTYPE
  2
______-9
 70
     0
  3

 72
    65
 73
     4
 40
25.4
 49
19.05
 49
-1.411154174804687
 49
3.527691650390625
 49
-1.411154174804687
  0
LTYPE
  2
______-8
 70
     0
  3

 72
    65
 73
     6
 40
6.35
 49
3.175
 49
-1.058074951171875
 49
0.352691650390625
 49
-0.7057708740234374
 49
0.352691650390625
 49
-0.7057708740234374
  0
LTYPE
  2
______-7
 70
     0
  3

 72
    65
 73
     6
 40
9.524999999999999
 49
3.175
 49
-1.058074951171875
 49
3.175
 49
-1.058462524414062
 49
0.352691650390625
 49
-0.7057708740234374
  0
LTYPE
  2
______-6
 70
     0
  3

 72
    65
 73
     4
 40
5.291537475585937
 49
3.175
 49
-1.058074951171875
 49
0.352691650390625
 49
-0.7057708740234374
  0
LTYPE
  2
______-5
 70
     0
  3

 72
    65
 73
     2
 40
1.058074951171875
 49
0.352691650390625
 49
-0.70538330078125
  0
LTYPE
  2
______-4
 70
     0
  3

 72
    65
 73
     2
 40
7.7607666015625
 49
6.702691650390625
 49
-1.058074951171875
  0
LTYPE
  2
______-3
 70
     0
  3

 72
    65
 73
     2
 40
6.35
 49
5.291537475585937
 49
-1.058462524414062
  0
LTYPE
  2
______-2
 70
     0
  3

 72
    65
 73
     2
 40
3.527691650390625
 49
2.469229125976562
 49
-1.058462524414062
  0
LTYPE
  2
______-1
 70
     0
  3

 72
    65
 73
     4
 40
1.016
 49
0.6349999999999999
 49
-0.127
 49
0.1269999999999999
 49
-0.1269999999999999
  0
ENDTAB
  0
TABLE
  2
LAYER
 70
     3
  0
LAYER
  2
0
 70
     0
 62
     7
  6
CONTINUOUS
  0
LAYER
  2
H10V
 70
     0
 62
     7
  6
CONTINUOUS
  0
LAYER
  2
DEFPOINTS
 70
     0
 62
     7
  6
CONTINUOUS
  0
ENDTAB
  0
TABLE
  2
STYLE
 70
     2
  0
STYLE
  2
STANDARD
 70
     0
 40
0.0
 41
1.0
 50
0.0
 71
     0
 42
0.2
  3
txt
  4
BIGFONT.SHX
  0
STYLE
  2
_______
 70
     0
 40
0.0
 41
1.0
 50
0.0
 71
     0
 42
0.2
  3

  4
ＭＳ ゴシック
  0
ENDTAB
  0
TABLE
  2
VIEW
 70
     0
  0
ENDTAB
  0
TABLE
  2
UCS
 70
     0
  0
ENDTAB
  0
TABLE
  2
APPID
 70
     3
  0
APPID
  2
ACAD
 70
     0
  0
APPID
  2
ACAECLAYERSTANDARD
 70
     0
  0
APPID
  2
ACADANNOTATIVE
 70
     0
  0
ENDTAB
  0
TABLE
  2
DIMSTYLE
 70
     2
  0
DIMSTYLE
  2
STANDARD
 70
     0
  3

  4

  5

  6

  7

 40
1.0
 41
0.18
 42
0.0625
 43
0.38
 44
0.18
 45
0.0
 46
0.0
 47
0.0
 48
0.0
140
0.18
141
0.09
142
0.0
143
25.4
144
1.0
145
0.0
146
1.0
147
0.09
 71
     0
 72
     0
 73
     1
 74
     1
 75
     0
 76
     0
 77
     0
 78
     0
170
     0
171
     2
172
     0
173
     0
174
     0
175
     0
176
     0
177
     0
178
     0
  0
DIMSTYLE
  2
HIBINO
 70
     0
  3
<>
  4
[]
  5
VW_EMPTYARROW
  6
VW_EMPTYARROW
  7
VW_EMPTYARROW
 40
1.0
 41
50.012451171875
 42
39.99999999999999
 43
100.0
 44
39.99999999999999
 45
0.0
 46
0.0
 47
0.0
 48
0.0
140
64.98828125000011
141
0.0
142
0.0
143
1.0
144
1.0
145
0.0
146
1.0
147
9.999999999999998
 71
     0
 72
     0
 73
     0
 74
     0
 75
     0
 76
     0
 77
     1
 78
     8
170
     0
171
     2
172
     1
173
     0
174
     1
175
     0
176
     0
177
     0
178
     0
  0
ENDTAB
  0
ENDSEC
  0
SECTION
  2
BLOCKS
  0
BLOCK
  8
0
  2
$MODEL_SPACE
 70
     0
 10
0.0
 20
0.0
 30
0.0
  3
$MODEL_SPACE
  1

  0
ENDBLK
  5
21
  8
0
  0
BLOCK
 67
     1
  8
0
  2
$PAPER_SPACE
 70
     0
 10
0.0
 20
0.0
 30
0.0
  3
$PAPER_SPACE
  1

  0
ENDBLK
  5
1D
 67
     1
  8
0
  0
BLOCK
  8
0
  2
_______-1
 70
     0
 10
0.0
 20
0.0
 30
0.0
  3
_______-1
  1

  0
LINE
  5
AB
  8
0
  6
CONTINUOUS
 62
     7
 10
63.5
 20
0.0
 30
0.0
 11
0.0
 21
0.0
 31
0.0
  0
LINE
  5
AC
  8
0
  6
CONTINUOUS
 62
     7
 10
0.0
 20
0.0
 30
0.0
 11
-120.16564347033
 21
-136.4299999999998
 31
0.0
  0
POLYLINE
  5
AD
  8
0
  6
CONTINUOUS
 62
     7
 66
     1
 10
0.0
 20
0.0
 30
0.0
 70
   128
  0
VERTEX
  5
AE
  8
0
  6
CONTINUOUS
 62
     7
 10
-65.03140892031924
 20
-100.6254094380903
 30
0.0
  0
VERTEX
  5
AF
  8
0
  6
CONTINUOUS
 62
     7
 10
-120.16564347033
 20
-136.4299999999998
 30
0.0
  0
VERTEX
  5
B0
  8
0
  6
CONTINUOUS
 62
     7
 10
-90.32029101276574
 20
-77.8551977262803
 30
0.0
  0
SEQEND
  5
B1
  8
0
  6
CONTINUOUS
 62
     7
  0
TEXT
  5
B2
  8
0
 62
     7
 10
64.690625
 20
-22.85999999999999
 30
0.0
 40
48.74121093749999
  1
M10用12.8Φ 
  7
_______
 11
64.690625
 21
25.8812109375
 31
0.0
 73
     3
  0
TEXT
  5
B3
  8
0
 62
     7
 10
64.690625
 20
-86.35999999999999
 30
0.0
 40
48.74121093749999
  1
サスペンションポイント　裏ナット付き
  7
_______
 11
64.690625
 21
-37.6187890625
 31
0.0
 73
     3
  0
ENDBLK
  5
61
  8
0
  0
BLOCK
  8
0
  2
_______-2
 70
     0
 10
0.0
 20
0.0
 30
0.0
  3
_______-2
  1

  0
LINE
  5
B4
  8
0
  6
CONTINUOUS
 62
     7
 10
63.5
 20
0.0
 30
0.0
 11
0.0
 21
0.0
 31
0.0
  0
LINE
  5
B5
  8
0
  6
CONTINUOUS
 62
     7
 10
0.0
 20
0.0
 30
0.0
 11
-18.00000000000512
 21
115.0000000000348
 31
0.0
  0
POLYLINE
  5
B6
  8
0
  6
CONTINUOUS
 62
     7
 66
     1
 10
0.0
 20
0.0
 30
0.0
 70
   128
  0
VERTEX
  5
B7
  8
0
  6
CONTINUOUS
 62
     7
 10
-24.87170509044298
 20
49.62009334767234
 30
0.0
  0
VERTEX
  5
B8
  8
0
  6
CONTINUOUS
 62
     7
 10
-18.00000000000512
 20
115.0000000000348
 30
0.0
  0
VERTEX
  5
B9
  8
0
  6
CONTINUOUS
 62
     7
 10
8.738882150542072
 20
54.94348739681475
 30
0.0
  0
SEQEND
  5
BA
  8
0
  6
CONTINUOUS
 62
     7
  0
LINE
  5
BB
  8
0
  6
CONTINUOUS
 62
     7
 10
0.0
 20
0.0
 30
0.0
 11
-258.0000000000051
 21
114.9999999999638
 31
0.0
  0
POLYLINE
  5
BC
  8
0
  6
CONTINUOUS
 62
     7
 66
     1
 10
0.0
 20
0.0
 30
0.0
 70
   128
  0
VERTEX
  5
BD
  8
0
  6
CONTINUOUS
 62
     7
 10
-206.9103953850134
 20
73.62845392049762
 30
0.0
  0
VERTEX
  5
BE
  8
0
  6
CONTINUOUS
 62
     7
 10
-258.0000000000051
 20
114.9999999999638
 30
0.0
  0
VERTEX
  5
BF
  8
0
  6
CONTINUOUS
 62
     7
 10
-193.0693314943865
 20
104.7159924088034
 30
0.0
  0
SEQEND
  5
C0
  8
0
  6
CONTINUOUS
 62
     7
  0
TEXT
  5
C1
  8
0
 62
     7
 10
64.690625
 20
-22.85999999999999
 30
0.0
 40
48.74121093749999
  1
M10用12.8Φ サスペンションポイント
  7
_______
 11
64.690625
 21
25.8812109375
 31
0.0
 73
     3
  0
ENDBLK
  5
64
  8
0
  0
BLOCK
  8
0
  2
*D3
 70
     1
 10
0.0
 20
0.0
 30
0.0
  3
*D3
  1

  0
LINE
  5
C2
  8
H10V
  6
CONTINUOUS
 62
     0
 10
623.0000000000076
 20
1282.0
 30
0.0
 11
440.0
 21
1282.0
 31
0.0
  0
LINE
  5
C3
  8
H10V
  6
CONTINUOUS
 62
     0
 10
624.0000000000022
 20
1730.0
 30
0.0
 11
440.0
 21
1730.0
 31
0.0
  0
LINE
  5
C4
  8
H10V
  6
CONTINUOUS
 62
     0
 10
480.0
 20
1332.012451171875
 30
0.0
 11
480.0
 21
1679.987548828125
 31
0.0
  0
INSERT
  5
C5
  8
H10V
 62
     0
  2
VW_EMPTYARROW
 10
480.0
 20
1282.0
 30
0.0
 41
50.012451171875
 42
50.012451171875
 43
50.012451171875
 50
270.0
  0
INSERT
  5
CA
  8
H10V
 62
     0
  2
VW_EMPTYARROW
 10
480.0
 20
1730.0
 30
0.0
 41
50.012451171875
 42
50.012451171875
 43
50.012451171875
 50
90.0
  0
TEXT
  5
CF
  8
H10V
 62
     0
 10
470.0
 20
1443.448779296875
 30
0.0
 40
64.98828125000011
  1
448
 50
90.0
  7
_______
1001
ACADANNOTATIVE
1000
AnnotativeData
1002
{
1070
     1
1070
     0
1002
}
  0
POINT
  5
D0
  8
DEFPOINTS
 62
     0
 10
663.0000000000076
 20
1282.0
 30
0.0
  0
POINT
  5
D1
  8
DEFPOINTS
 62
     0
 10
664.0000000000022
 20
1730.0
 30
0.0
  0
POINT
  5
D2
  8
DEFPOINTS
 62
     0
 10
480.0
 20
1730.0
 30
0.0
  0
ENDBLK
  5
67
  8
0
  0
BLOCK
  8
0
  2
*D4
 70
     1
 10
0.0
 20
0.0
 30
0.0
  3
*D4
  1

  0
LINE
  5
D3
  8
H10V
  6
CONTINUOUS
 62
     0
 10
952.3000000000076
 20
1242.0
 30
0.0
 11
952.3000000000076
 21
1100.0
 31
0.0
  0
LINE
  5
D4
  8
H10V
  6
CONTINUOUS
 62
     0
 10
659.7000000000075
 20
1242.0
 30
0.0
 11
659.7000000000075
 21
1100.0
 31
0.0
  0
LINE
  5
D5
  8
H10V
  6
CONTINUOUS
 62
     0
 10
902.2875488281326
 20
1140.0
 30
0.0
 11
709.7124511718825
 21
1140.0
 31
0.0
  0
INSERT
  5
D6
  8
H10V
 62
     0
  2
VW_EMPTYARROW
 10
952.3000000000076
 20
1140.0
 30
0.0
 41
50.012451171875
 42
50.012451171875
 43
50.012451171875
  0
INSERT
  5
DB
  8
H10V
 62
     0
  2
VW_EMPTYARROW
 10
659.7000000000075
 20
1140.0
 30
0.0
 41
50.012451171875
 42
50.012451171875
 43
50.012451171875
 50
180.0
  0
TEXT
  5
E0
  8
H10V
 62
     0
 10
700.7514785156324
 20
1150.0
 30
0.0
 40
64.98828125000011
  1
292.6
  7
_______
1001
ACADANNOTATIVE
1000
AnnotativeData
1002
{
1070
     1
1070
     0
1002
}
  0
POINT
  5
E1
  8
DEFPOINTS
 62
     0
 10
952.3000000000076
 20
1282.0
 30
0.0
  0
POINT
  5
E2
  8
DEFPOINTS
 62
     0
 10
659.7000000000075
 20
1282.0
 30
0.0
  0
POINT
  5
E3
  8
DEFPOINTS
 62
     0
 10
659.7000000000075
 20
1140.0
 30
0.0
  0
ENDBLK
  5
6A
  8
0
  0
BLOCK
  8
0
  2
*D5
 70
     1
 10
0.0
 20
0.0
 30
0.0
  3
*D5
  1

  0
LINE
  5
E4
  8
H10V
  6
CONTINUOUS
 62
     0
 10
1427.000000000008
 20
1267.0
 30
0.0
 11
1427.000000000008
 21
1157.0
 31
0.0
  0
LINE
  5
E5
  8
H10V
  6
CONTINUOUS
 62
     0
 10
1477.000000000008
 20
1267.0
 30
0.0
 11
1477.000000000008
 21
1157.0
 31
0.0
  0
LINE
  5
E6
  8
H10V
  6
CONTINUOUS
 62
     0
 10
1477.000000000008
 20
1197.0
 30
0.0
 11
1674.555921875008
 21
1197.0
 31
0.0
  0
LINE
  5
E7
  8
H10V
  6
CONTINUOUS
 62
     0
 10
1427.000000000008
 20
1197.0
 30
0.0
 11
1477.000000000008
 21
1197.0
 31
0.0
  0
LINE
  5
E8
  8
H10V
  6
CONTINUOUS
 62
     0
 10
1376.987548828133
 20
1197.0
 30
0.0
 11
1326.975097656258
 21
1197.0
 31
0.0
  0
LINE
  5
ED
  8
H10V
  6
CONTINUOUS
 62
     0
 10
1527.012451171883
 20
1197.0
 30
0.0
 11
1577.024902343758
 21
1197.0
 31
0.0
  0
INSERT
  5
F2
  8
H10V
 62
     0
  2
VW_EMPTYARROW
 10
1427.000000000008
 20
1197.0
 30
0.0
 41
50.012451171875
 42
50.012451171875
 43
50.012451171875
  0
INSERT
  5
F3
  8
H10V
 62
     0
  2
VW_EMPTYARROW
 10
1477.000000000008
 20
1197.0
 30
0.0
 41
50.012451171875
 42
50.012451171875
 43
50.012451171875
 50
180.0
  0
TEXT
  5
F4
  8
H10V
 62
     0
 10
1583.385558593758
 20
1207.0
 30
0.0
 40
64.98828125000011
  1
50
  7
_______
1001
ACADANNOTATIVE
1000
AnnotativeData
1002
{
1070
     1
1070
     0
1002
}
  0
POINT
  5
F5
  8
DEFPOINTS
 62
     0
 10
1427.000000000008
 20
1307.0
 30
0.0
  0
POINT
  5
531
  8
DEFPOINTS
 62
     0
 10
1477.000000000008
 20
1307.0
 30
0.0
  0
POINT
  5
532
  8
DEFPOINTS
 62
     0
 10
1477.000000000008
 20
1197.0
 30
0.0
  0
ENDBLK
  5
6D
  8
0
  0
BLOCK
  8
0
  2
*D6
 70
     1
 10
0.0
 20
0.0
 30
0.0
  3
*D6
  1

  0
LINE
  5
F6
  8
H10V
  6
CONTINUOUS
 62
     0
 10
806.0000000000094
 20
765.0000000000002
 30
0.0
 11
806.0000000000094
 21
656.0
 31
0.0
  0
LINE
  5
F7
  8
H10V
  6
CONTINUOUS
 62
     0
 10
686.0000000000094
 20
764.9999999999638
 30
0.0
 11
686.0000000000094
 21
656.0
 31
0.0
  0
LINE
  5
F8
  8
H10V
  6
CONTINUOUS
 62
     0
 10
686.0000000000094
 20
696.0
 30
0.0
 11
450.8158632812593
 21
696.0
 31
0.0
  0
LINE
  5
F9
  8
H10V
  6
CONTINUOUS
 62
     0
 10
806.0000000000094
 20
696.0
 30
0.0
 11
686.0000000000094
 21
696.0
 31
0.0
  0
LINE
  5
FA
  8
H10V
  6
CONTINUOUS
 62
     0
 10
856.0124511718844
 20
696.0
 30
0.0
 11
906.0249023437594
 21
696.0
 31
0.0
  0
LINE
  5
FF
  8
H10V
  6
CONTINUOUS
 62
     0
 10
635.9875488281344
 20
696.0
 30
0.0
 11
585.9750976562594
 21
696.0
 31
0.0
  0
INSERT
  5
104
  8
H10V
 62
     0
  2
VW_EMPTYARROW
 10
806.0000000000094
 20
696.0
 30
0.0
 41
50.012451171875
 42
50.012451171875
 43
50.012451171875
 50
180.0
  0
INSERT
  5
105
  8
H10V
 62
     0
  2
VW_EMPTYARROW
 10
686.0000000000094
 20
696.0
 30
0.0
 41
50.012451171875
 42
50.012451171875
 43
50.012451171875
  0
TEXT
  5
106
  8
H10V
 62
     0
 10
452.5623515625093
 20
705.9999999999999
 30
0.0
 40
64.98828125000011
  1
120
  7
_______
1001
ACADANNOTATIVE
1000
AnnotativeData
1002
{
1070
     1
1070
     0
1002
}
  0
POINT
  5
107
  8
DEFPOINTS
 62
     0
 10
806.0000000000094
 20
805.0000000000002
 30
0.0
  0
POINT
  5
53E
  8
DEFPOINTS
 62
     0
 10
686.0000000000094
 20
804.9999999999638
 30
0.0
  0
POINT
  5
53F
  8
DEFPOINTS
 62
     0
 10
686.0000000000094
 20
696.0
 30
0.0
  0
ENDBLK
  5
70
  8
0
  0
BLOCK
  8
0
  2
*D7
 70
     1
 10
0.0
 20
0.0
 30
0.0
  3
*D7
  1

  0
LINE
  5
108
  8
H10V
  6
CONTINUOUS
 62
     0
 10
926.0000000000094
 20
765.0000000000348
 30
0.0
 11
926.0000000000094
 21
654.833333333316
 31
0.0
  0
LINE
  5
109
  8
H10V
  6
CONTINUOUS
 62
     0
 10
806.0000000000094
 20
765.0000000000002
 30
0.0
 11
806.0000000000094
 21
654.833333333316
 31
0.0
  0
LINE
  5
10A
  8
H10V
  6
CONTINUOUS
 62
     0
 10
926.0000000000094
 20
694.833333333316
 30
0.0
 11
1161.18413671876
 21
694.833333333316
 31
0.0
  0
LINE
  5
10B
  8
H10V
  6
CONTINUOUS
 62
     0
 10
926.0000000000094
 20
694.833333333316
 30
0.0
 11
806.0000000000094
 21
694.833333333316
 31
0.0
  0
LINE
  5
10C
  8
H10V
  6
CONTINUOUS
 62
     0
 10
976.0124511718844
 20
694.833333333316
 30
0.0
 11
1026.02490234376
 21
694.833333333316
 31
0.0
  0
LINE
  5
111
  8
H10V
  6
CONTINUOUS
 62
     0
 10
755.9875488281344
 20
694.833333333316
 30
0.0
 11
705.9750976562594
 21
694.833333333316
 31
0.0
  0
INSERT
  5
116
  8
H10V
 62
     0
  2
VW_EMPTYARROW
 10
926.0000000000094
 20
694.833333333316
 30
0.0
 41
50.012451171875
 42
50.012451171875
 43
50.012451171875
 50
180.0
  0
INSERT
  5
117
  8
H10V
 62
     0
  2
VW_EMPTYARROW
 10
806.0000000000094
 20
694.833333333316
 30
0.0
 41
50.012451171875
 42
50.012451171875
 43
50.012451171875
  0
TEXT
  5
118
  8
H10V
 62
     0
 10
1027.771390625009
 20
704.8333333333159
 30
0.0
 40
64.98828125000011
  1
120
  7
_______
1001
ACADANNOTATIVE
1000
AnnotativeData
1002
{
1070
     1
1070
     0
1002
}
  0
POINT
  5
119
  8
DEFPOINTS
 62
     0
 10
926.0000000000094
 20
805.0000000000348
 30
0.0
  0
POINT
  5
541
  8
DEFPOINTS
 62
     0
 10
806.0000000000094
 20
805.0000000000002
 30
0.0
  0
POINT
  5
542
  8
DEFPOINTS
 62
     0
 10
806.0000000000094
 20
694.833333333316
 30
0.0
  0
ENDBLK
  5
73
  8
0
  0
BLOCK
  8
0
  2
____
 70
     0
 10
0.0
 20
0.0
 30
0.0
  3
____
  1

  0
ARC
  5
11A
  8
0
  6
CONTINUOUS
 62
     7
 10
-800.4568595934529
 20
-1120.08171671988
 30
0.0
 40
4.0
 50
0.0
 51
90.0
  0
ARC
  5
11B
  8
0
  6
CONTINUOUS
 62
     7
 10
-800.4568595934529
 20
-1120.08171671988
 30
0.0
 40
1.0
 50
0.0
 51
90.0
  0
ARC
  5
11C
  8
0
  6
CONTINUOUS
 62
     7
 10
-842.4568595934529
 20
-1120.08171671988
 30
0.0
 40
4.0
 50
90.0
 51
180.0
  0
ARC
  5
11D
  8
0
  6
CONTINUOUS
 62
     7
 10
-842.4568595934529
 20
-1120.08171671988
 30
0.0
 40
1.0
 50
90.0
 51
180.0
  0
ARC
  5
11E
  8
0
  6
CONTINUOUS
 62
     7
 10
-821.4568595934529
 20
-1539.08171671988
 30
0.0
 40
25.0
 50
270.0
 51
0.0
  0
ARC
  5
11F
  8
0
  6
CONTINUOUS
 62
     7
 10
-821.4568595934529
 20
-1539.08171671988
 30
0.0
 40
25.0
 50
180.0
 51
270.0
  0
LINE
  5
120
  8
0
  6
CONTINUOUS
 62
     7
 10
-846.4568595934529
 20
-1539.08171671988
 30
0.0
 11
-846.4568595934529
 21
-1120.08171671988
 31
0.0
  0
LINE
  5
121
  8
0
  6
CONTINUOUS
 62
     7
 10
-796.4568595934529
 20
-1539.08171671988
 30
0.0
 11
-796.4568595934529
 21
-1120.08171671988
 31
0.0
  0
LINE
  5
122
  8
0
  6
CONTINUOUS
 62
     7
 10
-846.4568595934529
 20
-1120.08171671988
 30
0.0
 11
-842.4568595934529
 21
-1120.08171671988
 31
0.0
  0
LINE
  5
123
  8
0
  6
CONTINUOUS
 62
     7
 10
-842.4568595934529
 20
-1116.08171671988
 30
0.0
 11
-800.4568595934529
 21
-1116.08171671988
 31
0.0
  0
LINE
  5
124
  8
0
  6
CONTINUOUS
 62
     7
 10
-800.4568595934529
 20
-1120.08171671988
 30
0.0
 11
-796.4568595934529
 21
-1120.08171671988
 31
0.0
  0
LINE
  5
125
  8
0
  6
CONTINUOUS
 62
     7
 10
-842.4568595934529
 20
-1116.08171671988
 30
0.0
 11
-842.4568595934529
 21
-1120.08171671988
 31
0.0
  0
LINE
  5
126
  8
0
  6
CONTINUOUS
 62
     7
 10
-800.4568595934529
 20
-1120.08171671988
 30
0.0
 11
-800.4568595934529
 21
-1116.08171671988
 31
0.0
  0
CIRCLE
  5
127
  8
0
  6
CONTINUOUS
 62
     7
 10
-821.4568595934529
 20
-1469.08171671988
 30
0.0
 40
4.900000000000055
  0
CIRCLE
  5
128
  8
0
  6
CONTINUOUS
 62
     7
 10
-821.4568595934529
 20
-1469.08171671988
 30
0.0
 40
4.399999999999971
  0
CIRCLE
  5
129
  8
0
  6
CONTINUOUS
 62
     7
 10
-821.4568595934529
 20
-1539.08171671988
 30
0.0
 40
4.900000000000055
  0
CIRCLE
  5
12A
  8
0
  6
CONTINUOUS
 62
     7
 10
-821.4568595934529
 20
-1539.08171671988
 30
0.0
 40
4.399999999999971
  0
ENDBLK
  5
76
  8
0
  0
BLOCK
  8
0
  2
____-1
 70
     0
 10
0.0
 20
0.0
 30
0.0
  3
____-1
  1

  0
LINE
  5
12B
  8
0
  6
CONTINUOUS
 62
     7
 10
-491.4568595934575
 20
-1801.58171671988
 30
0.0
 11
-491.4568595934575
 21
-1211.33171671988
 31
0.0
  0
LINE
  5
12C
  8
0
  6
CONTINUOUS
 62
     7
 10
-491.4568595934575
 20
-1866.83171671988
 30
0.0
 11
-491.4568595934575
 21
-1841.58171671988
 31
0.0
  0
LINE
  5
12D
  8
0
  6
CONTINUOUS
 62
     7
 10
-451.4568595934575
 20
-1798.943218293314
 30
0.0
 11
-451.4568595934575
 21
-1866.83171671988
 31
0.0
  0
LINE
  5
12E
  8
0
  6
CONTINUOUS
 62
     7
 10
-451.4568595934575
 20
-1866.83171671988
 30
0.0
 11
-468.4494246235313
 21
-1866.83171671988
 31
0.0
  0
ARC
  5
12F
  8
0
  6
CONTINUOUS
 62
     7
 10
-874.4568595934593
 20
-1539.08171671988
 30
0.0
 40
469.000000000002
 50
339.923281643519
 51
20.07671835648097
  0
ARC
  5
130
  8
0
  6
CONTINUOUS
 62
     7
 10
-163.4568595934384
 20
-1798.943218293315
 30
0.0
 40
288.0000000000178
 50
159.923281643519
 51
180.0
  0
ARC
  5
131
  8
0
  6
CONTINUOUS
 62
     7
 10
-163.4568595934584
 20
-1279.220215146446
 30
0.0
 40
287.9999999999973
 50
180.0
 51
200.076718356481
  0
ARC
  5
132
  8
0
  6
CONTINUOUS
 62
     7
 10
-461.4568595934575
 20
-1828.831716719881
 30
0.0
 40
3.5
 50
179.9999999999479
 51
359.9999999999479
  0
ARC
  5
133
  8
0
  6
CONTINUOUS
 62
     7
 10
-415.9568595934575
 20
-1539.08171671988
 30
0.0
 40
3.5
 50
180.0
 51
0.0
  0
LINE
  5
134
  8
0
  6
CONTINUOUS
 62
     7
 10
-451.4568595934575
 20
-1211.33171671988
 30
0.0
 11
-451.4568595934575
 21
-1279.220215146445
 31
0.0
  0
ARC
  5
135
  8
0
  6
CONTINUOUS
 62
     7
 10
-461.4568595934575
 20
-1249.331716719881
 30
0.0
 40
3.5
 50
180.0
 51
0.0
  0
LINE
  5
136
  8
0
  6
CONTINUOUS
 62
     7
 10
-451.4568595934575
 20
-1211.33171671988
 30
0.0
 11
-468.4494246235313
 21
-1211.33171671988
 31
0.0
  0
LINE
  5
137
  8
0
  6
CONTINUOUS
 62
     7
 10
-491.2741966186782
 20
-1841.58171671988
 30
0.0
 11
-491.2741966186782
 21
-1801.58171671988
 31
0.0
  0
LINE
  5
138
  8
0
  6
CONTINUOUS
 62
     7
 10
-450.4568595934556
 20
-1798.943218293314
 30
0.0
 11
-450.4568595934556
 21
-1864.081716719881
 31
0.0
  0
LINE
  5
139
  8
0
  6
CONTINUOUS
 62
     7
 10
-450.4568595934575
 20
-1214.081716719881
 30
0.0
 11
-450.4568595934575
 21
-1279.220215146445
 31
0.0
  0
LINE
  5
13A
  8
0
  6
CONTINUOUS
 62
     7
 10
-248.816598153689
 20
-1864.081716719881
 30
0.0
 11
-450.4568595934575
 21
-1864.081716719881
 31
0.0
  0
LINE
  5
13B
  8
0
  6
CONTINUOUS
 62
     7
 10
-232.9165981536858
 20
-1214.081716719881
 30
0.0
 11
-232.9165981536858
 21
-1864.08171671988
 31
0.0
  0
LINE
  5
13C
  8
0
  6
CONTINUOUS
 62
     7
 10
-450.4568595934575
 20
-1864.081716719881
 30
0.0
 11
-451.4568595934575
 21
-1864.081716719881
 31
0.0
  0
LINE
  5
13D
  8
0
  6
CONTINUOUS
 62
     7
 10
-248.8165981536881
 20
-1214.081716719881
 30
0.0
 11
-296.4568595934529
 21
-1214.081716719881
 31
0.0
  0
LINE
  5
13E
  8
0
  6
CONTINUOUS
 62
     7
 10
-346.4568595934529
 20
-1214.081716719881
 30
0.0
 11
-450.4568595934575
 21
-1214.081716719881
 31
0.0
  0
LINE
  5
13F
  8
0
  6
CONTINUOUS
 62
     7
 10
-450.4568595934575
 20
-1214.081716719881
 30
0.0
 11
-451.4568595934575
 21
-1214.081716719881
 31
0.0
  0
ARC
  5
140
  8
0
  6
CONTINUOUS
 62
     7
 10
-461.4568595934575
 20
-1828.83171671988
 30
0.0
 40
3.5
 50
0.0
 51
179.9999999999479
  0
LINE
  5
141
  8
0
  6
CONTINUOUS
 62
     7
 10
-127.0533169529122
 20
-1633.08171671988
 30
0.0
 11
-122.8487366015811
 21
-1633.08171671988
 31
0.0
  0
LINE
  5
142
  8
0
  6
CONTINUOUS
 62
     7
 10
-122.8487366015811
 20
-1214.081716719881
 30
0.0
 11
-122.8487366015811
 21
-1633.08171671988
 31
0.0
  0
ARC
  5
143
  8
0
  6
CONTINUOUS
 62
     7
 10
-415.9568595934575
 20
-1539.08171671988
 30
0.0
 40
3.5
 50
0.0
 51
180.0
  0
LINE
  5
144
  8
0
  6
CONTINUOUS
 62
     7
 10
-127.0533169529122
 20
-1864.081716719876
 30
0.0
 11
-120.7603084474254
 21
-1864.08171671988
 31
0.0
  0
ARC
  5
145
  8
0
  6
CONTINUOUS
 62
     7
 10
-461.4568595934575
 20
-1249.331716719878
 30
0.0
 40
3.5
 50
0.0
 51
180.0
  0
ARC
  5
146
  8
0
  6
CONTINUOUS
 62
     7
 10
-874.4568595934484
 20
-1539.08171671988
 30
0.0
 40
469.9999999999913
 50
339.923281643519
 51
20.07671835648102
  0
LINE
  5
147
  8
0
  6
CONTINUOUS
 62
     7
 10
-127.0533169529122
 20
-1633.08171671988
 30
0.0
 11
-127.0533169529122
 21
-1864.081716719876
 31
0.0
  0
ARC
  5
148
  8
0
  6
CONTINUOUS
 62
     7
 10
-163.4568595934438
 20
-1798.943218293315
 30
0.0
 40
287.0000000000131
 50
159.923281643519
 51
180.0
  0
LINE
  5
149
  8
0
  6
CONTINUOUS
 62
     7
 10
-122.8487366015811
 20
-1214.081716719881
 30
0.0
 11
-120.7603084474254
 21
-1214.081716719881
 31
0.0
  0
ARC
  5
14A
  8
0
  6
CONTINUOUS
 62
     7
 10
-163.4568595934438
 20
-1279.220215146443
 30
0.0
 40
287.0000000000118
 50
180.0
 51
200.0767183564811
  0
LINE
  5
14B
  8
0
  6
CONTINUOUS
 62
     7
 10
-115.3308251584881
 20
-1641.094580571495
 30
0.0
 11
-115.3308251584926
 21
-1214.081716719881
 31
0.0
  0
LINE
  5
14C
  8
0
  6
CONTINUOUS
 62
     7
 10
-115.3308251584926
 20
-1864.081716719878
 30
0.0
 11
-115.3308251584881
 21
-1755.068852868262
 31
0.0
  0
LINE
  5
14D
  8
0
  6
CONTINUOUS
 62
     7
 10
-120.7603084474254
 20
-1646.524063860433
 30
0.0
 11
-124.3179613068701
 21
-1650.081716719878
 31
0.0
  0
LINE
  5
14E
  8
0
  6
CONTINUOUS
 62
     7
 10
-124.3179613068701
 20
-1746.081716719878
 30
0.0
 11
-124.3179613068701
 21
-1650.081716719878
 31
0.0
  0
LINE
  5
14F
  8
0
  6
CONTINUOUS
 62
     7
 10
-124.3179613068701
 20
-1746.081716719878
 30
0.0
 11
-120.7603084474254
 21
-1749.639369579324
 31
0.0
  0
LINE
  5
150
  8
0
  6
CONTINUOUS
 62
     7
 10
-232.9165981536858
 20
-1214.081716719881
 30
0.0
 11
-232.9165981536858
 21
-1864.08171671988
 31
0.0
  0
LINE
  5
151
  8
0
  6
CONTINUOUS
 62
     7
 10
-221.2769903133435
 20
-1214.08171671988
 30
0.0
 11
-122.8487366015802
 21
-1214.081716719881
 31
0.0
  0
LINE
  5
152
  8
0
  6
CONTINUOUS
 62
     7
 10
-122.8487366015802
 20
-1214.081716719881
 30
0.0
 11
-122.8487366015811
 21
-1633.08171671988
 31
0.0
  0
LINE
  5
153
  8
0
  6
CONTINUOUS
 62
     7
 10
-127.0533169529122
 20
-1633.08171671988
 30
0.0
 11
-122.8487366015802
 21
-1633.08171671988
 31
0.0
  0
LINE
  5
154
  8
0
  6
CONTINUOUS
 62
     7
 10
-127.0533169529122
 20
-1864.08171671988
 30
0.0
 11
-127.0533169529122
 21
-1633.08171671988
 31
0.0
  0
LINE
  5
155
  8
0
  6
CONTINUOUS
 62
     7
 10
-127.0533169529122
 20
-1864.08171671988
 30
0.0
 11
-221.2769903133435
 21
-1864.08171671988
 31
0.0
  0
LINE
  5
156
  8
0
  6
CONTINUOUS
 62
     7
 10
-112.7218326744955
 20
-1876.081716719878
 30
0.0
 11
-112.7218326744955
 21
-1864.081716719878
 31
0.0
  0
LINE
  5
157
  8
0
  6
CONTINUOUS
 62
     7
 10
-488.4568595934556
 20
-1867.831716719874
 30
0.0
 11
-488.4568595934556
 21
-1866.83171671988
 31
0.0
  0
LINE
  5
158
  8
0
  6
CONTINUOUS
 62
     7
 10
-492.4568595934593
 20
-1876.081716719878
 30
0.0
 11
-492.4568595934593
 21
-1867.831716719876
 31
0.0
  0
CIRCLE
  5
159
  8
0
  6
CONTINUOUS
 62
     7
 10
-395.9568595934566
 20
-1489.067503647689
 30
0.0
 40
3.0
  0
CIRCLE
  5
15A
  8
0
  6
CONTINUOUS
 62
     7
 10
-360.9568595934566
 20
-1539.067503647689
 30
0.0
 40
3.0
  0
CIRCLE
  5
15B
  8
0
  6
CONTINUOUS
 62
     7
 10
-395.9568595934566
 20
-1589.067503647689
 30
0.0
 40
3.0
  0
CIRCLE
  5
15C
  8
0
  6
CONTINUOUS
 62
     7
 10
-360.9568595934566
 20
-1539.067503647689
 30
0.0
 40
6.5
  0
CIRCLE
  5
15D
  8
0
  6
CONTINUOUS
 62
     7
 10
-395.9568595934566
 20
-1489.067503647689
 30
0.0
 40
6.5
  0
CIRCLE
  5
15E
  8
0
  6
CONTINUOUS
 62
     7
 10
-395.9568595934566
 20
-1589.067503647689
 30
0.0
 40
6.5
  0
LINE
  5
15F
  8
0
  6
CONTINUOUS
 62
     7
 10
-180.9076095844453
 20
-1876.081716719878
 30
0.0
 11
-120.760308447429
 21
-1876.081716719874
 31
0.0
  0
LINE
  5
160
  8
0
  6
CONTINUOUS
 62
     7
 10
-180.9076095844425
 20
-1873.081716719878
 30
0.0
 11
-221.2769903133426
 21
-1873.081716719878
 31
0.0
  0
LINE
  5
161
  8
0
  6
CONTINUOUS
 62
     7
 10
-120.760308447429
 20
-1864.081716719878
 30
0.0
 11
-221.2769903133417
 21
-1864.081716719878
 31
0.0
  0
LINE
  5
162
  8
0
  6
CONTINUOUS
 62
     7
 10
-450.4568595934575
 20
-1864.081716719878
 30
0.0
 11
-451.4568595934575
 21
-1864.081716719878
 31
0.0
  0
LINE
  5
163
  8
0
  6
CONTINUOUS
 62
     7
 10
-248.8165981536872
 20
-1873.081716719878
 30
0.0
 11
-418.4494246235349
 21
-1873.081716719878
 31
0.0
  0
LINE
  5
164
  8
0
  6
CONTINUOUS
 62
     7
 10
-418.4494246235349
 20
-1873.081716719878
 30
0.0
 11
-418.4494246235349
 21
-1876.081716719876
 31
0.0
  0
LINE
  5
165
  8
0
  6
CONTINUOUS
 62
     7
 10
-468.4494246235349
 20
-1876.081716719874
 30
0.0
 11
-418.4494246235349
 21
-1876.081716719874
 31
0.0
  0
LINE
  5
166
  8
0
  6
CONTINUOUS
 62
     7
 10
-468.4494246235349
 20
-1867.831716719874
 30
0.0
 11
-450.4568595934575
 21
-1867.831716719874
 31
0.0
  0
LINE
  5
167
  8
0
  6
CONTINUOUS
 62
     7
 10
-450.4568595934575
 20
-1867.831716719874
 30
0.0
 11
-450.4568595934556
 21
-1864.081716719878
 31
0.0
  0
LINE
  5
168
  8
0
  6
CONTINUOUS
 62
     7
 10
-248.8165981536872
 20
-1864.081716719878
 30
0.0
 11
-450.4568595934556
 21
-1864.081716719878
 31
0.0
  0
LINE
  5
169
  8
0
  6
CONTINUOUS
 62
     7
 10
-112.7218326744955
 20
-1214.081716719878
 30
0.0
 11
-112.7218326744955
 21
-1202.081716719879
 31
0.0
  0
LINE
  5
16A
  8
0
  6
CONTINUOUS
 62
     7
 10
-492.4568595934593
 20
-1210.33171671988
 30
0.0
 11
-492.4568595934593
 21
-1202.081716719878
 31
0.0
  0
LINE
  5
16B
  8
0
  6
CONTINUOUS
 62
     7
 10
-488.4568595934556
 20
-1211.33171671988
 30
0.0
 11
-488.4568595934556
 21
-1210.33171671988
 31
0.0
  0
LINE
  5
16C
  8
0
  6
CONTINUOUS
 62
     7
 10
-180.9076095844453
 20
-1202.081716719878
 30
0.0
 11
-120.760308447429
 21
-1202.081716719879
 31
0.0
  0
LINE
  5
16D
  8
0
  6
CONTINUOUS
 62
     7
 10
-418.4494246235349
 20
-1205.081716719878
 30
0.0
 11
-418.4494246235349
 21
-1202.08171671988
 31
0.0
  0
LINE
  5
16E
  8
0
  6
CONTINUOUS
 62
     7
 10
-468.4494246235349
 20
-1202.08171671988
 30
0.0
 11
-418.4494246235349
 21
-1202.08171671988
 31
0.0
  0
LINE
  5
16F
  8
0
  6
CONTINUOUS
 62
     7
 10
-180.9076095844425
 20
-1205.081716719878
 30
0.0
 11
-221.2769903133426
 21
-1205.081716719878
 31
0.0
  0
LINE
  5
170
  8
0
  6
CONTINUOUS
 62
     7
 10
-248.8165981536872
 20
-1205.081716719878
 30
0.0
 11
-296.4568595934529
 21
-1205.081716719878
 31
0.0
  0
LINE
  5
171
  8
0
  6
CONTINUOUS
 62
     7
 10
-346.4568595934529
 20
-1205.081716719878
 30
0.0
 11
-418.4494246235349
 21
-1205.081716719878
 31
0.0
  0
LINE
  5
172
  8
0
  6
CONTINUOUS
 62
     7
 10
-468.4494246235349
 20
-1210.33171671988
 30
0.0
 11
-450.4568595934575
 21
-1210.33171671988
 31
0.0
  0
LINE
  5
173
  8
0
  6
CONTINUOUS
 62
     7
 10
-450.4568595934575
 20
-1210.33171671988
 30
0.0
 11
-450.4568595934556
 21
-1214.081716719878
 31
0.0
  0
LINE
  5
174
  8
0
  6
CONTINUOUS
 62
     7
 10
-450.4568595934575
 20
-1214.081716719878
 30
0.0
 11
-451.4568595934575
 21
-1214.081716719878
 31
0.0
  0
LINE
  5
175
  8
0
  6
CONTINUOUS
 62
     7
 10
-248.8165981536872
 20
-1214.081716719878
 30
0.0
 11
-296.4568595934529
 21
-1214.081716719878
 31
0.0
  0
LINE
  5
176
  8
0
  6
CONTINUOUS
 62
     7
 10
-346.4568595934529
 20
-1214.081716719878
 30
0.0
 11
-450.4568595934556
 21
-1214.081716719878
 31
0.0
  0
LINE
  5
177
  8
0
  6
CONTINUOUS
 62
     7
 10
-120.760308447429
 20
-1214.081716719878
 30
0.0
 11
-221.2769903133417
 21
-1214.081716719878
 31
0.0
  0
LINE
  5
178
  8
0
  6
CONTINUOUS
 62
     7
 10
-115.3308251584881
 20
-1641.094580571496
 30
0.0
 11
-120.7603084474254
 21
-1646.524063860433
 31
0.0
  0
LINE
  5
179
  8
0
  6
CONTINUOUS
 62
     7
 10
-115.3308251584881
 20
-1755.06885286826
 30
0.0
 11
-120.7603084474254
 21
-1749.639369579323
 31
0.0
  0
LINE
  5
17A
  8
0
  6
CONTINUOUS
 62
     7
 10
-484.3458983451214
 20
-1211.33171671988
 30
0.0
 11
-468.4494246235313
 21
-1211.33171671988
 31
0.0
  0
LINE
  5
17B
  8
0
  6
CONTINUOUS
 62
     7
 10
-484.3458983451214
 20
-1866.83171671988
 30
0.0
 11
-468.4494246235313
 21
-1866.83171671988
 31
0.0
  0
LINE
  5
17C
  8
0
  6
CONTINUOUS
 62
     7
 10
-491.4568595934575
 20
-1801.58171671988
 30
0.0
 11
-491.2741966186709
 21
-1801.58171671988
 31
0.0
  0
LINE
  5
17D
  8
0
  6
CONTINUOUS
 62
     7
 10
-491.2741966186709
 20
-1841.58171671988
 30
0.0
 11
-491.4568595934575
 21
-1841.58171671988
 31
0.0
  0
LINE
  5
17E
  8
0
  6
CONTINUOUS
 62
     7
 10
-491.4568595934575
 20
-1866.83171671988
 30
0.0
 11
-484.3458983452415
 21
-1866.83171671988
 31
0.0
  0
LINE
  5
17F
  8
0
  6
CONTINUOUS
 62
     7
 10
-491.4568595934575
 20
-1211.33171671988
 30
0.0
 11
-484.3458983452415
 21
-1211.33171671988
 31
0.0
  0
LINE
  5
180
  8
0
  6
CONTINUOUS
 62
     7
 10
-248.8165981536881
 20
-1864.081716719881
 30
0.0
 11
-232.9165981536848
 21
-1864.081716719881
 31
0.0
  0
LINE
  5
181
  8
0
  6
CONTINUOUS
 62
     7
 10
-232.9165981536839
 20
-1214.081716719881
 30
0.0
 11
-248.8165981536881
 21
-1214.081716719881
 31
0.0
  0
LINE
  5
182
  8
0
  6
CONTINUOUS
 62
     7
 10
-115.3308251584881
 20
-1214.081716719881
 30
0.0
 11
-120.7603084474299
 21
-1214.081716719881
 31
0.0
  0
LINE
  5
183
  8
0
  6
CONTINUOUS
 62
     7
 10
-115.3308251584872
 20
-1864.081716719878
 30
0.0
 11
-120.7603084474326
 21
-1864.081716719878
 31
0.0
  0
POLYLINE
  5
184
  8
0
  6
CONTINUOUS
 62
     7
 66
     1
 10
0.0
 20
0.0
 30
0.0
 70
   128
  0
VERTEX
  5
185
  8
0
  6
CONTINUOUS
 62
     7
 10
-168.2473680882754
 20
-1249.590985524775
 30
0.0
  0
VERTEX
  5
186
  8
0
  6
CONTINUOUS
 62
     7
 10
-168.1089175241937
 20
-1249.581732122929
 30
0.0
  0
VERTEX
  5
187
  8
0
  6
CONTINUOUS
 62
     7
 10
-167.9669796519097
 20
-1249.589950848407
 30
0.0
  0
VERTEX
  5
188
  8
0
  6
CONTINUOUS
 62
     7
 10
-167.8222991957814
 20
-1249.61688081111
 30
0.0
  0
VERTEX
  5
189
  8
0
  6
CONTINUOUS
 62
     7
 10
-167.6757321065584
 20
-1249.663610308739
 30
0.0
  0
VERTEX
  5
18A
  8
0
  6
CONTINUOUS
 62
     7
 10
-167.5282375366337
 20
-1249.731032624174
 30
0.0
  0
VERTEX
  5
18B
  8
0
  6
CONTINUOUS
 62
     7
 10
-167.3808648837107
 20
-1249.819803162633
 30
0.0
  0
VERTEX
  5
18C
  8
0
  6
CONTINUOUS
 62
     7
 10
-167.2347358490001
 20
-1249.930300401261
 30
0.0
  0
VERTEX
  5
18D
  8
0
  6
CONTINUOUS
 62
     7
 10
-167.0910218035983
 20
-1250.062593255264
 30
0.0
  0
VERTEX
  5
18E
  8
0
  6
CONTINUOUS
 62
     7
 10
-166.9509171374098
 20
-1250.216417377571
 30
0.0
  0
VERTEX
  5
18F
  8
0
  6
CONTINUOUS
 62
     7
 10
-166.8156096404359
 20
-1250.391162573764
 30
0.0
  0
VERTEX
  5
190
  8
0
  6
CONTINUOUS
 62
     7
 10
-166.6862492918258
 20
-1250.585872931188
 30
0.0
  0
VERTEX
  5
191
  8
0
  6
CONTINUOUS
 62
     7
 10
-166.5639170629133
 20
-1250.799260466879
 30
0.0
  0
VERTEX
  5
192
  8
0
  6
CONTINUOUS
 62
     7
 10
-166.4540032885348
 20
-1251.020207819568
 30
0.0
  0
VERTEX
  5
193
  8
0
  6
CONTINUOUS
 62
     7
 10
-166.3522344433954
 20
-1251.255260921723
 30
0.0
  0
VERTEX
  5
194
  8
0
  6
CONTINUOUS
 62
     7
 10
-166.259248788791
 20
-1251.50259367197
 30
0.0
  0
VERTEX
  5
195
  8
0
  6
CONTINUOUS
 62
     7
 10
-166.1755483865286
 20
-1251.760240791607
 30
0.0
  0
VERTEX
  5
196
  8
0
  6
CONTINUOUS
 62
     7
 10
-166.1014913628546
 20
-1252.026147700351
 30
0.0
  0
VERTEX
  5
197
  8
0
  6
CONTINUOUS
 62
     7
 10
-166.0372894629022
 20
-1252.298221408991
 30
0.0
  0
VERTEX
  5
198
  8
0
  6
CONTINUOUS
 62
     7
 10
-165.9830107181365
 20
-1252.574379948524
 30
0.0
  0
VERTEX
  5
199
  8
0
  6
CONTINUOUS
 62
     7
 10
-165.9244326213316
 20
-1252.957063543712
 30
0.0
  0
VERTEX
  5
19A
  8
0
  6
CONTINUOUS
 62
     7
 10
-165.8839124521851
 20
-1253.338709326201
 30
0.0
  0
VERTEX
  5
19B
  8
0
  6
CONTINUOUS
 62
     7
 10
-165.8605193473281
 20
-1253.71487268727
 30
0.0
  0
VERTEX
  5
19C
  8
0
  6
CONTINUOUS
 62
     7
 10
-165.8530305209756
 20
-1254.081716719877
 30
0.0
  0
VERTEX
  5
19D
  8
0
  6
CONTINUOUS
 62
     7
 10
-165.8607986559332
 20
-1254.455327551566
 30
0.0
  0
VERTEX
  5
19E
  8
0
  6
CONTINUOUS
 62
     7
 10
-165.885079229754
 20
-1254.838531280436
 30
0.0
  0
VERTEX
  5
19F
  8
0
  6
CONTINUOUS
 62
     7
 10
-165.9271553288668
 20
-1255.227259645066
 30
0.0
  0
VERTEX
  5
1A0
  8
0
  6
CONTINUOUS
 62
     7
 10
-165.9879929759022
 20
-1255.616794806398
 30
0.0
  0
VERTEX
  5
1A1
  8
0
  6
CONTINUOUS
 62
     7
 10
-166.0681509666142
 20
-1256.00188879471
 30
0.0
  0
VERTEX
  5
1A2
  8
0
  6
CONTINUOUS
 62
     7
 10
-166.1447532406323
 20
-1256.29770416866
 30
0.0
  0
VERTEX
  5
1A3
  8
0
  6
CONTINUOUS
 62
     7
 10
-166.2331445956311
 20
-1256.58453643068
 30
0.0
  0
VERTEX
  5
1A4
  8
0
  6
CONTINUOUS
 62
     7
 10
-166.3329165653636
 20
-1256.859627146184
 30
0.0
  0
VERTEX
  5
1A5
  8
0
  6
CONTINUOUS
 62
     7
 10
-166.4434483340751
 20
-1257.120326247224
 30
0.0
  0
VERTEX
  5
1A6
  8
0
  6
CONTINUOUS
 62
     7
 10
-166.5639170629133
 20
-1257.364172972875
 30
0.0
  0
VERTEX
  5
1A7
  8
0
  6
CONTINUOUS
 62
     7
 10
-166.6862492918258
 20
-1257.577560508566
 30
0.0
  0
VERTEX
  5
1A8
  8
0
  6
CONTINUOUS
 62
     7
 10
-166.8156096404359
 20
-1257.77227086599
 30
0.0
  0
VERTEX
  5
1A9
  8
0
  6
CONTINUOUS
 62
     7
 10
-166.9509171374098
 20
-1257.947016062183
 30
0.0
  0
VERTEX
  5
1AA
  8
0
  6
CONTINUOUS
 62
     7
 10
-167.0910218035983
 20
-1258.100840184491
 30
0.0
  0
VERTEX
  5
1AB
  8
0
  6
CONTINUOUS
 62
     7
 10
-167.2347358489992
 20
-1258.233133038493
 30
0.0
  0
VERTEX
  5
1AC
  8
0
  6
CONTINUOUS
 62
     7
 10
-167.3808648837107
 20
-1258.343630277121
 30
0.0
  0
VERTEX
  5
1AD
  8
0
  6
CONTINUOUS
 62
     7
 10
-167.5282375366337
 20
-1258.43240081558
 30
0.0
  0
VERTEX
  5
1AE
  8
0
  6
CONTINUOUS
 62
     7
 10
-167.6757321065575
 20
-1258.499823131016
 30
0.0
  0
VERTEX
  5
1AF
  8
0
  6
CONTINUOUS
 62
     7
 10
-167.8222991957814
 20
-1258.546552628644
 30
0.0
  0
VERTEX
  5
1B0
  8
0
  6
CONTINUOUS
 62
     7
 10
-167.9669796519097
 20
-1258.573482591347
 30
0.0
  0
VERTEX
  5
1B1
  8
0
  6
CONTINUOUS
 62
     7
 10
-168.1089175241937
 20
-1258.581701316825
 30
0.0
  0
VERTEX
  5
1B2
  8
0
  6
CONTINUOUS
 62
     7
 10
-168.2473680882745
 20
-1258.572447914979
 30
0.0
  0
SEQEND
  5
1B3
  8
0
  6
CONTINUOUS
 62
     7
  0
POLYLINE
  5
1B4
  8
0
  6
CONTINUOUS
 62
     7
 66
     1
 10
0.0
 20
0.0
 30
0.0
 70
   128
  0
VERTEX
  5
1B5
  8
0
  6
CONTINUOUS
 62
     7
 10
-168.247368088279
 20
-1819.590985524787
 30
0.0
  0
VERTEX
  5
1B6
  8
0
  6
CONTINUOUS
 62
     7
 10
-168.1089175241973
 20
-1819.581732122941
 30
0.0
  0
VERTEX
  5
1B7
  8
0
  6
CONTINUOUS
 62
     7
 10
-167.9669796519133
 20
-1819.589950848419
 30
0.0
  0
VERTEX
  5
1B8
  8
0
  6
CONTINUOUS
 62
     7
 10
-167.822299195785
 20
-1819.616880811122
 30
0.0
  0
VERTEX
  5
1B9
  8
0
  6
CONTINUOUS
 62
     7
 10
-167.6757321065611
 20
-1819.66361030875
 30
0.0
  0
VERTEX
  5
1BA
  8
0
  6
CONTINUOUS
 62
     7
 10
-167.5282375366373
 20
-1819.731032624186
 30
0.0
  0
VERTEX
  5
1BB
  8
0
  6
CONTINUOUS
 62
     7
 10
-167.3808648837144
 20
-1819.819803162645
 30
0.0
  0
VERTEX
  5
1BC
  8
0
  6
CONTINUOUS
 62
     7
 10
-167.2347358490038
 20
-1819.930300401273
 30
0.0
  0
VERTEX
  5
1BD
  8
0
  6
CONTINUOUS
 62
     7
 10
-167.091021803602
 20
-1820.062593255276
 30
0.0
  0
VERTEX
  5
1BE
  8
0
  6
CONTINUOUS
 62
     7
 10
-166.9509171374134
 20
-1820.216417377583
 30
0.0
  0
VERTEX
  5
1BF
  8
0
  6
CONTINUOUS
 62
     7
 10
-166.8156096404387
 20
-1820.391162573775
 30
0.0
  0
VERTEX
  5
1C0
  8
0
  6
CONTINUOUS
 62
     7
 10
-166.6862492918294
 20
-1820.585872931199
 30
0.0
  0
VERTEX
  5
1C1
  8
0
  6
CONTINUOUS
 62
     7
 10
-166.563917062917
 20
-1820.799260466891
 30
0.0
  0
VERTEX
  5
1C2
  8
0
  6
CONTINUOUS
 62
     7
 10
-166.4540032885384
 20
-1821.02020781958
 30
0.0
  0
VERTEX
  5
1C3
  8
0
  6
CONTINUOUS
 62
     7
 10
-166.3522344433991
 20
-1821.255260921734
 30
0.0
  0
VERTEX
  5
1C4
  8
0
  6
CONTINUOUS
 62
     7
 10
-166.2592487887946
 20
-1821.502593671982
 30
0.0
  0
VERTEX
  5
1C5
  8
0
  6
CONTINUOUS
 62
     7
 10
-166.1755483865313
 20
-1821.760240791619
 30
0.0
  0
VERTEX
  5
1C6
  8
0
  6
CONTINUOUS
 62
     7
 10
-166.1014913628583
 20
-1822.026147700363
 30
0.0
  0
VERTEX
  5
1C7
  8
0
  6
CONTINUOUS
 62
     7
 10
-166.0372894629049
 20
-1822.298221409003
 30
0.0
  0
VERTEX
  5
1C8
  8
0
  6
CONTINUOUS
 62
     7
 10
-165.9830107181401
 20
-1822.574379948535
 30
0.0
  0
VERTEX
  5
1C9
  8
0
  6
CONTINUOUS
 62
     7
 10
-165.9244326213352
 20
-1822.957063543723
 30
0.0
  0
VERTEX
  5
1CA
  8
0
  6
CONTINUOUS
 62
     7
 10
-165.8839124521887
 20
-1823.338709326212
 30
0.0
  0
VERTEX
  5
1CB
  8
0
  6
CONTINUOUS
 62
     7
 10
-165.8605193473318
 20
-1823.714872687281
 30
0.0
  0
VERTEX
  5
1CC
  8
0
  6
CONTINUOUS
 62
     7
 10
-165.8530305209792
 20
-1824.081716719889
 30
0.0
  0
VERTEX
  5
1CD
  8
0
  6
CONTINUOUS
 62
     7
 10
-165.8607986559368
 20
-1824.455327551577
 30
0.0
  0
VERTEX
  5
1CE
  8
0
  6
CONTINUOUS
 62
     7
 10
-165.8850792297576
 20
-1824.838531280448
 30
0.0
  0
VERTEX
  5
1CF
  8
0
  6
CONTINUOUS
 62
     7
 10
-165.9271553288704
 20
-1825.227259645077
 30
0.0
  0
VERTEX
  5
1D0
  8
0
  6
CONTINUOUS
 62
     7
 10
-165.9879929759059
 20
-1825.616794806409
 30
0.0
  0
VERTEX
  5
1D1
  8
0
  6
CONTINUOUS
 62
     7
 10
-166.0681509666178
 20
-1826.001888794721
 30
0.0
  0
VERTEX
  5
1D2
  8
0
  6
CONTINUOUS
 62
     7
 10
-166.144753240636
 20
-1826.297704168671
 30
0.0
  0
VERTEX
  5
1D3
  8
0
  6
CONTINUOUS
 62
     7
 10
-166.2331445956347
 20
-1826.584536430692
 30
0.0
  0
VERTEX
  5
1D4
  8
0
  6
CONTINUOUS
 62
     7
 10
-166.3329165653672
 20
-1826.859627146196
 30
0.0
  0
VERTEX
  5
1D5
  8
0
  6
CONTINUOUS
 62
     7
 10
-166.4434483340788
 20
-1827.120326247235
 30
0.0
  0
VERTEX
  5
1D6
  8
0
  6
CONTINUOUS
 62
     7
 10
-166.563917062917
 20
-1827.364172972887
 30
0.0
  0
VERTEX
  5
1D7
  8
0
  6
CONTINUOUS
 62
     7
 10
-166.6862492918294
 20
-1827.577560508578
 30
0.0
  0
VERTEX
  5
1D8
  8
0
  6
CONTINUOUS
 62
     7
 10
-166.8156096404396
 20
-1827.772270866002
 30
0.0
  0
VERTEX
  5
1D9
  8
0
  6
CONTINUOUS
 62
     7
 10
-166.9509171374134
 20
-1827.947016062195
 30
0.0
  0
VERTEX
  5
1DA
  8
0
  6
CONTINUOUS
 62
     7
 10
-167.091021803602
 20
-1828.100840184502
 30
0.0
  0
VERTEX
  5
1DB
  8
0
  6
CONTINUOUS
 62
     7
 10
-167.2347358490038
 20
-1828.233133038504
 30
0.0
  0
VERTEX
  5
1DC
  8
0
  6
CONTINUOUS
 62
     7
 10
-167.3808648837153
 20
-1828.343630277132
 30
0.0
  0
VERTEX
  5
1DD
  8
0
  6
CONTINUOUS
 62
     7
 10
-167.5282375366382
 20
-1828.432400815592
 30
0.0
  0
VERTEX
  5
1DE
  8
0
  6
CONTINUOUS
 62
     7
 10
-167.675732106562
 20
-1828.499823131027
 30
0.0
  0
VERTEX
  5
1DF
  8
0
  6
CONTINUOUS
 62
     7
 10
-167.822299195785
 20
-1828.546552628656
 30
0.0
  0
VERTEX
  5
1E0
  8
0
  6
CONTINUOUS
 62
     7
 10
-167.9669796519133
 20
-1828.573482591359
 30
0.0
  0
VERTEX
  5
1E1
  8
0
  6
CONTINUOUS
 62
     7
 10
-168.1089175241973
 20
-1828.581701316837
 30
0.0
  0
VERTEX
  5
1E2
  8
0
  6
CONTINUOUS
 62
     7
 10
-168.247368088279
 20
-1828.572447914991
 30
0.0
  0
SEQEND
  5
1E3
  8
0
  6
CONTINUOUS
 62
     7
  0
LINE
  5
1E4
  8
0
  6
CONTINUOUS
 62
     7
 10
-221.2769903133462
 20
-1214.081716719881
 30
0.0
 11
-232.9165981536839
 21
-1214.081716719881
 31
0.0
  0
LINE
  5
1E5
  8
0
  6
CONTINUOUS
 62
     7
 10
-232.9165981536839
 20
-1864.081716719881
 30
0.0
 11
-221.2769903133471
 21
-1864.081716719881
 31
0.0
  0
LINE
  5
1E6
  8
0
  6
CONTINUOUS
 62
     7
 10
-189.9920106172308
 20
-1876.081716719874
 30
0.0
 11
-418.4494246236859
 21
-1876.081716719874
 31
0.0
  0
POLYLINE
  5
1E7
  8
0
  6
CONTINUOUS
 62
     7
 66
     1
 10
0.0
 20
0.0
 30
0.0
 70
     1
  0
VERTEX
  5
576
  8
0
  6
CONTINUOUS
 62
     7
 10
-164.6389289058428
 20
-1815.581716719878
 30
0.0
  0
VERTEX
  5
577
  8
0
  6
CONTINUOUS
 62
     7
 10
-165.4680627744114
 20
-1815.74504183645
 30
0.0
  0
VERTEX
  5
578
  8
0
  6
CONTINUOUS
 62
     7
 10
-166.2653334933944
 20
-1816.228740693532
 30
0.0
  0
VERTEX
  5
579
  8
0
  6
CONTINUOUS
 62
     7
 10
-167.0001023961761
 20
-1817.014225015306
 30
0.0
  0
VERTEX
  5
57A
  8
0
  6
CONTINUOUS
 62
     7
 10
-167.6441327258856
 20
-1818.071309079792
 30
0.0
  0
VERTEX
  5
57B
  8
0
  6
CONTINUOUS
 62
     7
 10
-168.1726747581286
 20
-1819.359369739211
 30
0.0
  0
VERTEX
  5
57C
  8
0
  6
CONTINUOUS
 62
     7
 10
-168.5654169190157
 20
-1820.828907544774
 30
0.0
  0
VERTEX
  5
57D
  8
0
  6
CONTINUOUS
 62
     7
 10
-168.8072663475564
 20
-1822.423448982741
 30
0.0
  0
VERTEX
  5
57E
  8
0
  6
CONTINUOUS
 62
     7
 10
-168.8889289058427
 20
-1824.081716719878
 30
0.0
  0
VERTEX
  5
57F
  8
0
  6
CONTINUOUS
 62
     7
 10
-168.8072663475564
 20
-1825.739984457015
 30
0.0
  0
VERTEX
  5
580
  8
0
  6
CONTINUOUS
 62
     7
 10
-168.5654169190157
 20
-1827.334525894981
 30
0.0
  0
VERTEX
  5
581
  8
0
  6
CONTINUOUS
 62
     7
 10
-168.1726747581286
 20
-1828.804063700544
 30
0.0
  0
VERTEX
  5
582
  8
0
  6
CONTINUOUS
 62
     7
 10
-167.6441327258856
 20
-1830.092124359963
 30
0.0
  0
VERTEX
  5
583
  8
0
  6
CONTINUOUS
 62
     7
 10
-167.0001023961761
 20
-1831.149208424449
 30
0.0
  0
VERTEX
  5
584
  8
0
  6
CONTINUOUS
 62
     7
 10
-166.2653334933944
 20
-1831.934692746223
 30
0.0
  0
VERTEX
  5
585
  8
0
  6
CONTINUOUS
 62
     7
 10
-165.4680627744114
 20
-1832.418391603305
 30
0.0
  0
VERTEX
  5
586
  8
0
  6
CONTINUOUS
 62
     7
 10
-164.6389289058428
 20
-1832.581716719877
 30
0.0
  0
VERTEX
  5
587
  8
0
  6
CONTINUOUS
 62
     7
 10
-163.8097950372743
 20
-1832.418391603305
 30
0.0
  0
VERTEX
  5
588
  8
0
  6
CONTINUOUS
 62
     7
 10
-163.0125243182912
 20
-1831.934692746223
 30
0.0
  0
VERTEX
  5
589
  8
0
  6
CONTINUOUS
 62
     7
 10
-162.2777554155096
 20
-1831.149208424449
 30
0.0
  0
VERTEX
  5
58A
  8
0
  6
CONTINUOUS
 62
     7
 10
-161.6337250858001
 20
-1830.092124359963
 30
0.0
  0
VERTEX
  5
58B
  8
0
  6
CONTINUOUS
 62
     7
 10
-161.1051830535571
 20
-1828.804063700544
 30
0.0
  0
VERTEX
  5
58C
  8
0
  6
CONTINUOUS
 62
     7
 10
-160.7124408926699
 20
-1827.334525894981
 30
0.0
  0
VERTEX
  5
58D
  8
0
  6
CONTINUOUS
 62
     7
 10
-160.4705914641292
 20
-1825.739984457015
 30
0.0
  0
VERTEX
  5
58E
  8
0
  6
CONTINUOUS
 62
     7
 10
-160.3889289058429
 20
-1824.081716719878
 30
0.0
  0
VERTEX
  5
58F
  8
0
  6
CONTINUOUS
 62
     7
 10
-160.4705914641292
 20
-1822.423448982741
 30
0.0
  0
VERTEX
  5
590
  8
0
  6
CONTINUOUS
 62
     7
 10
-160.7124408926699
 20
-1820.828907544774
 30
0.0
  0
VERTEX
  5
591
  8
0
  6
CONTINUOUS
 62
     7
 10
-161.1051830535571
 20
-1819.359369739211
 30
0.0
  0
VERTEX
  5
592
  8
0
  6
CONTINUOUS
 62
     7
 10
-161.6337250858001
 20
-1818.071309079792
 30
0.0
  0
VERTEX
  5
593
  8
0
  6
CONTINUOUS
 62
     7
 10
-162.2777554155096
 20
-1817.014225015306
 30
0.0
  0
VERTEX
  5
594
  8
0
  6
CONTINUOUS
 62
     7
 10
-163.0125243182912
 20
-1816.228740693532
 30
0.0
  0
VERTEX
  5
595
  8
0
  6
CONTINUOUS
 62
     7
 10
-163.8097950372743
 20
-1815.74504183645
 30
0.0
  0
SEQEND
  5
656
  8
0
  6
CONTINUOUS
 62
     7
  0
POLYLINE
  5
1E8
  8
0
  6
CONTINUOUS
 62
     7
 66
     1
 10
0.0
 20
0.0
 30
0.0
 70
     1
  0
VERTEX
  5
596
  8
0
  6
CONTINUOUS
 62
     7
 10
-164.6389289058424
 20
-1245.581716719877
 30
0.0
  0
VERTEX
  5
597
  8
0
  6
CONTINUOUS
 62
     7
 10
-165.468062774411
 20
-1245.74504183645
 30
0.0
  0
VERTEX
  5
598
  8
0
  6
CONTINUOUS
 62
     7
 10
-166.2653334933941
 20
-1246.228740693531
 30
0.0
  0
VERTEX
  5
599
  8
0
  6
CONTINUOUS
 62
     7
 10
-167.0001023961759
 20
-1247.014225015306
 30
0.0
  0
VERTEX
  5
59A
  8
0
  6
CONTINUOUS
 62
     7
 10
-167.6441327258854
 20
-1248.071309079792
 30
0.0
  0
VERTEX
  5
59B
  8
0
  6
CONTINUOUS
 62
     7
 10
-168.1726747581285
 20
-1249.359369739211
 30
0.0
  0
VERTEX
  5
59C
  8
0
  6
CONTINUOUS
 62
     7
 10
-168.5654169190157
 20
-1250.828907544775
 30
0.0
  0
VERTEX
  5
59D
  8
0
  6
CONTINUOUS
 62
     7
 10
-168.8072663475564
 20
-1252.423448982741
 30
0.0
  0
VERTEX
  5
59E
  8
0
  6
CONTINUOUS
 62
     7
 10
-168.8889289058427
 20
-1254.081716719878
 30
0.0
  0
VERTEX
  5
59F
  8
0
  6
CONTINUOUS
 62
     7
 10
-168.8072663475564
 20
-1255.739984457015
 30
0.0
  0
VERTEX
  5
5A0
  8
0
  6
CONTINUOUS
 62
     7
 10
-168.5654169190157
 20
-1257.334525894982
 30
0.0
  0
VERTEX
  5
5A1
  8
0
  6
CONTINUOUS
 62
     7
 10
-168.1726747581285
 20
-1258.804063700545
 30
0.0
  0
VERTEX
  5
5A2
  8
0
  6
CONTINUOUS
 62
     7
 10
-167.6441327258854
 20
-1260.092124359964
 30
0.0
  0
VERTEX
  5
5A3
  8
0
  6
CONTINUOUS
 62
     7
 10
-167.0001023961759
 20
-1261.14920842445
 30
0.0
  0
VERTEX
  5
5A4
  8
0
  6
CONTINUOUS
 62
     7
 10
-166.2653334933941
 20
-1261.934692746225
 30
0.0
  0
VERTEX
  5
5A5
  8
0
  6
CONTINUOUS
 62
     7
 10
-165.468062774411
 20
-1262.418391603306
 30
0.0
  0
VERTEX
  5
5A6
  8
0
  6
CONTINUOUS
 62
     7
 10
-164.6389289058424
 20
-1262.581716719879
 30
0.0
  0
VERTEX
  5
5A7
  8
0
  6
CONTINUOUS
 62
     7
 10
-163.8097950372737
 20
-1262.418391603306
 30
0.0
  0
VERTEX
  5
5A8
  8
0
  6
CONTINUOUS
 62
     7
 10
-163.0125243182906
 20
-1261.934692746225
 30
0.0
  0
VERTEX
  5
5A9
  8
0
  6
CONTINUOUS
 62
     7
 10
-162.2777554155089
 20
-1261.14920842445
 30
0.0
  0
VERTEX
  5
5AA
  8
0
  6
CONTINUOUS
 62
     7
 10
-161.6337250857993
 20
-1260.092124359964
 30
0.0
  0
VERTEX
  5
5AB
  8
0
  6
CONTINUOUS
 62
     7
 10
-161.1051830535563
 20
-1258.804063700545
 30
0.0
  0
VERTEX
  5
5AC
  8
0
  6
CONTINUOUS
 62
     7
 10
-160.7124408926691
 20
-1257.334525894982
 30
0.0
  0
VERTEX
  5
5AD
  8
0
  6
CONTINUOUS
 62
     7
 10
-160.4705914641283
 20
-1255.739984457015
 30
0.0
  0
VERTEX
  5
5AE
  8
0
  6
CONTINUOUS
 62
     7
 10
-160.388928905842
 20
-1254.081716719878
 30
0.0
  0
VERTEX
  5
5AF
  8
0
  6
CONTINUOUS
 62
     7
 10
-160.4705914641283
 20
-1252.423448982741
 30
0.0
  0
VERTEX
  5
5B0
  8
0
  6
CONTINUOUS
 62
     7
 10
-160.7124408926691
 20
-1250.828907544775
 30
0.0
  0
VERTEX
  5
5B1
  8
0
  6
CONTINUOUS
 62
     7
 10
-161.1051830535563
 20
-1249.359369739211
 30
0.0
  0
VERTEX
  5
5B2
  8
0
  6
CONTINUOUS
 62
     7
 10
-161.6337250857993
 20
-1248.071309079792
 30
0.0
  0
VERTEX
  5
5B3
  8
0
  6
CONTINUOUS
 62
     7
 10
-162.2777554155089
 20
-1247.014225015306
 30
0.0
  0
VERTEX
  5
5B4
  8
0
  6
CONTINUOUS
 62
     7
 10
-163.0125243182906
 20
-1246.228740693531
 30
0.0
  0
VERTEX
  5
5B5
  8
0
  6
CONTINUOUS
 62
     7
 10
-163.8097950372738
 20
-1245.74504183645
 30
0.0
  0
SEQEND
  5
657
  8
0
  6
CONTINUOUS
 62
     7
  0
LINE
  5
1E9
  8
0
  6
CONTINUOUS
 62
     7
 10
-180.907609584448
 20
-1876.081716719874
 30
0.0
 11
-189.9920106172517
 21
-1876.081716719874
 31
0.0
  0
LINE
  5
1EA
  8
0
  6
CONTINUOUS
 62
     7
 10
-112.7218326744965
 20
-1876.081716719878
 30
0.0
 11
-120.7603084474354
 21
-1876.081716719878
 31
0.0
  0
LINE
  5
1EB
  8
0
  6
CONTINUOUS
 62
     7
 10
-120.7603084474354
 20
-1864.081716719878
 30
0.0
 11
-112.7218326744965
 21
-1864.081716719878
 31
0.0
  0
LINE
  5
1EC
  8
0
  6
CONTINUOUS
 62
     7
 10
-248.8165981536881
 20
-1873.081716719878
 30
0.0
 11
-221.2769903133453
 21
-1873.081716719878
 31
0.0
  0
LINE
  5
1ED
  8
0
  6
CONTINUOUS
 62
     7
 10
-221.2769903133444
 20
-1864.081716719878
 30
0.0
 11
-248.8165981536881
 21
-1864.081716719878
 31
0.0
  0
LINE
  5
1EE
  8
0
  6
CONTINUOUS
 62
     7
 10
-468.4494246235349
 20
-1876.081716719878
 30
0.0
 11
-485.3394279527233
 21
-1876.081716719878
 31
0.0
  0
LINE
  5
1EF
  8
0
  6
CONTINUOUS
 62
     7
 10
-468.4494246235349
 20
-1867.831716719874
 30
0.0
 11
-485.339427952727
 21
-1867.831716719874
 31
0.0
  0
LINE
  5
1F0
  8
0
  6
CONTINUOUS
 62
     7
 10
-485.3394279528434
 20
-1876.081716719878
 30
0.0
 11
-492.4568595934593
 21
-1876.081716719878
 31
0.0
  0
LINE
  5
1F1
  8
0
  6
CONTINUOUS
 62
     7
 10
-485.3394279528434
 20
-1867.831716719874
 30
0.0
 11
-492.4568595934593
 21
-1867.831716719874
 31
0.0
  0
LINE
  5
1F2
  8
0
  6
CONTINUOUS
 62
     7
 10
-189.9920106172308
 20
-1202.08171671988
 30
0.0
 11
-296.4568595934529
 21
-1202.08171671988
 31
0.0
  0
LINE
  5
1F3
  8
0
  6
CONTINUOUS
 62
     7
 10
-346.4568595934529
 20
-1202.08171671988
 30
0.0
 11
-418.4494246236859
 21
-1202.08171671988
 31
0.0
  0
LINE
  5
1F4
  8
0
  6
CONTINUOUS
 62
     7
 10
-180.907609584448
 20
-1202.08171671988
 30
0.0
 11
-189.9920106172517
 21
-1202.08171671988
 31
0.0
  0
LINE
  5
1F5
  8
0
  6
CONTINUOUS
 62
     7
 10
-112.7218326744965
 20
-1202.081716719878
 30
0.0
 11
-120.7603084474354
 21
-1202.081716719878
 31
0.0
  0
LINE
  5
1F6
  8
0
  6
CONTINUOUS
 62
     7
 10
-485.3394279528434
 20
-1202.081716719878
 30
0.0
 11
-492.4568595934593
 21
-1202.081716719878
 31
0.0
  0
LINE
  5
1F7
  8
0
  6
CONTINUOUS
 62
     7
 10
-468.4494246235349
 20
-1202.081716719878
 30
0.0
 11
-485.3394279527233
 21
-1202.081716719878
 31
0.0
  0
LINE
  5
1F8
  8
0
  6
CONTINUOUS
 62
     7
 10
-248.8165981536881
 20
-1205.081716719878
 30
0.0
 11
-221.2769903133453
 21
-1205.081716719878
 31
0.0
  0
LINE
  5
1F9
  8
0
  6
CONTINUOUS
 62
     7
 10
-485.3394279528434
 20
-1210.33171671988
 30
0.0
 11
-492.4568595934593
 21
-1210.33171671988
 31
0.0
  0
LINE
  5
1FA
  8
0
  6
CONTINUOUS
 62
     7
 10
-468.4494246235349
 20
-1210.33171671988
 30
0.0
 11
-485.339427952727
 21
-1210.33171671988
 31
0.0
  0
LINE
  5
1FB
  8
0
  6
CONTINUOUS
 62
     7
 10
-221.2769903133444
 20
-1214.081716719878
 30
0.0
 11
-248.8165981536881
 21
-1214.081716719878
 31
0.0
  0
LINE
  5
1FC
  8
0
  6
CONTINUOUS
 62
     7
 10
-120.7603084474354
 20
-1214.081716719878
 30
0.0
 11
-112.7218326744965
 21
-1214.081716719878
 31
0.0
  0
ENDBLK
  5
79
  8
0
  0
BLOCK
  8
0
  2
____-2
 70
     0
 10
0.0
 20
0.0
 30
0.0
  3
____-2
  1

  0
ARC
  5
1FD
  8
0
  6
CONTINUOUS
 62
     5
 10
-300.4568595934529
 20
-1120.08171671988
 30
0.0
 40
4.0
 50
0.0
 51
90.0
  0
ARC
  5
1FE
  8
0
  6
CONTINUOUS
 62
     5
 10
-300.4568595934529
 20
-1120.08171671988
 30
0.0
 40
1.0
 50
0.0
 51
90.0
  0
ARC
  5
1FF
  8
0
  6
CONTINUOUS
 62
     5
 10
-342.4568595934529
 20
-1120.08171671988
 30
0.0
 40
4.0
 50
90.0
 51
180.0
  0
ARC
  5
200
  8
0
  6
CONTINUOUS
 62
     5
 10
-342.4568595934529
 20
-1120.08171671988
 30
0.0
 40
1.0
 50
90.0
 51
180.0
  0
ARC
  5
201
  8
0
  6
CONTINUOUS
 62
     5
 10
-321.4568595934529
 20
-1539.08171671988
 30
0.0
 40
25.0
 50
270.0
 51
0.0
  0
ARC
  5
202
  8
0
  6
CONTINUOUS
 62
     5
 10
-321.4568595934529
 20
-1539.08171671988
 30
0.0
 40
25.0
 50
180.0
 51
270.0
  0
LINE
  5
203
  8
0
  6
CONTINUOUS
 62
     5
 10
-346.4568595934529
 20
-1539.08171671988
 30
0.0
 11
-346.4568595934529
 21
-1120.08171671988
 31
0.0
  0
LINE
  5
204
  8
0
  6
CONTINUOUS
 62
     5
 10
-296.4568595934529
 20
-1539.08171671988
 30
0.0
 11
-296.4568595934529
 21
-1120.08171671988
 31
0.0
  0
LINE
  5
205
  8
0
  6
CONTINUOUS
 62
     5
 10
-346.4568595934529
 20
-1120.08171671988
 30
0.0
 11
-342.4568595934529
 21
-1120.08171671988
 31
0.0
  0
LINE
  5
206
  8
0
  6
CONTINUOUS
 62
     5
 10
-342.4568595934529
 20
-1116.08171671988
 30
0.0
 11
-300.4568595934529
 21
-1116.08171671988
 31
0.0
  0
LINE
  5
207
  8
0
  6
CONTINUOUS
 62
     5
 10
-300.4568595934529
 20
-1120.08171671988
 30
0.0
 11
-296.4568595934529
 21
-1120.08171671988
 31
0.0
  0
LINE
  5
208
  8
0
  6
CONTINUOUS
 62
     5
 10
-342.4568595934529
 20
-1116.08171671988
 30
0.0
 11
-342.4568595934529
 21
-1120.08171671988
 31
0.0
  0
LINE
  5
209
  8
0
  6
CONTINUOUS
 62
     5
 10
-300.4568595934529
 20
-1120.08171671988
 30
0.0
 11
-300.4568595934529
 21
-1116.08171671988
 31
0.0
  0
CIRCLE
  5
20A
  8
0
  6
CONTINUOUS
 62
     5
 10
-321.4568595934529
 20
-1469.08171671988
 30
0.0
 40
4.900000000000055
  0
CIRCLE
  5
20B
  8
0
  6
CONTINUOUS
 62
     5
 10
-321.4568595934529
 20
-1469.08171671988
 30
0.0
 40
4.399999999999971
  0
CIRCLE
  5
20C
  8
0
  6
CONTINUOUS
 62
     5
 10
-321.4568595934529
 20
-1539.08171671988
 30
0.0
 40
4.900000000000055
  0
CIRCLE
  5
20D
  8
0
  6
CONTINUOUS
 62
     5
 10
-321.4568595934529
 20
-1539.08171671988
 30
0.0
 40
4.399999999999971
  0
ENDBLK
  5
7C
  8
0
  0
BLOCK
  8
0
  2
____-3
 70
     0
 10
0.0
 20
0.0
 30
0.0
  3
____-3
  1

  0
ARC
  5
20E
  8
0
  6
CONTINUOUS
 62
     5
 10
319.5431404065471
 20
-1120.08171671988
 30
0.0
 40
4.0
 50
0.0
 51
90.0
  0
ARC
  5
20F
  8
0
  6
CONTINUOUS
 62
     5
 10
319.5431404065471
 20
-1120.08171671988
 30
0.0
 40
1.0
 50
0.0
 51
90.0
  0
ARC
  5
210
  8
0
  6
CONTINUOUS
 62
     5
 10
277.5431404065471
 20
-1120.08171671988
 30
0.0
 40
4.0
 50
90.0
 51
180.0
  0
ARC
  5
211
  8
0
  6
CONTINUOUS
 62
     5
 10
277.5431404065471
 20
-1120.08171671988
 30
0.0
 40
1.0
 50
90.0
 51
180.0
  0
ARC
  5
212
  8
0
  6
CONTINUOUS
 62
     5
 10
298.5431404065471
 20
-1539.08171671988
 30
0.0
 40
25.00000000000023
 50
270.0
 51
0.0
  0
ARC
  5
213
  8
0
  6
CONTINUOUS
 62
     5
 10
298.5431404065471
 20
-1539.08171671988
 30
0.0
 40
25.0
 50
180.0
 51
270.0
  0
LINE
  5
214
  8
0
  6
CONTINUOUS
 62
     5
 10
273.5431404065471
 20
-1539.08171671988
 30
0.0
 11
273.5431404065471
 21
-1120.08171671988
 31
0.0
  0
LINE
  5
215
  8
0
  6
CONTINUOUS
 62
     5
 10
323.5431404065471
 20
-1539.08171671988
 30
0.0
 11
323.5431404065471
 21
-1120.08171671988
 31
0.0
  0
LINE
  5
216
  8
0
  6
CONTINUOUS
 62
     5
 10
273.5431404065471
 20
-1120.08171671988
 30
0.0
 11
277.5431404065471
 21
-1120.08171671988
 31
0.0
  0
LINE
  5
217
  8
0
  6
CONTINUOUS
 62
     5
 10
277.5431404065471
 20
-1116.08171671988
 30
0.0
 11
319.5431404065471
 21
-1116.08171671988
 31
0.0
  0
LINE
  5
218
  8
0
  6
CONTINUOUS
 62
     5
 10
319.5431404065471
 20
-1120.08171671988
 30
0.0
 11
323.5431404065471
 21
-1120.08171671988
 31
0.0
  0
LINE
  5
219
  8
0
  6
CONTINUOUS
 62
     5
 10
277.5431404065471
 20
-1116.08171671988
 30
0.0
 11
277.5431404065471
 21
-1120.08171671988
 31
0.0
  0
LINE
  5
21A
  8
0
  6
CONTINUOUS
 62
     5
 10
319.5431404065471
 20
-1120.08171671988
 30
0.0
 11
319.5431404065471
 21
-1116.08171671988
 31
0.0
  0
CIRCLE
  5
21B
  8
0
  6
CONTINUOUS
 62
     5
 10
298.5431404065471
 20
-1469.08171671988
 30
0.0
 40
4.900000000000055
  0
CIRCLE
  5
21C
  8
0
  6
CONTINUOUS
 62
     5
 10
298.5431404065471
 20
-1469.08171671988
 30
0.0
 40
4.399999999999971
  0
CIRCLE
  5
21D
  8
0
  6
CONTINUOUS
 62
     5
 10
298.5431404065471
 20
-1539.08171671988
 30
0.0
 40
4.900000000000055
  0
CIRCLE
  5
21E
  8
0
  6
CONTINUOUS
 62
     5
 10
298.5431404065471
 20
-1539.08171671988
 30
0.0
 40
4.399999999999971
  0
ENDBLK
  5
7F
  8
0
  0
BLOCK
  8
0
  2
____-4
 70
     0
 10
0.0
 20
0.0
 30
0.0
  3
____-4
  1

  0
LINE
  5
21F
  8
0
  6
CONTINUOUS
 62
     7
 10
282.5688217631891
 20
-1851.413385213297
 30
0.0
 11
-12.55617823681087
 21
-1340.241890629532
 31
0.0
  0
LINE
  5
220
  8
0
  6
CONTINUOUS
 62
     7
 10
315.1938217631891
 20
-1907.921542810231
 30
0.0
 11
302.5688217631891
 21
-1886.054401364675
 31
0.0
  0
LINE
  5
221
  8
0
  6
CONTINUOUS
 62
     7
 10
315.8905887012829
 20
-1829.128378548046
 30
0.0
 11
349.8348379145668
 21
-1887.921542810231
 31
0.0
  0
LINE
  5
222
  8
0
  6
CONTINUOUS
 62
     7
 10
349.8348379145668
 20
-1887.921542810231
 30
0.0
 11
335.1188449230635
 21
-1896.417825325268
 31
0.0
  0
ARC
  5
223
  8
0
  6
CONTINUOUS
 62
     7
 10
-180.3689078862531
 20
-1815.581716719883
 30
0.0
 40
469.0000000000015
 50
9.923281643519012
 51
50.07671835648099
  0
ARC
  5
224
  8
0
  6
CONTINUOUS
 62
     7
 10
565.3059049912194
 20
-1685.128378548038
 30
0.0
 40
288.0000000000188
 50
189.923281643519
 51
209.9999999999998
  0
ARC
  5
225
  8
0
  6
CONTINUOUS
 62
     7
 10
305.4444034177673
 20
-1235.035054891719
 30
0.0
 40
287.9999999999977
 50
209.9999999999999
 51
230.0767183564809
  0
ARC
  5
226
  8
0
  6
CONTINUOUS
 62
     7
 10
322.1745838767224
 20
-1860.012577466425
 30
0.0
 40
3.499999999999908
 50
209.9999999999493
 51
29.9999999999493
  0
ARC
  5
227
  8
0
  6
CONTINUOUS
 62
     7
 10
216.7037397489144
 20
-1586.331716719882
 30
0.0
 40
3.500000000000484
 50
209.9999999999954
 51
30.00000000000287
  0
LINE
  5
228
  8
0
  6
CONTINUOUS
 62
     7
 10
22.08483791456683
 20
-1320.241890629532
 30
0.0
 11
56.02908712784892
 21
-1379.035054891718
 31
0.0
  0
ARC
  5
229
  8
0
  6
CONTINUOUS
 62
     7
 10
32.42458387672241
 20
-1358.150855973342
 30
0.0
 40
3.500000000000484
 50
209.9999999999954
 51
30.00000000000287
  0
LINE
  5
22A
  8
0
  6
CONTINUOUS
 62
     7
 10
22.08483791456683
 20
-1320.241890629532
 30
0.0
 11
7.368844923063534
 21
-1328.738173144569
 31
0.0
  0
LINE
  5
22B
  8
0
  6
CONTINUOUS
 62
     7
 10
302.7270125396776
 20
-1885.963069877285
 30
0.0
 11
282.7270125396776
 21
-1851.322053725908
 31
0.0
  0
LINE
  5
22C
  8
0
  6
CONTINUOUS
 62
     7
 10
316.7566141050688
 20
-1828.628378548045
 30
0.0
 11
349.3258633183527
 21
-1885.039972949826
 31
0.0
  0
LINE
  5
22D
  8
0
  6
CONTINUOUS
 62
     7
 10
24.32586331835091
 20
-1322.12346048994
 30
0.0
 11
56.895112531633
 21
-1378.535054891718
 31
0.0
  0
LINE
  5
22E
  8
0
  6
CONTINUOUS
 62
     7
 10
523.9514521509268
 20
-1784.219842229942
 30
0.0
 11
349.3258633183509
 21
-1885.039972949827
 31
0.0
  0
LINE
  5
22F
  8
0
  6
CONTINUOUS
 62
     7
 10
212.7212560711018
 20
-1213.353329770054
 30
0.0
 11
537.7212560711018
 21
-1776.269842229939
 31
0.0
  0
LINE
  5
230
  8
0
  6
CONTINUOUS
 62
     7
 10
349.3258633183509
 20
-1885.039972949827
 30
0.0
 11
348.4598379145668
 21
-1885.539972949827
 31
0.0
  0
LINE
  5
231
  8
0
  6
CONTINUOUS
 62
     7
 10
198.9514521509268
 20
-1221.303329770055
 30
0.0
 11
24.32586331835091
 21
-1322.12346048994
 31
0.0
  0
LINE
  5
232
  8
0
  6
CONTINUOUS
 62
     7
 10
24.32586331835091
 20
-1322.12346048994
 30
0.0
 11
23.45983791456683
 21
-1322.62346048994
 31
0.0
  0
ARC
  5
233
  8
0
  6
CONTINUOUS
 62
     7
 10
322.1745838767224
 20
-1860.012577466423
 30
0.0
 40
3.499999999999697
 50
30.00000000000287
 51
209.9999999999418
  0
LINE
  5
234
  8
0
  6
CONTINUOUS
 62
     7
 10
513.9015469189458
 20
-1523.286333355347
 30
0.0
 11
517.542820315452
 21
-1521.184043179681
 31
0.0
  0
LINE
  5
235
  8
0
  6
CONTINUOUS
 62
     7
 10
308.0428203154529
 20
-1158.319398994002
 30
0.0
 11
517.542820315452
 21
-1521.184043179681
 31
0.0
  0
ARC
  5
236
  8
0
  6
CONTINUOUS
 62
     7
 10
216.7037397489144
 20
-1586.331716719882
 30
0.0
 40
3.499999999999697
 50
30.00000000000287
 51
209.9999999999954
  0
LINE
  5
237
  8
0
  6
CONTINUOUS
 62
     7
 10
629.401546918944
 20
-1723.338201629549
 30
0.0
 11
634.8514521509301
 21
-1720.191697376808
 31
0.0
  0
ARC
  5
238
  8
0
  6
CONTINUOUS
 62
     7
 10
32.4245838767215
 20
-1358.150855973339
 30
0.0
 40
3.499999999999697
 50
30.00000000000287
 51
209.9999999999954
  0
ARC
  5
239
  8
0
  6
CONTINUOUS
 62
     7
 10
-180.3689078862431
 20
-1815.581716719877
 30
0.0
 40
469.9999999999904
 50
9.923281643518996
 51
50.07671835648107
  0
LINE
  5
23A
  8
0
  6
CONTINUOUS
 62
     7
 10
513.9015469189458
 20
-1523.286333355347
 30
0.0
 11
629.401546918944
 21
-1723.338201629549
 31
0.0
  0
ARC
  5
23B
  8
0
  6
CONTINUOUS
 62
     7
 10
565.305904991214
 20
-1685.128378548041
 30
0.0
 40
287.0000000000134
 50
189.923281643519
 51
210.0
  0
LINE
  5
23C
  8
0
  6
CONTINUOUS
 62
     7
 10
308.0428203154529
 20
-1158.319398994002
 30
0.0
 11
309.8514521509301
 21
-1157.275184916924
 31
0.0
  0
ARC
  5
23D
  8
0
  6
CONTINUOUS
 62
     7
 10
305.4444034177782
 20
-1235.035054891709
 30
0.0
 40
287.0000000000119
 50
210.0
 51
230.076718356481
  0
LINE
  5
23E
  8
0
  6
CONTINUOUS
 62
     7
 10
528.0599545343798
 20
-1524.364431110699
 30
0.0
 11
314.553522608569
 21
-1154.560443272458
 31
0.0
  0
LINE
  5
23F
  8
0
  6
CONTINUOUS
 62
     7
 10
639.5535226085672
 20
-1717.476955732341
 30
0.0
 11
585.0470906827636
 21
-1623.069046297544
 31
0.0
  0
LINE
  5
240
  8
0
  6
CONTINUOUS
 62
     7
 10
526.0726257212068
 20
-1531.781243212812
 30
0.0
 11
524.7704343968039
 21
-1536.641087396659
 31
0.0
  0
LINE
  5
241
  8
0
  6
CONTINUOUS
 62
     7
 10
572.7704343968039
 20
-1619.779526159966
 30
0.0
 11
524.7704343968039
 21
-1536.641087396659
 31
0.0
  0
LINE
  5
242
  8
0
  6
CONTINUOUS
 62
     7
 10
572.7704343968039
 20
-1619.779526159966
 30
0.0
 11
577.6302785806515
 21
-1621.08171748437
 31
0.0
  0
LINE
  5
243
  8
0
  6
CONTINUOUS
 62
     7
 10
212.7212560711018
 20
-1213.353329770054
 30
0.0
 11
537.7212560711018
 21
-1776.269842229939
 31
0.0
  0
LINE
  5
244
  8
0
  6
CONTINUOUS
 62
     7
 10
222.8014521509263
 20
-1207.533525849883
 30
0.0
 11
308.0428203154538
 21
-1158.319398994002
 31
0.0
  0
LINE
  5
245
  8
0
  6
CONTINUOUS
 62
     7
 10
308.0428203154538
 20
-1158.319398994002
 30
0.0
 11
517.542820315452
 21
-1521.184043179681
 31
0.0
  0
LINE
  5
246
  8
0
  6
CONTINUOUS
 62
     7
 10
513.9015469189458
 20
-1523.286333355347
 30
0.0
 11
517.5428203154538
 21
-1521.184043179681
 31
0.0
  0
LINE
  5
247
  8
0
  6
CONTINUOUS
 62
     7
 10
629.4015469189458
 20
-1723.338201629552
 30
0.0
 11
513.9015469189458
 21
-1523.286333355347
 31
0.0
  0
LINE
  5
248
  8
0
  6
CONTINUOUS
 62
     7
 10
629.4015469189458
 20
-1723.338201629552
 30
0.0
 11
547.8014521509253
 21
-1770.450038309767
 31
0.0
  0
LINE
  5
249
  8
0
  6
CONTINUOUS
 62
     7
 10
647.8129763779912
 20
-1726.564764335755
 30
0.0
 11
641.8129763779912
 21
-1716.172459490342
 31
0.0
  0
LINE
  5
24A
  8
0
  6
CONTINUOUS
 62
     7
 10
318.2918979745414
 20
-1907.287568214011
 30
0.0
 11
317.7918979745432
 21
-1906.421542810231
 31
0.0
  0
LINE
  5
24B
  8
0
  6
CONTINUOUS
 62
     7
 10
318.9527963594014
 20
-1916.432277795237
 30
0.0
 11
314.8277963594014
 21
-1909.287568214014
 31
0.0
  0
CIRCLE
  5
24C
  8
0
  6
CONTINUOUS
 62
     7
 10
209.0171412885079
 20
-1533.018137649077
 30
0.0
 40
3.00000000000064
  0
CIRCLE
  5
24D
  8
0
  6
CONTINUOUS
 62
     7
 10
264.3280304209634
 20
-1558.819407838299
 30
0.0
 40
2.999999999999853
  0
CIRCLE
  5
24E
  8
0
  6
CONTINUOUS
 62
     7
 10
259.0171412885079
 20
-1619.620678027521
 30
0.0
 40
3.00000000000064
  0
CIRCLE
  5
24F
  8
0
  6
CONTINUOUS
 62
     7
 10
264.3280304209634
 20
-1558.819407838299
 30
0.0
 40
6.500000000000337
  0
CIRCLE
  5
250
  8
0
  6
CONTINUOUS
 62
     7
 10
209.0171412885079
 20
-1533.018137649077
 30
0.0
 40
6.500000000000337
  0
CIRCLE
  5
251
  8
0
  6
CONTINUOUS
 62
     7
 10
259.0171412885079
 20
-1619.620678027521
 30
0.0
 40
6.500000000000337
  0
LINE
  5
252
  8
0
  6
CONTINUOUS
 62
     7
 10
588.7623613971978
 20
-1760.65765279073
 30
0.0
 11
640.8514521509246
 21
-1730.584002222219
 31
0.0
  0
LINE
  5
253
  8
0
  6
CONTINUOUS
 62
     7
 10
587.2623613971996
 20
-1758.059576579376
 30
0.0
 11
552.3014521509253
 21
-1778.244266943826
 31
0.0
  0
LINE
  5
254
  8
0
  6
CONTINUOUS
 62
     7
 10
634.8514521509264
 20
-1720.191697376809
 30
0.0
 11
547.8014521509272
 21
-1770.450038309766
 31
0.0
  0
LINE
  5
255
  8
0
  6
CONTINUOUS
 62
     7
 10
349.3258633183491
 20
-1885.039972949823
 30
0.0
 11
348.459837914565
 21
-1885.539972949823
 31
0.0
  0
LINE
  5
256
  8
0
  6
CONTINUOUS
 62
     7
 10
528.4514521509268
 20
-1792.014070863998
 30
0.0
 11
381.5451151122802
 21
-1876.830484098922
 31
0.0
  0
LINE
  5
257
  8
0
  6
CONTINUOUS
 62
     7
 10
381.5451151122802
 20
-1876.830484098922
 30
0.0
 11
383.0451151122802
 21
-1879.428560310273
 31
0.0
  0
LINE
  5
258
  8
0
  6
CONTINUOUS
 62
     7
 10
339.7438449230563
 20
-1904.428560310272
 30
0.0
 11
383.0451151122784
 21
-1879.428560310272
 31
0.0
  0
LINE
  5
259
  8
0
  6
CONTINUOUS
 62
     7
 10
335.6188449230563
 20
-1897.283850729051
 30
0.0
 11
351.2008633183473
 21
-1888.287568214012
 31
0.0
  0
LINE
  5
25A
  8
0
  6
CONTINUOUS
 62
     7
 10
351.2008633183473
 20
-1888.287568214012
 30
0.0
 11
349.3258633183509
 21
-1885.039972949822
 31
0.0
  0
LINE
  5
25B
  8
0
  6
CONTINUOUS
 62
     7
 10
523.9514521509268
 20
-1784.219842229938
 30
0.0
 11
349.3258633183509
 21
-1885.039972949822
 31
0.0
  0
LINE
  5
25C
  8
0
  6
CONTINUOUS
 62
     7
 10
316.8129763779921
 20
-1153.255947030457
 30
0.0
 11
310.8129763779921
 21
-1142.863642185044
 31
0.0
  0
LINE
  5
25D
  8
0
  6
CONTINUOUS
 62
     7
 10
-13.92220364059676
 20
-1339.875865225749
 30
0.0
 11
-18.04720364059767
 21
-1332.731155644526
 31
0.0
  0
LINE
  5
25E
  8
0
  6
CONTINUOUS
 62
     7
 10
-9.9581020254559
 20
-1338.741890629531
 30
0.0
 11
-10.4581020254559
 21
-1337.875865225747
 31
0.0
  0
LINE
  5
25F
  8
0
  6
CONTINUOUS
 62
     7
 10
251.7623613971978
 20
-1176.956530640019
 30
0.0
 11
303.8514521509264
 21
-1146.882880071511
 31
0.0
  0
LINE
  5
260
  8
0
  6
CONTINUOUS
 62
     7
 10
47.54511511228111
 20
-1298.325514370917
 30
0.0
 11
46.04511511228202
 21
-1295.727438159565
 31
0.0
  0
LINE
  5
261
  8
0
  6
CONTINUOUS
 62
     7
 10
2.743844923059896
 20
-1320.727438159565
 30
0.0
 11
46.04511511228202
 21
-1295.727438159565
 31
0.0
  0
LINE
  5
262
  8
0
  6
CONTINUOUS
 62
     7
 10
253.2623613971996
 20
-1179.554606851371
 30
0.0
 11
218.3014521509263
 21
-1199.739297215821
 31
0.0
  0
LINE
  5
263
  8
0
  6
CONTINUOUS
 62
     7
 10
194.4514521509268
 20
-1213.509101135993
 30
0.0
 11
47.54511511228111
 21
-1298.325514370917
 31
0.0
  0
LINE
  5
264
  8
0
  6
CONTINUOUS
 62
     7
 10
6.868844923059896
 20
-1327.872147740787
 30
0.0
 11
22.45086331835091
 21
-1318.875865225748
 31
0.0
  0
LINE
  5
265
  8
0
  6
CONTINUOUS
 62
     7
 10
22.45086331835091
 20
-1318.875865225748
 30
0.0
 11
24.32586331835182
 21
-1322.123460489937
 31
0.0
  0
LINE
  5
266
  8
0
  6
CONTINUOUS
 62
     7
 10
24.32586331835
 20
-1322.123460489938
 30
0.0
 11
23.45983791456592
 21
-1322.623460489938
 31
0.0
  0
LINE
  5
267
  8
0
  6
CONTINUOUS
 62
     7
 10
198.9514521509268
 20
-1221.303329770053
 30
0.0
 11
24.32586331835182
 21
-1322.123460489937
 31
0.0
  0
LINE
  5
268
  8
0
  6
CONTINUOUS
 62
     7
 10
309.8514521509264
 20
-1157.275184916924
 30
0.0
 11
222.8014521509272
 21
-1207.53352584988
 31
0.0
  0
LINE
  5
269
  8
0
  6
CONTINUOUS
 62
     7
 10
528.0599545343798
 20
-1524.3644311107
 30
0.0
 11
526.0726257212068
 21
-1531.781243212812
 31
0.0
  0
LINE
  5
26A
  8
0
  6
CONTINUOUS
 62
     7
 10
585.0470906827618
 20
-1623.069046297543
 30
0.0
 11
577.6302785806515
 21
-1621.081717484369
 31
0.0
  0
LINE
  5
26B
  8
0
  6
CONTINUOUS
 62
     7
 10
-6.397905150425231
 20
-1336.686410005364
 30
0.0
 11
7.368844923063534
 21
-1328.738173144569
 31
0.0
  0
LINE
  5
26C
  8
0
  6
CONTINUOUS
 62
     7
 10
321.3520948495739
 20
-1904.366062186063
 30
0.0
 11
335.1188449230635
 21
-1896.417825325268
 31
0.0
  0
LINE
  5
26D
  8
0
  6
CONTINUOUS
 62
     7
 10
282.5688217631891
 20
-1851.413385213297
 30
0.0
 11
282.7270125396849
 21
-1851.322053725904
 31
0.0
  0
LINE
  5
26E
  8
0
  6
CONTINUOUS
 62
     7
 10
302.7270125396849
 20
-1885.963069877282
 30
0.0
 11
302.5688217631891
 21
-1886.054401364675
 31
0.0
  0
LINE
  5
26F
  8
0
  6
CONTINUOUS
 62
     7
 10
315.1938217631891
 20
-1907.921542810231
 30
0.0
 11
321.3520948494702
 21
-1904.366062186123
 31
0.0
  0
LINE
  5
270
  8
0
  6
CONTINUOUS
 62
     7
 10
-12.55617823681087
 20
-1340.241890629532
 30
0.0
 11
-6.397905150528914
 21
-1336.686410005424
 31
0.0
  0
LINE
  5
271
  8
0
  6
CONTINUOUS
 62
     7
 10
523.9514521509268
 20
-1784.219842229942
 30
0.0
 11
537.7212560711037
 21
-1776.26984222994
 31
0.0
  0
LINE
  5
272
  8
0
  6
CONTINUOUS
 62
     7
 10
212.7212560711027
 20
-1213.353329770053
 30
0.0
 11
198.9514521509268
 21
-1221.303329770055
 31
0.0
  0
LINE
  5
273
  8
0
  6
CONTINUOUS
 62
     7
 10
314.5535226085726
 20
-1154.560443272455
 30
0.0
 11
309.8514521509264
 21
-1157.275184916926
 31
0.0
  0
LINE
  5
274
  8
0
  6
CONTINUOUS
 62
     7
 10
639.5535226085726
 20
-1717.476955732338
 30
0.0
 11
634.8514521509228
 21
-1720.191697376811
 31
0.0
  0
POLYLINE
  5
275
  8
0
  6
CONTINUOUS
 62
     7
 66
     1
 10
0.0
 20
0.0
 30
0.0
 70
   128
  0
VERTEX
  5
276
  8
0
  6
CONTINUOUS
 62
     7
 10
571.4810865533777
 20
-1705.40512374934
 30
0.0
  0
VERTEX
  5
277
  8
0
  6
CONTINUOUS
 62
     7
 10
571.5963615581172
 20
-1705.327884786229
 30
0.0
  0
VERTEX
  5
278
  8
0
  6
CONTINUOUS
 62
     7
 10
571.7233927240136
 20
-1705.264033475139
 30
0.0
  0
VERTEX
  5
279
  8
0
  6
CONTINUOUS
 62
     7
 10
571.8621546558029
 20
-1705.215015278898
 30
0.0
  0
VERTEX
  5
27A
  8
0
  6
CONTINUOUS
 62
     7
 10
572.0124502272433
 20
-1705.182200666338
 30
0.0
  0
VERTEX
  5
27B
  8
0
  6
CONTINUOUS
 62
     7
 10
572.1738954294365
 20
-1705.166842819325
 30
0.0
  0
VERTEX
  5
27C
  8
0
  6
CONTINUOUS
 62
     7
 10
572.3459091599202
 20
-1705.170034034278
 30
0.0
  0
VERTEX
  5
27D
  8
0
  6
CONTINUOUS
 62
     7
 10
572.5277092355241
 20
-1705.192662932622
 30
0.0
  0
VERTEX
  5
27E
  8
0
  6
CONTINUOUS
 62
     7
 10
572.7183156767237
 20
-1705.235374882226
 30
0.0
  0
VERTEX
  5
27F
  8
0
  6
CONTINUOUS
 62
     7
 10
572.916561937986
 20
-1705.298538146765
 30
0.0
  0
VERTEX
  5
280
  8
0
  6
CONTINUOUS
 62
     7
 10
573.1211142657844
 20
-1705.382218177369
 30
0.0
  0
VERTEX
  5
281
  8
0
  6
CONTINUOUS
 62
     7
 10
573.3304987926344
 20
-1705.486162118974
 30
0.0
  0
VERTEX
  5
282
  8
0
  6
CONTINUOUS
 62
     7
 10
573.5431353784202
 20
-1705.609795031278
 30
0.0
  0
VERTEX
  5
283
  8
0
  6
CONTINUOUS
 62
     7
 10
573.7487971756022
 20
-1705.746184164416
 30
0.0
  0
VERTEX
  5
284
  8
0
  6
CONTINUOUS
 62
     7
 10
573.9544581318837
 20
-1705.89886169955
 30
0.0
  0
VERTEX
  5
285
  8
0
  6
CONTINUOUS
 62
     7
 10
574.1586524460822
 20
-1706.06656531715
 30
0.0
  0
VERTEX
  5
286
  8
0
  6
CONTINUOUS
 62
     7
 10
574.3599626805676
 20
-1706.247844066836
 30
0.0
  0
VERTEX
  5
287
  8
0
  6
CONTINUOUS
 62
     7
 10
574.5570513987691
 20
-1706.441097693014
 30
0.0
  0
VERTEX
  5
288
  8
0
  6
CONTINUOUS
 62
     7
 10
574.7486887294203
 20
-1706.644619486421
 30
0.0
  0
VERTEX
  5
289
  8
0
  6
CONTINUOUS
 62
     7
 10
574.9337747710383
 20
-1706.856640424746
 30
0.0
  0
VERTEX
  5
28A
  8
0
  6
CONTINUOUS
 62
     7
 10
575.1758466885708
 20
-1707.158765091388
 30
0.0
  0
VERTEX
  5
28B
  8
0
  6
CONTINUOUS
 62
     7
 10
575.4017610756614
 20
-1707.469019949697
 30
0.0
  0
VERTEX
  5
28C
  8
0
  6
CONTINUOUS
 62
     7
 10
575.6101017792757
 20
-1707.783090423927
 30
0.0
  0
VERTEX
  5
28D
  8
0
  6
CONTINUOUS
 62
     7
 10
575.8000093094456
 20
-1708.097042262216
 30
0.0
  0
VERTEX
  5
28E
  8
0
  6
CONTINUOUS
 62
     7
 10
575.9800873230765
 20
-1708.424482801066
 30
0.0
  0
VERTEX
  5
28F
  8
0
  6
CONTINUOUS
 62
     7
 10
576.1506615937647
 20
-1708.768487252003
 30
0.0
  0
VERTEX
  5
290
  8
0
  6
CONTINUOUS
 62
     7
 10
576.3085868053554
 20
-1709.1261739405
 30
0.0
  0
VERTEX
  5
291
  8
0
  6
CONTINUOUS
 62
     7
 10
576.4506674381814
 20
-1709.493940109399
 30
0.0
  0
VERTEX
  5
292
  8
0
  6
CONTINUOUS
 62
     7
 10
576.5737955760646
 20
-1709.867520281477
 30
0.0
  0
VERTEX
  5
293
  8
0
  6
CONTINUOUS
 62
     7
 10
576.6553637477523
 20
-1710.162005047157
 30
0.0
  0
VERTEX
  5
294
  8
0
  6
CONTINUOUS
 62
     7
 10
576.7222307198595
 20
-1710.454604750192
 30
0.0
  0
VERTEX
  5
295
  8
0
  6
CONTINUOUS
 62
     7
 10
576.7733710172374
 20
-1710.74272628303
 30
0.0
  0
VERTEX
  5
296
  8
0
  6
CONTINUOUS
 62
     7
 10
576.8079972481278
 20
-1711.023764211629
 30
0.0
  0
VERTEX
  5
297
  8
0
  6
CONTINUOUS
 62
     7
 10
576.8255916314179
 20
-1711.295176035092
 30
0.0
  0
VERTEX
  5
298
  8
0
  6
CONTINUOUS
 62
     7
 10
576.8263425813243
 20
-1711.541141176308
 30
0.0
  0
VERTEX
  5
299
  8
0
  6
CONTINUOUS
 62
     7
 10
576.8116684118972
 20
-1711.774445466522
 30
0.0
  0
VERTEX
  5
29A
  8
0
  6
CONTINUOUS
 62
     7
 10
576.7818612802917
 20
-1711.993432994101
 30
0.0
  0
VERTEX
  5
29B
  8
0
  6
CONTINUOUS
 62
     7
 10
576.7374391413364
 20
-1712.196700924828
 30
0.0
  0
VERTEX
  5
29C
  8
0
  6
CONTINUOUS
 62
     7
 10
576.6791255541398
 20
-1712.383126919834
 30
0.0
  0
VERTEX
  5
29D
  8
0
  6
CONTINUOUS
 62
     7
 10
576.6078227171624
 20
-1712.55188485289
 30
0.0
  0
VERTEX
  5
29E
  8
0
  6
CONTINUOUS
 62
     7
 10
576.524579525138
 20
-1712.702448720765
 30
0.0
  0
VERTEX
  5
29F
  8
0
  6
CONTINUOUS
 62
     7
 10
576.4305566383814
 20
-1712.834585443676
 30
0.0
  0
VERTEX
  5
2A0
  8
0
  6
CONTINUOUS
 62
     7
 10
576.3269905645698
 20
-1712.94833792034
 30
0.0
  0
VERTEX
  5
2A1
  8
0
  6
CONTINUOUS
 62
     7
 10
576.2151585954839
 20
-1713.044000180228
 30
0.0
  0
VERTEX
  5
2A2
  8
0
  6
CONTINUOUS
 62
     7
 10
576.096346155065
 20
-1713.122086741421
 30
0.0
  0
VERTEX
  5
2A3
  8
0
  6
CONTINUOUS
 62
     7
 10
575.9718177484797
 20
-1713.183298342391
 30
0.0
  0
SEQEND
  5
2A4
  8
0
  6
CONTINUOUS
 62
     7
  0
LINE
  5
2A5
  8
0
  6
CONTINUOUS
 62
     7
 10
222.8014521509244
 20
-1207.533525849885
 30
0.0
 11
212.7212560711027
 21
-1213.353329770053
 31
0.0
  0
LINE
  5
2A6
  8
0
  6
CONTINUOUS
 62
     7
 10
537.7212560711037
 20
-1776.26984222994
 30
0.0
 11
547.8014521509235
 21
-1770.450038309771
 31
0.0
  0
LINE
  5
2A7
  8
0
  6
CONTINUOUS
 62
     7
 10
580.8950393246364
 20
-1765.19985330712
 30
0.0
 11
383.0451151121474
 21
-1879.428560310347
 31
0.0
  0
POLYLINE
  5
2A8
  8
0
  6
CONTINUOUS
 62
     7
 66
     1
 10
0.0
 20
0.0
 30
0.0
 70
     1
  0
VERTEX
  5
5B6
  8
0
  6
CONTINUOUS
 62
     7
 10
572.6014521509238
 20
-1700.128775522471
 30
0.0
  0
VERTEX
  5
5B7
  8
0
  6
CONTINUOUS
 62
     7
 10
571.9650637158917
 20
-1700.684786156783
 30
0.0
  0
VERTEX
  5
5B8
  8
0
  6
CONTINUOUS
 62
     7
 10
571.5164564480996
 20
-1701.502317014288
 30
0.0
  0
VERTEX
  5
5B9
  8
0
  6
CONTINUOUS
 62
     7
 10
571.272870073267
 20
-1702.54995084261
 30
0.0
  0
VERTEX
  5
5BA
  8
0
  6
CONTINUOUS
 62
     7
 10
571.2436654791738
 20
-1703.787427661245
 30
0.0
  0
VERTEX
  5
5BB
  8
0
  6
CONTINUOUS
 62
     7
 10
571.4299649819932
 20
-1705.167191930039
 30
0.0
  0
VERTEX
  5
5BC
  8
0
  6
CONTINUOUS
 62
     7
 10
571.8246091963093
 20
-1706.636220081922
 30
0.0
  0
VERTEX
  5
5BD
  8
0
  6
CONTINUOUS
 62
     7
 10
572.4124321662854
 20
-1708.138058188858
 30
0.0
  0
VERTEX
  5
5BE
  8
0
  6
CONTINUOUS
 62
     7
 10
573.1708441848399
 20
-1709.614991454638
 30
0.0
  0
VERTEX
  5
5BF
  8
0
  6
CONTINUOUS
 62
     7
 10
574.0706999034223
 20
-1711.010262162132
 30
0.0
  0
VERTEX
  5
5C0
  8
0
  6
CONTINUOUS
 62
     7
 10
575.0774183714125
 20
-1712.270250840527
 30
0.0
  0
VERTEX
  5
5C1
  8
0
  6
CONTINUOUS
 62
     7
 10
576.1523119626596
 20
-1713.346536831523
 30
0.0
  0
VERTEX
  5
5C2
  8
0
  6
CONTINUOUS
 62
     7
 10
577.2540731192594
 20
-1714.197759068074
 30
0.0
  0
VERTEX
  5
5C3
  8
0
  6
CONTINUOUS
 62
     7
 10
578.3403617778384
 20
-1714.791205556999
 30
0.0
  0
VERTEX
  5
5C4
  8
0
  6
CONTINUOUS
 62
     7
 10
579.3694324744454
 20
-1715.10407048254
 30
0.0
  0
VERTEX
  5
5C5
  8
0
  6
CONTINUOUS
 62
     7
 10
580.3017385993189
 20
-1715.124330621062
 30
0.0
  0
VERTEX
  5
5C6
  8
0
  6
CONTINUOUS
 62
     7
 10
581.1014521509236
 20
-1714.851207386806
 30
0.0
  0
VERTEX
  5
5C7
  8
0
  6
CONTINUOUS
 62
     7
 10
581.7378405859557
 20
-1714.295196752494
 30
0.0
  0
VERTEX
  5
5C8
  8
0
  6
CONTINUOUS
 62
     7
 10
582.1864478537478
 20
-1713.477665894988
 30
0.0
  0
VERTEX
  5
5C9
  8
0
  6
CONTINUOUS
 62
     7
 10
582.4300342285804
 20
-1712.430032066666
 30
0.0
  0
VERTEX
  5
5CA
  8
0
  6
CONTINUOUS
 62
     7
 10
582.4592388226736
 20
-1711.192555248031
 30
0.0
  0
VERTEX
  5
5CB
  8
0
  6
CONTINUOUS
 62
     7
 10
582.2729393198542
 20
-1709.812790979237
 30
0.0
  0
VERTEX
  5
5CC
  8
0
  6
CONTINUOUS
 62
     7
 10
581.8782951055381
 20
-1708.343762827354
 30
0.0
  0
VERTEX
  5
5CD
  8
0
  6
CONTINUOUS
 62
     7
 10
581.290472135562
 20
-1706.841924720418
 30
0.0
  0
VERTEX
  5
5CE
  8
0
  6
CONTINUOUS
 62
     7
 10
580.5320601170075
 20
-1705.364991454638
 30
0.0
  0
VERTEX
  5
5CF
  8
0
  6
CONTINUOUS
 62
     7
 10
579.632204398425
 20
-1703.969720747145
 30
0.0
  0
VERTEX
  5
5D0
  8
0
  6
CONTINUOUS
 62
     7
 10
578.6254859304349
 20
-1702.709732068749
 30
0.0
  0
VERTEX
  5
5D1
  8
0
  6
CONTINUOUS
 62
     7
 10
577.5505923391878
 20
-1701.633446077754
 30
0.0
  0
VERTEX
  5
5D2
  8
0
  6
CONTINUOUS
 62
     7
 10
576.448831182588
 20
-1700.782223841203
 30
0.0
  0
VERTEX
  5
5D3
  8
0
  6
CONTINUOUS
 62
     7
 10
575.362542524009
 20
-1700.188777352277
 30
0.0
  0
VERTEX
  5
5D4
  8
0
  6
CONTINUOUS
 62
     7
 10
574.333471827402
 20
-1699.875912426737
 30
0.0
  0
VERTEX
  5
5D5
  8
0
  6
CONTINUOUS
 62
     7
 10
573.4011657025285
 20
-1699.855652288214
 30
0.0
  0
SEQEND
  5
658
  8
0
  6
CONTINUOUS
 62
     7
  0
LINE
  5
2A9
  8
0
  6
CONTINUOUS
 62
     7
 10
588.7623613971923
 20
-1760.657652790728
 30
0.0
 11
580.89503932462
 21
-1765.19985330713
 31
0.0
  0
LINE
  5
2AA
  8
0
  6
CONTINUOUS
 62
     7
 10
647.8129763779912
 20
-1726.564764335756
 30
0.0
 11
640.851452150921
 21
-1730.584002222225
 31
0.0
  0
LINE
  5
2AB
  8
0
  6
CONTINUOUS
 62
     7
 10
634.851452150921
 20
-1720.191697376812
 30
0.0
 11
641.8129763779912
 21
-1716.172459490342
 31
0.0
  0
LINE
  5
2AC
  8
0
  6
CONTINUOUS
 62
     7
 10
528.451452150925
 20
-1792.014070863998
 30
0.0
 11
552.3014521509235
 21
-1778.244266943827
 31
0.0
  0
LINE
  5
2AD
  8
0
  6
CONTINUOUS
 62
     7
 10
547.8014521509235
 20
-1770.450038309766
 30
0.0
 11
523.951452150925
 21
-1784.219842229939
 31
0.0
  0
LINE
  5
2AE
  8
0
  6
CONTINUOUS
 62
     7
 10
339.7438449230581
 20
-1904.428560310275
 30
0.0
 11
325.1166729699785
 21
-1912.873561974869
 31
0.0
  0
LINE
  5
2AF
  8
0
  6
CONTINUOUS
 62
     7
 10
335.6188449230563
 20
-1897.283850729051
 30
0.0
 11
320.991672969973
 21
-1905.728852393647
 31
0.0
  0
LINE
  5
2B0
  8
0
  6
CONTINUOUS
 62
     7
 10
325.1166729698748
 20
-1912.873561974929
 30
0.0
 11
318.9527963594014
 21
-1916.432277795237
 31
0.0
  0
LINE
  5
2B1
  8
0
  6
CONTINUOUS
 62
     7
 10
320.991672969873
 20
-1905.728852393705
 30
0.0
 11
314.8277963593996
 21
-1909.287568214013
 31
0.0
  0
LINE
  5
2B2
  8
0
  6
CONTINUOUS
 62
     7
 10
243.89503932464
 20
-1181.498731156413
 30
0.0
 11
46.04511511215105
 21
-1295.72743815964
 31
0.0
  0
LINE
  5
2B3
  8
0
  6
CONTINUOUS
 62
     7
 10
251.7623613971959
 20
-1176.956530640021
 30
0.0
 11
243.8950393246228
 21
-1181.498731156423
 31
0.0
  0
LINE
  5
2B4
  8
0
  6
CONTINUOUS
 62
     7
 10
310.8129763779912
 20
-1142.863642185044
 30
0.0
 11
303.851452150921
 21
-1146.882880071514
 31
0.0
  0
LINE
  5
2B5
  8
0
  6
CONTINUOUS
 62
     7
 10
-11.8833270301252
 20
-1329.172439824218
 30
0.0
 11
-18.04720364059767
 21
-1332.731155644526
 31
0.0
  0
LINE
  5
2B6
  8
0
  6
CONTINUOUS
 62
     7
 10
2.743844923058987
 20
-1320.727438159563
 30
0.0
 11
-11.88332703002152
 21
-1329.172439824158
 31
0.0
  0
LINE
  5
2B7
  8
0
  6
CONTINUOUS
 62
     7
 10
194.4514521509259
 20
-1213.509101135993
 30
0.0
 11
218.3014521509244
 21
-1199.739297215822
 31
0.0
  0
LINE
  5
2B8
  8
0
  6
CONTINUOUS
 62
     7
 10
-7.758327030124292
 20
-1336.317149405441
 30
0.0
 11
-13.92220364059676
 21
-1339.875865225749
 31
0.0
  0
LINE
  5
2B9
  8
0
  6
CONTINUOUS
 62
     7
 10
6.868844923059896
 20
-1327.872147740787
 30
0.0
 11
-7.758327030023338
 21
-1336.317149405383
 31
0.0
  0
LINE
  5
2BA
  8
0
  6
CONTINUOUS
 62
     7
 10
222.8014521509244
 20
-1207.533525849881
 30
0.0
 11
198.9514521509259
 21
-1221.303329770053
 31
0.0
  0
LINE
  5
2BB
  8
0
  6
CONTINUOUS
 62
     7
 10
309.851452150921
 20
-1157.275184916927
 30
0.0
 11
316.8129763779912
 21
-1153.255947030457
 31
0.0
  0
ENDBLK
  5
82
  8
0
  0
BLOCK
  8
0
  2
____-5
 70
     0
 10
0.0
 20
0.0
 30
0.0
  3
____-5
  1

  0
LINE
  5
2BC
  8
0
  6
CONTINUOUS
 62
     6
 10
1340.874808899959
 20
-1747.556035363239
 30
0.0
 11
829.7033143161939
 21
-1452.431035363238
 31
0.0
  0
LINE
  5
2BD
  8
0
  6
CONTINUOUS
 62
     6
 10
1397.382966496894
 20
-1780.181035363239
 30
0.0
 11
1375.515825051337
 21
-1767.556035363239
 31
0.0
  0
LINE
  5
2BE
  8
0
  6
CONTINUOUS
 62
     6
 10
1358.589802234709
 20
-1711.595769998578
 30
0.0
 11
1417.382966496894
 21
-1745.540019211862
 31
0.0
  0
LINE
  5
2BF
  8
0
  6
CONTINUOUS
 62
     6
 10
1417.382966496894
 20
-1745.540019211862
 30
0.0
 11
1408.886683981856
 21
-1760.256012203365
 31
0.0
  0
ARC
  5
2C0
  8
0
  6
CONTINUOUS
 62
     6
 10
922.0431404065444
 20
-1947.99376501268
 30
0.0
 40
469.0000000000006
 50
39.92328164351913
 51
80.07671835648111
  0
ARC
  5
2C1
  8
0
  6
CONTINUOUS
 62
     6
 10
1502.589802234719
 20
-1462.180453708644
 30
0.0
 40
288.0000000000168
 50
219.9232816435191
 51
240.0
  0
ARC
  5
2C2
  8
0
  6
CONTINUOUS
 62
     6
 10
1052.496478578381
 20
-1202.318952135226
 30
0.0
 40
287.9999999999972
 50
239.9999999999999
 51
260.076718356481
  0
ARC
  5
2C3
  8
0
  6
CONTINUOUS
 62
     6
 10
1379.474001153087
 20
-1735.200273249706
 30
0.0
 40
3.499999999999424
 50
239.9999999999602
 51
59.99999999993438
  0
ARC
  5
2C4
  8
0
  6
CONTINUOUS
 62
     6
 10
1151.293140406544
 20
-1550.921117377513
 30
0.0
 40
3.499999999999242
 50
240.00000000001
 51
59.99999999999167
  0
LINE
  5
2C5
  8
0
  6
CONTINUOUS
 62
     6
 10
849.7033143161948
 20
-1417.790019211861
 30
0.0
 11
908.49647857838
 21
-1451.734268425143
 31
0.0
  0
ARC
  5
2C6
  8
0
  6
CONTINUOUS
 62
     6
 10
877.6122796600034
 20
-1445.450273249706
 30
0.0
 40
3.499999999999893
 50
239.999999999999
 51
59.9999999999898
  0
LINE
  5
2C7
  8
0
  6
CONTINUOUS
 62
     6
 10
849.7033143161948
 20
-1417.790019211861
 30
0.0
 11
841.2070318011579
 21
-1432.506012203364
 31
0.0
  0
LINE
  5
2C8
  8
0
  6
CONTINUOUS
 62
     6
 10
1375.607156538727
 20
-1767.397844586749
 30
0.0
 11
1340.966140387349
 21
-1747.397844586749
 31
0.0
  0
LINE
  5
2C9
  8
0
  6
CONTINUOUS
 62
     6
 10
1359.089802234709
 20
-1710.729744594792
 30
0.0
 11
1415.50139663649
 21
-1743.298993808076
 31
0.0
  0
LINE
  5
2CA
  8
0
  6
CONTINUOUS
 62
     6
 10
852.5848841766024
 20
-1418.298993808077
 30
0.0
 11
908.9964785783791
 21
-1450.868243021359
 31
0.0
  0
LINE
  5
2CB
  8
0
  6
CONTINUOUS
 62
     6
 10
1516.321527356373
 20
-1568.673404975502
 30
0.0
 11
1415.501396636488
 21
-1743.298993808078
 31
0.0
  0
LINE
  5
2CC
  8
0
  6
CONTINUOUS
 62
     6
 10
961.3550148964882
 20
-1229.903601055327
 30
0.0
 11
1524.271527356372
 21
-1554.903601055326
 31
0.0
  0
LINE
  5
2CD
  8
0
  6
CONTINUOUS
 62
     6
 10
1415.501396636488
 20
-1743.298993808078
 30
0.0
 11
1415.001396636488
 21
-1744.165019211862
 31
0.0
  0
LINE
  5
2CE
  8
0
  6
CONTINUOUS
 62
     6
 10
953.4050148964875
 20
-1243.673404975501
 30
0.0
 11
852.5848841766024
 21
-1418.298993808077
 31
0.0
  0
LINE
  5
2CF
  8
0
  6
CONTINUOUS
 62
     6
 10
852.5848841766024
 20
-1418.298993808077
 30
0.0
 11
852.0848841766024
 21
-1419.165019211862
 31
0.0
  0
ARC
  5
2D0
  8
0
  6
CONTINUOUS
 62
     6
 10
1379.474001153084
 20
-1735.200273249706
 30
0.0
 40
3.500000000001787
 50
59.99999999998251
 51
239.9999999999693
  0
LINE
  5
2D1
  8
0
  6
CONTINUOUS
 62
     6
 10
1377.151299682554
 20
-1347.723310207481
 30
0.0
 11
1379.25358985822
 21
-1344.082036810975
 31
0.0
  0
LINE
  5
2D2
  8
0
  6
CONTINUOUS
 62
     6
 10
1016.388945672541
 20
-1134.582036810976
 30
0.0
 11
1379.25358985822
 21
-1344.082036810975
 31
0.0
  0
ARC
  5
2D3
  8
0
  6
CONTINUOUS
 62
     6
 10
1151.293140406544
 20
-1550.921117377513
 30
0.0
 40
3.500000000000939
 50
59.99999999999169
 51
240.00000000001
  0
LINE
  5
2D4
  8
0
  6
CONTINUOUS
 62
     6
 10
1577.203167956756
 20
-1463.223310207479
 30
0.0
 11
1580.349672209504
 21
-1457.773404975497
 31
0.0
  0
ARC
  5
2D5
  8
0
  6
CONTINUOUS
 62
     6
 10
877.6122796600016
 20
-1445.450273249704
 30
0.0
 40
3.500000000000545
 50
59.99999999998796
 51
240.0000000000119
  0
ARC
  5
2D6
  8
0
  6
CONTINUOUS
 62
     6
 10
922.0431404065498
 20
-1947.99376501267
 30
0.0
 40
469.999999999991
 50
39.92328164351908
 51
80.07671835648114
  0
LINE
  5
2D7
  8
0
  6
CONTINUOUS
 62
     6
 10
1377.151299682554
 20
-1347.723310207481
 30
0.0
 11
1577.203167956756
 21
-1463.223310207479
 31
0.0
  0
ARC
  5
2D8
  8
0
  6
CONTINUOUS
 62
     6
 10
1502.589802234717
 20
-1462.180453708649
 30
0.0
 40
287.0000000000138
 50
219.923281643519
 51
239.9999999999998
  0
LINE
  5
2D9
  8
0
  6
CONTINUOUS
 62
     6
 10
1016.388945672541
 20
-1134.582036810976
 30
0.0
 11
1017.433159749619
 21
-1132.773404975498
 31
0.0
  0
ARC
  5
2DA
  8
0
  6
CONTINUOUS
 62
     6
 10
1052.496478578385
 20
-1202.318952135212
 30
0.0
 40
287.0000000000117
 50
240.0000000000001
 51
260.0767183564813
  0
LINE
  5
2DB
  8
0
  6
CONTINUOUS
 62
     6
 10
1389.951889232332
 20
-1341.577766443662
 30
0.0
 11
1020.147901394085
 21
-1128.071334517859
 31
0.0
  0
LINE
  5
2DC
  8
0
  6
CONTINUOUS
 62
     6
 10
1583.064413853967
 20
-1453.071334517858
 30
0.0
 11
1488.656504419176
 21
-1398.564902592045
 31
0.0
  0
LINE
  5
2DD
  8
0
  6
CONTINUOUS
 62
     6
 10
1391.939218045507
 20
-1348.994578545773
 30
0.0
 11
1393.241409369909
 21
-1353.854422729622
 31
0.0
  0
LINE
  5
2DE
  8
0
  6
CONTINUOUS
 62
     6
 10
1476.379848133215
 20
-1401.854422729622
 30
0.0
 11
1393.241409369909
 21
-1353.854422729622
 31
0.0
  0
LINE
  5
2DF
  8
0
  6
CONTINUOUS
 62
     6
 10
1476.379848133215
 20
-1401.854422729622
 30
0.0
 11
1481.239692317065
 21
-1400.552231405219
 31
0.0
  0
LINE
  5
2E0
  8
0
  6
CONTINUOUS
 62
     6
 10
961.3550148964882
 20
-1229.903601055327
 30
0.0
 11
1524.271527356372
 21
-1554.903601055326
 31
0.0
  0
LINE
  5
2E1
  8
0
  6
CONTINUOUS
 62
     6
 10
967.1748188166589
 20
-1219.8234049755
 30
0.0
 11
1016.388945672541
 21
-1134.582036810974
 31
0.0
  0
LINE
  5
2E2
  8
0
  6
CONTINUOUS
 62
     6
 10
1016.388945672541
 20
-1134.582036810974
 30
0.0
 11
1379.25358985822
 21
-1344.082036810975
 31
0.0
  0
LINE
  5
2E3
  8
0
  6
CONTINUOUS
 62
     6
 10
1377.151299682554
 20
-1347.723310207481
 30
0.0
 11
1379.25358985822
 21
-1344.082036810974
 31
0.0
  0
LINE
  5
2E4
  8
0
  6
CONTINUOUS
 62
     6
 10
1577.20316795676
 20
-1463.223310207481
 30
0.0
 11
1377.151299682554
 21
-1347.723310207481
 31
0.0
  0
LINE
  5
2E5
  8
0
  6
CONTINUOUS
 62
     6
 10
1577.20316795676
 20
-1463.223310207481
 30
0.0
 11
1530.091331276544
 21
-1544.823404975501
 31
0.0
  0
LINE
  5
2E6
  8
0
  6
CONTINUOUS
 62
     6
 10
1594.76121494138
 20
-1456.811880748434
 30
0.0
 11
1584.368910095966
 21
-1450.811880748434
 31
0.0
  0
LINE
  5
2E7
  8
0
  6
CONTINUOUS
 62
     6
 10
1399.748991900674
 20
-1778.082959151881
 30
0.0
 11
1398.882966496895
 21
-1777.582959151884
 31
0.0
  0
LINE
  5
2E8
  8
0
  6
CONTINUOUS
 62
     6
 10
1404.893701481898
 20
-1785.672060767023
 30
0.0
 11
1397.748991900674
 21
-1781.547060767023
 31
0.0
  0
CIRCLE
  5
2E9
  8
0
  6
CONTINUOUS
 62
     6
 10
1117.979561335741
 20
-1508.593502765728
 30
0.0
 40
2.999999999999595
  0
CIRCLE
  5
2EA
  8
0
  6
CONTINUOUS
 62
     6
 10
1178.780831524963
 20
-1503.282613633273
 30
0.0
 40
2.999999999999595
  0
CIRCLE
  5
2EB
  8
0
  6
CONTINUOUS
 62
     6
 10
1204.582101714184
 20
-1558.593502765728
 30
0.0
 40
2.999999999999853
  0
CIRCLE
  5
2EC
  8
0
  6
CONTINUOUS
 62
     6
 10
1198.543140406547
 20
-1469.08171671988
 30
0.0
 40
4.499999999999975
  0
CIRCLE
  5
2ED
  8
0
  6
CONTINUOUS
 62
     6
 10
1178.780831524963
 20
-1503.282613633273
 30
0.0
 40
6.499999999999291
  0
CIRCLE
  5
2EE
  8
0
  6
CONTINUOUS
 62
     6
 10
1117.979561335741
 20
-1508.593502765728
 30
0.0
 40
6.500000000000337
  0
CIRCLE
  5
2EF
  8
0
  6
CONTINUOUS
 62
     6
 10
1204.582101714184
 20
-1558.593502765728
 30
0.0
 40
6.500000000000791
  0
CIRCLE
  5
2F0
  8
0
  6
CONTINUOUS
 62
     6
 10
1198.543140406547
 20
-1469.08171671988
 30
0.0
 40
8.499999999999712
  0
LINE
  5
2F1
  8
0
  6
CONTINUOUS
 62
     6
 10
1560.668326486405
 20
-1515.862495729229
 30
0.0
 11
1590.741977054909
 21
-1463.773404975498
 31
0.0
  0
LINE
  5
2F2
  8
0
  6
CONTINUOUS
 62
     6
 10
1558.070250275053
 20
-1514.362495729226
 30
0.0
 11
1537.885559910603
 21
-1549.3234049755
 31
0.0
  0
LINE
  5
2F3
  8
0
  6
CONTINUOUS
 62
     6
 10
1580.349672209499
 20
-1457.7734049755
 30
0.0
 11
1530.091331276543
 21
-1544.823404975499
 31
0.0
  0
LINE
  5
2F4
  8
0
  6
CONTINUOUS
 62
     6
 10
1415.501396636485
 20
-1743.298993808076
 30
0.0
 11
1415.001396636486
 21
-1744.16501921186
 31
0.0
  0
LINE
  5
2F5
  8
0
  6
CONTINUOUS
 62
     6
 10
1524.115755990431
 20
-1573.173404975498
 30
0.0
 11
1439.299342755506
 21
-1720.079742014145
 31
0.0
  0
LINE
  5
2F6
  8
0
  6
CONTINUOUS
 62
     6
 10
1439.299342755506
 20
-1720.079742014145
 30
0.0
 11
1441.897418966859
 21
-1721.579742014143
 31
0.0
  0
LINE
  5
2F7
  8
0
  6
CONTINUOUS
 62
     6
 10
1416.897418966857
 20
-1764.881012203365
 30
0.0
 11
1441.897418966857
 21
-1721.579742014143
 31
0.0
  0
LINE
  5
2F8
  8
0
  6
CONTINUOUS
 62
     6
 10
1409.752709385635
 20
-1760.756012203365
 30
0.0
 11
1418.748991900674
 21
-1745.173993808074
 31
0.0
  0
LINE
  5
2F9
  8
0
  6
CONTINUOUS
 62
     6
 10
1418.748991900674
 20
-1745.173993808074
 30
0.0
 11
1415.501396636486
 21
-1743.298993808074
 31
0.0
  0
LINE
  5
2FA
  8
0
  6
CONTINUOUS
 62
     6
 10
1516.321527356372
 20
-1568.673404975498
 30
0.0
 11
1415.501396636486
 21
-1743.298993808074
 31
0.0
  0
LINE
  5
2FB
  8
0
  6
CONTINUOUS
 62
     6
 10
1021.452397636082
 20
-1125.811880748433
 30
0.0
 11
1011.060092790669
 21
-1119.811880748434
 31
0.0
  0
LINE
  5
2FC
  8
0
  6
CONTINUOUS
 62
     6
 10
828.3372889124098
 20
-1452.797060767024
 30
0.0
 11
821.1925793311862
 21
-1448.672060767023
 31
0.0
  0
LINE
  5
2FD
  8
0
  6
CONTINUOUS
 62
     6
 10
831.2033143161957
 20
-1449.832959151883
 30
0.0
 11
830.3372889124116
 21
-1449.332959151884
 31
0.0
  0
LINE
  5
2FE
  8
0
  6
CONTINUOUS
 62
     6
 10
976.9672043356927
 20
-1178.862495729228
 30
0.0
 11
1007.040854904202
 21
-1126.7734049755
 31
0.0
  0
LINE
  5
2FF
  8
0
  6
CONTINUOUS
 62
     6
 10
860.7943730275024
 20
-1386.079742014144
 30
0.0
 11
858.1962968161502
 21
-1384.579742014145
 31
0.0
  0
LINE
  5
300
  8
0
  6
CONTINUOUS
 62
     6
 10
833.1962968161502
 20
-1427.881012203367
 30
0.0
 11
858.1962968161502
 21
-1384.579742014145
 31
0.0
  0
LINE
  5
301
  8
0
  6
CONTINUOUS
 62
     6
 10
979.5652805470486
 20
-1180.362495729225
 30
0.0
 11
959.3805901825986
 21
-1215.323404975499
 31
0.0
  0
LINE
  5
302
  8
0
  6
CONTINUOUS
 62
     6
 10
945.6107862624262
 20
-1239.173404975498
 30
0.0
 11
860.7943730275024
 21
-1386.079742014144
 31
0.0
  0
LINE
  5
303
  8
0
  6
CONTINUOUS
 62
     6
 10
840.341006397372
 20
-1432.006012203367
 30
0.0
 11
849.3372889124098
 21
-1416.423993808077
 31
0.0
  0
LINE
  5
304
  8
0
  6
CONTINUOUS
 62
     6
 10
849.3372889124098
 20
-1416.423993808077
 30
0.0
 11
852.5848841766006
 21
-1418.298993808074
 31
0.0
  0
LINE
  5
305
  8
0
  6
CONTINUOUS
 62
     6
 10
852.5848841766006
 20
-1418.298993808076
 30
0.0
 11
852.0848841766006
 21
-1419.16501921186
 31
0.0
  0
LINE
  5
306
  8
0
  6
CONTINUOUS
 62
     6
 10
953.4050148964866
 20
-1243.673404975498
 30
0.0
 11
852.5848841766006
 21
-1418.298993808074
 31
0.0
  0
LINE
  5
307
  8
0
  6
CONTINUOUS
 62
     6
 10
1017.433159749614
 20
-1132.773404975499
 30
0.0
 11
967.174818816658
 21
-1219.823404975499
 31
0.0
  0
LINE
  5
308
  8
0
  6
CONTINUOUS
 62
     6
 10
1389.951889232332
 20
-1341.577766443663
 30
0.0
 11
1391.939218045507
 21
-1348.994578545773
 31
0.0
  0
LINE
  5
309
  8
0
  6
CONTINUOUS
 62
     6
 10
1488.656504419174
 20
-1398.564902592045
 30
0.0
 11
1481.239692317064
 21
-1400.552231405218
 31
0.0
  0
LINE
  5
30A
  8
0
  6
CONTINUOUS
 62
     6
 10
833.2587949403628
 20
-1446.272762276852
 30
0.0
 11
841.2070318011579
 21
-1432.506012203364
 31
0.0
  0
LINE
  5
30B
  8
0
  6
CONTINUOUS
 62
     6
 10
1400.938447121062
 20
-1774.022762276853
 30
0.0
 11
1408.886683981856
 21
-1760.256012203365
 31
0.0
  0
LINE
  5
30C
  8
0
  6
CONTINUOUS
 62
     6
 10
1340.874808899959
 20
-1747.556035363239
 30
0.0
 11
1340.966140387354
 21
-1747.397844586742
 31
0.0
  0
LINE
  5
30D
  8
0
  6
CONTINUOUS
 62
     6
 10
1375.607156538732
 20
-1767.397844586742
 30
0.0
 11
1375.515825051337
 21
-1767.556035363239
 31
0.0
  0
LINE
  5
30E
  8
0
  6
CONTINUOUS
 62
     6
 10
1397.382966496894
 20
-1780.181035363239
 30
0.0
 11
1400.938447121002
 21
-1774.022762276957
 31
0.0
  0
LINE
  5
30F
  8
0
  6
CONTINUOUS
 62
     6
 10
829.7033143161939
 20
-1452.431035363238
 30
0.0
 11
833.2587949403028
 21
-1446.272762276956
 31
0.0
  0
LINE
  5
310
  8
0
  6
CONTINUOUS
 62
     6
 10
1516.321527356373
 20
-1568.673404975502
 30
0.0
 11
1524.271527356374
 21
-1554.903601055326
 31
0.0
  0
LINE
  5
311
  8
0
  6
CONTINUOUS
 62
     6
 10
961.35501489649
 20
-1229.903601055325
 30
0.0
 11
953.4050148964875
 21
-1243.673404975501
 31
0.0
  0
LINE
  5
312
  8
0
  6
CONTINUOUS
 62
     6
 10
1020.147901394088
 20
-1128.071334517855
 30
0.0
 11
1017.433159749616
 21
-1132.773404975502
 31
0.0
  0
LINE
  5
313
  8
0
  6
CONTINUOUS
 62
     6
 10
1583.064413853972
 20
-1453.071334517853
 30
0.0
 11
1580.349672209498
 21
-1457.773404975502
 31
0.0
  0
POLYLINE
  5
314
  8
0
  6
CONTINUOUS
 62
     6
 66
     1
 10
0.0
 20
0.0
 30
0.0
 70
   128
  0
VERTEX
  5
315
  8
0
  6
CONTINUOUS
 62
     6
 10
1024.441558784042
 20
-1191.653039377948
 30
0.0
  0
VERTEX
  5
316
  8
0
  6
CONTINUOUS
 62
     6
 10
1024.502770385014
 20
-1191.528510971362
 30
0.0
  0
VERTEX
  5
317
  8
0
  6
CONTINUOUS
 62
     6
 10
1024.580856946207
 20
-1191.409698530943
 30
0.0
  0
VERTEX
  5
318
  8
0
  6
CONTINUOUS
 62
     6
 10
1024.676519206093
 20
-1191.297866561857
 30
0.0
  0
VERTEX
  5
319
  8
0
  6
CONTINUOUS
 62
     6
 10
1024.790271682759
 20
-1191.194300488045
 30
0.0
  0
VERTEX
  5
31A
  8
0
  6
CONTINUOUS
 62
     6
 10
1024.922408405669
 20
-1191.100277601288
 30
0.0
  0
VERTEX
  5
31B
  8
0
  6
CONTINUOUS
 62
     6
 10
1025.072972273544
 20
-1191.017034409263
 30
0.0
  0
VERTEX
  5
31C
  8
0
  6
CONTINUOUS
 62
     6
 10
1025.2417302066
 20
-1190.945731572287
 30
0.0
  0
VERTEX
  5
31D
  8
0
  6
CONTINUOUS
 62
     6
 10
1025.428156201605
 20
-1190.88741798509
 30
0.0
  0
VERTEX
  5
31E
  8
0
  6
CONTINUOUS
 62
     6
 10
1025.631424132333
 20
-1190.842995846136
 30
0.0
  0
VERTEX
  5
31F
  8
0
  6
CONTINUOUS
 62
     6
 10
1025.850411659912
 20
-1190.813188714529
 30
0.0
  0
VERTEX
  5
320
  8
0
  6
CONTINUOUS
 62
     6
 10
1026.083715950127
 20
-1190.798514545103
 30
0.0
  0
VERTEX
  5
321
  8
0
  6
CONTINUOUS
 62
     6
 10
1026.329681091342
 20
-1190.799265495009
 30
0.0
  0
VERTEX
  5
322
  8
0
  6
CONTINUOUS
 62
     6
 10
1026.575983998859
 20
-1190.814551050516
 30
0.0
  0
VERTEX
  5
323
  8
0
  6
CONTINUOUS
 62
     6
 10
1026.830430379132
 20
-1190.843943196389
 30
0.0
  0
VERTEX
  5
324
  8
0
  6
CONTINUOUS
 62
     6
 10
1027.091119651337
 20
-1190.887081632437
 30
0.0
  0
VERTEX
  5
325
  8
0
  6
CONTINUOUS
 62
     6
 10
1027.356098803286
 20
-1190.94341851759
 30
0.0
  0
VERTEX
  5
326
  8
0
  6
CONTINUOUS
 62
     6
 10
1027.623409453136
 20
-1191.012236708132
 30
0.0
  0
VERTEX
  5
327
  8
0
  6
CONTINUOUS
 62
     6
 10
1027.891133146497
 20
-1191.092673086121
 30
0.0
  0
VERTEX
  5
328
  8
0
  6
CONTINUOUS
 62
     6
 10
1028.157432829587
 20
-1191.183745584035
 30
0.0
  0
VERTEX
  5
329
  8
0
  6
CONTINUOUS
 62
     6
 10
1028.518135593034
 20
-1191.324357261691
 30
0.0
  0
VERTEX
  5
32A
  8
0
  6
CONTINUOUS
 62
     6
 10
1028.86891062049
 20
-1191.480088657089
 30
0.0
  0
VERTEX
  5
32B
  8
0
  6
CONTINUOUS
 62
     6
 10
1029.206374199578
 20
-1191.647911314544
 30
0.0
  0
VERTEX
  5
32C
  8
0
  6
CONTINUOUS
 62
     6
 10
1029.527814864218
 20
-1191.824847816982
 30
0.0
  0
VERTEX
  5
32D
  8
0
  6
CONTINUOUS
 62
     6
 10
1029.847487268111
 20
-1192.018380635039
 30
0.0
  0
VERTEX
  5
32E
  8
0
  6
CONTINUOUS
 62
     6
 10
1030.167211145228
 20
-1192.231010093221
 30
0.0
  0
VERTEX
  5
32F
  8
0
  6
CONTINUOUS
 62
     6
 10
1030.482821734612
 20
-1192.46181324626
 30
0.0
  0
VERTEX
  5
330
  8
0
  6
CONTINUOUS
 62
     6
 10
1030.789750256474
 20
-1192.709267774766
 30
0.0
  0
VERTEX
  5
331
  8
0
  6
CONTINUOUS
 62
     6
 10
1031.083172437842
 20
-1192.971233625194
 30
0.0
  0
VERTEX
  5
332
  8
0
  6
CONTINUOUS
 62
     6
 10
1031.301054929503
 20
-1193.185480827457
 30
0.0
  0
VERTEX
  5
333
  8
0
  6
CONTINUOUS
 62
     6
 10
1031.505263277538
 20
-1193.40544611737
 30
0.0
  0
VERTEX
  5
334
  8
0
  6
CONTINUOUS
 62
     6
 10
1031.693612840645
 20
-1193.629396535497
 30
0.0
  0
VERTEX
  5
335
  8
0
  6
CONTINUOUS
 62
     6
 10
1031.864119000532
 20
-1193.855469405646
 30
0.0
  0
VERTEX
  5
336
  8
0
  6
CONTINUOUS
 62
     6
 10
1032.015062095157
 20
-1194.081721748007
 30
0.0
  0
VERTEX
  5
337
  8
0
  6
CONTINUOUS
 62
     6
 10
1032.13869500746
 20
-1194.294358333792
 30
0.0
  0
VERTEX
  5
338
  8
0
  6
CONTINUOUS
 62
     6
 10
1032.242638949063
 20
-1194.503742860643
 30
0.0
  0
VERTEX
  5
339
  8
0
  6
CONTINUOUS
 62
     6
 10
1032.326318979669
 20
-1194.708295188442
 30
0.0
  0
VERTEX
  5
33A
  8
0
  6
CONTINUOUS
 62
     6
 10
1032.389482244208
 20
-1194.906541449703
 30
0.0
  0
VERTEX
  5
33B
  8
0
  6
CONTINUOUS
 62
     6
 10
1032.432194193813
 20
-1195.097147890902
 30
0.0
  0
VERTEX
  5
33C
  8
0
  6
CONTINUOUS
 62
     6
 10
1032.454823092156
 20
-1195.278947966507
 30
0.0
  0
VERTEX
  5
33D
  8
0
  6
CONTINUOUS
 62
     6
 10
1032.458014307109
 20
-1195.450961696991
 30
0.0
  0
VERTEX
  5
33E
  8
0
  6
CONTINUOUS
 62
     6
 10
1032.442656460097
 20
-1195.612406899183
 30
0.0
  0
VERTEX
  5
33F
  8
0
  6
CONTINUOUS
 62
     6
 10
1032.409841847536
 20
-1195.762702470624
 30
0.0
  0
VERTEX
  5
340
  8
0
  6
CONTINUOUS
 62
     6
 10
1032.360823651297
 20
-1195.901464402414
 30
0.0
  0
VERTEX
  5
341
  8
0
  6
CONTINUOUS
 62
     6
 10
1032.296972340204
 20
-1196.02849556831
 30
0.0
  0
VERTEX
  5
342
  8
0
  6
CONTINUOUS
 62
     6
 10
1032.219733377094
 20
-1196.143770573049
 30
0.0
  0
SEQEND
  5
343
  8
0
  6
CONTINUOUS
 62
     6
  0
POLYLINE
  5
344
  8
0
  6
CONTINUOUS
 62
     6
 66
     1
 10
0.0
 20
0.0
 30
0.0
 70
   128
  0
VERTEX
  5
345
  8
0
  6
CONTINUOUS
 62
     6
 10
1518.076038941181
 20
-1476.653039377957
 30
0.0
  0
VERTEX
  5
346
  8
0
  6
CONTINUOUS
 62
     6
 10
1518.137250542152
 20
-1476.528510971371
 30
0.0
  0
VERTEX
  5
347
  8
0
  6
CONTINUOUS
 62
     6
 10
1518.215337103344
 20
-1476.409698530953
 30
0.0
  0
VERTEX
  5
348
  8
0
  6
CONTINUOUS
 62
     6
 10
1518.310999363233
 20
-1476.297866561866
 30
0.0
  0
VERTEX
  5
349
  8
0
  6
CONTINUOUS
 62
     6
 10
1518.424751839896
 20
-1476.194300488054
 30
0.0
  0
VERTEX
  5
34A
  8
0
  6
CONTINUOUS
 62
     6
 10
1518.556888562808
 20
-1476.100277601297
 30
0.0
  0
VERTEX
  5
34B
  8
0
  6
CONTINUOUS
 62
     6
 10
1518.707452430683
 20
-1476.017034409272
 30
0.0
  0
VERTEX
  5
34C
  8
0
  6
CONTINUOUS
 62
     6
 10
1518.876210363737
 20
-1475.945731572297
 30
0.0
  0
VERTEX
  5
34D
  8
0
  6
CONTINUOUS
 62
     6
 10
1519.062636358744
 20
-1475.887417985099
 30
0.0
  0
VERTEX
  5
34E
  8
0
  6
CONTINUOUS
 62
     6
 10
1519.265904289472
 20
-1475.842995846144
 30
0.0
  0
VERTEX
  5
34F
  8
0
  6
CONTINUOUS
 62
     6
 10
1519.484891817051
 20
-1475.813188714539
 30
0.0
  0
VERTEX
  5
350
  8
0
  6
CONTINUOUS
 62
     6
 10
1519.718196107264
 20
-1475.798514545113
 30
0.0
  0
VERTEX
  5
351
  8
0
  6
CONTINUOUS
 62
     6
 10
1519.964161248481
 20
-1475.799265495018
 30
0.0
  0
VERTEX
  5
352
  8
0
  6
CONTINUOUS
 62
     6
 10
1520.210464155997
 20
-1475.814551050525
 30
0.0
  0
VERTEX
  5
353
  8
0
  6
CONTINUOUS
 62
     6
 10
1520.464910536271
 20
-1475.843943196398
 30
0.0
  0
VERTEX
  5
354
  8
0
  6
CONTINUOUS
 62
     6
 10
1520.725599808475
 20
-1475.887081632446
 30
0.0
  0
VERTEX
  5
355
  8
0
  6
CONTINUOUS
 62
     6
 10
1520.990578960425
 20
-1475.943418517598
 30
0.0
  0
VERTEX
  5
356
  8
0
  6
CONTINUOUS
 62
     6
 10
1521.257889610276
 20
-1476.01223670814
 30
0.0
  0
VERTEX
  5
357
  8
0
  6
CONTINUOUS
 62
     6
 10
1521.525613303635
 20
-1476.09267308613
 30
0.0
  0
VERTEX
  5
358
  8
0
  6
CONTINUOUS
 62
     6
 10
1521.791912986727
 20
-1476.183745584044
 30
0.0
  0
VERTEX
  5
359
  8
0
  6
CONTINUOUS
 62
     6
 10
1522.152615750173
 20
-1476.324357261699
 30
0.0
  0
VERTEX
  5
35A
  8
0
  6
CONTINUOUS
 62
     6
 10
1522.503390777627
 20
-1476.480088657098
 30
0.0
  0
VERTEX
  5
35B
  8
0
  6
CONTINUOUS
 62
     6
 10
1522.840854356715
 20
-1476.647911314553
 30
0.0
  0
VERTEX
  5
35C
  8
0
  6
CONTINUOUS
 62
     6
 10
1523.162295021357
 20
-1476.82484781699
 30
0.0
  0
VERTEX
  5
35D
  8
0
  6
CONTINUOUS
 62
     6
 10
1523.481967425248
 20
-1477.018380635048
 30
0.0
  0
VERTEX
  5
35E
  8
0
  6
CONTINUOUS
 62
     6
 10
1523.801691302365
 20
-1477.231010093231
 30
0.0
  0
VERTEX
  5
35F
  8
0
  6
CONTINUOUS
 62
     6
 10
1524.117301891749
 20
-1477.461813246269
 30
0.0
  0
VERTEX
  5
360
  8
0
  6
CONTINUOUS
 62
     6
 10
1524.424230413612
 20
-1477.709267774775
 30
0.0
  0
VERTEX
  5
361
  8
0
  6
CONTINUOUS
 62
     6
 10
1524.71765259498
 20
-1477.971233625203
 30
0.0
  0
VERTEX
  5
362
  8
0
  6
CONTINUOUS
 62
     6
 10
1524.935535086641
 20
-1478.185480827466
 30
0.0
  0
VERTEX
  5
363
  8
0
  6
CONTINUOUS
 62
     6
 10
1525.139743434677
 20
-1478.40544611738
 30
0.0
  0
VERTEX
  5
364
  8
0
  6
CONTINUOUS
 62
     6
 10
1525.328092997781
 20
-1478.629396535506
 30
0.0
  0
VERTEX
  5
365
  8
0
  6
CONTINUOUS
 62
     6
 10
1525.498599157671
 20
-1478.855469405655
 30
0.0
  0
VERTEX
  5
366
  8
0
  6
CONTINUOUS
 62
     6
 10
1525.649542252295
 20
-1479.081721748017
 30
0.0
  0
VERTEX
  5
367
  8
0
  6
CONTINUOUS
 62
     6
 10
1525.773175164599
 20
-1479.294358333802
 30
0.0
  0
VERTEX
  5
368
  8
0
  6
CONTINUOUS
 62
     6
 10
1525.877119106203
 20
-1479.503742860653
 30
0.0
  0
VERTEX
  5
369
  8
0
  6
CONTINUOUS
 62
     6
 10
1525.960799136808
 20
-1479.70829518845
 30
0.0
  0
VERTEX
  5
36A
  8
0
  6
CONTINUOUS
 62
     6
 10
1526.023962401345
 20
-1479.906541449712
 30
0.0
  0
VERTEX
  5
36B
  8
0
  6
CONTINUOUS
 62
     6
 10
1526.066674350951
 20
-1480.097147890912
 30
0.0
  0
VERTEX
  5
36C
  8
0
  6
CONTINUOUS
 62
     6
 10
1526.089303249295
 20
-1480.278947966517
 30
0.0
  0
VERTEX
  5
36D
  8
0
  6
CONTINUOUS
 62
     6
 10
1526.092494464246
 20
-1480.450961697001
 30
0.0
  0
VERTEX
  5
36E
  8
0
  6
CONTINUOUS
 62
     6
 10
1526.077136617234
 20
-1480.612406899192
 30
0.0
  0
VERTEX
  5
36F
  8
0
  6
CONTINUOUS
 62
     6
 10
1526.044322004675
 20
-1480.762702470633
 30
0.0
  0
VERTEX
  5
370
  8
0
  6
CONTINUOUS
 62
     6
 10
1525.995303808434
 20
-1480.901464402422
 30
0.0
  0
VERTEX
  5
371
  8
0
  6
CONTINUOUS
 62
     6
 10
1525.931452497344
 20
-1481.028495568319
 30
0.0
  0
VERTEX
  5
372
  8
0
  6
CONTINUOUS
 62
     6
 10
1525.854213534233
 20
-1481.143770573059
 30
0.0
  0
SEQEND
  5
373
  8
0
  6
CONTINUOUS
 62
     6
  0
LINE
  5
374
  8
0
  6
CONTINUOUS
 62
     6
 10
967.174818816658
 20
-1219.823404975504
 30
0.0
 11
961.35501489649
 21
-1229.903601055325
 31
0.0
  0
LINE
  5
375
  8
0
  6
CONTINUOUS
 62
     6
 10
1524.271527356376
 20
-1554.903601055325
 30
0.0
 11
1530.091331276544
 21
-1544.823404975505
 31
0.0
  0
LINE
  5
376
  8
0
  6
CONTINUOUS
 62
     6
 10
1556.126125970008
 20
-1523.729817801784
 30
0.0
 11
1441.897418966781
 21
-1721.579742014274
 31
0.0
  0
POLYLINE
  5
377
  8
0
  6
CONTINUOUS
 62
     6
 66
     1
 10
0.0
 20
0.0
 30
0.0
 70
     1
  0
VERTEX
  5
5D6
  8
0
  6
CONTINUOUS
 62
     6
 10
1516.408129896747
 20
-1471.523404975501
 30
0.0
  0
VERTEX
  5
5D7
  8
0
  6
CONTINUOUS
 62
     6
 10
1516.135006662491
 20
-1472.323118527106
 30
0.0
  0
VERTEX
  5
5D8
  8
0
  6
CONTINUOUS
 62
     6
 10
1516.155266801013
 20
-1473.25542465198
 30
0.0
  0
VERTEX
  5
5D9
  8
0
  6
CONTINUOUS
 62
     6
 10
1516.468131726553
 20
-1474.284495348586
 30
0.0
  0
VERTEX
  5
5DA
  8
0
  6
CONTINUOUS
 62
     6
 10
1517.061578215479
 20
-1475.370784007166
 30
0.0
  0
VERTEX
  5
5DB
  8
0
  6
CONTINUOUS
 62
     6
 10
1517.91280045203
 20
-1476.472545163765
 30
0.0
  0
VERTEX
  5
5DC
  8
0
  6
CONTINUOUS
 62
     6
 10
1518.989086443025
 20
-1477.547438755012
 30
0.0
  0
VERTEX
  5
5DD
  8
0
  6
CONTINUOUS
 62
     6
 10
1520.249075121421
 20
-1478.554157223003
 30
0.0
  0
VERTEX
  5
5DE
  8
0
  6
CONTINUOUS
 62
     6
 10
1521.644345828914
 20
-1479.454012941585
 30
0.0
  0
VERTEX
  5
5DF
  8
0
  6
CONTINUOUS
 62
     6
 10
1523.121279094694
 20
-1480.21242496014
 30
0.0
  0
VERTEX
  5
5E0
  8
0
  6
CONTINUOUS
 62
     6
 10
1524.62311720163
 20
-1480.800247930115
 30
0.0
  0
VERTEX
  5
5E1
  8
0
  6
CONTINUOUS
 62
     6
 10
1526.092145353514
 20
-1481.194892144432
 30
0.0
  0
VERTEX
  5
5E2
  8
0
  6
CONTINUOUS
 62
     6
 10
1527.471909622307
 20
-1481.381191647251
 30
0.0
  0
VERTEX
  5
5E3
  8
0
  6
CONTINUOUS
 62
     6
 10
1528.709386440942
 20
-1481.351987053158
 30
0.0
  0
VERTEX
  5
5E4
  8
0
  6
CONTINUOUS
 62
     6
 10
1529.757020269264
 20
-1481.108400678325
 30
0.0
  0
VERTEX
  5
5E5
  8
0
  6
CONTINUOUS
 62
     6
 10
1530.57455112677
 20
-1480.659793410533
 30
0.0
  0
VERTEX
  5
5E6
  8
0
  6
CONTINUOUS
 62
     6
 10
1531.130561761082
 20
-1480.023404975501
 30
0.0
  0
VERTEX
  5
5E7
  8
0
  6
CONTINUOUS
 62
     6
 10
1531.403684995338
 20
-1479.223691423896
 30
0.0
  0
VERTEX
  5
5E8
  8
0
  6
CONTINUOUS
 62
     6
 10
1531.383424856816
 20
-1478.291385299023
 30
0.0
  0
VERTEX
  5
5E9
  8
0
  6
CONTINUOUS
 62
     6
 10
1531.070559931276
 20
-1477.262314602416
 30
0.0
  0
VERTEX
  5
5EA
  8
0
  6
CONTINUOUS
 62
     6
 10
1530.47711344235
 20
-1476.176025943837
 30
0.0
  0
VERTEX
  5
5EB
  8
0
  6
CONTINUOUS
 62
     6
 10
1529.625891205799
 20
-1475.074264787237
 30
0.0
  0
VERTEX
  5
5EC
  8
0
  6
CONTINUOUS
 62
     6
 10
1528.549605214803
 20
-1473.99937119599
 30
0.0
  0
VERTEX
  5
5ED
  8
0
  6
CONTINUOUS
 62
     6
 10
1527.289616536408
 20
-1472.992652728
 30
0.0
  0
VERTEX
  5
5EE
  8
0
  6
CONTINUOUS
 62
     6
 10
1525.894345828914
 20
-1472.092797009418
 30
0.0
  0
VERTEX
  5
5EF
  8
0
  6
CONTINUOUS
 62
     6
 10
1524.417412563134
 20
-1471.334384990863
 30
0.0
  0
VERTEX
  5
5F0
  8
0
  6
CONTINUOUS
 62
     6
 10
1522.915574456198
 20
-1470.746562020887
 30
0.0
  0
VERTEX
  5
5F1
  8
0
  6
CONTINUOUS
 62
     6
 10
1521.446546304315
 20
-1470.351917806571
 30
0.0
  0
VERTEX
  5
5F2
  8
0
  6
CONTINUOUS
 62
     6
 10
1520.066782035522
 20
-1470.165618303751
 30
0.0
  0
VERTEX
  5
5F3
  8
0
  6
CONTINUOUS
 62
     6
 10
1518.829305216886
 20
-1470.194822897845
 30
0.0
  0
VERTEX
  5
5F4
  8
0
  6
CONTINUOUS
 62
     6
 10
1517.781671388565
 20
-1470.438409272677
 30
0.0
  0
VERTEX
  5
5F5
  8
0
  6
CONTINUOUS
 62
     6
 10
1516.964140531059
 20
-1470.887016540469
 30
0.0
  0
SEQEND
  5
659
  8
0
  6
CONTINUOUS
 62
     6
  0
POLYLINE
  5
378
  8
0
  6
CONTINUOUS
 62
     6
 66
     1
 10
0.0
 20
0.0
 30
0.0
 70
     1
  0
VERTEX
  5
5F6
  8
0
  6
CONTINUOUS
 62
     6
 10
1022.773649739617
 20
-1186.5234049755
 30
0.0
  0
VERTEX
  5
5F7
  8
0
  6
CONTINUOUS
 62
     6
 10
1022.50052650536
 20
-1187.323118527105
 30
0.0
  0
VERTEX
  5
5F8
  8
0
  6
CONTINUOUS
 62
     6
 10
1022.520786643883
 20
-1188.255424651979
 30
0.0
  0
VERTEX
  5
5F9
  8
0
  6
CONTINUOUS
 62
     6
 10
1022.833651569423
 20
-1189.284495348586
 30
0.0
  0
VERTEX
  5
5FA
  8
0
  6
CONTINUOUS
 62
     6
 10
1023.427098058349
 20
-1190.370784007165
 30
0.0
  0
VERTEX
  5
5FB
  8
0
  6
CONTINUOUS
 62
     6
 10
1024.2783202949
 20
-1191.472545163765
 30
0.0
  0
VERTEX
  5
5FC
  8
0
  6
CONTINUOUS
 62
     6
 10
1025.354606285896
 20
-1192.547438755012
 30
0.0
  0
VERTEX
  5
5FD
  8
0
  6
CONTINUOUS
 62
     6
 10
1026.614594964291
 20
-1193.554157223002
 30
0.0
  0
VERTEX
  5
5FE
  8
0
  6
CONTINUOUS
 62
     6
 10
1028.009865671785
 20
-1194.454012941585
 30
0.0
  0
VERTEX
  5
5FF
  8
0
  6
CONTINUOUS
 62
     6
 10
1029.486798937565
 20
-1195.21242496014
 30
0.0
  0
VERTEX
  5
600
  8
0
  6
CONTINUOUS
 62
     6
 10
1030.988637044501
 20
-1195.800247930116
 30
0.0
  0
VERTEX
  5
601
  8
0
  6
CONTINUOUS
 62
     6
 10
1032.457665196384
 20
-1196.194892144432
 30
0.0
  0
VERTEX
  5
602
  8
0
  6
CONTINUOUS
 62
     6
 10
1033.837429465178
 20
-1196.381191647251
 30
0.0
  0
VERTEX
  5
603
  8
0
  6
CONTINUOUS
 62
     6
 10
1035.074906283813
 20
-1196.351987053158
 30
0.0
  0
VERTEX
  5
604
  8
0
  6
CONTINUOUS
 62
     6
 10
1036.122540112135
 20
-1196.108400678325
 30
0.0
  0
VERTEX
  5
605
  8
0
  6
CONTINUOUS
 62
     6
 10
1036.940070969641
 20
-1195.659793410533
 30
0.0
  0
VERTEX
  5
606
  8
0
  6
CONTINUOUS
 62
     6
 10
1037.496081603953
 20
-1195.023404975501
 30
0.0
  0
VERTEX
  5
607
  8
0
  6
CONTINUOUS
 62
     6
 10
1037.76920483821
 20
-1194.223691423896
 30
0.0
  0
VERTEX
  5
608
  8
0
  6
CONTINUOUS
 62
     6
 10
1037.748944699687
 20
-1193.291385299023
 30
0.0
  0
VERTEX
  5
609
  8
0
  6
CONTINUOUS
 62
     6
 10
1037.436079774147
 20
-1192.262314602416
 30
0.0
  0
VERTEX
  5
60A
  8
0
  6
CONTINUOUS
 62
     6
 10
1036.842633285221
 20
-1191.176025943836
 30
0.0
  0
VERTEX
  5
60B
  8
0
  6
CONTINUOUS
 62
     6
 10
1035.99141104867
 20
-1190.074264787237
 30
0.0
  0
VERTEX
  5
60C
  8
0
  6
CONTINUOUS
 62
     6
 10
1034.915125057674
 20
-1188.999371195989
 30
0.0
  0
VERTEX
  5
60D
  8
0
  6
CONTINUOUS
 62
     6
 10
1033.655136379279
 20
-1187.992652727999
 30
0.0
  0
VERTEX
  5
60E
  8
0
  6
CONTINUOUS
 62
     6
 10
1032.259865671785
 20
-1187.092797009417
 30
0.0
  0
VERTEX
  5
60F
  8
0
  6
CONTINUOUS
 62
     6
 10
1030.782932406005
 20
-1186.334384990862
 30
0.0
  0
VERTEX
  5
610
  8
0
  6
CONTINUOUS
 62
     6
 10
1029.281094299069
 20
-1185.746562020886
 30
0.0
  0
VERTEX
  5
611
  8
0
  6
CONTINUOUS
 62
     6
 10
1027.812066147186
 20
-1185.35191780657
 30
0.0
  0
VERTEX
  5
612
  8
0
  6
CONTINUOUS
 62
     6
 10
1026.432301878392
 20
-1185.16561830375
 30
0.0
  0
VERTEX
  5
613
  8
0
  6
CONTINUOUS
 62
     6
 10
1025.194825059756
 20
-1185.194822897843
 30
0.0
  0
VERTEX
  5
614
  8
0
  6
CONTINUOUS
 62
     6
 10
1024.147191231434
 20
-1185.438409272676
 30
0.0
  0
VERTEX
  5
615
  8
0
  6
CONTINUOUS
 62
     6
 10
1023.329660373929
 20
-1185.887016540468
 30
0.0
  0
SEQEND
  5
65A
  8
0
  6
CONTINUOUS
 62
     6
  0
LINE
  5
379
  8
0
  6
CONTINUOUS
 62
     6
 10
1560.668326486401
 20
-1515.862495729229
 30
0.0
 11
1556.126125969998
 21
-1523.729817801803
 31
0.0
  0
LINE
  5
37A
  8
0
  6
CONTINUOUS
 62
     6
 10
1594.76121494138
 20
-1456.811880748434
 30
0.0
 11
1590.741977054909
 21
-1463.773404975505
 31
0.0
  0
LINE
  5
37B
  8
0
  6
CONTINUOUS
 62
     6
 10
1580.349672209496
 20
-1457.773404975505
 30
0.0
 11
1584.368910095966
 21
-1450.811880748434
 31
0.0
  0
LINE
  5
37C
  8
0
  6
CONTINUOUS
 62
     6
 10
1524.11575599043
 20
-1573.1734049755
 30
0.0
 11
1537.885559910602
 21
-1549.323404975501
 31
0.0
  0
LINE
  5
37D
  8
0
  6
CONTINUOUS
 62
     6
 10
1530.091331276541
 20
-1544.823404975501
 30
0.0
 11
1516.32152735637
 21
-1568.6734049755
 31
0.0
  0
LINE
  5
37E
  8
0
  6
CONTINUOUS
 62
     6
 10
1416.897418966859
 20
-1764.881012203366
 30
0.0
 11
1408.452417302267
 21
-1779.508184156446
 31
0.0
  0
LINE
  5
37F
  8
0
  6
CONTINUOUS
 62
     6
 10
1409.752709385635
 20
-1760.756012203365
 30
0.0
 11
1401.30770772104
 21
-1775.383184156448
 31
0.0
  0
LINE
  5
380
  8
0
  6
CONTINUOUS
 62
     6
 10
1408.452417302205
 20
-1779.508184156551
 30
0.0
 11
1404.893701481898
 21
-1785.672060767023
 31
0.0
  0
LINE
  5
381
  8
0
  6
CONTINUOUS
 62
     6
 10
1401.307707720981
 20
-1775.38318415655
 30
0.0
 11
1397.748991900674
 21
-1781.547060767022
 31
0.0
  0
LINE
  5
382
  8
0
  6
CONTINUOUS
 62
     6
 10
972.4250038193018
 20
-1186.729817801787
 30
0.0
 11
858.1962968160747
 21
-1384.579742014276
 31
0.0
  0
LINE
  5
383
  8
0
  6
CONTINUOUS
 62
     6
 10
976.9672043356945
 20
-1178.862495729231
 30
0.0
 11
972.4250038192918
 21
-1186.729817801805
 31
0.0
  0
LINE
  5
384
  8
0
  6
CONTINUOUS
 62
     6
 10
1011.060092790668
 20
-1119.811880748434
 30
0.0
 11
1007.040854904198
 21
-1126.773404975504
 31
0.0
  0
LINE
  5
385
  8
0
  6
CONTINUOUS
 62
     6
 10
824.7512951514941
 20
-1442.508184156551
 30
0.0
 11
821.1925793311862
 21
-1448.672060767023
 31
0.0
  0
LINE
  5
386
  8
0
  6
CONTINUOUS
 62
     6
 10
833.1962968161483
 20
-1427.881012203366
 30
0.0
 11
824.7512951515541
 21
-1442.508184156446
 31
0.0
  0
LINE
  5
387
  8
0
  6
CONTINUOUS
 62
     6
 10
945.6107862624253
 20
-1239.173404975499
 30
0.0
 11
959.3805901825967
 21
-1215.323404975501
 31
0.0
  0
LINE
  5
388
  8
0
  6
CONTINUOUS
 62
     6
 10
831.8960047327168
 20
-1446.633184156552
 30
0.0
 11
828.3372889124098
 21
-1452.797060767024
 31
0.0
  0
LINE
  5
389
  8
0
  6
CONTINUOUS
 62
     6
 10
840.341006397372
 20
-1432.006012203367
 30
0.0
 11
831.896004732775
 21
-1446.633184156451
 31
0.0
  0
LINE
  5
38A
  8
0
  6
CONTINUOUS
 62
     6
 10
967.1748188166571
 20
-1219.8234049755
 30
0.0
 11
953.4050148964857
 21
-1243.673404975499
 31
0.0
  0
LINE
  5
38B
  8
0
  6
CONTINUOUS
 62
     6
 10
1017.433159749612
 20
-1132.773404975505
 30
0.0
 11
1021.452397636081
 21
-1125.811880748434
 31
0.0
  0
ENDBLK
  5
85
  8
0
  0
BLOCK
  8
0
  2
____-6
 70
     0
 10
0.0
 20
0.0
 30
0.0
  3
____-6
  1

  0
ARC
  5
38C
  8
0
  6
CONTINUOUS
 62
     6
 10
1219.543140406547
 20
-1120.08171671988
 30
0.0
 40
4.0
 50
0.0
 51
90.0
  0
ARC
  5
38D
  8
0
  6
CONTINUOUS
 62
     6
 10
1219.543140406547
 20
-1120.08171671988
 30
0.0
 40
1.0
 50
0.0
 51
90.0
  0
ARC
  5
38E
  8
0
  6
CONTINUOUS
 62
     6
 10
1177.543140406547
 20
-1120.08171671988
 30
0.0
 40
4.0
 50
90.0
 51
180.0
  0
ARC
  5
38F
  8
0
  6
CONTINUOUS
 62
     6
 10
1177.543140406547
 20
-1120.08171671988
 30
0.0
 40
1.0
 50
90.0
 51
180.0
  0
ARC
  5
390
  8
0
  6
CONTINUOUS
 62
     6
 10
1198.543140406547
 20
-1539.08171671988
 30
0.0
 40
25.0
 50
270.0
 51
0.0
  0
ARC
  5
391
  8
0
  6
CONTINUOUS
 62
     6
 10
1198.543140406547
 20
-1539.08171671988
 30
0.0
 40
25.0
 50
180.0
 51
270.0
  0
LINE
  5
392
  8
0
  6
CONTINUOUS
 62
     6
 10
1173.543140406547
 20
-1539.08171671988
 30
0.0
 11
1173.543140406547
 21
-1120.08171671988
 31
0.0
  0
LINE
  5
393
  8
0
  6
CONTINUOUS
 62
     6
 10
1223.543140406547
 20
-1539.08171671988
 30
0.0
 11
1223.543140406547
 21
-1120.08171671988
 31
0.0
  0
LINE
  5
394
  8
0
  6
CONTINUOUS
 62
     6
 10
1173.543140406547
 20
-1120.08171671988
 30
0.0
 11
1177.543140406547
 21
-1120.08171671988
 31
0.0
  0
LINE
  5
395
  8
0
  6
CONTINUOUS
 62
     6
 10
1177.543140406547
 20
-1116.08171671988
 30
0.0
 11
1219.543140406547
 21
-1116.08171671988
 31
0.0
  0
LINE
  5
396
  8
0
  6
CONTINUOUS
 62
     6
 10
1219.543140406547
 20
-1120.08171671988
 30
0.0
 11
1223.543140406547
 21
-1120.08171671988
 31
0.0
  0
LINE
  5
397
  8
0
  6
CONTINUOUS
 62
     6
 10
1177.543140406547
 20
-1116.08171671988
 30
0.0
 11
1177.543140406547
 21
-1120.08171671988
 31
0.0
  0
LINE
  5
398
  8
0
  6
CONTINUOUS
 62
     6
 10
1219.543140406547
 20
-1120.08171671988
 30
0.0
 11
1219.543140406547
 21
-1116.08171671988
 31
0.0
  0
CIRCLE
  5
399
  8
0
  6
CONTINUOUS
 62
     6
 10
1198.543140406547
 20
-1469.08171671988
 30
0.0
 40
4.900000000000055
  0
CIRCLE
  5
39A
  8
0
  6
CONTINUOUS
 62
     6
 10
1198.543140406547
 20
-1469.08171671988
 30
0.0
 40
4.399999999999971
  0
CIRCLE
  5
39B
  8
0
  6
CONTINUOUS
 62
     6
 10
1198.543140406547
 20
-1539.08171671988
 30
0.0
 40
4.900000000000055
  0
CIRCLE
  5
39C
  8
0
  6
CONTINUOUS
 62
     6
 10
1198.543140406547
 20
-1539.08171671988
 30
0.0
 40
4.399999999999971
  0
ENDBLK
  5
88
  8
0
  0
BLOCK
  8
0
  2
____-7
 70
     0
 10
0.0
 20
0.0
 30
0.0
  3
____-7
  1

  0
LINE
  5
39D
  8
0
  6
______-5
 62
     7
 10
1461.043140406546
 20
-1639.081716719886
 30
0.0
 11
870.7931404065457
 21
-1639.081716719885
 31
0.0
  0
LINE
  5
39E
  8
0
  6
______-5
 62
     7
 10
1526.293140406548
 20
-1639.081716719885
 30
0.0
 11
1501.043140406546
 21
-1639.081716719885
 31
0.0
  0
LINE
  5
39F
  8
0
  6
______-5
 62
     7
 10
1458.404641979982
 20
-1599.081716719884
 30
0.0
 11
1526.293140406547
 21
-1599.081716719886
 31
0.0
  0
LINE
  5
3A0
  8
0
  6
______-5
 62
     7
 10
1526.293140406547
 20
-1599.081716719886
 30
0.0
 11
1526.293140406546
 21
-1616.07428174996
 31
0.0
  0
ARC
  5
3A1
  8
0
  6
______-5
 62
     7
 10
1198.543140406548
 20
-2022.081716719886
 30
0.0
 40
469.0000000000003
 50
69.92328164351912
 51
110.0767183564811
  0
ARC
  5
3A2
  8
0
  6
______-5
 62
     7
 10
1458.404641979983
 20
-1311.081716719866
 30
0.0
 40
288.0000000000165
 50
249.9232816435191
 51
270.0000000000001
  0
ARC
  5
3A3
  8
0
  6
______-5
 62
     7
 10
938.681638833114
 20
-1311.081716719885
 30
0.0
 40
287.999999999998
 50
269.9999999999998
 51
290.0767183564808
  0
ARC
  5
3A4
  8
0
  6
______-5
 62
     7
 10
1488.293140406549
 20
-1609.081716719885
 30
0.0
 40
3.499999999999318
 50
269.9999999999553
 51
89.99999999993301
  0
ARC
  5
3A5
  8
0
  6
______-5
 62
     7
 10
1198.543140406547
 20
-1563.581716719885
 30
0.0
 40
3.499999999999318
 50
270.0000000000074
 51
89.99999999999258
  0
LINE
  5
3A6
  8
0
  6
______-5
 62
     7
 10
870.7931404065471
 20
-1599.081716719884
 30
0.0
 11
938.6816388331122
 21
-1599.081716719884
 31
0.0
  0
ARC
  5
3A7
  8
0
  6
______-5
 62
     7
 10
908.7931404065475
 20
-1609.081716719885
 30
0.0
 40
3.499999999999773
 50
269.9999999999926
 51
89.99999999999255
  0
LINE
  5
3A8
  8
0
  6
______-5
 62
     7
 10
870.7931404065471
 20
-1599.081716719884
 30
0.0
 11
870.7931404065471
 21
-1616.074281749958
 31
0.0
  0
LINE
  5
3A9
  8
0
  6
______-5
 62
     7
 10
1501.043140406547
 20
-1638.899053745105
 30
0.0
 11
1461.043140406548
 21
-1638.899053745106
 31
0.0
  0
LINE
  5
3AA
  8
0
  6
______-5
 62
     7
 10
1458.404641979981
 20
-1598.081716719883
 30
0.0
 11
1523.543140406549
 21
-1598.081716719883
 31
0.0
  0
LINE
  5
3AB
  8
0
  6
______-5
 62
     7
 10
873.543140406548
 20
-1598.081716719885
 30
0.0
 11
938.6816388331113
 21
-1598.081716719885
 31
0.0
  0
LINE
  5
3AC
  8
0
  6
______-5
 62
     7
 10
1523.543140406549
 20
-1396.441455280116
 30
0.0
 11
1523.543140406549
 21
-1598.081716719885
 31
0.0
  0
LINE
  5
3AD
  8
0
  6
______-5
 62
     7
 10
873.543140406548
 20
-1380.541455280114
 30
0.0
 11
1523.543140406546
 21
-1380.541455280114
 31
0.0
  0
LINE
  5
3AE
  8
0
  6
______-5
 62
     7
 10
1523.543140406549
 20
-1598.081716719885
 30
0.0
 11
1523.543140406549
 21
-1599.081716719885
 31
0.0
  0
LINE
  5
3AF
  8
0
  6
______-5
 62
     7
 10
873.543140406548
 20
-1396.441455280115
 30
0.0
 11
873.543140406548
 21
-1598.081716719885
 31
0.0
  0
LINE
  5
3B0
  8
0
  6
______-5
 62
     7
 10
873.543140406548
 20
-1598.081716719885
 30
0.0
 11
873.543140406548
 21
-1599.081716719885
 31
0.0
  0
ARC
  5
3B1
  8
0
  6
______-5
 62
     7
 10
1488.293140406546
 20
-1609.081716719886
 30
0.0
 40
3.500000000001137
 50
89.99999999997767
 51
269.9999999999777
  0
LINE
  5
3B2
  8
0
  6
______-5
 62
     7
 10
1292.543140406546
 20
-1274.67817407934
 30
0.0
 11
1292.543140406547
 21
-1270.473593728009
 31
0.0
  0
LINE
  5
3B3
  8
0
  6
______-5
 62
     7
 10
873.543140406548
 20
-1270.473593728009
 30
0.0
 11
1292.543140406547
 21
-1270.473593728009
 31
0.0
  0
ARC
  5
3B4
  8
0
  6
______-5
 62
     7
 10
1198.543140406547
 20
-1563.581716719885
 30
0.0
 40
3.500000000001137
 50
89.99999999999255
 51
270.0000000000074
  0
LINE
  5
3B5
  8
0
  6
______-5
 62
     7
 10
1523.543140406543
 20
-1274.67817407934
 30
0.0
 11
1523.543140406548
 21
-1268.385165573852
 31
0.0
  0
ARC
  5
3B6
  8
0
  6
______-5
 62
     7
 10
908.7931404065448
 20
-1609.081716719884
 30
0.0
 40
3.5
 50
89.99999999998514
 51
270.0000000000149
  0
ARC
  5
3B7
  8
0
  6
______-5
 62
     7
 10
1198.543140406548
 20
-2022.081716719876
 30
0.0
 40
469.9999999999916
 50
69.92328164351909
 51
110.0767183564811
  0
LINE
  5
3B8
  8
0
  6
______-5
 62
     7
 10
1292.543140406546
 20
-1274.67817407934
 30
0.0
 11
1523.543140406543
 21
-1274.67817407934
 31
0.0
  0
ARC
  5
3B9
  8
0
  6
______-5
 62
     7
 10
1458.404641979983
 20
-1311.081716719871
 30
0.0
 40
287.0000000000141
 50
249.923281643519
 51
269.9999999999998
  0
LINE
  5
3BA
  8
0
  6
______-5
 62
     7
 10
873.543140406548
 20
-1270.473593728009
 30
0.0
 11
873.543140406548
 21
-1268.385165573853
 31
0.0
  0
ARC
  5
3BB
  8
0
  6
______-5
 62
     7
 10
938.6816388331094
 20
-1311.081716719871
 30
0.0
 40
287.0000000000118
 50
270.0000000000001
 51
290.0767183564813
  0
LINE
  5
3BC
  8
0
  6
______-5
 62
     7
 10
1300.556004258163
 20
-1262.955682284915
 30
0.0
 11
873.5431404065475
 21
-1262.95568228492
 31
0.0
  0
LINE
  5
3BD
  8
0
  6
______-5
 62
     7
 10
1523.543140406544
 20
-1262.955682284921
 30
0.0
 11
1414.530276554929
 21
-1262.955682284915
 31
0.0
  0
LINE
  5
3BE
  8
0
  6
______-5
 62
     7
 10
1305.985487547101
 20
-1268.385165573852
 30
0.0
 11
1309.543140406545
 21
-1271.942818433298
 31
0.0
  0
LINE
  5
3BF
  8
0
  6
______-5
 62
     7
 10
1405.543140406545
 20
-1271.942818433297
 30
0.0
 11
1309.543140406545
 21
-1271.942818433298
 31
0.0
  0
LINE
  5
3C0
  8
0
  6
______-5
 62
     7
 10
1405.543140406545
 20
-1271.942818433297
 30
0.0
 11
1409.100793265992
 21
-1268.385165573853
 31
0.0
  0
LINE
  5
3C1
  8
0
  6
______-5
 62
     7
 10
873.543140406548
 20
-1380.541455280114
 30
0.0
 11
1523.543140406546
 21
-1380.541455280114
 31
0.0
  0
LINE
  5
3C2
  8
0
  6
______-5
 62
     7
 10
873.5431404065466
 20
-1368.90184743977
 30
0.0
 11
873.5431404065471
 21
-1270.473593728008
 31
0.0
  0
LINE
  5
3C3
  8
0
  6
______-5
 62
     7
 10
873.5431404065471
 20
-1270.473593728008
 30
0.0
 11
1292.543140406547
 21
-1270.473593728009
 31
0.0
  0
LINE
  5
3C4
  8
0
  6
______-5
 62
     7
 10
1292.543140406546
 20
-1274.67817407934
 30
0.0
 11
1292.543140406546
 21
-1270.473593728009
 31
0.0
  0
LINE
  5
3C5
  8
0
  6
______-5
 62
     7
 10
1523.543140406547
 20
-1274.67817407934
 30
0.0
 11
1292.543140406546
 21
-1274.67817407934
 31
0.0
  0
LINE
  5
3C6
  8
0
  6
______-5
 62
     7
 10
1523.543140406547
 20
-1274.67817407934
 30
0.0
 11
1523.543140406548
 21
-1368.901847439771
 31
0.0
  0
LINE
  5
3C7
  8
0
  6
______-5
 62
     7
 10
1535.543140406545
 20
-1260.346689800923
 30
0.0
 11
1523.543140406545
 21
-1260.346689800923
 31
0.0
  0
LINE
  5
3C8
  8
0
  6
______-5
 62
     7
 10
1527.293140406542
 20
-1636.081716719884
 30
0.0
 11
1526.293140406547
 21
-1636.081716719883
 31
0.0
  0
LINE
  5
3C9
  8
0
  6
______-5
 62
     7
 10
1535.543140406546
 20
-1640.081716719886
 30
0.0
 11
1527.293140406544
 21
-1640.081716719887
 31
0.0
  0
CIRCLE
  5
3CA
  8
0
  6
______-5
 62
     7
 10
1148.528927334357
 20
-1543.581716719884
 30
0.0
 40
2.999999999999545
  0
CIRCLE
  5
3CB
  8
0
  6
______-5
 62
     7
 10
1198.528927334357
 20
-1508.581716719883
 30
0.0
 40
2.999999999999318
  0
CIRCLE
  5
3CC
  8
0
  6
______-5
 62
     7
 10
1248.528927334357
 20
-1543.581716719884
 30
0.0
 40
3.0
  0
CIRCLE
  5
3CD
  8
0
  6
______-5
 62
     7
 10
1198.543140406547
 20
-1469.08171671988
 30
0.0
 40
4.500000000000227
  0
CIRCLE
  5
3CE
  8
0
  6
______-5
 62
     7
 10
1198.528927334357
 20
-1508.581716719883
 30
0.0
 40
6.499999999998863
  0
CIRCLE
  5
3CF
  8
0
  6
______-5
 62
     7
 10
1148.528927334357
 20
-1543.581716719884
 30
0.0
 40
6.500000000000455
  0
CIRCLE
  5
3D0
  8
0
  6
______-5
 62
     7
 10
1248.528927334357
 20
-1543.581716719884
 30
0.0
 40
6.500000000000455
  0
CIRCLE
  5
3D1
  8
0
  6
______-5
 62
     7
 10
1198.543140406547
 20
-1469.08171671988
 30
0.0
 40
8.499999999999545
  0
LINE
  5
3D2
  8
0
  6
______-5
 62
     7
 10
1535.543140406545
 20
-1328.532466710873
 30
0.0
 11
1535.543140406541
 21
-1268.385165573857
 31
0.0
  0
LINE
  5
3D3
  8
0
  6
______-5
 62
     7
 10
1532.543140406545
 20
-1328.532466710869
 30
0.0
 11
1532.543140406546
 21
-1368.90184743977
 31
0.0
  0
LINE
  5
3D4
  8
0
  6
______-5
 62
     7
 10
1523.543140406545
 20
-1268.385165573857
 30
0.0
 11
1523.543140406545
 21
-1368.901847439769
 31
0.0
  0
LINE
  5
3D5
  8
0
  6
______-5
 62
     7
 10
1523.543140406545
 20
-1598.081716719886
 30
0.0
 11
1523.543140406546
 21
-1599.081716719884
 31
0.0
  0
LINE
  5
3D6
  8
0
  6
______-5
 62
     7
 10
1532.543140406545
 20
-1396.441455280114
 30
0.0
 11
1532.543140406545
 21
-1566.074281749963
 31
0.0
  0
LINE
  5
3D7
  8
0
  6
______-5
 62
     7
 10
1532.543140406545
 20
-1566.074281749963
 30
0.0
 11
1535.543140406544
 21
-1566.074281749961
 31
0.0
  0
LINE
  5
3D8
  8
0
  6
______-5
 62
     7
 10
1535.543140406542
 20
-1616.074281749963
 30
0.0
 11
1535.543140406542
 21
-1566.074281749963
 31
0.0
  0
LINE
  5
3D9
  8
0
  6
______-5
 62
     7
 10
1527.293140406541
 20
-1616.074281749963
 30
0.0
 11
1527.293140406542
 21
-1598.081716719885
 31
0.0
  0
LINE
  5
3DA
  8
0
  6
______-5
 62
     7
 10
1527.293140406542
 20
-1598.081716719885
 30
0.0
 11
1523.543140406545
 21
-1598.081716719883
 31
0.0
  0
LINE
  5
3DB
  8
0
  6
______-5
 62
     7
 10
1523.543140406546
 20
-1396.441455280114
 30
0.0
 11
1523.543140406545
 21
-1598.081716719883
 31
0.0
  0
LINE
  5
3DC
  8
0
  6
______-5
 62
     7
 10
873.5431404065457
 20
-1260.346689800922
 30
0.0
 11
861.5431404065462
 21
-1260.346689800923
 31
0.0
  0
LINE
  5
3DD
  8
0
  6
______-5
 62
     7
 10
869.7931404065475
 20
-1640.081716719886
 30
0.0
 11
861.5431404065448
 21
-1640.081716719886
 31
0.0
  0
LINE
  5
3DE
  8
0
  6
______-5
 62
     7
 10
870.7931404065471
 20
-1636.081716719883
 30
0.0
 11
869.7931404065471
 21
-1636.081716719883
 31
0.0
  0
LINE
  5
3DF
  8
0
  6
______-5
 62
     7
 10
861.5431404065448
 20
-1328.532466710873
 30
0.0
 11
861.5431404065462
 21
-1268.385165573857
 31
0.0
  0
LINE
  5
3E0
  8
0
  6
______-5
 62
     7
 10
864.5431404065462
 20
-1566.074281749961
 30
0.0
 11
861.5431404065466
 21
-1566.074281749962
 31
0.0
  0
LINE
  5
3E1
  8
0
  6
______-5
 62
     7
 10
861.5431404065471
 20
-1616.074281749962
 30
0.0
 11
861.5431404065466
 21
-1566.074281749962
 31
0.0
  0
LINE
  5
3E2
  8
0
  6
______-5
 62
     7
 10
864.5431404065457
 20
-1328.532466710869
 30
0.0
 11
864.5431404065453
 21
-1368.901847439769
 31
0.0
  0
LINE
  5
3E3
  8
0
  6
______-5
 62
     7
 10
864.5431404065453
 20
-1396.441455280114
 30
0.0
 11
864.5431404065462
 21
-1566.074281749961
 31
0.0
  0
LINE
  5
3E4
  8
0
  6
______-5
 62
     7
 10
869.7931404065475
 20
-1616.074281749961
 30
0.0
 11
869.7931404065466
 21
-1598.081716719885
 31
0.0
  0
LINE
  5
3E5
  8
0
  6
______-5
 62
     7
 10
869.7931404065466
 20
-1598.081716719885
 30
0.0
 11
873.5431404065444
 21
-1598.081716719883
 31
0.0
  0
LINE
  5
3E6
  8
0
  6
______-5
 62
     7
 10
873.5431404065453
 20
-1598.081716719885
 30
0.0
 11
873.5431404065457
 21
-1599.081716719884
 31
0.0
  0
LINE
  5
3E7
  8
0
  6
______-5
 62
     7
 10
873.5431404065462
 20
-1396.441455280113
 30
0.0
 11
873.5431404065444
 21
-1598.081716719883
 31
0.0
  0
LINE
  5
3E8
  8
0
  6
______-5
 62
     7
 10
873.5431404065453
 20
-1268.385165573856
 30
0.0
 11
873.5431404065448
 21
-1368.90184743977
 31
0.0
  0
LINE
  5
3E9
  8
0
  6
______-5
 62
     7
 10
1300.556004258163
 20
-1262.955682284916
 30
0.0
 11
1305.985487547101
 21
-1268.385165573852
 31
0.0
  0
LINE
  5
3EA
  8
0
  6
______-5
 62
     7
 10
1414.530276554927
 20
-1262.955682284916
 30
0.0
 11
1409.100793265991
 21
-1268.385165573852
 31
0.0
  0
LINE
  5
3EB
  8
0
  6
______-5
 62
     7
 10
870.7931404065466
 20
-1631.970755471548
 30
0.0
 11
870.7931404065471
 21
-1616.074281749958
 31
0.0
  0
LINE
  5
3EC
  8
0
  6
______-5
 62
     7
 10
1526.293140406547
 20
-1631.970755471549
 30
0.0
 11
1526.293140406546
 21
-1616.07428174996
 31
0.0
  0
LINE
  5
3ED
  8
0
  6
______-5
 62
     7
 10
1461.043140406546
 20
-1639.081716719886
 30
0.0
 11
1461.043140406548
 21
-1638.899053745097
 31
0.0
  0
LINE
  5
3EE
  8
0
  6
______-5
 62
     7
 10
1501.043140406548
 20
-1638.899053745097
 30
0.0
 11
1501.043140406546
 21
-1639.081716719885
 31
0.0
  0
LINE
  5
3EF
  8
0
  6
______-5
 62
     7
 10
1526.293140406548
 20
-1639.081716719885
 30
0.0
 11
1526.293140406547
 21
-1631.970755471669
 31
0.0
  0
LINE
  5
3F0
  8
0
  6
______-5
 62
     7
 10
870.7931404065457
 20
-1639.081716719885
 30
0.0
 11
870.7931404065471
 21
-1631.970755471668
 31
0.0
  0
LINE
  5
3F1
  8
0
  6
______-5
 62
     7
 10
1523.543140406549
 20
-1396.441455280116
 30
0.0
 11
1523.543140406549
 21
-1380.541455280113
 31
0.0
  0
LINE
  5
3F2
  8
0
  6
______-5
 62
     7
 10
873.5431404065484
 20
-1380.541455280111
 30
0.0
 11
873.543140406548
 21
-1396.441455280115
 31
0.0
  0
LINE
  5
3F3
  8
0
  6
______-5
 62
     7
 10
873.543140406548
 20
-1262.955682284915
 30
0.0
 11
873.543140406548
 21
-1268.385165573858
 31
0.0
  0
LINE
  5
3F4
  8
0
  6
______-5
 62
     7
 10
1523.543140406546
 20
-1262.955682284914
 30
0.0
 11
1523.543140406545
 21
-1268.38516557386
 31
0.0
  0
POLYLINE
  5
3F5
  8
0
  6
______-5
 62
     7
 66
     1
 10
0.0
 20
0.0
 30
0.0
 70
   128
  0
VERTEX
  5
3F6
  8
0
  6
______-5
 62
     7
 10
909.052409211442
 20
-1315.872225214703
 30
0.0
  0
VERTEX
  5
3F7
  8
0
  6
______-5
 62
     7
 10
909.043155809597
 20
-1315.733774650621
 30
0.0
  0
VERTEX
  5
3F8
  8
0
  6
______-5
 62
     7
 10
909.051374535074
 20
-1315.591836778336
 30
0.0
  0
VERTEX
  5
3F9
  8
0
  6
______-5
 62
     7
 10
909.078304497777
 20
-1315.447156322209
 30
0.0
  0
VERTEX
  5
3FA
  8
0
  6
______-5
 62
     7
 10
909.1250339954072
 20
-1315.300589232985
 30
0.0
  0
VERTEX
  5
3FB
  8
0
  6
______-5
 62
     7
 10
909.192456310841
 20
-1315.153094663061
 30
0.0
  0
VERTEX
  5
3FC
  8
0
  6
______-5
 62
     7
 10
909.2812268493003
 20
-1315.005722010138
 30
0.0
  0
VERTEX
  5
3FD
  8
0
  6
______-5
 62
     7
 10
909.3917240879287
 20
-1314.859592975427
 30
0.0
  0
VERTEX
  5
3FE
  8
0
  6
______-5
 62
     7
 10
909.5240169419312
 20
-1314.715878930026
 30
0.0
  0
VERTEX
  5
3FF
  8
0
  6
______-5
 62
     7
 10
909.6778410642387
 20
-1314.575774263837
 30
0.0
  0
VERTEX
  5
400
  8
0
  6
______-5
 62
     7
 10
909.852586260431
 20
-1314.440466766862
 30
0.0
  0
VERTEX
  5
401
  8
0
  6
______-5
 62
     7
 10
910.0472966178554
 20
-1314.311106418253
 30
0.0
  0
VERTEX
  5
402
  8
0
  6
______-5
 62
     7
 10
910.2606841535467
 20
-1314.18877418934
 30
0.0
  0
VERTEX
  5
403
  8
0
  6
______-5
 62
     7
 10
910.4816315062358
 20
-1314.078860414961
 30
0.0
  0
VERTEX
  5
404
  8
0
  6
______-5
 62
     7
 10
910.7166846083896
 20
-1313.977091569823
 30
0.0
  0
VERTEX
  5
405
  8
0
  6
______-5
 62
     7
 10
910.9640173586372
 20
-1313.884105915218
 30
0.0
  0
VERTEX
  5
406
  8
0
  6
______-5
 62
     7
 10
911.2216644782748
 20
-1313.800405512956
 30
0.0
  0
VERTEX
  5
407
  8
0
  6
______-5
 62
     7
 10
911.4875713870179
 20
-1313.726348489282
 30
0.0
  0
VERTEX
  5
408
  8
0
  6
______-5
 62
     7
 10
911.7596450956589
 20
-1313.662146589329
 30
0.0
  0
VERTEX
  5
409
  8
0
  6
______-5
 62
     7
 10
912.0358036351909
 20
-1313.607867844564
 30
0.0
  0
VERTEX
  5
40A
  8
0
  6
______-5
 62
     7
 10
912.418487230379
 20
-1313.549289747759
 30
0.0
  0
VERTEX
  5
40B
  8
0
  6
______-5
 62
     7
 10
912.8001330128677
 20
-1313.508769578613
 30
0.0
  0
VERTEX
  5
40C
  8
0
  6
______-5
 62
     7
 10
913.1762963739375
 20
-1313.485376473755
 30
0.0
  0
VERTEX
  5
40D
  8
0
  6
______-5
 62
     7
 10
913.5431404065439
 20
-1313.477887647403
 30
0.0
  0
VERTEX
  5
40E
  8
0
  6
______-5
 62
     7
 10
913.9167512382332
 20
-1313.48565578236
 30
0.0
  0
VERTEX
  5
40F
  8
0
  6
______-5
 62
     7
 10
914.2999549671035
 20
-1313.50993635618
 30
0.0
  0
VERTEX
  5
410
  8
0
  6
______-5
 62
     7
 10
914.688683331733
 20
-1313.552012455294
 30
0.0
  0
VERTEX
  5
411
  8
0
  6
______-5
 62
     7
 10
915.0782184930649
 20
-1313.61285010233
 30
0.0
  0
VERTEX
  5
412
  8
0
  6
______-5
 62
     7
 10
915.4633124813777
 20
-1313.693008093042
 30
0.0
  0
VERTEX
  5
413
  8
0
  6
______-5
 62
     7
 10
915.7591278553268
 20
-1313.76961036706
 30
0.0
  0
VERTEX
  5
414
  8
0
  6
______-5
 62
     7
 10
916.045960117347
 20
-1313.858001722058
 30
0.0
  0
VERTEX
  5
415
  8
0
  6
______-5
 62
     7
 10
916.3210508328525
 20
-1313.95777369179
 30
0.0
  0
VERTEX
  5
416
  8
0
  6
______-5
 62
     7
 10
916.5817499338914
 20
-1314.068305460502
 30
0.0
  0
VERTEX
  5
417
  8
0
  6
______-5
 62
     7
 10
916.8255966595425
 20
-1314.18877418934
 30
0.0
  0
VERTEX
  5
418
  8
0
  6
______-5
 62
     7
 10
917.0389841952333
 20
-1314.311106418253
 30
0.0
  0
VERTEX
  5
419
  8
0
  6
______-5
 62
     7
 10
917.2336945526567
 20
-1314.440466766864
 30
0.0
  0
VERTEX
  5
41A
  8
0
  6
______-5
 62
     7
 10
917.4084397488509
 20
-1314.575774263837
 30
0.0
  0
VERTEX
  5
41B
  8
0
  6
______-5
 62
     7
 10
917.5622638711575
 20
-1314.715878930026
 30
0.0
  0
VERTEX
  5
41C
  8
0
  6
______-5
 62
     7
 10
917.69455672516
 20
-1314.859592975426
 30
0.0
  0
VERTEX
  5
41D
  8
0
  6
______-5
 62
     7
 10
917.805053963787
 20
-1315.005722010138
 30
0.0
  0
VERTEX
  5
41E
  8
0
  6
______-5
 62
     7
 10
917.8938245022468
 20
-1315.153094663061
 30
0.0
  0
VERTEX
  5
41F
  8
0
  6
______-5
 62
     7
 10
917.9612468176838
 20
-1315.300589232985
 30
0.0
  0
VERTEX
  5
420
  8
0
  6
______-5
 62
     7
 10
918.0079763153112
 20
-1315.447156322209
 30
0.0
  0
VERTEX
  5
421
  8
0
  6
______-5
 62
     7
 10
918.0349062780151
 20
-1315.591836778337
 30
0.0
  0
VERTEX
  5
422
  8
0
  6
______-5
 62
     7
 10
918.0431250034917
 20
-1315.733774650621
 30
0.0
  0
VERTEX
  5
423
  8
0
  6
______-5
 62
     7
 10
918.0338716016463
 20
-1315.872225214701
 30
0.0
  0
SEQEND
  5
424
  8
0
  6
______-5
 62
     7
  0
POLYLINE
  5
425
  8
0
  6
______-5
 62
     7
 66
     1
 10
0.0
 20
0.0
 30
0.0
 70
   128
  0
VERTEX
  5
426
  8
0
  6
______-5
 62
     7
 10
1479.052409211454
 20
-1315.872225214706
 30
0.0
  0
VERTEX
  5
427
  8
0
  6
______-5
 62
     7
 10
1479.043155809609
 20
-1315.733774650625
 30
0.0
  0
VERTEX
  5
428
  8
0
  6
______-5
 62
     7
 10
1479.051374535086
 20
-1315.591836778341
 30
0.0
  0
VERTEX
  5
429
  8
0
  6
______-5
 62
     7
 10
1479.07830449779
 20
-1315.447156322212
 30
0.0
  0
VERTEX
  5
42A
  8
0
  6
______-5
 62
     7
 10
1479.125033995417
 20
-1315.300589232989
 30
0.0
  0
VERTEX
  5
42B
  8
0
  6
______-5
 62
     7
 10
1479.192456310853
 20
-1315.153094663065
 30
0.0
  0
VERTEX
  5
42C
  8
0
  6
______-5
 62
     7
 10
1479.281226849313
 20
-1315.005722010141
 30
0.0
  0
VERTEX
  5
42D
  8
0
  6
______-5
 62
     7
 10
1479.39172408794
 20
-1314.859592975432
 30
0.0
  0
VERTEX
  5
42E
  8
0
  6
______-5
 62
     7
 10
1479.524016941943
 20
-1314.715878930029
 30
0.0
  0
VERTEX
  5
42F
  8
0
  6
______-5
 62
     7
 10
1479.677841064251
 20
-1314.57577426384
 30
0.0
  0
VERTEX
  5
430
  8
0
  6
______-5
 62
     7
 10
1479.852586260443
 20
-1314.440466766867
 30
0.0
  0
VERTEX
  5
431
  8
0
  6
______-5
 62
     7
 10
1480.047296617867
 20
-1314.311106418257
 30
0.0
  0
VERTEX
  5
432
  8
0
  6
______-5
 62
     7
 10
1480.260684153559
 20
-1314.188774189344
 30
0.0
  0
VERTEX
  5
433
  8
0
  6
______-5
 62
     7
 10
1480.481631506247
 20
-1314.078860414966
 30
0.0
  0
VERTEX
  5
434
  8
0
  6
______-5
 62
     7
 10
1480.716684608402
 20
-1313.977091569826
 30
0.0
  0
VERTEX
  5
435
  8
0
  6
______-5
 62
     7
 10
1480.964017358649
 20
-1313.884105915222
 30
0.0
  0
VERTEX
  5
436
  8
0
  6
______-5
 62
     7
 10
1481.221664478287
 20
-1313.800405512958
 30
0.0
  0
VERTEX
  5
437
  8
0
  6
______-5
 62
     7
 10
1481.48757138703
 20
-1313.726348489285
 30
0.0
  0
VERTEX
  5
438
  8
0
  6
______-5
 62
     7
 10
1481.75964509567
 20
-1313.662146589333
 30
0.0
  0
VERTEX
  5
439
  8
0
  6
______-5
 62
     7
 10
1482.035803635203
 20
-1313.607867844567
 30
0.0
  0
VERTEX
  5
43A
  8
0
  6
______-5
 62
     7
 10
1482.418487230391
 20
-1313.549289747762
 30
0.0
  0
VERTEX
  5
43B
  8
0
  6
______-5
 62
     7
 10
1482.800133012879
 20
-1313.508769578616
 30
0.0
  0
VERTEX
  5
43C
  8
0
  6
______-5
 62
     7
 10
1483.176296373949
 20
-1313.485376473759
 30
0.0
  0
VERTEX
  5
43D
  8
0
  6
______-5
 62
     7
 10
1483.543140406557
 20
-1313.477887647406
 30
0.0
  0
VERTEX
  5
43E
  8
0
  6
______-5
 62
     7
 10
1483.916751238244
 20
-1313.485655782365
 30
0.0
  0
VERTEX
  5
43F
  8
0
  6
______-5
 62
     7
 10
1484.299954967115
 20
-1313.509936356185
 30
0.0
  0
VERTEX
  5
440
  8
0
  6
______-5
 62
     7
 10
1484.688683331745
 20
-1313.552012455298
 30
0.0
  0
VERTEX
  5
441
  8
0
  6
______-5
 62
     7
 10
1485.078218493076
 20
-1313.612850102334
 30
0.0
  0
VERTEX
  5
442
  8
0
  6
______-5
 62
     7
 10
1485.463312481388
 20
-1313.693008093045
 30
0.0
  0
VERTEX
  5
443
  8
0
  6
______-5
 62
     7
 10
1485.759127855339
 20
-1313.769610367063
 30
0.0
  0
VERTEX
  5
444
  8
0
  6
______-5
 62
     7
 10
1486.045960117359
 20
-1313.858001722061
 30
0.0
  0
VERTEX
  5
445
  8
0
  6
______-5
 62
     7
 10
1486.321050832863
 20
-1313.957773691795
 30
0.0
  0
VERTEX
  5
446
  8
0
  6
______-5
 62
     7
 10
1486.581749933903
 20
-1314.068305460506
 30
0.0
  0
VERTEX
  5
447
  8
0
  6
______-5
 62
     7
 10
1486.825596659554
 20
-1314.188774189345
 30
0.0
  0
VERTEX
  5
448
  8
0
  6
______-5
 62
     7
 10
1487.038984195247
 20
-1314.311106418256
 30
0.0
  0
VERTEX
  5
449
  8
0
  6
______-5
 62
     7
 10
1487.23369455267
 20
-1314.440466766867
 30
0.0
  0
VERTEX
  5
44A
  8
0
  6
______-5
 62
     7
 10
1487.408439748862
 20
-1314.57577426384
 30
0.0
  0
VERTEX
  5
44B
  8
0
  6
______-5
 62
     7
 10
1487.562263871169
 20
-1314.71587893003
 30
0.0
  0
VERTEX
  5
44C
  8
0
  6
______-5
 62
     7
 10
1487.694556725172
 20
-1314.859592975431
 30
0.0
  0
VERTEX
  5
44D
  8
0
  6
______-5
 62
     7
 10
1487.8050539638
 20
-1315.005722010142
 30
0.0
  0
VERTEX
  5
44E
  8
0
  6
______-5
 62
     7
 10
1487.893824502259
 20
-1315.153094663066
 30
0.0
  0
VERTEX
  5
44F
  8
0
  6
______-5
 62
     7
 10
1487.961246817694
 20
-1315.300589232989
 30
0.0
  0
VERTEX
  5
450
  8
0
  6
______-5
 62
     7
 10
1488.007976315324
 20
-1315.447156322213
 30
0.0
  0
VERTEX
  5
451
  8
0
  6
______-5
 62
     7
 10
1488.034906278026
 20
-1315.591836778341
 30
0.0
  0
VERTEX
  5
452
  8
0
  6
______-5
 62
     7
 10
1488.043125003505
 20
-1315.733774650624
 30
0.0
  0
VERTEX
  5
453
  8
0
  6
______-5
 62
     7
 10
1488.033871601659
 20
-1315.872225214706
 30
0.0
  0
SEQEND
  5
454
  8
0
  6
______-5
 62
     7
  0
LINE
  5
455
  8
0
  6
______-5
 62
     7
 10
873.5431404065475
 20
-1368.901847439774
 30
0.0
 11
873.5431404065484
 21
-1380.541455280111
 31
0.0
  0
LINE
  5
456
  8
0
  6
______-5
 62
     7
 10
1523.543140406549
 20
-1380.54145528011
 30
0.0
 11
1523.543140406549
 21
-1368.901847439774
 31
0.0
  0
LINE
  5
457
  8
0
  6
______-5
 62
     7
 10
1535.543140406541
 20
-1337.616867743659
 30
0.0
 11
1535.543140406542
 21
-1566.074281750114
 31
0.0
  0
POLYLINE
  5
458
  8
0
  6
______-5
 62
     7
 66
     1
 10
0.0
 20
0.0
 30
0.0
 70
     1
  0
VERTEX
  5
616
  8
0
  6
______-5
 62
     7
 10
1475.043140406545
 20
-1312.263786032271
 30
0.0
  0
VERTEX
  5
617
  8
0
  6
______-5
 62
     7
 10
1475.206465523117
 20
-1313.092919900839
 30
0.0
  0
VERTEX
  5
618
  8
0
  6
______-5
 62
     7
 10
1475.690164380199
 20
-1313.890190619822
 30
0.0
  0
VERTEX
  5
619
  8
0
  6
______-5
 62
     7
 10
1476.475648701973
 20
-1314.624959522604
 30
0.0
  0
VERTEX
  5
61A
  8
0
  6
______-5
 62
     7
 10
1477.532732766459
 20
-1315.268989852313
 30
0.0
  0
VERTEX
  5
61B
  8
0
  6
______-5
 62
     7
 10
1478.820793425878
 20
-1315.797531884556
 30
0.0
  0
VERTEX
  5
61C
  8
0
  6
______-5
 62
     7
 10
1480.290331231441
 20
-1316.190274045444
 30
0.0
  0
VERTEX
  5
61D
  8
0
  6
______-5
 62
     7
 10
1481.884872669408
 20
-1316.432123473984
 30
0.0
  0
VERTEX
  5
61E
  8
0
  6
______-5
 62
     7
 10
1483.543140406545
 20
-1316.513786032271
 30
0.0
  0
VERTEX
  5
61F
  8
0
  6
______-5
 62
     7
 10
1485.201408143682
 20
-1316.432123473984
 30
0.0
  0
VERTEX
  5
620
  8
0
  6
______-5
 62
     7
 10
1486.795949581648
 20
-1316.190274045444
 30
0.0
  0
VERTEX
  5
621
  8
0
  6
______-5
 62
     7
 10
1488.265487387211
 20
-1315.797531884556
 30
0.0
  0
VERTEX
  5
622
  8
0
  6
______-5
 62
     7
 10
1489.55354804663
 20
-1315.268989852313
 30
0.0
  0
VERTEX
  5
623
  8
0
  6
______-5
 62
     7
 10
1490.610632111116
 20
-1314.624959522604
 30
0.0
  0
VERTEX
  5
624
  8
0
  6
______-5
 62
     7
 10
1491.39611643289
 20
-1313.890190619822
 30
0.0
  0
VERTEX
  5
625
  8
0
  6
______-5
 62
     7
 10
1491.879815289972
 20
-1313.092919900839
 30
0.0
  0
VERTEX
  5
626
  8
0
  6
______-5
 62
     7
 10
1492.043140406544
 20
-1312.263786032271
 30
0.0
  0
VERTEX
  5
627
  8
0
  6
______-5
 62
     7
 10
1491.879815289972
 20
-1311.434652163702
 30
0.0
  0
VERTEX
  5
628
  8
0
  6
______-5
 62
     7
 10
1491.39611643289
 20
-1310.637381444719
 30
0.0
  0
VERTEX
  5
629
  8
0
  6
______-5
 62
     7
 10
1490.610632111116
 20
-1309.902612541938
 30
0.0
  0
VERTEX
  5
62A
  8
0
  6
______-5
 62
     7
 10
1489.55354804663
 20
-1309.258582212228
 30
0.0
  0
VERTEX
  5
62B
  8
0
  6
______-5
 62
     7
 10
1488.265487387211
 20
-1308.730040179985
 30
0.0
  0
VERTEX
  5
62C
  8
0
  6
______-5
 62
     7
 10
1486.795949581648
 20
-1308.337298019098
 30
0.0
  0
VERTEX
  5
62D
  8
0
  6
______-5
 62
     7
 10
1485.201408143682
 20
-1308.095448590557
 30
0.0
  0
VERTEX
  5
62E
  8
0
  6
______-5
 62
     7
 10
1483.543140406545
 20
-1308.013786032271
 30
0.0
  0
VERTEX
  5
62F
  8
0
  6
______-5
 62
     7
 10
1481.884872669408
 20
-1308.095448590557
 30
0.0
  0
VERTEX
  5
630
  8
0
  6
______-5
 62
     7
 10
1480.290331231441
 20
-1308.337298019098
 30
0.0
  0
VERTEX
  5
631
  8
0
  6
______-5
 62
     7
 10
1478.820793425878
 20
-1308.730040179985
 30
0.0
  0
VERTEX
  5
632
  8
0
  6
______-5
 62
     7
 10
1477.532732766459
 20
-1309.258582212228
 30
0.0
  0
VERTEX
  5
633
  8
0
  6
______-5
 62
     7
 10
1476.475648701973
 20
-1309.902612541938
 30
0.0
  0
VERTEX
  5
634
  8
0
  6
______-5
 62
     7
 10
1475.690164380199
 20
-1310.637381444719
 30
0.0
  0
VERTEX
  5
635
  8
0
  6
______-5
 62
     7
 10
1475.206465523117
 20
-1311.434652163702
 30
0.0
  0
SEQEND
  5
65B
  8
0
  6
______-5
 62
     7
  0
POLYLINE
  5
459
  8
0
  6
______-5
 62
     7
 66
     1
 10
0.0
 20
0.0
 30
0.0
 70
     1
  0
VERTEX
  5
636
  8
0
  6
______-5
 62
     7
 10
905.0431404065444
 20
-1312.26378603227
 30
0.0
  0
VERTEX
  5
637
  8
0
  6
______-5
 62
     7
 10
905.2064655231169
 20
-1313.092919900838
 30
0.0
  0
VERTEX
  5
638
  8
0
  6
______-5
 62
     7
 10
905.6901643801984
 20
-1313.890190619822
 30
0.0
  0
VERTEX
  5
639
  8
0
  6
______-5
 62
     7
 10
906.4756487019729
 20
-1314.624959522603
 30
0.0
  0
VERTEX
  5
63A
  8
0
  6
______-5
 62
     7
 10
907.5327327664589
 20
-1315.268989852313
 30
0.0
  0
VERTEX
  5
63B
  8
0
  6
______-5
 62
     7
 10
908.820793425878
 20
-1315.797531884556
 30
0.0
  0
VERTEX
  5
63C
  8
0
  6
______-5
 62
     7
 10
910.2903312314415
 20
-1316.190274045443
 30
0.0
  0
VERTEX
  5
63D
  8
0
  6
______-5
 62
     7
 10
911.8848726694079
 20
-1316.432123473984
 30
0.0
  0
VERTEX
  5
63E
  8
0
  6
______-5
 62
     7
 10
913.543140406545
 20
-1316.51378603227
 30
0.0
  0
VERTEX
  5
63F
  8
0
  6
______-5
 62
     7
 10
915.2014081436822
 20
-1316.432123473984
 30
0.0
  0
VERTEX
  5
640
  8
0
  6
______-5
 62
     7
 10
916.7959495816485
 20
-1316.190274045443
 30
0.0
  0
VERTEX
  5
641
  8
0
  6
______-5
 62
     7
 10
918.265487387212
 20
-1315.797531884556
 30
0.0
  0
VERTEX
  5
642
  8
0
  6
______-5
 62
     7
 10
919.5535480466311
 20
-1315.268989852313
 30
0.0
  0
VERTEX
  5
643
  8
0
  6
______-5
 62
     7
 10
920.6106321111172
 20
-1314.624959522604
 30
0.0
  0
VERTEX
  5
644
  8
0
  6
______-5
 62
     7
 10
921.3961164328916
 20
-1313.890190619822
 30
0.0
  0
VERTEX
  5
645
  8
0
  6
______-5
 62
     7
 10
921.8798152899732
 20
-1313.092919900838
 30
0.0
  0
VERTEX
  5
646
  8
0
  6
______-5
 62
     7
 10
922.0431404065457
 20
-1312.26378603227
 30
0.0
  0
VERTEX
  5
647
  8
0
  6
______-5
 62
     7
 10
921.8798152899732
 20
-1311.434652163701
 30
0.0
  0
VERTEX
  5
648
  8
0
  6
______-5
 62
     7
 10
921.3961164328916
 20
-1310.637381444718
 30
0.0
  0
VERTEX
  5
649
  8
0
  6
______-5
 62
     7
 10
920.6106321111172
 20
-1309.902612541936
 30
0.0
  0
VERTEX
  5
64A
  8
0
  6
______-5
 62
     7
 10
919.5535480466311
 20
-1309.258582212227
 30
0.0
  0
VERTEX
  5
64B
  8
0
  6
______-5
 62
     7
 10
918.265487387212
 20
-1308.730040179984
 30
0.0
  0
VERTEX
  5
64C
  8
0
  6
______-5
 62
     7
 10
916.7959495816485
 20
-1308.337298019097
 30
0.0
  0
VERTEX
  5
64D
  8
0
  6
______-5
 62
     7
 10
915.2014081436822
 20
-1308.095448590556
 30
0.0
  0
VERTEX
  5
64E
  8
0
  6
______-5
 62
     7
 10
913.543140406545
 20
-1308.013786032269
 30
0.0
  0
VERTEX
  5
64F
  8
0
  6
______-5
 62
     7
 10
911.8848726694077
 20
-1308.095448590556
 30
0.0
  0
VERTEX
  5
650
  8
0
  6
______-5
 62
     7
 10
910.2903312314415
 20
-1308.337298019097
 30
0.0
  0
VERTEX
  5
651
  8
0
  6
______-5
 62
     7
 10
908.820793425878
 20
-1308.730040179984
 30
0.0
  0
VERTEX
  5
652
  8
0
  6
______-5
 62
     7
 10
907.5327327664589
 20
-1309.258582212227
 30
0.0
  0
VERTEX
  5
653
  8
0
  6
______-5
 62
     7
 10
906.4756487019728
 20
-1309.902612541937
 30
0.0
  0
VERTEX
  5
654
  8
0
  6
______-5
 62
     7
 10
905.6901643801984
 20
-1310.637381444718
 30
0.0
  0
VERTEX
  5
655
  8
0
  6
______-5
 62
     7
 10
905.2064655231169
 20
-1311.434652163701
 30
0.0
  0
SEQEND
  5
65C
  8
0
  6
______-5
 62
     7
  0
LINE
  5
45A
  8
0
  6
______-5
 62
     7
 10
1535.543140406542
 20
-1328.532466710875
 30
0.0
 11
1535.543140406542
 21
-1337.616867743679
 31
0.0
  0
LINE
  5
45B
  8
0
  6
______-5
 62
     7
 10
1535.543140406545
 20
-1260.346689800923
 30
0.0
 11
1535.543140406545
 21
-1268.385165573863
 31
0.0
  0
LINE
  5
45C
  8
0
  6
______-5
 62
     7
 10
1523.543140406545
 20
-1268.385165573863
 30
0.0
 11
1523.543140406545
 21
-1260.346689800924
 31
0.0
  0
LINE
  5
45D
  8
0
  6
______-5
 62
     7
 10
1532.543140406545
 20
-1396.441455280116
 30
0.0
 11
1532.543140406545
 21
-1368.901847439772
 31
0.0
  0
LINE
  5
45E
  8
0
  6
______-5
 62
     7
 10
1523.543140406545
 20
-1368.901847439773
 30
0.0
 11
1523.543140406545
 21
-1396.441455280116
 31
0.0
  0
LINE
  5
45F
  8
0
  6
______-5
 62
     7
 10
1535.543140406545
 20
-1616.074281749963
 30
0.0
 11
1535.543140406546
 21
-1632.96428507915
 31
0.0
  0
LINE
  5
460
  8
0
  6
______-5
 62
     7
 10
1527.293140406541
 20
-1616.074281749963
 30
0.0
 11
1527.293140406542
 21
-1632.964285079154
 31
0.0
  0
LINE
  5
461
  8
0
  6
______-5
 62
     7
 10
1535.543140406545
 20
-1632.964285079271
 30
0.0
 11
1535.543140406546
 21
-1640.081716719886
 31
0.0
  0
LINE
  5
462
  8
0
  6
______-5
 62
     7
 10
1527.293140406541
 20
-1632.964285079271
 30
0.0
 11
1527.293140406542
 21
-1640.081716719886
 31
0.0
  0
LINE
  5
463
  8
0
  6
______-5
 62
     7
 10
861.5431404065471
 20
-1337.616867743658
 30
0.0
 11
861.5431404065471
 21
-1566.074281750113
 31
0.0
  0
LINE
  5
464
  8
0
  6
______-5
 62
     7
 10
861.5431404065475
 20
-1328.532466710874
 30
0.0
 11
861.5431404065471
 21
-1337.616867743679
 31
0.0
  0
LINE
  5
465
  8
0
  6
______-5
 62
     7
 10
861.5431404065453
 20
-1260.346689800923
 30
0.0
 11
861.5431404065453
 21
-1268.385165573862
 31
0.0
  0
LINE
  5
466
  8
0
  6
______-5
 62
     7
 10
861.5431404065448
 20
-1632.964285079271
 30
0.0
 11
861.5431404065448
 21
-1640.081716719886
 31
0.0
  0
LINE
  5
467
  8
0
  6
______-5
 62
     7
 10
861.5431404065453
 20
-1616.074281749961
 30
0.0
 11
861.5431404065453
 21
-1632.96428507915
 31
0.0
  0
LINE
  5
468
  8
0
  6
______-5
 62
     7
 10
864.5431404065453
 20
-1396.441455280115
 30
0.0
 11
864.5431404065457
 21
-1368.901847439772
 31
0.0
  0
LINE
  5
469
  8
0
  6
______-5
 62
     7
 10
869.7931404065471
 20
-1632.964285079271
 30
0.0
 11
869.7931404065475
 21
-1640.081716719886
 31
0.0
  0
LINE
  5
46A
  8
0
  6
______-5
 62
     7
 10
869.7931404065475
 20
-1616.074281749961
 30
0.0
 11
869.7931404065466
 21
-1632.964285079154
 31
0.0
  0
LINE
  5
46B
  8
0
  6
______-5
 62
     7
 10
873.5431404065453
 20
-1368.901847439771
 30
0.0
 11
873.5431404065457
 21
-1396.441455280115
 31
0.0
  0
LINE
  5
46C
  8
0
  6
______-5
 62
     7
 10
873.5431404065453
 20
-1268.385165573863
 30
0.0
 11
873.5431404065453
 21
-1260.346689800923
 31
0.0
  0
ENDBLK
  5
8B
  8
0
  0
BLOCK
  8
0
  2
*D16
 70
     1
 10
0.0
 20
0.0
 30
0.0
  3
*D16
  1

  0
LINE
  5
46D
  8
H10V
  6
CONTINUOUS
 62
     0
 10
208.4530475555916
 20
-846.1447817155492
 30
0.0
 11
274.6666666666664
 21
-846.1447817155492
 31
0.0
  0
LINE
  5
46E
  8
H10V
  6
CONTINUOUS
 62
     0
 10
208.4530475555916
 20
-776.1447817155492
 30
0.0
 11
274.6666666666664
 21
-776.1447817155492
 31
0.0
  0
LINE
  5
46F
  8
H10V
  6
CONTINUOUS
 62
     0
 10
234.6666666666664
 20
-846.1447817155492
 30
0.0
 11
234.6666666666664
 21
-1042.0759965593
 31
0.0
  0
LINE
  5
470
  8
H10V
  6
CONTINUOUS
 62
     0
 10
234.6666666666664
 20
-846.1447817155492
 30
0.0
 11
234.6666666666664
 21
-776.1447817155492
 31
0.0
  0
LINE
  5
471
  8
H10V
  6
CONTINUOUS
 62
     0
 10
234.6666666666664
 20
-896.1572328874242
 30
0.0
 11
234.6666666666664
 21
-946.1696840592992
 31
0.0
  0
LINE
  5
476
  8
H10V
  6
CONTINUOUS
 62
     0
 10
234.6666666666664
 20
-726.1323305436742
 30
0.0
 11
234.6666666666664
 21
-676.1198793717992
 31
0.0
  0
INSERT
  5
47B
  8
H10V
 62
     0
  2
VW_EMPTYARROW
 10
234.6666666666664
 20
-846.1447817155492
 30
0.0
 41
50.012451171875
 42
50.012451171875
 43
50.012451171875
 50
90.0
  0
INSERT
  5
47C
  8
H10V
 62
     0
  2
VW_EMPTYARROW
 10
234.6666666666664
 20
-776.1447817155492
 30
0.0
 41
50.012451171875
 42
50.012451171875
 43
50.012451171875
 50
270.0
  0
TEXT
  5
47D
  8
H10V
 62
     0
 10
224.6666666666666
 20
-1037.340047340549
 30
0.0
 40
64.98828125000011
  1
70
 50
90.0
  7
_______
1001
ACADANNOTATIVE
1000
AnnotativeData
1002
{
1070
     1
1070
     0
1002
}
  0
POINT
  5
47E
  8
DEFPOINTS
 62
     0
 10
168.4530475555916
 20
-846.1447817155492
 30
0.0
  0
POINT
  5
560
  8
DEFPOINTS
 62
     0
 10
168.4530475555916
 20
-776.1447817155492
 30
0.0
  0
POINT
  5
561
  8
DEFPOINTS
 62
     0
 10
234.6666666666664
 20
-776.1447817155492
 30
0.0
  0
ENDBLK
  5
8E
  8
0
  0
BLOCK
  8
0
  2
VW_EMPTYARROW
 70
     0
 10
0.0
 20
0.0
 30
0.0
  3
VW_EMPTYARROW
  1

  0
LINE
  5
A5
  8
0
  6
BYBLOCK
 62
     0
 10
0.0
 20
0.0
 30
0.0
 11
-1.0
 21
0.0
 31
0.0
  0
POLYLINE
  5
A6
  8
0
  6
CONTINUOUS
 62
     0
 66
     1
 10
0.0
 20
0.0
 30
0.0
 70
   128
  0
VERTEX
  5
A7
  8
0
  6
CONTINUOUS
 62
     0
 10
-1.0
 20
0.2679491924311228
 30
0.0
  0
VERTEX
  5
A8
  8
0
  6
CONTINUOUS
 62
     0
 10
0.0
 20
0.0
 30
0.0
  0
VERTEX
  5
A9
  8
0
  6
CONTINUOUS
 62
     0
 10
-0.9999999999999999
 20
-0.267949192431123
 30
0.0
  0
SEQEND
  5
AA
  8
0
  6
CONTINUOUS
 62
     0
  0
ENDBLK
  5
A4
  8
0
  0
ENDSEC
  0
SECTION
  2
ENTITIES
  0
LINE
  5
47F
  8
H10V
  6
CONTINUOUS
 62
     7
 10
-810.0900928509554
 20
3367.758890297482
 30
0.0
 11
2789.909907149045
 21
3367.758890297482
 31
0.0
  0
LINE
  5
480
  8
H10V
  6
CONTINUOUS
 62
     7
 10
2789.909907149045
 20
-1832.241109702518
 30
0.0
 11
-810.0900928509554
 21
-1832.241109702518
 31
0.0
  0
LINE
  5
481
  8
H10V
  6
CONTINUOUS
 62
     7
 10
-810.0900928509554
 20
-1832.241109702518
 30
0.0
 11
-810.0900928509554
 21
3367.758890297482
 31
0.0
  0
LINE
  5
482
  8
H10V
  6
CONTINUOUS
 62
     7
 10
2789.909907149045
 20
3367.758890297482
 30
0.0
 11
2789.909907149045
 21
-1832.241109702518
 31
0.0
  0
LINE
  5
483
  8
H10V
  6
CONTINUOUS
 62
     7
 10
989.9099071490446
 20
-1382.241109702518
 30
0.0
 11
2789.909907149045
 21
-1382.241109702518
 31
0.0
  0
LINE
  5
484
  8
H10V
  6
CONTINUOUS
 62
     7
 10
989.9099071490446
 20
-1832.241109702518
 30
0.0
 11
989.9099071490446
 21
-1382.241109702518
 31
0.0
  0
TEXT
  5
485
  8
H10V
 62
     7
 10
1007.909907149045
 20
-1436.244820119184
 30
0.0
 40
32.49414062499999
  1
NOTE
  7
_______
 11
1007.909907149045
 21
-1403.750679494184
 31
0.0
 73
     3
  0
LINE
  5
486
  8
H10V
  6
CONTINUOUS
 62
     7
 10
1689.909907149045
 20
-1832.241109702518
 30
0.0
 11
1689.909907149045
 21
-1382.241109702518
 31
0.0
  0
TEXT
  5
487
  8
H10V
 62
     7
 10
1707.909907149045
 20
-1436.244820119184
 30
0.0
 40
32.49414062499999
  1
TITLE
  7
_______
 11
1707.909907149045
 21
-1403.750679494184
 31
0.0
 73
     3
  0
LINE
  5
488
  8
H10V
  6
CONTINUOUS
 62
     7
 10
989.9099071490446
 20
-1632.241109702518
 30
0.0
 11
2789.909907149045
 21
-1632.241109702518
 31
0.0
  0
TEXT
  5
489
  8
H10V
 62
     7
 10
1957.909907149045
 20
-1685.118420119183
 30
0.0
 40
32.49414062499999
  1
DRAWN
  7
_______
 11
1957.909907149045
 21
-1652.624279494183
 31
0.0
 73
     3
  0
TEXT
  5
48A
  8
H10V
 62
     7
 10
1457.909907149045
 20
-1685.118420119183
 30
0.0
 40
32.49414062499999
  1
DATE
  7
_______
 11
1457.909907149045
 21
-1652.624279494183
 31
0.0
 73
     3
  0
TEXT
  5
48B
  8
H10V
 62
     7
 10
1257.909907149045
 20
-1685.118420119183
 30
0.0
 40
32.49414062499999
  1
SCALE
  7
_______
 11
1257.909907149045
 21
-1652.624279494183
 31
0.0
 73
     3
  0
TEXT
  5
48C
  8
H10V
 62
     7
 10
1707.909907149045
 20
-1685.118420119183
 30
0.0
 40
32.49414062499999
  1
DESIGN
  7
_______
 11
1707.909907149045
 21
-1652.624279494183
 31
0.0
 73
     3
  0
TEXT
  5
48D
  8
H10V
 62
     7
 10
2457.909907149045
 20
-1685.118420119183
 30
0.0
 40
32.49414062499999
  1
DRAWING NO.
  7
_______
 11
2457.909907149045
 21
-1652.624279494183
 31
0.0
 73
     3
  0
TEXT
  5
48E
  8
H10V
 62
     7
 10
2207.909907149045
 20
-1685.118420119183
 30
0.0
 40
32.49414062499999
  1
CHECK
  7
_______
 11
2207.909907149045
 21
-1652.624279494183
 31
0.0
 73
     3
  0
LINE
  5
48F
  8
H10V
  6
CONTINUOUS
 62
     7
 10
1277.409907149044
 20
-1807.241109702518
 30
0.0
 11
1352.409907149045
 21
-1732.241109702518
 31
0.0
  0
TEXT
  5
490
  8
H10V
 62
     7
 10
1284.909907149044
 20
-1758.249820119184
 30
0.0
 40
32.49414062499999
  1
1
  7
_______
 11
1284.909907149044
 21
-1725.755679494184
 31
0.0
 73
     3
  0
LINE
  5
491
  8
H10V
  6
CONTINUOUS
 62
     7
 10
1239.909907149044
 20
-1832.241109702518
 30
0.0
 11
1239.909907149044
 21
-1632.241109702518
 31
0.0
  0
LINE
  5
492
  8
H10V
  6
CONTINUOUS
 62
     7
 10
1439.909907149045
 20
-1832.241109702518
 30
0.0
 11
1439.909907149045
 21
-1632.241109702518
 31
0.0
  0
LINE
  5
493
  8
H10V
  6
CONTINUOUS
 62
     7
 10
1939.909907149045
 20
-1632.241109702518
 30
0.0
 11
1939.909907149045
 21
-1832.241109702518
 31
0.0
  0
LINE
  5
494
  8
H10V
  6
CONTINUOUS
 62
     7
 10
2439.909907149045
 20
-1632.241109702518
 30
0.0
 11
2439.909907149045
 21
-1832.241109702518
 31
0.0
  0
LINE
  5
495
  8
H10V
  6
CONTINUOUS
 62
     7
 10
2189.909907149045
 20
-1832.241109702518
 30
0.0
 11
2189.909907149045
 21
-1632.241109702518
 31
0.0
  0
TEXT
  5
496
  8
H10V
 62
     7
 10
1487.040707149045
 20
-1778.798020119185
 30
0.0
 40
32.49414062499999
  1
2025.3
  7
_______
 11
1487.040707149045
 21
-1746.303879494185
 31
0.0
 73
     3
  0
TEXT
  5
497
  8
H10V
 62
     7
 10
1339.909907149045
 20
-1795.749820119184
 30
0.0
 40
32.49414062499999
  1
20
  7
_______
 11
1339.909907149045
 21
-1763.255679494184
 31
0.0
 73
     3
  0
TEXT
  5
498
  8
H10V
 62
     7
 10
1067.576573815712
 20
-1800.380797202518
 30
0.0
 40
64.98828124999999
  1
A4
  7
_______
 11
1067.576573815712
 21
-1735.392515952518
 31
0.0
 73
     3
  0
TEXT
  5
499
  8
H10V
 62
     7
 10
1009.076573815711
 20
-1688.460053452518
 30
0.0
 40
32.49414062499999
  1
PAPER SIZE
  7
_______
 11
1009.076573815711
 21
-1655.965912827518
 31
0.0
 73
     3
  0
TEXT
  5
49A
  8
H10V
 62
     7
 10
-754.8973877131514
 20
-1969.04390917771
 30
0.0
 40
70.40397135416666
  1
Hibino-Intersound Corporation
  7
_______
 11
-754.8973877131514
 21
-1898.639937823543
 31
0.0
 73
     3
  0
TEXT
  5
49B
  8
H10V
 62
     7
 10
1393.522100753323
 20
-1962.022144111921
 30
0.0
 40
70.40397135416666
  1
ヒビノインターサウンド株式会社
  7
_______
 11
1393.522100753323
 21
-1891.618172757754
 31
0.0
 73
     3
  0
LINE
  5
49C
  8
H10V
  6
CONTINUOUS
 62
     7
 10
-640.0900928509554
 20
3127.758890297483
 30
0.0
 11
2609.909907149045
 21
3127.758890297483
 31
0.0
  0
LINE
  5
49D
  8
H10V
  6
CONTINUOUS
 62
     7
 10
-640.0900928509554
 20
3052.758890297483
 30
0.0
 11
2609.909907149045
 21
3052.758890297483
 31
0.0
  0
LINE
  5
49E
  8
H10V
  6
CONTINUOUS
 62
     7
 10
-640.0900928509554
 20
3127.758890297483
 30
0.0
 11
-640.0900928509554
 21
2602.758890297483
 31
0.0
  0
TEXT
  5
49F
  8
H10V
 62
     7
 10
-615.0900928509554
 20
3189.879524672482
 30
0.0
 40
48.7412109375
  1
仕様
  7
_______
 11
-615.0900928509554
 21
3238.620735609982
 31
0.0
 73
     3
  0
LINE
  5
4A0
  8
H10V
  6
CONTINUOUS
 62
     7
 10
2609.909907149045
 20
3127.758890297483
 30
0.0
 11
2609.909907149045
 21
2602.758890297483
 31
0.0
  0
LINE
  5
4A1
  8
H10V
  6
CONTINUOUS
 62
     7
 10
-640.0900928509554
 20
2977.758890297483
 30
0.0
 11
2609.909907149045
 21
2977.758890297483
 31
0.0
  0
LINE
  5
4A2
  8
H10V
  6
CONTINUOUS
 62
     7
 10
-640.0900928509554
 20
2827.758890297483
 30
0.0
 11
2609.909907149045
 21
2827.758890297483
 31
0.0
  0
LINE
  5
4A3
  8
H10V
  6
CONTINUOUS
 62
     7
 10
-640.0900928509554
 20
2752.758890297483
 30
0.0
 11
2609.909907149045
 21
2752.758890297483
 31
0.0
  0
TEXT
  5
4A4
  8
H10V
 62
     7
 10
-624.7265617249013
 20
2989.743546297121
 30
0.0
 40
37.90983072916668
  1
本体
  7
_______
 11
-624.7265617249013
 21
3027.653377026288
 31
0.0
 73
     3
  0
TEXT
  5
4A5
  8
H10V
 62
     7
 10
28.32860493154215
 20
2841.335213155968
 30
0.0
 40
37.90983072916668
  1
塗装：黒色
  7
_______
 11
28.32860493154215
 21
2879.245043885135
 31
0.0
 73
     3
  0
TEXT
  5
4A6
  8
H10V
 62
     7
 10
-623.7085019092324
 20
2843.097128071843
 30
0.0
 40
37.90983072916668
  1
仕上げ
  7
_______
 11
-623.7085019092324
 21
2881.00695880101
 31
0.0
 73
     3
  0
TEXT
  5
4A7
  8
H10V
 62
     7
 10
-623.4925497108234
 20
3065.442804440575
 30
0.0
 40
37.90983072916668
  1
形式
  7
_______
 11
-623.4925497108234
 21
3103.352635169741
 31
0.0
 73
     3
  0
TEXT
  5
4A8
  8
H10V
 62
     7
 10
-623.7085019092324
 20
2768.097128071843
 30
0.0
 40
37.90983072916668
  1
寸法
  7
_______
 11
-623.7085019092324
 21
2806.00695880101
 31
0.0
 73
     3
  0
TEXT
  5
4A9
  8
H10V
 62
     7
 10
-623.6031740934225
 20
2693.37450347478
 30
0.0
 40
37.90983072916668
  1
重量
  7
_______
 11
-623.6031740934225
 21
2731.284334203946
 31
0.0
 73
     3
  0
TEXT
  5
4AA
  8
H10V
 62
     7
 10
27.02965810963792
 20
2993.613609327989
 30
0.0
 40
37.90983072916668
  1
炭素鋼
  7
_______
 11
27.02965810963792
 21
3031.523440057155
 31
0.0
 73
     3
  0
TEXT
  5
4AB
  8
H10V
 62
     7
 10
27.65484135134238
 20
3067.66692246155
 30
0.0
 40
37.90983072916666
  1
HOPS10i-Pro 縦向き天吊り金具
  7
_______
 11
27.65484135134238
 21
3105.576753190716
 31
0.0
 73
     3
  0
LINE
  5
4AC
  8
H10V
  6
CONTINUOUS
 62
     7
 10
-640.0900928509554
 20
2677.758890297483
 30
0.0
 11
2609.909907149045
 21
2677.758890297483
 31
0.0
  0
TEXT
  5
4AD
  8
H10V
 62
     7
 10
-197.5
 20
498.89
 30
0.0
 40
48.7412109375
  1
(単位：mm)
  7
_______
 11
-197.5
 21
547.6312109375
 31
0.0
 73
     3
  0
TEXT
  5
4AE
  8
H10V
 62
     7
 10
-610.0900928509554
 20
-1751.310953452517
 30
0.0
 40
32.49414062499999
  1
仕様および外観は予告なく変更されることがあります、ご了承ください。
  7
_______
 11
-610.0900928509554
 21
-1718.816812827517
 31
0.0
 73
     3
  0
TEXT
  5
4AF
  8
H10V
 62
     7
 10
2059.236803411714
 20
-1511.016768292453
 30
0.0
 40
48.7412109375
  1
CODA AUDIO  
  7
_______
 72
     1
 11
2249.327526067964
 21
-1462.275557354953
 31
0.0
 73
     3
  0
TEXT
  5
4B0
  8
H10V
 62
     7
 10
2185.963951849214
 20
-1574.516768292453
 30
0.0
 40
48.7412109375
  1
H10V
  7
_______
 72
     1
 11
2249.327526067964
 21
-1525.775557354953
 31
0.0
 73
     3
  0
TEXT
  5
4B1
  8
H10V
 62
     7
 10
1984.909907149045
 20
-1750.787086371637
 30
0.0
 40
32.49414062499999
  1
Kojima 
  7
_______
 11
1984.909907149045
 21
-1718.292945746637
 31
0.0
 73
     3
  0
TEXT
  5
4B2
  8
H10V
 62
     7
 10
1984.909907149045
 20
-1793.12041970497
 30
0.0
 40
32.49414062499999
  1
  Shohei
  7
_______
 11
1984.909907149045
 21
-1760.62627907997
 31
0.0
 73
     3
  0
LINE
  5
4B3
  8
H10V
  6
CONTINUOUS
 62
     7
 10
1305.19721174322
 20
-1479.541286024089
 30
0.0
 11
1305.19721174322
 21
-1519.541286024089
 31
0.0
  0
LINE
  5
4B4
  8
H10V
  6
CONTINUOUS
 62
     7
 10
1245.82221174322
 20
-1489.541286024089
 30
0.0
 11
1245.82221174322
 21
-1509.541286024089
 31
0.0
  0
LINE
  5
4B5
  8
H10V
  6
CONTINUOUS
 62
     7
 10
1245.82221174322
 20
-1489.541286024089
 30
0.0
 11
1305.19721174322
 21
-1479.541286024089
 31
0.0
  0
LINE
  5
4B6
  8
H10V
  6
CONTINUOUS
 62
     7
 10
1245.82221174322
 20
-1509.541286024089
 30
0.0
 11
1305.19721174322
 21
-1519.541286024089
 31
0.0
  0
CIRCLE
  5
4B7
  8
H10V
  6
CONTINUOUS
 62
     7
 10
1211.44721174322
 20
-1499.541286024089
 30
0.0
 40
20.00000000000006
  0
CIRCLE
  5
4B8
  8
H10V
  6
CONTINUOUS
 62
     7
 10
1211.44721174322
 20
-1499.541286024089
 30
0.0
 40
9.99999999999984
  0
LINE
  5
4B9
  8
H10V
  6
______-6
 62
     7
 10
1186.44721174322
 20
-1499.541286024089
 30
0.0
 11
1236.44721174322
 21
-1499.541286024089
 31
0.0
  0
LINE
  5
4BA
  8
H10V
  6
______-6
 62
     7
 10
1211.44721174322
 20
-1524.541286024089
 30
0.0
 11
1211.44721174322
 21
-1474.541286024089
 31
0.0
  0
LINE
  5
4BB
  8
H10V
  6
______-6
 62
     7
 10
1211.44721174322
 20
-1499.541286024089
 30
0.0
 11
1317.69721174322
 21
-1499.541286024089
 31
0.0
  0
LINE
  5
4BC
  8
H10V
  6
CONTINUOUS
 62
     7
 10
1211.44721174322
 20
-1519.541286024089
 30
0.0
 11
1211.44721174322
 21
-1489.541286024089
 31
0.0
  0
LINE
  5
4BD
  8
H10V
  6
CONTINUOUS
 62
     7
 10
-640.0900928509554
 20
2602.758890297483
 30
0.0
 11
2609.909907149045
 21
2602.758890297483
 31
0.0
  0
TEXT
  5
4BE
  8
H10V
 62
     7
 10
-623.6031740934225
 20
2618.37450347478
 30
0.0
 40
37.90983072916668
  1
付属品
  7
_______
 11
-623.6031740934225
 21
2656.284334203946
 31
0.0
 73
     3
  0
TEXT
  5
4BF
  8
H10V
 62
     7
 10
28.27239921652165
 20
2690.103882961382
 30
0.0
 40
37.90983072916668
  1
約1.5kg
  7
_______
 11
28.27239921652165
 21
2728.013713690548
 31
0.0
 73
     3
  0
TEXT
  5
4C0
  8
H10V
 62
     7
 10
28.27239921652165
 20
2615.103882961382
 30
0.0
 40
37.90983072916668
  1
スピーカー取付部用M8ネジ（T45)、ワッシャ　×各2
  7
_______
 11
28.27239921652165
 21
2653.013713690548
 31
0.0
 73
     3
  0
TEXT
  5
4C1
  8
H10V
 62
     7
 10
28.27239921652165
 20
2765.103882961382
 30
0.0
 40
37.90983072916668
  1
293(W)×448(H)×50(D)mm 突起物含まず
  7
_______
 11
28.27239921652165
 21
2803.013713690548
 31
0.0
 73
     3
  0
LINE
  5
4C2
  8
H10V
  6
CONTINUOUS
 62
     7
 10
-640.0900928509554
 20
2902.758890297483
 30
0.0
 11
2609.909907149045
 21
2902.758890297483
 31
0.0
  0
TEXT
  5
4C3
  8
H10V
 62
     7
 10
-623.7085019092324
 20
2918.097128071843
 30
0.0
 40
37.90983072916668
  1
サスペンションポイント
  7
_______
 11
-623.7085019092324
 21
2956.00695880101
 31
0.0
 73
     3
  0
TEXT
  5
4C4
  8
H10V
 62
     7
 10
28.32860493154215
 20
2916.335213155968
 30
0.0
 40
37.90983072916668
  1
M10用Φ12.8mm穴×3（全て天面）、中心の1カ所は裏側にスペーサーを溶接。
  7
_______
 11
28.32860493154215
 21
2954.245043885135
 31
0.0
 73
     3
  0
INSERT
  5
4C5
  8
H10V
 62
     7
  2
_______-1
 10
926.1656434703249
 20
2231.43
 30
0.0
  0
INSERT
  5
4C6
  8
H10V
 62
     7
  2
_______-2
 10
944.0
 20
1980.0
 30
0.0
  0
LINE
  5
4C7
  8
H10V
  6
CONTINUOUS
 62
     7
 10
665.0000000000076
 20
1283.0
 30
0.0
 11
663.0000000000076
 21
1283.0
 31
0.0
  0
LINE
  5
4C8
  8
H10V
  6
CONTINUOUS
 62
     7
 10
665.0000000000003
 20
1377.0
 30
0.0
 11
665.0000000000003
 21
1307.0
 31
0.0
  0
LINE
  5
4C9
  8
H10V
  6
CONTINUOUS
 62
     7
 10
663.0000000000003
 20
1726.0
 30
0.0
 11
663.0000000000003
 21
1307.0
 31
0.0
  0
LINE
  5
4CA
  8
H10V
  6
CONTINUOUS
 62
     7
 10
949.0000000000076
 20
1283.0
 30
0.0
 11
947.0000000000076
 21
1283.0
 31
0.0
  0
LINE
  5
4CB
  8
H10V
  6
CONTINUOUS
 62
     7
 10
947.0000000000003
 20
1377.0
 30
0.0
 11
947.0000000000003
 21
1307.0
 31
0.0
  0
LINE
  5
4CC
  8
H10V
  6
CONTINUOUS
 62
     7
 10
949.0000000000003
 20
1307.0
 30
0.0
 11
949.0000000000003
 21
1726.0
 31
0.0
  0
ARC
  5
4CD
  8
H10V
  6
CONTINUOUS
 62
     7
 10
948.0000000000022
 20
1726.0
 30
0.0
 40
1.0
 50
0.0
 51
90.0
  0
ARC
  5
4CE
  8
H10V
  6
CONTINUOUS
 62
     7
 10
664.000000000004
 20
1726.0
 30
0.0
 40
1.000000000000227
 50
90.0
 51
179.999999999987
  0
LINE
  5
4CF
  8
H10V
  6
CONTINUOUS
 62
     7
 10
664.0000000000022
 20
1730.0
 30
0.0
 11
948.0000000000022
 21
1730.0
 31
0.0
  0
LINE
  5
4D0
  8
H10V
  6
CONTINUOUS
 62
     7
 10
952.3000000000003
 20
1726.0
 30
0.0
 11
949.0000000000003
 21
1726.0
 31
0.0
  0
LINE
  5
4D1
  8
H10V
  6
CONTINUOUS
 62
     7
 10
663.0000000000003
 20
1726.0
 30
0.0
 11
659.7000000000021
 21
1726.0
 31
0.0
  0
ARC
  5
4D2
  8
H10V
  6
CONTINUOUS
 62
     7
 10
663.7000000000021
 20
1726.0
 30
0.0
 40
4.0
 50
90.0
 51
180.0
  0
LINE
  5
4D3
  8
H10V
  6
CONTINUOUS
 62
     7
 10
659.7000000000003
 20
1726.0
 30
0.0
 11
659.7000000000003
 21
1307.0
 31
0.0
  0
ARC
  5
4D4
  8
H10V
  6
CONTINUOUS
 62
     7
 10
948.3000000000021
 20
1726.0
 30
0.0
 40
4.0
 50
0.0
 51
90.0
  0
LINE
  5
4D5
  8
H10V
  6
CONTINUOUS
 62
     7
 10
952.3000000000003
 20
1307.0
 30
0.0
 11
952.3000000000003
 21
1726.0
 31
0.0
  0
LINE
  5
4D6
  8
H10V
  6
CONTINUOUS
 62
     7
 10
664.0000000000003
 20
1726.0
 30
0.0
 11
664.0000000000003
 21
1715.0
 31
0.0
  0
LINE
  5
4D7
  8
H10V
  6
CONTINUOUS
 62
     7
 10
948.0000000000003
 20
1715.0
 30
0.0
 11
948.0000000000003
 21
1726.0
 31
0.0
  0
LINE
  5
4D8
  8
H10V
  6
CONTINUOUS
 62
     7
 10
664.0000000000003
 20
1715.0
 30
0.0
 11
948.0000000000003
 21
1715.0
 31
0.0
  0
LINE
  5
4D9
  8
H10V
  6
CONTINUOUS
 62
     7
 10
949.0000000000076
 20
1282.0
 30
0.0
 11
952.3000000000076
 21
1282.0
 31
0.0
  0
LINE
  5
4DA
  8
H10V
  6
CONTINUOUS
 62
     7
 10
663.0000000000076
 20
1282.0
 30
0.0
 11
659.7000000000075
 21
1282.0
 31
0.0
  0
LINE
  5
4DB
  8
H10V
  6
CONTINUOUS
 62
     7
 10
949.0000000000076
 20
1563.760673895281
 30
0.0
 11
947.0000000000076
 21
1563.760673895281
 31
0.0
  0
LINE
  5
4DC
  8
H10V
  6
CONTINUOUS
 62
     7
 10
949.0000000000076
 20
1598.760673895281
 30
0.0
 11
947.0000000000076
 21
1598.760673895281
 31
0.0
  0
LINE
  5
4DD
  8
H10V
  6
CONTINUOUS
 62
     7
 10
665.0000000000076
 20
1563.760673895281
 30
0.0
 11
663.0000000000076
 21
1563.760673895281
 31
0.0
  0
LINE
  5
4DE
  8
H10V
  6
CONTINUOUS
 62
     7
 10
665.0000000000076
 20
1598.760673895281
 30
0.0
 11
663.0000000000076
 21
1598.760673895281
 31
0.0
  0
LINE
  5
4DF
  8
H10V
  6
CONTINUOUS
 62
     7
 10
665.0000000000076
 20
1401.0
 30
0.0
 11
663.0000000000076
 21
1401.0
 31
0.0
  0
LINE
  5
4E0
  8
H10V
  6
CONTINUOUS
 62
     7
 10
949.0000000000076
 20
1401.0
 30
0.0
 11
947.0000000000076
 21
1401.0
 31
0.0
  0
LINE
  5
4E1
  8
H10V
  6
CONTINUOUS
 62
     7
 10
947.0000000000076
 20
1563.760673895281
 30
0.0
 11
947.0000000000022
 21
1581.260673895281
 31
0.0
  0
LINE
  5
4E2
  8
H10V
  6
CONTINUOUS
 62
     7
 10
947.0000000000022
 20
1581.260673895281
 30
0.0
 11
947.0000000000076
 21
1598.760673895281
 31
0.0
  0
LINE
  5
4E3
  8
H10V
  6
CONTINUOUS
 62
     7
 10
665.0000000000076
 20
1563.760673895281
 30
0.0
 11
665.0000000000022
 21
1581.260673895281
 31
0.0
  0
LINE
  5
4E4
  8
H10V
  6
CONTINUOUS
 62
     7
 10
665.0000000000022
 20
1581.260673895281
 30
0.0
 11
665.0000000000076
 21
1598.760673895281
 31
0.0
  0
LINE
  5
4E5
  8
H10V
  6
CONTINUOUS
 62
     7
 10
665.0000000000076
 20
1283.0
 30
0.0
 11
665.0000000000003
 21
1307.0
 31
0.0
  0
LINE
  5
4E6
  8
H10V
  6
CONTINUOUS
 62
     7
 10
665.0000000000003
 20
1377.0
 30
0.0
 11
665.0000000000076
 21
1401.0
 31
0.0
  0
LINE
  5
4E7
  8
H10V
  6
CONTINUOUS
 62
     7
 10
663.0000000000076
 20
1282.0
 30
0.0
 11
663.0000000000003
 21
1307.0
 31
0.0
  0
LINE
  5
4E8
  8
H10V
  6
CONTINUOUS
 62
     7
 10
947.0000000000076
 20
1283.0
 30
0.0
 11
947.0000000000003
 21
1307.0
 31
0.0
  0
LINE
  5
4E9
  8
H10V
  6
CONTINUOUS
 62
     7
 10
947.0000000000003
 20
1377.0
 30
0.0
 11
947.0000000000076
 21
1401.0
 31
0.0
  0
LINE
  5
4EA
  8
H10V
  6
CONTINUOUS
 62
     7
 10
949.0000000000003
 20
1307.0
 30
0.0
 11
949.0000000000076
 21
1282.0
 31
0.0
  0
LINE
  5
4EB
  8
H10V
  6
CONTINUOUS
 62
     7
 10
659.7000000000003
 20
1307.0
 30
0.0
 11
659.7000000000075
 21
1282.0
 31
0.0
  0
LINE
  5
4EC
  8
H10V
  6
CONTINUOUS
 62
     7
 10
952.3000000000076
 20
1282.0
 30
0.0
 11
952.3000000000003
 21
1307.0
 31
0.0
  0
LINE
  5
4ED
  8
H10V
  6
CONTINUOUS
 62
     7
 10
948.0000000000003
 20
1726.0
 30
0.0
 11
948.0000000000022
 21
1730.0
 31
0.0
  0
LINE
  5
4EE
  8
H10V
  6
CONTINUOUS
 62
     7
 10
664.0000000000022
 20
1730.0
 30
0.0
 11
664.0000000000003
 21
1726.0
 31
0.0
  0
ARC
  5
4EF
  8
H10V
  6
CONTINUOUS
 62
     7
 10
1473.000000000008
 20
1726.0
 30
0.0
 40
4.0
 50
0.0
 51
90.0
  0
ARC
  5
4F0
  8
H10V
  6
CONTINUOUS
 62
     7
 10
1473.000000000008
 20
1726.0
 30
0.0
 40
1.0
 50
0.0
 51
90.0
  0
ARC
  5
4F1
  8
H10V
  6
CONTINUOUS
 62
     7
 10
1431.000000000008
 20
1726.0
 30
0.0
 40
4.0
 50
90.0
 51
180.0
  0
ARC
  5
4F2
  8
H10V
  6
CONTINUOUS
 62
     7
 10
1431.000000000008
 20
1726.0
 30
0.0
 40
1.0
 50
90.0
 51
180.0
  0
ARC
  5
4F3
  8
H10V
  6
CONTINUOUS
 62
     7
 10
1452.000000000008
 20
1307.0
 30
0.0
 40
25.0
 50
270.0
 51
0.0
  0
ARC
  5
4F4
  8
H10V
  6
CONTINUOUS
 62
     7
 10
1452.000000000008
 20
1307.0
 30
0.0
 40
25.0
 50
180.0
 51
270.0
  0
LINE
  5
4F5
  8
H10V
  6
CONTINUOUS
 62
     7
 10
1427.000000000008
 20
1307.0
 30
0.0
 11
1427.000000000008
 21
1726.0
 31
0.0
  0
LINE
  5
4F6
  8
H10V
  6
CONTINUOUS
 62
     7
 10
1477.000000000008
 20
1307.0
 30
0.0
 11
1477.000000000008
 21
1726.0
 31
0.0
  0
LINE
  5
4F7
  8
H10V
  6
CONTINUOUS
 62
     7
 10
1427.000000000008
 20
1726.0
 30
0.0
 11
1431.000000000008
 21
1726.0
 31
0.0
  0
LINE
  5
4F8
  8
H10V
  6
CONTINUOUS
 62
     7
 10
1431.000000000008
 20
1730.0
 30
0.0
 11
1473.000000000008
 21
1730.0
 31
0.0
  0
LINE
  5
4F9
  8
H10V
  6
CONTINUOUS
 62
     7
 10
1473.000000000008
 20
1726.0
 30
0.0
 11
1477.000000000008
 21
1726.0
 31
0.0
  0
LINE
  5
4FA
  8
H10V
  6
CONTINUOUS
 62
     7
 10
1431.000000000008
 20
1730.0
 30
0.0
 11
1431.000000000008
 21
1726.0
 31
0.0
  0
LINE
  5
4FB
  8
H10V
  6
CONTINUOUS
 62
     7
 10
1473.000000000008
 20
1726.0
 30
0.0
 11
1473.000000000008
 21
1730.0
 31
0.0
  0
ARC
  5
4FC
  8
H10V
  6
CONTINUOUS
 62
     7
 10
907.1506354567085
 20
795.6750071981262
 30
0.0
 40
2.0
 50
270.0
 51
0.0
  0
LINE
  5
4FD
  8
H10V
  6
CONTINUOUS
 62
     7
 10
909.1506354567085
 20
795.675007198128
 30
0.0
 11
909.1506354567049
 21
811.675007198128
 31
0.0
  0
ARC
  5
4FE
  8
H10V
  6
CONTINUOUS
 62
     7
 10
907.1506354567049
 20
811.6750071981262
 30
0.0
 40
2.0
 50
0.0
 51
90.0
  0
LINE
  5
4FF
  8
H10V
  6
CONTINUOUS
 62
     7
 10
907.1506354567049
 20
813.6750071981262
 30
0.0
 11
881.1506354567049
 21
813.6750071981189
 31
0.0
  0
ARC
  5
500
  8
H10V
  6
CONTINUOUS
 62
     7
 10
881.1506354567049
 20
811.6750071981189
 30
0.0
 40
2.000000000000227
 50
90.0
 51
180.0
  0
LINE
  5
501
  8
H10V
  6
CONTINUOUS
 62
     7
 10
879.1506354567049
 20
811.6750071981189
 30
0.0
 11
879.1506354567085
 21
795.6750071981189
 31
0.0
  0
ARC
  5
502
  8
H10V
  6
CONTINUOUS
 62
     7
 10
881.1506354567085
 20
795.6750071981189
 30
0.0
 40
2.0
 50
180.0
 51
270.0
  0
LINE
  5
503
  8
H10V
  6
CONTINUOUS
 62
     7
 10
881.1506354567103
 20
793.6750071981189
 30
0.0
 11
907.1506354567103
 21
793.6750071981262
 31
0.0
  0
LINE
  5
504
  8
H10V
  6
CONTINUOUS
 62
     7
 10
947.0000000000022
 20
829.0000000000421
 30
0.0
 11
949.0000000000022
 21
829.0000000000421
 31
0.0
  0
LINE
  5
505
  8
H10V
  6
CONTINUOUS
 62
     7
 10
947.0000000000167
 20
781.0000000000421
 30
0.0
 11
949.0000000000167
 21
781.0000000000421
 31
0.0
  0
LINE
  5
506
  8
H10V
  6
CONTINUOUS
 62
     7
 10
663.0000000000022
 20
828.9999999999584
 30
0.0
 11
665.0000000000022
 21
828.9999999999584
 31
0.0
  0
LINE
  5
507
  8
H10V
  6
CONTINUOUS
 62
     7
 10
663.0000000000167
 20
780.9999999999584
 30
0.0
 11
665.0000000000167
 21
780.9999999999584
 31
0.0
  0
LINE
  5
508
  8
H10V
  6
CONTINUOUS
 62
     7
 10
659.7000000000166
 20
829.9999999999566
 30
0.0
 11
663.0000000000022
 21
829.9999999999584
 31
0.0
  0
LINE
  5
509
  8
H10V
  6
CONTINUOUS
 62
     7
 10
952.3000000000021
 20
780.0000000000439
 30
0.0
 11
949.0000000000167
 21
780.0000000000421
 31
0.0
  0
LINE
  5
50A
  8
H10V
  6
CONTINUOUS
 62
     7
 10
663.0000000000167
 20
779.9999999999584
 30
0.0
 11
659.7000000000166
 21
779.9999999999566
 31
0.0
  0
LINE
  5
50B
  8
H10V
  6
CONTINUOUS
 62
     7
 10
949.0000000000022
 20
830.0000000000421
 30
0.0
 11
952.3000000000021
 21
830.0000000000439
 31
0.0
  0
LINE
  5
50C
  8
H10V
  6
CONTINUOUS
 62
     7
 10
948.0000000000167
 20
780.0000000000421
 30
0.0
 11
948.0000000000167
 21
781.0000000000421
 31
0.0
  0
LINE
  5
50D
  8
H10V
  6
CONTINUOUS
 62
     7
 10
664.0000000000167
 20
779.9999999999584
 30
0.0
 11
664.0000000000167
 21
780.9999999999584
 31
0.0
  0
LINE
  5
50E
  8
H10V
  6
CONTINUOUS
 62
     7
 10
948.0000000000167
 20
780.0000000000421
 30
0.0
 11
664.0000000000167
 21
779.9999999999584
 31
0.0
  0
LINE
  5
50F
  8
H10V
  6
CONTINUOUS
 62
     7
 10
947.0000000000167
 20
783.0000000000421
 30
0.0
 11
665.0000000000167
 21
782.9999999999584
 31
0.0
  0
LINE
  5
510
  8
H10V
  6
CONTINUOUS
 62
     7
 10
664.0000000000022
 20
829.9999999999584
 30
0.0
 11
664.0000000000022
 21
828.9999999999584
 31
0.0
  0
LINE
  5
511
  8
H10V
  6
CONTINUOUS
 62
     7
 10
948.0000000000022
 20
830.0000000000421
 30
0.0
 11
948.0000000000022
 21
829.0000000000421
 31
0.0
  0
LINE
  5
512
  8
H10V
  6
CONTINUOUS
 62
     7
 10
948.0000000000022
 20
830.0000000000421
 30
0.0
 11
664.0000000000022
 21
829.9999999999584
 31
0.0
  0
LINE
  5
513
  8
H10V
  6
CONTINUOUS
 62
     7
 10
947.0000000000022
 20
827.0000000000421
 30
0.0
 11
665.0000000000022
 21
826.9999999999584
 31
0.0
  0
LINE
  5
514
  8
H10V
  6
CONTINUOUS
 62
     7
 10
947.0000000000022
 20
829.0000000000421
 30
0.0
 11
947.0000000000094
 21
805.0000000000421
 31
0.0
  0
LINE
  5
515
  8
H10V
  6
CONTINUOUS
 62
     7
 10
947.0000000000094
 20
805.0000000000421
 30
0.0
 11
947.0000000000167
 21
781.0000000000421
 31
0.0
  0
LINE
  5
516
  8
H10V
  6
CONTINUOUS
 62
     7
 10
949.0000000000094
 20
805.0000000000421
 30
0.0
 11
949.0000000000167
 21
780.0000000000421
 31
0.0
  0
LINE
  5
517
  8
H10V
  6
CONTINUOUS
 62
     7
 10
949.0000000000022
 20
830.0000000000421
 30
0.0
 11
949.0000000000094
 21
805.0000000000421
 31
0.0
  0
LINE
  5
518
  8
H10V
  6
CONTINUOUS
 62
     7
 10
665.0000000000022
 20
828.9999999999584
 30
0.0
 11
665.0000000000094
 21
804.9999999999584
 31
0.0
  0
LINE
  5
519
  8
H10V
  6
CONTINUOUS
 62
     7
 10
665.0000000000094
 20
804.9999999999584
 30
0.0
 11
665.0000000000167
 21
780.9999999999584
 31
0.0
  0
LINE
  5
51A
  8
H10V
  6
CONTINUOUS
 62
     7
 10
663.0000000000094
 20
804.9999999999584
 30
0.0
 11
663.0000000000022
 21
829.9999999999584
 31
0.0
  0
LINE
  5
51B
  8
H10V
  6
CONTINUOUS
 62
     7
 10
663.0000000000167
 20
779.9999999999584
 30
0.0
 11
663.0000000000094
 21
804.9999999999584
 31
0.0
  0
LINE
  5
51C
  8
H10V
  6
CONTINUOUS
 62
     7
 10
659.6999999999875
 20
2119.999999999956
 30
0.0
 11
662.9999999999876
 21
2119.999999999958
 31
0.0
  0
LINE
  5
51D
  8
H10V
  6
CONTINUOUS
 62
     7
 10
663.0000000000022
 20
2069.999999999958
 30
0.0
 11
659.6999999999875
 21
2069.999999999958
 31
0.0
  0
LINE
  5
51E
  8
H10V
  6
CONTINUOUS
 62
     7
 10
948.9999999999876
 20
2120.000000000042
 30
0.0
 11
952.2999999999876
 21
2120.000000000044
 31
0.0
  0
LINE
  5
51F
  8
H10V
  6
CONTINUOUS
 62
     7
 10
948.0000000000022
 20
2070.000000000042
 30
0.0
 11
948.0000000000022
 21
2071.000000000042
 31
0.0
  0
LINE
  5
520
  8
H10V
  6
CONTINUOUS
 62
     7
 10
664.0000000000022
 20
2069.999999999958
 30
0.0
 11
664.0000000000022
 21
2070.999999999958
 31
0.0
  0
LINE
  5
521
  8
H10V
  6
CONTINUOUS
 62
     7
 10
948.0000000000022
 20
2070.000000000042
 30
0.0
 11
664.0000000000022
 21
2069.999999999958
 31
0.0
  0
LINE
  5
522
  8
H10V
  6
CONTINUOUS
 62
     7
 10
663.9999999999876
 20
2119.999999999958
 30
0.0
 11
663.9999999999876
 21
2118.999999999958
 31
0.0
  0
LINE
  5
523
  8
H10V
  6
CONTINUOUS
 62
     7
 10
947.9999999999876
 20
2120.000000000042
 30
0.0
 11
947.9999999999876
 21
2119.000000000042
 31
0.0
  0
LINE
  5
524
  8
H10V
  6
CONTINUOUS
 62
     7
 10
947.9999999999876
 20
2120.000000000042
 30
0.0
 11
663.9999999999876
 21
2119.999999999958
 31
0.0
  0
LINE
  5
525
  8
H10V
  6
CONTINUOUS
 62
     7
 10
952.2999999999948
 20
2095.000000000044
 30
0.0
 11
952.2999999999876
 21
2120.000000000044
 31
0.0
  0
LINE
  5
526
  8
H10V
  6
CONTINUOUS
 62
     7
 10
952.3000000000021
 20
2070.000000000044
 30
0.0
 11
952.2999999999948
 21
2095.000000000044
 31
0.0
  0
LINE
  5
527
  8
H10V
  6
CONTINUOUS
 62
     7
 10
948.9999999999876
 20
2120.000000000042
 30
0.0
 11
948.9999999999876
 21
2119.000000000042
 31
0.0
  0
LINE
  5
528
  8
H10V
  6
CONTINUOUS
 62
     7
 10
949.0000000000022
 20
2071.000000000042
 30
0.0
 11
949.0000000000022
 21
2070.000000000042
 31
0.0
  0
LINE
  5
529
  8
H10V
  6
CONTINUOUS
 62
     7
 10
662.9999999999876
 20
2119.999999999958
 30
0.0
 11
662.9999999999876
 21
2118.999999999958
 31
0.0
  0
LINE
  5
52A
  8
H10V
  6
CONTINUOUS
 62
     7
 10
663.0000000000022
 20
2070.999999999958
 30
0.0
 11
663.0000000000022
 21
2069.999999999958
 31
0.0
  0
CIRCLE
  5
52B
  8
H10V
  6
CONTINUOUS
 62
     7
 10
685.9999999999949
 20
2094.999999999964
 30
0.0
 40
6.499999999999976
  0
CIRCLE
  5
52C
  8
H10V
  6
CONTINUOUS
 62
     7
 10
925.9999999999949
 20
2095.000000000035
 30
0.0
 40
6.500000000000005
  0
CIRCLE
  5
52D
  8
H10V
  6
CONTINUOUS
 62
     7
 10
805.9999999999949
 20
2095.0
 30
0.0
 40
6.499999999999976
  0
DIMENSION
  5
52E
  8
H10V
  6
CONTINUOUS
 62
     7
  2
*D3
 10
480.0
 20
1730.0
 30
0.0
 11
437.505859375
 21
1506.0
 31
0.0
 70
    32
  3
HIBINO
 13
663.0000000000076
 23
1282.0
 33
0.0
 14
664.0000000000022
 24
1730.0
 34
0.0
 50
-90.0
  0
DIMENSION
  5
52F
  8
H10V
  6
CONTINUOUS
 62
     7
  2
*D4
 10
659.7000000000075
 20
1140.0
 30
0.0
 11
806.0000000000075
 21
1182.494140625
 31
0.0
 70
    32
  3
HIBINO
 13
952.3000000000076
 23
1282.0
 33
0.0
 14
659.7000000000075
 24
1282.0
 34
0.0
  0
DIMENSION
  5
530
  8
H10V
  6
CONTINUOUS
 62
     7
  2
*D5
 10
1477.000000000008
 20
1197.0
 30
0.0
 11
1625.790412109383
 21
1197.0
 31
0.0
 70
   160
  3
HIBINO
 13
1427.000000000008
 23
1307.0
 33
0.0
 14
1477.000000000008
 24
1307.0
 34
0.0
  0
CIRCLE
  5
533
  8
H10V
  6
CONTINUOUS
 62
     7
 10
1452.000000000008
 20
1377.0
 30
0.0
 40
4.900000000000055
  0
CIRCLE
  5
534
  8
H10V
  6
CONTINUOUS
 62
     7
 10
1452.000000000008
 20
1377.0
 30
0.0
 40
4.399999999999971
  0
CIRCLE
  5
535
  8
H10V
  6
CONTINUOUS
 62
     7
 10
1452.000000000008
 20
1307.0
 30
0.0
 40
4.900000000000055
  0
CIRCLE
  5
536
  8
H10V
  6
CONTINUOUS
 62
     7
 10
1452.000000000008
 20
1307.0
 30
0.0
 40
4.399999999999971
  0
CIRCLE
  5
537
  8
H10V
  6
CONTINUOUS
 62
     7
 10
926.0000000000094
 20
805.0000000000348
 30
0.0
 40
6.499999999999976
  0
CIRCLE
  5
538
  8
H10V
  6
CONTINUOUS
 62
     7
 10
686.0000000000094
 20
804.9999999999638
 30
0.0
 40
6.499999999999976
  0
CIRCLE
  5
539
  8
H10V
  6
CONTINUOUS
 62
     7
 10
806.0000000000094
 20
805.0000000000002
 30
0.0
 40
6.499999999999976
  0
CIRCLE
  5
53A
  8
H10V
  6
CONTINUOUS
 62
     7
 10
806.0000000000094
 20
805.0000000000002
 30
0.0
 40
7.000000000000009
  0
CIRCLE
  5
53B
  8
H10V
  6
CONTINUOUS
 62
     7
 10
806.0000000000094
 20
805.0000000000002
 30
0.0
 40
12.50000000000001
  0
CIRCLE
  5
53C
  8
H10V
  6
CONTINUOUS
 62
     7
 10
806.0000000000094
 20
805.0000000000002
 30
0.0
 40
11.99999999999999
  0
DIMENSION
  5
53D
  8
H10V
  6
CONTINUOUS
 62
     7
  2
*D6
 10
686.0000000000094
 20
696.0
 30
0.0
 11
518.3954804687594
 21
696.0
 31
0.0
 70
   160
  3
HIBINO
 13
806.0000000000094
 23
805.0000000000002
 33
0.0
 14
686.0000000000094
 24
804.9999999999638
 34
0.0
  0
DIMENSION
  5
540
  8
H10V
  6
CONTINUOUS
 62
     7
  2
*D7
 10
806.0000000000094
 20
694.833333333316
 30
0.0
 11
1093.60451953126
 21
694.833333333316
 31
0.0
 70
   160
  3
HIBINO
 13
926.0000000000094
 23
805.0000000000348
 33
0.0
 14
806.0000000000094
 24
805.0000000000002
 34
0.0
  0
LINE
  5
543
  8
H10V
  6
CONTINUOUS
 62
     7
 10
9.909907149044784
 20
3127.758890297483
 30
0.0
 11
9.909907149044784
 21
2602.758890297483
 31
0.0
  0
INSERT
  5
544
  8
H10V
 62
     7
  2
____
 10
989.9099071490446
 20
692.9369350043303
 30
0.0
  0
TEXT
  5
545
  8
H10V
 62
     7
 10
1380.566945842175
 20
-526.5255021872481
 30
0.0
 40
48.74121093749999
  1
-30%%d
  7
_______
 11
1380.566945842175
 21
-477.7842912497481
 31
0.0
 73
     3
  0
POLYLINE
  5
546
  8
H10V
  6
CONTINUOUS
 62
     7
 66
     1
 10
0.0
 20
0.0
 30
0.0
 70
   129
  0
VERTEX
  5
547
  8
H10V
  6
CONTINUOUS
 62
     7
 10
45.69233925002027
 20
-20.0
 30
0.0
 42
-0.414213562373095
 70
     2
 50
-0.000000000000007
  0
VERTEX
  5
548
  8
H10V
  6
CONTINUOUS
 62
     7
 10
95.69233925002027
 20
30.0
 30
0.0
  0
VERTEX
  5
549
  8
H10V
  6
CONTINUOUS
 62
     7
 10
2620.0
 20
30.0
 30
0.0
 42
-0.414213562373095
 70
     2
 50
1.871422178312110E+17
  0
VERTEX
  5
54A
  8
H10V
  6
CONTINUOUS
 62
     7
 10
2670.0
 20
-20.0
 30
0.0
  0
VERTEX
  5
54B
  8
H10V
  6
CONTINUOUS
 62
     7
 10
2670.0
 20
-1220.0
 30
0.0
 42
-0.414213562373095
 70
     2
 50
-0.000000000000014
  0
VERTEX
  5
54C
  8
H10V
  6
CONTINUOUS
 62
     7
 10
2620.0
 20
-1270.0
 30
0.0
  0
VERTEX
  5
54D
  8
H10V
  6
CONTINUOUS
 62
     7
 10
95.69233925002027
 20
-1270.0
 30
0.0
 42
-0.414213562373095
 70
     2
 50
3.119036963853517E+17
  0
VERTEX
  5
54E
  8
H10V
  6
CONTINUOUS
 62
     7
 10
45.69233925002027
 20
-1220.0
 30
0.0
  0
SEQEND
  5
54F
  8
H10V
  6
CONTINUOUS
 62
     7
  0
TEXT
  5
550
  8
H10V
 62
     7
 10
890.4355555555555
 20
-70.32000000000001
 30
0.0
 40
43.32552083333333
  1
参考：取付イメージ
  7
_______
 11
890.4355555555555
 21
-26.99447916666668
 31
0.0
 73
     3
  0
TEXT
  5
551
  8
H10V
 62
     7
 10
1598.576662286424
 20
-185.6533333333333
 30
0.0
 40
43.32552083333333
  1
※狭い側のポジションを使用する場合、
  7
_______
 11
1598.576662286424
 21
-142.3278124999999
 31
0.0
 73
     3
  0
TEXT
  5
552
  8
H10V
 62
     7
 10
1598.576662286424
 20
-242.0977777777777
 30
0.0
 40
43.32552083333333
  1
使用角度の制限が大きくなります。 
  7
_______
 11
1598.576662286424
 21
-198.7722569444444
 31
0.0
 73
     3
  0
TEXT
  5
553
  8
H10V
 62
     7
 10
1598.576662286424
 20
-298.5422222222222
 30
0.0
 40
43.32552083333333
  1
-90%%d（真下）～約-60%%d（天井に接触）
  7
_______
 11
1598.576662286424
 21
-255.2167013888889
 31
0.0
 73
     3
  0
TEXT
  5
554
  8
H10V
 62
     7
 10
1598.576662286424
 20
-354.9866666666666
 30
0.0
 40
43.32552083333333
  1
の範囲に制限されます。
  7
_______
 11
1598.576662286424
 21
-311.6611458333333
 31
0.0
 73
     3
  0
INSERT
  5
555
  8
H10V
 62
     7
  2
____-1
 10
989.9099071490446
 20
692.9369350043303
 30
0.0
  0
INSERT
  5
556
  8
H10V
 62
     5
  2
____-2
 10
989.9099071490446
 20
692.9369350043303
 30
0.0
  0
INSERT
  5
557
  8
H10V
 62
     5
  2
____-3
 10
989.9099071490446
 20
692.9369350043303
 30
0.0
  0
INSERT
  5
558
  8
H10V
 62
     7
  2
____-4
 10
989.9099071490446
 20
692.9369350043303
 30
0.0
  0
INSERT
  5
559
  8
H10V
 62
     6
  2
____-5
 10
989.9099071490446
 20
692.9369350043303
 30
0.0
  0
INSERT
  5
55A
  8
H10V
 62
     6
  2
____-6
 10
989.9099071490446
 20
692.9369350043303
 30
0.0
  0
TEXT
  5
55B
  8
H10V
 62
     7
 10
1843.418525240913
 20
-528.0
 30
0.0
 40
48.74121093749999
  1
-60%%d
  7
_______
 11
1843.418525240913
 21
-479.2587890625
 31
0.0
 73
     3
  0
INSERT
  5
55C
  8
H10V
 62
     7
  2
____-7
 10
989.9099071490446
 20
692.9369350043303
 30
0.0
  0
TEXT
  5
55D
  8
H10V
 62
     7
 10
2473.448047555587
 20
-568.1654621650596
 30
0.0
 40
48.74121093749999
  1
-90%%d
  7
_______
 11
2473.448047555587
 21
-519.4242512275596
 31
0.0
 73
     3
  0
LINE
  5
55E
  8
H10V
  6
CONTINUOUS
 62
     7
 10
348.5960623755652
 20
-423.1447817155492
 30
0.0
 11
2559.055380279737
 21
-423.1447817155492
 31
0.0
  0
DIMENSION
  5
55F
  8
H10V
  6
CONTINUOUS
 62
     7
  2
*D16
 10
234.6666666666664
 20
-776.1447817155492
 30
0.0
 11
234.6666666666664
 21
-994.1228403092994
 31
0.0
 70
   160
  3
HIBINO
 13
168.4530475555916
 23
-846.1447817155492
 33
0.0
 14
168.4530475555916
 24
-776.1447817155492
 34
0.0
 50
-90.0
  0
LINE
  5
562
  8
H10V
  6
CONTINUOUS
 62
     7
 10
948.3000000000021
 20
1730.0
 30
0.0
 11
948.0000000000022
 21
1730.0
 31
0.0
  0
LINE
  5
563
  8
H10V
  6
CONTINUOUS
 62
     7
 10
663.7000000000021
 20
1730.0
 30
0.0
 11
664.0000000000022
 21
1730.0
 31
0.0
  0
LINE
  5
564
  8
H10V
  6
CONTINUOUS
 62
     7
 10
947.9999999999876
 20
2119.000000000042
 30
0.0
 11
952.2999999999879
 21
2119.000000000042
 31
0.0
  0
LINE
  5
565
  8
H10V
  6
CONTINUOUS
 62
     7
 10
948.0000000000022
 20
2071.000000000042
 30
0.0
 11
952.3000000000019
 21
2071.000000000042
 31
0.0
  0
LINE
  5
566
  8
H10V
  6
CONTINUOUS
 62
     7
 10
949.0000000000022
 20
2070.000000000042
 30
0.0
 11
952.3000000000021
 21
2070.000000000042
 31
0.0
  0
LINE
  5
567
  8
H10V
  6
CONTINUOUS
 62
     7
 10
659.6999999999875
 20
2119.999999999956
 30
0.0
 11
659.6999999999875
 21
2069.999999999958
 31
0.0
  0
LINE
  5
568
  8
H10V
  6
CONTINUOUS
 62
     7
 10
664.0000000000022
 20
2070.999999999958
 30
0.0
 11
659.6999999999875
 21
2070.999999999958
 31
0.0
  0
LINE
  5
569
  8
H10V
  6
CONTINUOUS
 62
     7
 10
663.9999999999876
 20
2118.999999999958
 30
0.0
 11
659.6999999999875
 21
2118.999999999958
 31
0.0
  0
LINE
  5
56A
  8
H10V
  6
CONTINUOUS
 62
     7
 10
659.7000000000166
 20
779.9999999999566
 30
0.0
 11
659.7000000000166
 21
829.9999999999566
 31
0.0
  0
LINE
  5
56B
  8
H10V
  6
CONTINUOUS
 62
     7
 10
952.3000000000021
 20
830.0000000000439
 30
0.0
 11
952.3000000000021
 21
780.0000000000439
 31
0.0
  0
VIEWPORT
  5
8F
 67
     1
  8
0
 10
128.5
 20
97.5
 30
0.0
 40
314.226
 41
222.18
 68
     1
 69
     1
1001
ACAD
1000
MVIEW
1002
{
1070
    16
1010
0.0
1020
0.0
1030
0.0
1010
0.0
1020
0.0
1030
1.0
1040
0.0
1040
222.18
1040
128.5
1040
97.5
1040
50.0
1040
0.0
1040
0.0
1070
     0
1070
   100
1070
     0
1070
     3
1070
     0
1070
     0
1070
     0
1070
     0
1040
0.0
1040
0.0
1040
0.0
1040
10.0
1040
10.0
1040
10.0
1040
10.0
1070
     0
1002
{
1002
}
1002
}
  0
ENDSEC
  0
EOF
