  0
SECTION
  2
HEADER
  9
$ACADVER
  1
AC1009
  9
$DWGCODEPAGE
  3
dos932
  9
$INSBASE
 10
0.0
 20
0.0
 30
0.0
  9
$EXTMIN
 10
-1205.796073900364
 20
-1130.866858108
 30
0.0
  9
$EXTMAX
 10
594.2039260996362
 20
1543.955097185151
 30
0.0
  9
$LIMMIN
 10
0.0
 20
0.0
  9
$LIMMAX
 10
12.0
 20
9.0
  9
$ORTHOMODE
 70
     0
  9
$REGENMODE
 70
     1
  9
$FILLMODE
 70
     1
  9
$QTEXTMODE
 70
     0
  9
$MIRRTEXT
 70
     1
  9
$DRAGMODE
 70
     2
  9
$LTSCALE
 40
10.0
  9
$OSMODE
 70
    37
  9
$ATTMODE
 70
     1
  9
$TEXTSIZE
 40
0.2
  9
$TRACEWID
 40
1.0
  9
$TEXTSTYLE
  7
STANDARD
  9
$CLAYER
  8
GAH-APS
  9
$CELTYPE
  6
BYLAYER
  9
$CECOLOR
 62
   256
  9
$DIMSCALE
 40
1.0
  9
$DIMASZ
 40
25.0062255859375
  9
$DIMEXO
 40
20.0
  9
$DIMDLI
 40
49.99999999999999
  9
$DIMRND
 40
0.0
  9
$DIMDLE
 40
0.0
  9
$DIMEXE
 40
20.0
  9
$DIMTP
 40
0.0
  9
$DIMTM
 40
0.0
  9
$DIMTXT
 40
29.78629557291671
  9
$DIMCEN
 40
0.0
  9
$DIMTSZ
 40
0.0
  9
$DIMTOL
 70
     0
  9
$DIMLIM
 70
     0
  9
$DIMTIH
 70
     0
  9
$DIMTOH
 70
     0
  9
$DIMSE1
 70
     0
  9
$DIMSE2
 70
     0
  9
$DIMTAD
 70
     1
  9
$DIMZIN
 70
     8
  9
$DIMBLK
  1
VW_EMPTYARROW
  9
$DIMASO
 70
     1
  9
$DIMSHO
 70
     1
  9
$DIMPOST
  1
<>
  9
$DIMAPOST
  1
[]
  9
$DIMALT
 70
     0
  9
$DIMALTD
 70
     2
  9
$DIMALTF
 40
1.0
  9
$DIMLFAC
 40
1.0
  9
$DIMTOFL
 70
     1
  9
$DIMTVP
 40
0.0
  9
$DIMTIX
 70
     1
  9
$DIMSOXD
 70
     0
  9
$DIMSAH
 70
     0
  9
$DIMBLK1
  1
VW_EMPTYARROW
  9
$DIMBLK2
  1
VW_EMPTYARROW
  9
$DIMSTYLE
  2
HIBINO
  9
$DIMCLRD
 70
     0
  9
$DIMCLRE
 70
     0
  9
$DIMCLRT
 70
     0
  9
$DIMTFAC
 40
1.0
  9
$DIMGAP
 40
4.999999999999999
  9
$LUNITS
 70
     2
  9
$LUPREC
 70
     2
  9
$SKETCHINC
 40
0.1
  9
$FILLETRAD
 40
0.0
  9
$AUNITS
 70
     0
  9
$AUPREC
 70
     0
  9
$MENU
  1
.
  9
$ELEVATION
 40
0.0
  9
$PELEVATION
 40
0.0
  9
$THICKNESS
 40
0.0
  9
$LIMCHECK
 70
     0
  9
$CHAMFERA
 40
0.0
  9
$CHAMFERB
 40
0.0
  9
$SKPOLY
 70
     0
  9
$TDCREATE
 40
2460970.810529294
  9
$TDUPDATE
 40
2460970.810531297
  9
$TDINDWG
 40
0.0000000116
  9
$TDUSRTIMER
 40
0.0000000116
  9
$USRTIMER
 70
     1
  9
$ANGBASE
 50
0.0
  9
$ANGDIR
 70
     0
  9
$PDMODE
 70
     1
  9
$PDSIZE
 40
-2.0
  9
$PLINEWID
 40
0.0
  9
$COORDS
 70
     1
  9
$SPLFRAME
 70
     0
  9
$SPLINETYPE
 70
     6
  9
$SPLINESEGS
 70
     8
  9
$ATTDIA
 70
     0
  9
$ATTREQ
 70
     1
  9
$HANDLING
 70
     1
  9
$HANDSEED
  5
3FB
  9
$SURFTAB1
 70
     6
  9
$SURFTAB2
 70
     6
  9
$SURFTYPE
 70
     6
  9
$SURFU
 70
     6
  9
$SURFV
 70
     6
  9
$UCSNAME
  2

  9
$UCSORG
 10
0.0
 20
0.0
 30
0.0
  9
$UCSXDIR
 10
1.0
 20
0.0
 30
0.0
  9
$UCSYDIR
 10
0.0
 20
1.0
 30
0.0
  9
$PUCSNAME
  2

  9
$PUCSORG
 10
0.0
 20
0.0
 30
0.0
  9
$PUCSXDIR
 10
1.0
 20
0.0
 30
0.0
  9
$PUCSYDIR
 10
0.0
 20
1.0
 30
0.0
  9
$USERI1
 70
     0
  9
$USERI2
 70
     0
  9
$USERI3
 70
     0
  9
$USERI4
 70
     0
  9
$USERI5
 70
     0
  9
$USERR1
 40
0.0
  9
$USERR2
 40
0.0
  9
$USERR3
 40
0.0
  9
$USERR4
 40
0.0
  9
$USERR5
 40
0.0
  9
$WORLDVIEW
 70
     1
  9
$SHADEDGE
 70
     3
  9
$SHADEDIF
 70
    70
  9
$TILEMODE
 70
     1
  9
$MAXACTVP
 70
    64
  9
$PLIMCHECK
 70
     0
  9
$PEXTMIN
 10
1.000000000000000E+20
 20
1.000000000000000E+20
 30
1.000000000000000E+20
  9
$PEXTMAX
 10
-1.000000000000000E+20
 20
-1.000000000000000E+20
 30
-1.000000000000000E+20
  9
$PLIMMIN
 10
-20.0
 20
-7.5
  9
$PLIMMAX
 10
277.0
 20
202.5
  9
$UNITMODE
 70
     0
  9
$VISRETAIN
 70
     1
  9
$PLINEGEN
 70
     0
  9
$PSLTSCALE
 70
     1
  0
ENDSEC
  0
SECTION
  2
TABLES
  0
TABLE
  2
VPORT
 70
     1
  0
VPORT
  2
*ACTIVE
 70
     0
 10
0.0
 20
0.0
 11
1.0
 21
1.0
 12
-305.7960739003638
 22
206.5441195385756
 13
0.0
 23
0.0
 14
0.5
 24
0.5
 15
0.5
 25
0.5
 16
0.0
 26
0.0
 36
1.0
 17
0.0
 27
0.0
 37
0.0
 40
2674.821955293151
 41
0.6729419864518521
 42
2000.0
 43
0.0
 44
0.0
 50
0.0
 51
0.0
 71
     0
 72
   100
 73
     1
 74
     3
 75
     0
 76
     0
 77
     0
 78
     0
  0
ENDTAB
  0
TABLE
  2
LTYPE
 70
    11
  0
LTYPE
  2
CONTINUOUS
 70
     0
  3
Solid line
 72
    65
 73
     0
 40
0.0
  0
LTYPE
  2
______-10
 70
     0
  3

 72
    65
 73
     6
 40
30.1625
 49
19.05
 49
-1.411154174804687
 49
3.527691650390625
 49
-1.411154174804687
 49
3.175
 49
-1.5875
  0
LTYPE
  2
______-9
 70
     0
  3

 72
    65
 73
     4
 40
25.4
 49
19.05
 49
-1.411154174804687
 49
3.527691650390625
 49
-1.411154174804687
  0
LTYPE
  2
______-8
 70
     0
  3

 72
    65
 73
     6
 40
6.35
 49
3.175
 49
-1.058074951171875
 49
0.352691650390625
 49
-0.7057708740234374
 49
0.352691650390625
 49
-0.7057708740234374
  0
LTYPE
  2
______-7
 70
     0
  3

 72
    65
 73
     6
 40
9.524999999999999
 49
3.175
 49
-1.058074951171875
 49
3.175
 49
-1.058462524414062
 49
0.352691650390625
 49
-0.7057708740234374
  0
LTYPE
  2
______-6
 70
     0
  3

 72
    65
 73
     4
 40
5.291537475585937
 49
3.175
 49
-1.058074951171875
 49
0.352691650390625
 49
-0.7057708740234374
  0
LTYPE
  2
______-5
 70
     0
  3

 72
    65
 73
     2
 40
1.058074951171875
 49
0.352691650390625
 49
-0.70538330078125
  0
LTYPE
  2
______-4
 70
     0
  3

 72
    65
 73
     2
 40
7.7607666015625
 49
6.702691650390625
 49
-1.058074951171875
  0
LTYPE
  2
______-3
 70
     0
  3

 72
    65
 73
     2
 40
6.35
 49
5.291537475585937
 49
-1.058462524414062
  0
LTYPE
  2
______-2
 70
     0
  3

 72
    65
 73
     2
 40
3.527691650390625
 49
2.469229125976562
 49
-1.058462524414062
  0
LTYPE
  2
______-1
 70
     0
  3

 72
    65
 73
     4
 40
2.032
 49
1.27
 49
-0.2540000000000001
 49
0.2539999999999998
 49
-0.2539999999999998
  0
ENDTAB
  0
TABLE
  2
LAYER
 70
     3
  0
LAYER
  2
0
 70
     0
 62
     7
  6
CONTINUOUS
  0
LAYER
  2
GAH-APS
 70
     0
 62
     7
  6
CONTINUOUS
  0
LAYER
  2
DEFPOINTS
 70
     0
 62
     7
  6
CONTINUOUS
  0
ENDTAB
  0
TABLE
  2
STYLE
 70
     2
  0
STYLE
  2
STANDARD
 70
     0
 40
0.0
 41
1.0
 50
0.0
 71
     0
 42
0.2
  3
txt
  4
BIGFONT.SHX
  0
STYLE
  2
_______
 70
     0
 40
0.0
 41
1.0
 50
0.0
 71
     0
 42
0.2
  3

  4
ＭＳ ゴシック
  0
ENDTAB
  0
TABLE
  2
VIEW
 70
     0
  0
ENDTAB
  0
TABLE
  2
UCS
 70
     0
  0
ENDTAB
  0
TABLE
  2
APPID
 70
     3
  0
APPID
  2
ACAD
 70
     0
  0
APPID
  2
ACAECLAYERSTANDARD
 70
     0
  0
APPID
  2
ACADANNOTATIVE
 70
     0
  0
ENDTAB
  0
TABLE
  2
DIMSTYLE
 70
     2
  0
DIMSTYLE
  2
STANDARD
 70
     0
  3

  4

  5

  6

  7

 40
1.0
 41
0.18
 42
0.0625
 43
0.38
 44
0.18
 45
0.0
 46
0.0
 47
0.0
 48
0.0
140
0.18
141
0.09
142
0.0
143
25.4
144
1.0
145
0.0
146
1.0
147
0.09
 71
     0
 72
     0
 73
     1
 74
     1
 75
     0
 76
     0
 77
     0
 78
     0
170
     0
171
     2
172
     0
173
     0
174
     0
175
     0
176
     0
177
     0
178
     0
  0
DIMSTYLE
  2
HIBINO
 70
     0
  3
<>
  4
[]
  5
VW_EMPTYARROW
  6
VW_EMPTYARROW
  7
VW_EMPTYARROW
 40
1.0
 41
25.0062255859375
 42
20.0
 43
49.99999999999999
 44
20.0
 45
0.0
 46
0.0
 47
0.0
 48
0.0
140
29.78629557291671
141
0.0
142
0.0
143
1.0
144
1.0
145
0.0
146
1.0
147
4.999999999999999
 71
     0
 72
     0
 73
     0
 74
     0
 75
     0
 76
     0
 77
     1
 78
     8
170
     0
171
     2
172
     1
173
     0
174
     1
175
     0
176
     0
177
     0
178
     0
  0
ENDTAB
  0
ENDSEC
  0
SECTION
  2
BLOCKS
  0
BLOCK
  8
0
  2
$MODEL_SPACE
 70
     0
 10
0.0
 20
0.0
 30
0.0
  3
$MODEL_SPACE
  1

  0
ENDBLK
  5
21
  8
0
  0
BLOCK
 67
     1
  8
0
  2
$PAPER_SPACE
 70
     0
 10
0.0
 20
0.0
 30
0.0
  3
$PAPER_SPACE
  1

  0
ENDBLK
  5
1D
 67
     1
  8
0
  0
BLOCK
  8
0
  2
*D1
 70
     1
 10
0.0
 20
0.0
 30
0.0
  3
*D1
  1

  0
LINE
  5
80
  8
GAH-APS
  6
CONTINUOUS
 62
     0
 10
-253.3761198426885
 20
392.8182200758902
 30
0.0
 11
-253.3761198426885
 21
258.5
 31
0.0
  0
LINE
  5
81
  8
GAH-APS
  6
CONTINUOUS
 62
     0
 10
-375.3761198426885
 20
363.8182200758902
 30
0.0
 11
-375.3761198426885
 21
258.5
 31
0.0
  0
LINE
  5
82
  8
GAH-APS
  6
CONTINUOUS
 62
     0
 10
-278.382345428626
 20
278.5
 30
0.0
 11
-350.369894256751
 21
278.5
 31
0.0
  0
INSERT
  5
83
  8
GAH-APS
 62
     0
  2
VW_EMPTYARROW
 10
-253.3761198426885
 20
278.5
 30
0.0
 41
25.0062255859375
 42
25.0062255859375
 43
25.0062255859375
  0
INSERT
  5
88
  8
GAH-APS
 62
     0
  2
VW_EMPTYARROW
 10
-375.3761198426885
 20
278.5
 30
0.0
 41
25.0062255859375
 42
25.0062255859375
 43
25.0062255859375
 50
180.0
  0
TEXT
  5
8D
  8
GAH-APS
 62
     0
 10
-344.2368811545375
 20
283.5000000000001
 30
0.0
 40
29.78629557291671
  1
122
  7
_______
1001
ACADANNOTATIVE
1000
AnnotativeData
1002
{
1070
     1
1070
     0
1002
}
  0
POINT
  5
8E
  8
DEFPOINTS
 62
     0
 10
-253.3761198426885
 20
412.8182200758902
 30
0.0
  0
POINT
  5
8F
  8
DEFPOINTS
 62
     0
 10
-375.3761198426885
 20
383.8182200758902
 30
0.0
  0
POINT
  5
90
  8
DEFPOINTS
 62
     0
 10
-375.3761198426885
 20
278.5
 30
0.0
  0
ENDBLK
  5
61
  8
0
  0
BLOCK
  8
0
  2
*D2
 70
     1
 10
0.0
 20
0.0
 30
0.0
  3
*D2
  1

  0
LINE
  5
91
  8
GAH-APS
  6
CONTINUOUS
 62
     0
 10
-71.32365492403119
 20
363.8182200758902
 30
0.0
 11
-71.32365492403119
 21
258.5
 31
0.0
  0
LINE
  5
92
  8
GAH-APS
  6
CONTINUOUS
 62
     0
 10
-135.3236549240312
 20
363.8182200758902
 30
0.0
 11
-135.3236549240312
 21
258.5
 31
0.0
  0
LINE
  5
93
  8
GAH-APS
  6
CONTINUOUS
 62
     0
 10
-96.32988050996869
 20
278.5
 30
0.0
 11
-110.3174293380937
 21
278.5
 31
0.0
  0
INSERT
  5
94
  8
GAH-APS
 62
     0
  2
VW_EMPTYARROW
 10
-71.32365492403119
 20
278.5
 30
0.0
 41
25.0062255859375
 42
25.0062255859375
 43
25.0062255859375
  0
INSERT
  5
99
  8
GAH-APS
 62
     0
  2
VW_EMPTYARROW
 10
-135.3236549240312
 20
278.5
 30
0.0
 41
25.0062255859375
 42
25.0062255859375
 43
25.0062255859375
 50
180.0
  0
TEXT
  5
9E
  8
GAH-APS
 62
     0
 10
-123.0570757410885
 20
283.5000000000001
 30
0.0
 40
29.78629557291671
  1
64
  7
_______
1001
ACADANNOTATIVE
1000
AnnotativeData
1002
{
1070
     1
1070
     0
1002
}
  0
POINT
  5
9F
  8
DEFPOINTS
 62
     0
 10
-71.32365492403119
 20
383.8182200758902
 30
0.0
  0
POINT
  5
A0
  8
DEFPOINTS
 62
     0
 10
-135.3236549240312
 20
383.8182200758902
 30
0.0
  0
POINT
  5
A1
  8
DEFPOINTS
 62
     0
 10
-135.3236549240312
 20
278.5
 30
0.0
  0
ENDBLK
  5
64
  8
0
  0
BLOCK
  8
0
  2
VW_EMPTYARROW
 70
     0
 10
0.0
 20
0.0
 30
0.0
  3
VW_EMPTYARROW
  1

  0
LINE
  5
7A
  8
0
  6
BYBLOCK
 62
     0
 10
0.0
 20
0.0
 30
0.0
 11
-1.0
 21
0.0
 31
0.0
  0
POLYLINE
  5
7B
  8
0
  6
CONTINUOUS
 62
     0
 66
     1
 10
0.0
 20
0.0
 30
0.0
 70
   128
  0
VERTEX
  5
7C
  8
0
  6
CONTINUOUS
 62
     0
 10
-1.0
 20
0.2679491924311228
 30
0.0
  0
VERTEX
  5
7D
  8
0
  6
CONTINUOUS
 62
     0
 10
0.0
 20
0.0
 30
0.0
  0
VERTEX
  5
7E
  8
0
  6
CONTINUOUS
 62
     0
 10
-0.9999999999999999
 20
-0.267949192431123
 30
0.0
  0
SEQEND
  5
7F
  8
0
  6
CONTINUOUS
 62
     0
  0
ENDBLK
  5
79
  8
0
  0
ENDSEC
  0
SECTION
  2
ENTITIES
  0
LINE
  5
A2
  8
GAH-APS
  6
CONTINUOUS
 62
     7
 10
-1205.796073900364
 20
1543.955097185151
 30
0.0
 11
594.2039260996362
 21
1543.955097185151
 31
0.0
  0
LINE
  5
A3
  8
GAH-APS
  6
CONTINUOUS
 62
     7
 10
594.2039260996362
 20
-1056.044902814849
 30
0.0
 11
-1205.796073900364
 21
-1056.044902814849
 31
0.0
  0
LINE
  5
A4
  8
GAH-APS
  6
CONTINUOUS
 62
     7
 10
-1205.796073900364
 20
-1056.044902814849
 30
0.0
 11
-1205.796073900364
 21
1543.955097185151
 31
0.0
  0
LINE
  5
A5
  8
GAH-APS
  6
CONTINUOUS
 62
     7
 10
594.2039260996362
 20
1543.955097185151
 30
0.0
 11
594.2039260996362
 21
-1056.044902814849
 31
0.0
  0
LINE
  5
A6
  8
GAH-APS
  6
CONTINUOUS
 62
     7
 10
-305.7960739003638
 20
-831.0449028148485
 30
0.0
 11
594.2039260996362
 21
-831.0449028148485
 31
0.0
  0
LINE
  5
A7
  8
GAH-APS
  6
CONTINUOUS
 62
     7
 10
-305.7960739003638
 20
-1056.044902814849
 30
0.0
 11
-305.7960739003638
 21
-831.0449028148485
 31
0.0
  0
TEXT
  5
A8
  8
GAH-APS
 62
     7
 10
-296.7960739003638
 20
-858.0467580231816
 30
0.0
 40
16.24707031249999
  1
NOTE
  7
_______
 11
-296.7960739003638
 21
-841.7996877106816
 31
0.0
 73
     3
  0
LINE
  5
A9
  8
GAH-APS
  6
CONTINUOUS
 62
     7
 10
44.20392609963619
 20
-1056.044902814849
 30
0.0
 11
44.20392609963619
 21
-831.0449028148485
 31
0.0
  0
TEXT
  5
AA
  8
GAH-APS
 62
     7
 10
53.20392609963619
 20
-858.0467580231816
 30
0.0
 40
16.24707031249999
  1
TITLE
  7
_______
 11
53.20392609963619
 21
-841.7996877106816
 31
0.0
 73
     3
  0
LINE
  5
AB
  8
GAH-APS
  6
CONTINUOUS
 62
     7
 10
-305.7960739003638
 20
-956.0449028148478
 30
0.0
 11
594.2039260996362
 21
-956.0449028148478
 31
0.0
  0
TEXT
  5
AC
  8
GAH-APS
 62
     7
 10
178.2039260996362
 20
-982.4835580231813
 30
0.0
 40
16.24707031249999
  1
DRAWN
  7
_______
 11
178.2039260996362
 21
-966.2364877106813
 31
0.0
 73
     3
  0
TEXT
  5
AD
  8
GAH-APS
 62
     7
 10
-71.79607390036381
 20
-982.4835580231813
 30
0.0
 40
16.24707031249999
  1
DATE
  7
_______
 11
-71.79607390036381
 21
-966.2364877106813
 31
0.0
 73
     3
  0
TEXT
  5
AE
  8
GAH-APS
 62
     7
 10
-171.7960739003638
 20
-982.4835580231813
 30
0.0
 40
16.24707031249999
  1
SCALE
  7
_______
 11
-171.7960739003638
 21
-966.2364877106813
 31
0.0
 73
     3
  0
TEXT
  5
AF
  8
GAH-APS
 62
     7
 10
53.20392609963619
 20
-982.4835580231813
 30
0.0
 40
16.24707031249999
  1
DESIGN
  7
_______
 11
53.20392609963619
 21
-966.2364877106813
 31
0.0
 73
     3
  0
TEXT
  5
B0
  8
GAH-APS
 62
     7
 10
428.2039260996362
 20
-982.4835580231813
 30
0.0
 40
16.24707031249999
  1
DRAWING NO.
  7
_______
 11
428.2039260996362
 21
-966.2364877106813
 31
0.0
 73
     3
  0
TEXT
  5
B1
  8
GAH-APS
 62
     7
 10
303.203926099636
 20
-982.4835580231813
 30
0.0
 40
16.24707031249999
  1
CHECK
  7
_______
 11
303.203926099636
 21
-966.2364877106813
 31
0.0
 73
     3
  0
LINE
  5
B2
  8
GAH-APS
  6
CONTINUOUS
 62
     7
 10
-162.0460739003638
 20
-1043.544902814849
 30
0.0
 11
-124.5460739003638
 21
-1006.044902814848
 31
0.0
  0
TEXT
  5
B3
  8
GAH-APS
 62
     7
 10
-158.2960739003638
 20
-1019.049258023182
 30
0.0
 40
16.24707031249999
  1
1
  7
_______
 11
-158.2960739003638
 21
-1002.802187710682
 31
0.0
 73
     3
  0
LINE
  5
B4
  8
GAH-APS
  6
CONTINUOUS
 62
     7
 10
-180.7960739003638
 20
-1056.044902814849
 30
0.0
 11
-180.7960739003638
 21
-956.0449028148478
 31
0.0
  0
LINE
  5
B5
  8
GAH-APS
  6
CONTINUOUS
 62
     7
 10
-80.79607390036381
 20
-1056.044902814849
 30
0.0
 11
-80.79607390036381
 21
-956.0449028148478
 31
0.0
  0
LINE
  5
B6
  8
GAH-APS
  6
CONTINUOUS
 62
     7
 10
169.2039260996361
 20
-956.0449028148478
 30
0.0
 11
169.2039260996361
 21
-1056.044902814849
 31
0.0
  0
LINE
  5
B7
  8
GAH-APS
  6
CONTINUOUS
 62
     7
 10
419.2039260996362
 20
-956.0449028148478
 30
0.0
 11
419.2039260996362
 21
-1056.044902814849
 31
0.0
  0
LINE
  5
B8
  8
GAH-APS
  6
CONTINUOUS
 62
     7
 10
294.2039260996361
 20
-1056.044902814849
 30
0.0
 11
294.2039260996361
 21
-956.0449028148478
 31
0.0
  0
TEXT
  5
B9
  8
GAH-APS
 62
     7
 10
-58.69422063245503
 20
-1030.411779430917
 30
0.0
 40
14.89314778645833
  1
2025.10
  7
_______
 11
-58.69422063245503
 21
-1015.518631644458
 31
0.0
 73
     3
  0
TEXT
  5
BA
  8
GAH-APS
 62
     7
 10
-130.7960739003638
 20
-1037.799258023182
 30
0.0
 40
16.24707031249999
  1
10
  7
_______
 11
-130.7960739003638
 21
-1021.552187710682
 31
0.0
 73
     3
  0
TEXT
  5
BB
  8
GAH-APS
 62
     7
 10
187.2620262099824
 20
-1018.173979597814
 30
0.0
 40
16.11374518266286
  1
Kojima 
  7
_______
 11
187.2620262099824
 21
-1002.060234415151
 31
0.0
 73
     3
  0
TEXT
  5
BC
  8
GAH-APS
 62
     7
 10
187.2620262099824
 20
-1039.253798342754
 30
0.0
 40
16.11374518266286
  1
  Shohei
  7
_______
 11
187.2620262099824
 21
-1023.140053160091
 31
0.0
 73
     3
  0
TEXT
  5
BD
  8
GAH-APS
 62
     7
 10
-266.9627405670303
 20
-1040.114746564849
 30
0.0
 40
32.494140625
  1
A4
  7
_______
 11
-266.9627405670303
 21
-1007.620605939849
 31
0.0
 73
     3
  0
TEXT
  5
BE
  8
GAH-APS
 62
     7
 10
-296.2127405670305
 20
-984.1543746898483
 30
0.0
 40
16.24707031249999
  1
PAPER SIZE
  7
_______
 11
-296.2127405670305
 21
-967.9073043773483
 31
0.0
 73
     3
  0
TEXT
  5
BF
  8
GAH-APS
 62
     7
 10
-1178.199721331462
 20
-1124.446302552444
 30
0.0
 40
35.20198567708331
  1
Hibino-Intersound Corporation
  7
_______
 11
-1178.199721331462
 21
-1089.244316875361
 31
0.0
 73
     3
  0
TEXT
  5
C0
  8
GAH-APS
 62
     7
 10
-103.9899770982248
 20
-1120.93542001955
 30
0.0
 40
35.20198567708331
  1
ヒビノインターサウンド株式会社
  7
_______
 11
-103.9899770982248
 21
-1085.733434342467
 31
0.0
 73
     3
  0
TEXT
  5
C1
  8
GAH-APS
 62
     7
 10
-1105.796073900364
 20
-1015.579824689848
 30
0.0
 40
16.24707031249999
  1
仕様および外観は予告なく変更されることがありますので、ご了承ください。
  7
_______
 11
-1105.796073900364
 21
-999.3327543773482
 31
0.0
 73
     3
  0
TEXT
  5
C2
  8
GAH-APS
 62
     7
 10
224.4156442640789
 20
-931.549542346954
 30
0.0
 40
24.37060546875
  1
GAH-APS
  7
_______
 11
224.4156442640789
 21
-907.178936878204
 31
0.0
 73
     3
  0
TEXT
  5
C3
  8
GAH-APS
 62
     7
 10
198.584239715271
 20
-889.6780395634094
 30
0.0
 40
24.37060546875
  1
CODA AUDIO
  7
_______
 11
198.584239715271
 21
-865.3074340946594
 31
0.0
 73
     3
  0
TEXT
  5
C4
  8
GAH-APS
 62
     7
 10
-901.9830555555556
 20
38.45722222222223
 30
0.0
 40
18.95491536458333
  1
(単位：mm)
  7
_______
 11
-901.9830555555556
 21
57.41213758680556
 31
0.0
 73
     3
  0
LINE
  5
C5
  8
GAH-APS
  6
CONTINUOUS
 62
     7
 10
-1110.296363286189
 20
1369.806871655828
 30
0.0
 11
514.7036367138111
 21
1369.806871655828
 31
0.0
  0
LINE
  5
C6
  8
GAH-APS
  6
CONTINUOUS
 62
     7
 10
-1110.296363286189
 20
1332.306871655828
 30
0.0
 11
514.7036367138111
 21
1332.306871655828
 31
0.0
  0
LINE
  5
C7
  8
GAH-APS
  6
CONTINUOUS
 62
     7
 10
-1110.296363286189
 20
1257.306871655828
 30
0.0
 11
514.7036367138111
 21
1257.306871655828
 31
0.0
  0
LINE
  5
C8
  8
GAH-APS
  6
CONTINUOUS
 62
     7
 10
-1110.296363286189
 20
1294.806871655828
 30
0.0
 11
514.7036367138111
 21
1294.806871655828
 31
0.0
  0
LINE
  5
C9
  8
GAH-APS
  6
CONTINUOUS
 62
     7
 10
-1110.296363286189
 20
1369.806871655828
 30
0.0
 11
-1110.296363286189
 21
1182.306871655828
 31
0.0
  0
TEXT
  5
CA
  8
GAH-APS
 62
     7
 10
-1097.796363286189
 20
1406.934966621105
 30
0.0
 40
18.95491536458333
  1
仕様
  7
_______
 11
-1097.796363286189
 21
1425.889881985689
 31
0.0
 73
     3
  0
LINE
  5
CB
  8
GAH-APS
  6
CONTINUOUS
 62
     7
 10
-785.2963632861888
 20
1369.806871655828
 30
0.0
 11
-785.2963632861888
 21
1182.306871655828
 31
0.0
  0
LINE
  5
CC
  8
GAH-APS
  6
CONTINUOUS
 62
     7
 10
514.7036367138111
 20
1369.806871655828
 30
0.0
 11
514.7036367138111
 21
1182.306871655828
 31
0.0
  0
LINE
  5
CD
  8
GAH-APS
  6
CONTINUOUS
 62
     7
 10
-1110.296363286189
 20
1219.806871655828
 30
0.0
 11
514.7036367138111
 21
1219.806871655828
 31
0.0
  0
LINE
  5
CE
  8
GAH-APS
  6
CONTINUOUS
 62
     7
 10
-1110.296363286189
 20
1182.306871655828
 30
0.0
 11
514.7036367138111
 21
1182.306871655828
 31
0.0
  0
TEXT
  5
CF
  8
GAH-APS
 62
     7
 10
-776.1151172524503
 20
1188.479367987777
 30
0.0
 40
18.95491536458333
  1
64(W)×110(H)×122(D)mm(突起部含まず）
  7
_______
 11
-776.1151172524503
 21
1207.43428335236
 31
0.0
 73
     3
  0
TEXT
  5
D0
  8
GAH-APS
 62
     7
 10
-1101.353810840702
 20
1227.077051481509
 30
0.0
 40
18.95491536458333
  1
仕上げ
  7
_______
 11
-1101.353810840702
 21
1246.031966846093
 31
0.0
 73
     3
  0
TEXT
  5
D1
  8
GAH-APS
 62
     7
 10
-1101.997591716123
 20
1338.648828727374
 30
0.0
 40
18.95491536458333
  1
形式
  7
_______
 11
-1101.997591716123
 21
1357.603744091957
 31
0.0
 73
     3
  0
TEXT
  5
D2
  8
GAH-APS
 62
     7
 10
-1102.105567815328
 20
1189.975990543008
 30
0.0
 40
18.95491536458333
  1
寸法
  7
_______
 11
-1102.105567815328
 21
1208.930905907591
 31
0.0
 73
     3
  0
TEXT
  5
D3
  8
GAH-APS
 62
     7
 10
-776.7364878058922
 20
1265.234231171081
 30
0.0
 40
18.95491536458333
  1
スピーカー背面への鉤及びLID-APS-SUBへの手回しネジによる固定。
  7
_______
 11
-776.7364878058922
 21
1284.189146535664
 31
0.0
 73
     3
  0
TEXT
  5
D4
  8
GAH-APS
 62
     7
 10
-773.42389618504
 20
1339.772858486105
 30
0.0
 40
18.0516983768019
  1
APS,APS-Pro水平アレイ、LID-APS-SUB固定アダプタ　仮設用
  7
_______
 11
-773.42389618504
 21
1357.824556862907
 31
0.0
 73
     3
  0
TEXT
  5
D5
  8
GAH-APS
 62
     7
 10
-1104.581472441376
 20
1301.833178889705
 30
0.0
 40
18.95491536458333
  1
接続ハンドルネジ
  7
_______
 11
-1104.581472441376
 21
1320.788094254289
 31
0.0
 73
     3
  0
TEXT
  5
D6
  8
GAH-APS
 62
     7
 10
-776.1301050049207
 20
1301.303698106686
 30
0.0
 40
18.95491536458333
  1
製品に含む
  7
_______
 11
-776.1301050049207
 21
1320.258613471269
 31
0.0
 73
     3
  0
LINE
  5
D7
  8
GAH-APS
  6
CONTINUOUS
 62
     7
 10
-341.3761198426884
 20
397.8133374199778
 30
0.0
 11
-341.3761198426884
 21
402.3182200758902
 31
0.0
  0
LINE
  5
D8
  8
GAH-APS
  6
CONTINUOUS
 62
     7
 10
-361.3761198426885
 20
402.3182200758902
 30
0.0
 11
-361.3761198426885
 21
394.2867978058085
 31
0.0
  0
LINE
  5
D9
  8
GAH-APS
  6
CONTINUOUS
 62
     7
 10
-341.3761198426884
 20
402.3182200758902
 30
0.0
 11
-341.8761198426885
 21
402.8182200758902
 31
0.0
  0
LINE
  5
DA
  8
GAH-APS
  6
CONTINUOUS
 62
     7
 10
-360.8761198426885
 20
402.8182200758902
 30
0.0
 11
-361.3761198426885
 21
402.3182200758902
 31
0.0
  0
LINE
  5
DB
  8
GAH-APS
  6
CONTINUOUS
 62
     7
 10
-326.3761198426885
 20
412.8182200758902
 30
0.0
 11
-327.0114159057247
 21
420.0796873041331
 31
0.0
  0
LINE
  5
DC
  8
GAH-APS
  6
CONTINUOUS
 62
     7
 10
-375.7408237796522
 20
420.0796873041331
 30
0.0
 11
-376.3761198426885
 21
412.8182200758902
 31
0.0
  0
ARC
  5
DD
  8
GAH-APS
  6
CONTINUOUS
 62
     7
 10
-372.7522396853769
 20
419.8182200758901
 30
0.0
 40
3.000000000000085
 50
90.0000000000011
 51
174.9999999999987
  0
ARC
  5
DE
  8
GAH-APS
  6
CONTINUOUS
 62
     7
 10
-329.9999999999999
 20
419.8182200758902
 30
0.0
 40
2.999999999999975
 50
4.999999999999291
 51
90.000000000001
  0
LINE
  5
DF
  8
GAH-APS
  6
CONTINUOUS
 62
     7
 10
-341.3761198426884
 20
402.8182200758902
 30
0.0
 11
-341.3761198426884
 21
412.8182200758902
 31
0.0
  0
LINE
  5
E0
  8
GAH-APS
  6
CONTINUOUS
 62
     7
 10
-361.3761198426885
 20
412.8182200758902
 30
0.0
 11
-361.3761198426885
 21
402.8182200758902
 31
0.0
  0
LINE
  5
E1
  8
GAH-APS
  6
CONTINUOUS
 62
     7
 10
-346.3761198426884
 20
362.1682200758901
 30
0.0
 11
-347.0261198426884
 21
362.8182200758902
 31
0.0
  0
LINE
  5
E2
  8
GAH-APS
  6
CONTINUOUS
 62
     7
 10
-355.7261198426884
 20
362.8182200758902
 30
0.0
 11
-356.3761198426884
 21
362.1682200758901
 31
0.0
  0
LINE
  5
E3
  8
GAH-APS
  6
CONTINUOUS
 62
     7
 10
-356.3761198426884
 20
362.1682200758901
 30
0.0
 11
-356.3761198426884
 21
353.3182200758902
 31
0.0
  0
LINE
  5
E4
  8
GAH-APS
  6
CONTINUOUS
 62
     7
 10
-346.3761198426884
 20
353.3182200758902
 30
0.0
 11
-346.3761198426884
 21
362.1682200758901
 31
0.0
  0
LINE
  5
E5
  8
GAH-APS
  6
CONTINUOUS
 62
     7
 10
-356.3761198426884
 20
353.3182200758902
 30
0.0
 11
-355.8761198426884
 21
352.8182200758902
 31
0.0
  0
LINE
  5
E6
  8
GAH-APS
  6
CONTINUOUS
 62
     7
 10
-346.8761198426884
 20
352.8182200758902
 30
0.0
 11
-346.3761198426884
 21
353.3182200758902
 31
0.0
  0
LINE
  5
E7
  8
GAH-APS
  6
CONTINUOUS
 62
     7
 10
-347.3761198426884
 20
362.8182200758902
 30
0.0
 11
-347.3761198426884
 21
383.8182200758902
 31
0.0
  0
LINE
  5
E8
  8
GAH-APS
  6
CONTINUOUS
 62
     7
 10
-355.3761198426884
 20
383.8182200758902
 30
0.0
 11
-355.3761198426884
 21
362.8182200758902
 31
0.0
  0
LINE
  5
E9
  8
GAH-APS
  6
CONTINUOUS
 62
     7
 10
-270.8761198426885
 20
412.8182200758902
 30
0.0
 11
-270.8761198426885
 21
399.3182200758902
 31
0.0
  0
LINE
  5
EA
  8
GAH-APS
  6
CONTINUOUS
 62
     7
 10
-255.8761198426885
 20
399.3182200758902
 30
0.0
 11
-255.8761198426885
 21
412.8182200758902
 31
0.0
  0
ARC
  5
EB
  8
GAH-APS
  6
CONTINUOUS
 62
     7
 10
-257.3761198426884
 20
399.3182200758902
 30
0.0
 40
1.499999999999972
 50
269.9999999999989
 51
0.0000000000010232
  0
ARC
  5
EC
  8
GAH-APS
  6
CONTINUOUS
 62
     7
 10
-269.3761198426885
 20
399.3182200758902
 30
0.0
 40
1.499999999999972
 50
179.9999999999989
 51
270.000000000001
  0
LINE
  5
ED
  8
GAH-APS
  6
CONTINUOUS
 62
     7
 10
-341.3761198426884
 20
402.3182200758902
 30
0.0
 11
-361.3761198426885
 21
402.3182200758902
 31
0.0
  0
LINE
  5
EE
  8
GAH-APS
  6
CONTINUOUS
 62
     7
 10
-357.167623400642
 20
412.8182200758902
 30
0.0
 11
-326.3761198426885
 21
412.8182200758902
 31
0.0
  0
LINE
  5
EF
  8
GAH-APS
  6
CONTINUOUS
 62
     7
 10
-376.3761198426885
 20
412.8182200758902
 30
0.0
 11
-357.167623400642
 21
412.8182200758902
 31
0.0
  0
LINE
  5
F0
  8
GAH-APS
  6
CONTINUOUS
 62
     7
 10
-356.3281148076554
 20
422.8182200758902
 30
0.0
 11
-330.0
 21
422.8182200758902
 31
0.0
  0
LINE
  5
F1
  8
GAH-APS
  6
CONTINUOUS
 62
     7
 10
-372.7522396853769
 20
422.8182200758902
 30
0.0
 11
-356.3281148076554
 21
422.8182200758902
 31
0.0
  0
LINE
  5
F2
  8
GAH-APS
  6
CONTINUOUS
 62
     7
 10
-353.6927212658699
 20
402.8182200758902
 30
0.0
 11
-341.3761198426884
 21
402.8182200758902
 31
0.0
  0
LINE
  5
F3
  8
GAH-APS
  6
CONTINUOUS
 62
     7
 10
-361.3761198426885
 20
402.8182200758902
 30
0.0
 11
-353.6927212658699
 21
402.8182200758902
 31
0.0
  0
LINE
  5
F4
  8
GAH-APS
  6
CONTINUOUS
 62
     7
 10
-346.3761198426884
 20
362.1682200758901
 30
0.0
 11
-356.3761198426884
 21
362.1682200758901
 31
0.0
  0
LINE
  5
F5
  8
GAH-APS
  6
CONTINUOUS
 62
     7
 10
-355.7261198426884
 20
362.8182200758902
 30
0.0
 11
-347.0261198426884
 21
362.8182200758902
 31
0.0
  0
LINE
  5
F6
  8
GAH-APS
  6
CONTINUOUS
 62
     7
 10
-356.3761198426884
 20
353.3182200758902
 30
0.0
 11
-346.3761198426884
 21
353.3182200758902
 31
0.0
  0
LINE
  5
F7
  8
GAH-APS
  6
CONTINUOUS
 62
     7
 10
-346.8761198426884
 20
352.8182200758902
 30
0.0
 11
-355.8761198426884
 21
352.8182200758902
 31
0.0
  0
LINE
  5
F8
  8
GAH-APS
  6
CONTINUOUS
 62
     7
 10
-257.3761198426885
 20
397.8182200758902
 30
0.0
 11
-269.3761198426885
 21
397.8182200758902
 31
0.0
  0
LINE
  5
F9
  8
GAH-APS
  6
CONTINUOUS
 62
     7
 10
-285.8761198426884
 20
432.8182200758902
 30
0.0
 11
-285.8761198426884
 21
493.8182200758902
 31
0.0
  0
LINE
  5
FA
  8
GAH-APS
  6
CONTINUOUS
 62
     7
 10
-285.8761198426884
 20
427.8182200758902
 30
0.0
 11
-285.8761198426884
 21
432.8182200758902
 31
0.0
  0
ARC
  5
FB
  8
GAH-APS
  6
CONTINUOUS
 62
     7
 10
-281.8761198426885
 20
427.8182200758901
 30
0.0
 40
3.999999999999936
 50
179.9999999999988
 51
270.0000000000028
  0
LINE
  5
FC
  8
GAH-APS
  6
CONTINUOUS
 62
     7
 10
-258.3761198426885
 20
423.8182200758902
 30
0.0
 11
-281.8761198426884
 21
423.8182200758902
 31
0.0
  0
LINE
  5
FD
  8
GAH-APS
  6
CONTINUOUS
 62
     7
 10
-253.3761198426885
 20
416.8182200758902
 30
0.0
 11
-253.3761198426885
 21
418.8182200758902
 31
0.0
  0
LINE
  5
FE
  8
GAH-APS
  6
CONTINUOUS
 62
     7
 10
-375.3761198426885
 20
388.4618215511809
 30
0.0
 11
-375.3761198426885
 21
387.8182200758902
 31
0.0
  0
ARC
  5
FF
  8
GAH-APS
  6
CONTINUOUS
 62
     7
 10
-371.3761198426886
 20
388.4618215511812
 30
0.0
 40
3.999999999999881
 50
99.99999999999822
 51
180.0000000000028
  0
LINE
  5
100
  8
GAH-APS
  6
CONTINUOUS
 62
     7
 10
-323.6169848725486
 20
400.9447520692564
 30
0.0
 11
-372.0707125533561
 21
392.4010525632298
 31
0.0
  0
ARC
  5
101
  8
GAH-APS
  6
CONTINUOUS
 62
     7
 10
-295.7782795107383
 20
483.8182200758901
 30
0.0
 40
10.00000000000006
 50
90.00000000000001
 51
168.0000000000008
  0
LINE
  5
102
  8
GAH-APS
  6
CONTINUOUS
 62
     7
 10
-285.8761198426884
 20
493.8182200758902
 30
0.0
 11
-295.7782795107383
 21
493.8182200758902
 31
0.0
  0
LINE
  5
103
  8
GAH-APS
  6
CONTINUOUS
 62
     7
 10
-305.5597555180764
 20
485.8973369840676
 30
0.0
 11
-323.6169848725486
 21
400.9447520692564
 31
0.0
  0
ARC
  5
104
  8
GAH-APS
  6
CONTINUOUS
 62
     7
 10
-258.3761198426885
 20
418.8182200758902
 30
0.0
 40
5.0
 50
359.9999999999998
 51
90.0
  0
LINE
  5
105
  8
GAH-APS
  6
CONTINUOUS
 62
     7
 10
-301.3761198426885
 20
416.8182200758902
 30
0.0
 11
-301.3761198426885
 21
412.8182200758902
 31
0.0
  0
LINE
  5
106
  8
GAH-APS
  6
CONTINUOUS
 62
     7
 10
-301.3761198426885
 20
416.8182200758902
 30
0.0
 11
-257.3761198426885
 21
416.8182200758902
 31
0.0
  0
LINE
  5
107
  8
GAH-APS
  6
CONTINUOUS
 62
     7
 10
-257.3761198426885
 20
412.8182200758902
 30
0.0
 11
-257.3761198426885
 21
416.8182200758902
 31
0.0
  0
LINE
  5
108
  8
GAH-APS
  6
CONTINUOUS
 62
     7
 10
-301.3761198426885
 20
412.8182200758902
 30
0.0
 11
-257.3761198426885
 21
412.8182200758902
 31
0.0
  0
LINE
  5
109
  8
GAH-APS
  6
CONTINUOUS
 62
     7
 10
-309.3761198426885
 20
383.8182200758902
 30
0.0
 11
-309.3761198426885
 21
387.8182200758902
 31
0.0
  0
LINE
  5
10A
  8
GAH-APS
  6
CONTINUOUS
 62
     7
 10
-371.3761198426885
 20
383.8182200758902
 30
0.0
 11
-309.3761198426885
 21
383.8182200758902
 31
0.0
  0
LINE
  5
10B
  8
GAH-APS
  6
CONTINUOUS
 62
     7
 10
-371.3761198426885
 20
387.8182200758902
 30
0.0
 11
-371.3761198426885
 21
383.8182200758902
 31
0.0
  0
LINE
  5
10C
  8
GAH-APS
  6
CONTINUOUS
 62
     7
 10
-371.3761198426885
 20
387.8182200758902
 30
0.0
 11
-309.3761198426885
 21
387.8182200758902
 31
0.0
  0
LINE
  5
10D
  8
GAH-APS
  6
CONTINUOUS
 62
     7
 10
-375.3761198426885
 20
383.8182200758902
 30
0.0
 11
-375.3761198426885
 21
387.8182200758902
 31
0.0
  0
LINE
  5
10E
  8
GAH-APS
  6
CONTINUOUS
 62
     7
 10
-375.3761198426885
 20
387.8182200758902
 30
0.0
 11
-371.3761198426885
 21
387.8182200758902
 31
0.0
  0
LINE
  5
10F
  8
GAH-APS
  6
CONTINUOUS
 62
     7
 10
-371.3761198426885
 20
383.8182200758902
 30
0.0
 11
-375.3761198426885
 21
383.8182200758902
 31
0.0
  0
LINE
  5
110
  8
GAH-APS
  6
CONTINUOUS
 62
     7
 10
-303.3761198426885
 20
410.8182200758902
 30
0.0
 11
-307.3761198426885
 21
410.8182200758902
 31
0.0
  0
ARC
  5
111
  8
GAH-APS
  6
CONTINUOUS
 62
     7
 10
-301.3761198426885
 20
410.8182200758902
 30
0.0
 40
5.999999999999972
 50
89.99999999999984
 51
180.0000000000002
  0
ARC
  5
112
  8
GAH-APS
  6
CONTINUOUS
 62
     7
 10
-301.3761198426885
 20
410.8182200758902
 30
0.0
 40
1.999999999999972
 50
89.99999999999903
 51
180.0000000000008
  0
LINE
  5
113
  8
GAH-APS
  6
CONTINUOUS
 62
     7
 10
-307.3761198426885
 20
389.8182200758902
 30
0.0
 11
-303.3761198426885
 21
389.8182200758902
 31
0.0
  0
ARC
  5
114
  8
GAH-APS
  6
CONTINUOUS
 62
     7
 10
-309.3761198426885
 20
389.8182200758902
 30
0.0
 40
6.000000000000028
 50
270.0000000000007
 51
359.9999999999998
  0
ARC
  5
115
  8
GAH-APS
  6
CONTINUOUS
 62
     7
 10
-309.3761198426884
 20
389.8182200758902
 30
0.0
 40
1.999999999999972
 50
269.999999999999
 51
0.0000000000007958
  0
LINE
  5
116
  8
GAH-APS
  6
CONTINUOUS
 62
     7
 10
-307.3761198426885
 20
389.8182200758902
 30
0.0
 11
-307.3761198426885
 21
410.8182200758902
 31
0.0
  0
LINE
  5
117
  8
GAH-APS
  6
CONTINUOUS
 62
     7
 10
-303.3761198426885
 20
389.8182200758902
 30
0.0
 11
-303.3761198426885
 21
410.8182200758902
 31
0.0
  0
LINE
  5
118
  8
GAH-APS
  6
CONTINUOUS
 62
     7
 10
-253.3761198426885
 20
416.8182200758902
 30
0.0
 11
-253.3761198426885
 21
412.8182200758902
 31
0.0
  0
LINE
  5
119
  8
GAH-APS
  6
CONTINUOUS
 62
     7
 10
-253.3761198426885
 20
412.8182200758902
 30
0.0
 11
-257.3761198426885
 21
412.8182200758902
 31
0.0
  0
LINE
  5
11A
  8
GAH-APS
  6
CONTINUOUS
 62
     7
 10
-257.3761198426885
 20
416.8182200758902
 30
0.0
 11
-253.3761198426885
 21
416.8182200758902
 31
0.0
  0
LINE
  5
11B
  8
GAH-APS
  6
CONTINUOUS
 62
   252
 10
-327.0114159057247
 20
420.0796873041331
 30
0.0
 11
-375.7408237796522
 21
420.0796873041331
 31
0.0
  0
LINE
  5
11C
  8
GAH-APS
  6
CONTINUOUS
 62
   252
 10
-270.8761198426885
 20
399.3182200758902
 30
0.0
 11
-255.8761198426885
 21
399.3182200758902
 31
0.0
  0
LINE
  5
11D
  8
GAH-APS
  6
CONTINUOUS
 62
     7
 10
-108.3236549240312
 20
353.3182200758902
 30
0.0
 11
-107.8236549240312
 21
352.8182200758902
 31
0.0
  0
LINE
  5
11E
  8
GAH-APS
  6
CONTINUOUS
 62
     7
 10
-98.82365492403125
 20
352.8182200758902
 30
0.0
 11
-98.32365492403125
 21
353.3182200758902
 31
0.0
  0
LINE
  5
11F
  8
GAH-APS
  6
CONTINUOUS
 62
     7
 10
-108.3236549240312
 20
362.1682200758901
 30
0.0
 11
-108.3236549240312
 21
353.3182200758902
 31
0.0
  0
LINE
  5
120
  8
GAH-APS
  6
CONTINUOUS
 62
     7
 10
-98.32365492403125
 20
353.3182200758902
 30
0.0
 11
-98.32365492403125
 21
362.1682200758901
 31
0.0
  0
LINE
  5
121
  8
GAH-APS
  6
CONTINUOUS
 62
     7
 10
-98.32365492403125
 20
362.1682200758901
 30
0.0
 11
-98.97365492403122
 21
362.8182200758902
 31
0.0
  0
LINE
  5
122
  8
GAH-APS
  6
CONTINUOUS
 62
     7
 10
-107.6736549240312
 20
362.8182200758902
 30
0.0
 11
-108.3236549240312
 21
362.1682200758901
 31
0.0
  0
LINE
  5
123
  8
GAH-APS
  6
CONTINUOUS
 62
     7
 10
-99.32365492403125
 20
362.8182200758902
 30
0.0
 11
-99.32365492403125
 21
383.8182200758902
 31
0.0
  0
LINE
  5
124
  8
GAH-APS
  6
CONTINUOUS
 62
     7
 10
-107.3236549240312
 20
383.8182200758902
 30
0.0
 11
-107.3236549240312
 21
362.8182200758902
 31
0.0
  0
ARC
  5
125
  8
GAH-APS
  6
CONTINUOUS
 62
     7
 10
-97.32365492403122
 20
399.3182200758902
 30
0.0
 40
1.500000000000085
 50
269.9999999999989
 51
0.0000000000010232
  0
ARC
  5
126
  8
GAH-APS
  6
CONTINUOUS
 62
     7
 10
-109.3236549240313
 20
399.3182200758902
 30
0.0
 40
1.499999999999972
 50
179.9999999999989
 51
270.000000000001
  0
LINE
  5
127
  8
GAH-APS
  6
CONTINUOUS
 62
     7
 10
-110.8236549240312
 20
412.8182200758902
 30
0.0
 11
-110.8236549240312
 21
399.3182200758902
 31
0.0
  0
LINE
  5
128
  8
GAH-APS
  6
CONTINUOUS
 62
     7
 10
-95.82365492403113
 20
399.3182200758902
 30
0.0
 11
-95.82365492403113
 21
412.8182200758902
 31
0.0
  0
LINE
  5
129
  8
GAH-APS
  6
CONTINUOUS
 62
     7
 10
-98.94606940643843
 20
352.8182200758902
 30
0.0
 11
-107.8236549240312
 21
352.8182200758902
 31
0.0
  0
LINE
  5
12A
  8
GAH-APS
  6
CONTINUOUS
 62
     7
 10
-98.82365492403125
 20
352.8182200758902
 30
0.0
 11
-98.94606940643843
 21
352.8182200758902
 31
0.0
  0
LINE
  5
12B
  8
GAH-APS
  6
CONTINUOUS
 62
     7
 10
-98.45967101559478
 20
353.3182200758902
 30
0.0
 11
-98.32365492403125
 21
353.3182200758902
 31
0.0
  0
LINE
  5
12C
  8
GAH-APS
  6
CONTINUOUS
 62
     7
 10
-108.3236549240312
 20
353.3182200758902
 30
0.0
 11
-98.45967101559478
 21
353.3182200758902
 31
0.0
  0
LINE
  5
12D
  8
GAH-APS
  6
CONTINUOUS
 62
     7
 10
-98.45967101559478
 20
362.1682200758901
 30
0.0
 11
-108.3236549240312
 21
362.1682200758901
 31
0.0
  0
LINE
  5
12E
  8
GAH-APS
  6
CONTINUOUS
 62
     7
 10
-98.32365492403125
 20
362.1682200758901
 30
0.0
 11
-98.45967101559478
 21
362.1682200758901
 31
0.0
  0
LINE
  5
12F
  8
GAH-APS
  6
CONTINUOUS
 62
     7
 10
-99.09198892369164
 20
362.8182200758902
 30
0.0
 11
-98.97365492403122
 21
362.8182200758902
 31
0.0
  0
LINE
  5
130
  8
GAH-APS
  6
CONTINUOUS
 62
     7
 10
-107.6736549240312
 20
362.8182200758902
 30
0.0
 11
-99.09198892369164
 21
362.8182200758902
 31
0.0
  0
LINE
  5
131
  8
GAH-APS
  6
CONTINUOUS
 62
     7
 10
-97.46415353693698
 20
397.8182200758902
 30
0.0
 11
-109.3236549240312
 21
397.8182200758902
 31
0.0
  0
LINE
  5
132
  8
GAH-APS
  6
CONTINUOUS
 62
     7
 10
-97.32365492403125
 20
397.8182200758902
 30
0.0
 11
-97.46415353693698
 21
397.8182200758902
 31
0.0
  0
LINE
  5
133
  8
GAH-APS
  6
CONTINUOUS
 62
     7
 10
-131.3236549240312
 20
423.8182200758902
 30
0.0
 11
-131.3236549240312
 21
477.8182200758902
 31
0.0
  0
LINE
  5
134
  8
GAH-APS
  6
CONTINUOUS
 62
     7
 10
-128.3236549240312
 20
493.8182200758902
 30
0.0
 11
-78.32365492403125
 21
493.8182200758902
 31
0.0
  0
LINE
  5
135
  8
GAH-APS
  6
CONTINUOUS
 62
     7
 10
-75.32365492403125
 20
477.8182200758902
 30
0.0
 11
-75.32365492403125
 21
423.8182200758902
 31
0.0
  0
LINE
  5
136
  8
GAH-APS
  6
CONTINUOUS
 62
     7
 10
-131.3236549240312
 20
418.8182200758902
 30
0.0
 11
-131.3236549240312
 21
423.8182200758902
 31
0.0
  0
LINE
  5
137
  8
GAH-APS
  6
CONTINUOUS
 62
     7
 10
-131.3236549240312
 20
416.8182200758902
 30
0.0
 11
-131.3236549240312
 21
418.8182200758902
 31
0.0
  0
LINE
  5
138
  8
GAH-APS
  6
CONTINUOUS
 62
     7
 10
-131.3236549240312
 20
416.8182200758902
 30
0.0
 11
-128.3236549240312
 21
416.8182200758902
 31
0.0
  0
LINE
  5
139
  8
GAH-APS
  6
CONTINUOUS
 62
     7
 10
-131.3236549240312
 20
493.8182200758902
 30
0.0
 11
-128.3236549240312
 21
493.8182200758902
 31
0.0
  0
LINE
  5
13A
  8
GAH-APS
  6
CONTINUOUS
 62
     7
 10
-131.3236549240312
 20
477.8182200758902
 30
0.0
 11
-131.3236549240312
 21
493.8182200758902
 31
0.0
  0
LINE
  5
13B
  8
GAH-APS
  6
CONTINUOUS
 62
     7
 10
-78.32365492403125
 20
416.8182200758902
 30
0.0
 11
-75.32365492403125
 21
416.8182200758902
 31
0.0
  0
LINE
  5
13C
  8
GAH-APS
  6
CONTINUOUS
 62
     7
 10
-75.32365492403125
 20
416.8182200758902
 30
0.0
 11
-75.32365492403125
 21
418.8182200758902
 31
0.0
  0
LINE
  5
13D
  8
GAH-APS
  6
CONTINUOUS
 62
     7
 10
-75.32365492403125
 20
423.8182200758902
 30
0.0
 11
-75.32365492403125
 21
418.8182200758902
 31
0.0
  0
LINE
  5
13E
  8
GAH-APS
  6
CONTINUOUS
 62
     7
 10
-78.32365492403125
 20
493.8182200758902
 30
0.0
 11
-75.32365492403125
 21
493.8182200758902
 31
0.0
  0
LINE
  5
13F
  8
GAH-APS
  6
CONTINUOUS
 62
     7
 10
-75.32365492403125
 20
477.8182200758902
 30
0.0
 11
-75.32365492403125
 21
493.8182200758902
 31
0.0
  0
LINE
  5
140
  8
GAH-APS
  6
CONTINUOUS
 62
     7
 10
-71.32365492403119
 20
416.8182200758902
 30
0.0
 11
-71.32365492403119
 21
412.8182200758902
 31
0.0
  0
LINE
  5
141
  8
GAH-APS
  6
CONTINUOUS
 62
     7
 10
-71.32365492403119
 20
412.8182200758902
 30
0.0
 11
-75.32365492403125
 21
412.8182200758902
 31
0.0
  0
LINE
  5
142
  8
GAH-APS
  6
CONTINUOUS
 62
     7
 10
-75.32365492403125
 20
412.8182200758902
 30
0.0
 11
-75.32365492403125
 21
416.8182200758902
 31
0.0
  0
LINE
  5
143
  8
GAH-APS
  6
CONTINUOUS
 62
     7
 10
-75.32365492403125
 20
416.8182200758902
 30
0.0
 11
-71.32365492403119
 21
416.8182200758902
 31
0.0
  0
LINE
  5
144
  8
GAH-APS
  6
CONTINUOUS
 62
     7
 10
-131.3236549240312
 20
416.8182200758902
 30
0.0
 11
-131.3236549240312
 21
412.8182200758902
 31
0.0
  0
LINE
  5
145
  8
GAH-APS
  6
CONTINUOUS
 62
     7
 10
-131.3236549240312
 20
416.8182200758902
 30
0.0
 11
-75.32365492403125
 21
416.8182200758902
 31
0.0
  0
LINE
  5
146
  8
GAH-APS
  6
CONTINUOUS
 62
     7
 10
-131.3236549240312
 20
412.8182200758902
 30
0.0
 11
-75.32365492403125
 21
412.8182200758902
 31
0.0
  0
LINE
  5
147
  8
GAH-APS
  6
CONTINUOUS
 62
     7
 10
-135.3236549240312
 20
412.8182200758902
 30
0.0
 11
-135.3236549240312
 21
416.8182200758902
 31
0.0
  0
LINE
  5
148
  8
GAH-APS
  6
CONTINUOUS
 62
     7
 10
-135.3236549240312
 20
416.8182200758902
 30
0.0
 11
-131.3236549240312
 21
416.8182200758902
 31
0.0
  0
LINE
  5
149
  8
GAH-APS
  6
CONTINUOUS
 62
     7
 10
-131.3236549240312
 20
412.8182200758902
 30
0.0
 11
-135.3236549240312
 21
412.8182200758902
 31
0.0
  0
LINE
  5
14A
  8
GAH-APS
  6
CONTINUOUS
 62
     7
 10
-135.3236549240312
 20
410.8182200758902
 30
0.0
 11
-135.3236549240312
 21
412.8182200758902
 31
0.0
  0
LINE
  5
14B
  8
GAH-APS
  6
CONTINUOUS
 62
     7
 10
-71.32365492403119
 20
410.8182200758902
 30
0.0
 11
-71.32365492403119
 21
412.8182200758902
 31
0.0
  0
LINE
  5
14C
  8
GAH-APS
  6
CONTINUOUS
 62
     7
 10
-135.3236549240312
 20
389.8182200758902
 30
0.0
 11
-71.32365492403119
 21
389.8182200758902
 31
0.0
  0
LINE
  5
14D
  8
GAH-APS
  6
CONTINUOUS
 62
     7
 10
-135.3236549240312
 20
389.8182200758902
 30
0.0
 11
-135.3236549240312
 21
410.8182200758902
 31
0.0
  0
LINE
  5
14E
  8
GAH-APS
  6
CONTINUOUS
 62
     7
 10
-71.32365492403119
 20
389.8182200758902
 30
0.0
 11
-71.32365492403119
 21
410.8182200758902
 31
0.0
  0
LINE
  5
14F
  8
GAH-APS
  6
CONTINUOUS
 62
     7
 10
-135.3236549240312
 20
383.8182200758902
 30
0.0
 11
-71.32365492403119
 21
383.8182200758902
 31
0.0
  0
LINE
  5
150
  8
GAH-APS
  6
CONTINUOUS
 62
     7
 10
-135.3236549240312
 20
383.8182200758902
 30
0.0
 11
-135.3236549240312
 21
389.8182200758902
 31
0.0
  0
LINE
  5
151
  8
GAH-APS
  6
CONTINUOUS
 62
     7
 10
-71.32365492403119
 20
383.8182200758902
 30
0.0
 11
-71.32365492403119
 21
389.8182200758902
 31
0.0
  0
LINE
  5
152
  8
GAH-APS
  6
CONTINUOUS
 62
   252
 10
-95.99927819016347
 20
399.3182200758902
 30
0.0
 11
-95.82365492403113
 21
399.3182200758902
 31
0.0
  0
LINE
  5
153
  8
GAH-APS
  6
CONTINUOUS
 62
   252
 10
-110.8236549240312
 20
399.3182200758902
 30
0.0
 11
-95.99927819016347
 21
399.3182200758902
 31
0.0
  0
LINE
  5
154
  8
GAH-APS
  6
CONTINUOUS
 62
   252
 10
-135.3236549240312
 20
410.8182200758902
 30
0.0
 11
-110.8236549240314
 21
410.8182200758902
 31
0.0
  0
LINE
  5
155
  8
GAH-APS
  6
CONTINUOUS
 62
   252
 10
-95.82365492403136
 20
410.8182200758902
 30
0.0
 11
-71.32365492403119
 21
410.8182200758902
 31
0.0
  0
LINE
  5
156
  8
GAH-APS
  6
CONTINUOUS
 62
     7
 10
-578.3252184191319
 20
388.3182200758902
 30
0.0
 11
-578.3252184191319
 21
402.3182200758902
 31
0.0
  0
LINE
  5
157
  8
GAH-APS
  6
CONTINUOUS
 62
     7
 10
-598.3252184191319
 20
402.3182200758902
 30
0.0
 11
-598.3252184191319
 21
388.3182200758902
 31
0.0
  0
LINE
  5
158
  8
GAH-APS
  6
CONTINUOUS
 62
     7
 10
-578.3252184191319
 20
402.3182200758902
 30
0.0
 11
-578.8252184191319
 21
402.8182200758902
 31
0.0
  0
LINE
  5
159
  8
GAH-APS
  6
CONTINUOUS
 62
     7
 10
-597.8252184191319
 20
402.8182200758902
 30
0.0
 11
-598.3252184191319
 21
402.3182200758902
 31
0.0
  0
LINE
  5
15A
  8
GAH-APS
  6
CONTINUOUS
 62
     7
 10
-598.3252184191319
 20
388.3182200758902
 30
0.0
 11
-597.8252184191319
 21
387.8182200758902
 31
0.0
  0
LINE
  5
15B
  8
GAH-APS
  6
CONTINUOUS
 62
     7
 10
-578.8252184191319
 20
387.8182200758902
 30
0.0
 11
-578.3252184191319
 21
388.3182200758902
 31
0.0
  0
LINE
  5
15C
  8
GAH-APS
  6
CONTINUOUS
 62
     7
 10
-563.3252184191319
 20
412.8182200758902
 30
0.0
 11
-563.9605144821682
 21
420.0796873041331
 31
0.0
  0
LINE
  5
15D
  8
GAH-APS
  6
CONTINUOUS
 62
     7
 10
-612.6899223560956
 20
420.0796873041331
 30
0.0
 11
-613.3252184191319
 21
412.8182200758902
 31
0.0
  0
ARC
  5
15E
  8
GAH-APS
  6
CONTINUOUS
 62
     7
 10
-609.7013382618204
 20
419.8182200758902
 30
0.0
 40
3.0
 50
89.99999999999892
 51
175.0000000000002
  0
ARC
  5
15F
  8
GAH-APS
  6
CONTINUOUS
 62
     7
 10
-566.9490985764434
 20
419.8182200758902
 30
0.0
 40
2.999999999999974
 50
4.999999999999838
 51
90.0000000000011
  0
LINE
  5
160
  8
GAH-APS
  6
CONTINUOUS
 62
     7
 10
-578.3252184191319
 20
402.8182200758902
 30
0.0
 11
-578.3252184191319
 21
412.8182200758902
 31
0.0
  0
LINE
  5
161
  8
GAH-APS
  6
CONTINUOUS
 62
     7
 10
-598.3252184191319
 20
412.8182200758902
 30
0.0
 11
-598.3252184191319
 21
402.8182200758902
 31
0.0
  0
LINE
  5
162
  8
GAH-APS
  6
CONTINUOUS
 62
     7
 10
-593.3252184191319
 20
362.1682200758901
 30
0.0
 11
-593.3252184191319
 21
353.3182200758902
 31
0.0
  0
LINE
  5
163
  8
GAH-APS
  6
CONTINUOUS
 62
     7
 10
-583.3252184191319
 20
353.3182200758902
 30
0.0
 11
-583.3252184191319
 21
362.1682200758901
 31
0.0
  0
LINE
  5
164
  8
GAH-APS
  6
CONTINUOUS
 62
     7
 10
-583.3252184191319
 20
362.1682200758901
 30
0.0
 11
-583.9752184191318
 21
362.8182200758902
 31
0.0
  0
LINE
  5
165
  8
GAH-APS
  6
CONTINUOUS
 62
     7
 10
-592.6752184191319
 20
362.8182200758902
 30
0.0
 11
-593.3252184191319
 21
362.1682200758901
 31
0.0
  0
LINE
  5
166
  8
GAH-APS
  6
CONTINUOUS
 62
     7
 10
-593.3252184191319
 20
353.3182200758902
 30
0.0
 11
-592.8252184191319
 21
352.8182200758902
 31
0.0
  0
LINE
  5
167
  8
GAH-APS
  6
CONTINUOUS
 62
     7
 10
-583.8252184191319
 20
352.8182200758902
 30
0.0
 11
-583.3252184191319
 21
353.3182200758902
 31
0.0
  0
LINE
  5
168
  8
GAH-APS
  6
CONTINUOUS
 62
     7
 10
-584.3252184191319
 20
362.8182200758902
 30
0.0
 11
-584.3252184191319
 21
383.8182200758902
 31
0.0
  0
LINE
  5
169
  8
GAH-APS
  6
CONTINUOUS
 62
     7
 10
-592.3252184191319
 20
383.8182200758902
 30
0.0
 11
-592.3252184191319
 21
362.8182200758902
 31
0.0
  0
LINE
  5
16A
  8
GAH-APS
  6
CONTINUOUS
 62
     7
 10
-598.3252184191319
 20
388.3182200758902
 30
0.0
 11
-578.3252184191319
 21
388.3182200758902
 31
0.0
  0
LINE
  5
16B
  8
GAH-APS
  6
CONTINUOUS
 62
     7
 10
-578.3252184191319
 20
402.3182200758902
 30
0.0
 11
-598.3252184191319
 21
402.3182200758902
 31
0.0
  0
LINE
  5
16C
  8
GAH-APS
  6
CONTINUOUS
 62
     7
 10
-564.0052988769498
 20
412.8182200758902
 30
0.0
 11
-563.3252184191319
 21
412.8182200758902
 31
0.0
  0
LINE
  5
16D
  8
GAH-APS
  6
CONTINUOUS
 62
     7
 10
-613.3252184191319
 20
412.8182200758902
 30
0.0
 11
-564.0052988769498
 21
412.8182200758902
 31
0.0
  0
LINE
  5
16E
  8
GAH-APS
  6
CONTINUOUS
 62
     7
 10
-567.5305978312028
 20
422.8182200758902
 30
0.0
 11
-566.9490985764435
 21
422.8182200758902
 31
0.0
  0
LINE
  5
16F
  8
GAH-APS
  6
CONTINUOUS
 62
     7
 10
-609.7013382618204
 20
422.8182200758902
 30
0.0
 11
-567.5305978312028
 21
422.8182200758902
 31
0.0
  0
LINE
  5
170
  8
GAH-APS
  6
CONTINUOUS
 62
     7
 10
-578.597250602259
 20
402.8182200758902
 30
0.0
 11
-578.3252184191319
 21
402.8182200758902
 31
0.0
  0
LINE
  5
171
  8
GAH-APS
  6
CONTINUOUS
 62
     7
 10
-598.3252184191319
 20
402.8182200758902
 30
0.0
 11
-578.597250602259
 21
402.8182200758902
 31
0.0
  0
LINE
  5
172
  8
GAH-APS
  6
CONTINUOUS
 62
     7
 10
-593.3252184191319
 20
353.3182200758902
 30
0.0
 11
-583.3252184191319
 21
353.3182200758902
 31
0.0
  0
LINE
  5
173
  8
GAH-APS
  6
CONTINUOUS
 62
     7
 10
-583.3252184191319
 20
362.1682200758901
 30
0.0
 11
-593.3252184191319
 21
362.1682200758901
 31
0.0
  0
LINE
  5
174
  8
GAH-APS
  6
CONTINUOUS
 62
     7
 10
-592.6752184191319
 20
362.8182200758902
 30
0.0
 11
-583.9752184191318
 21
362.8182200758902
 31
0.0
  0
LINE
  5
175
  8
GAH-APS
  6
CONTINUOUS
 62
     7
 10
-583.8252184191319
 20
352.8182200758902
 30
0.0
 11
-592.8252184191319
 21
352.8182200758902
 31
0.0
  0
LINE
  5
176
  8
GAH-APS
  6
CONTINUOUS
 62
     7
 10
-563.3252184191319
 20
493.8182200758902
 30
0.0
 11
-613.3252184191319
 21
493.8182200758902
 31
0.0
  0
LINE
  5
177
  8
GAH-APS
  6
CONTINUOUS
 62
     7
 10
-560.3252184191319
 20
387.8182200758902
 30
0.0
 11
-563.3252184191319
 21
387.8182200758902
 31
0.0
  0
LINE
  5
178
  8
GAH-APS
  6
CONTINUOUS
 62
     7
 10
-560.3252184191319
 20
388.4618215511809
 30
0.0
 11
-563.3252184191319
 21
388.4618215511809
 31
0.0
  0
LINE
  5
179
  8
GAH-APS
  6
CONTINUOUS
 62
     7
 10
-560.3252184191319
 20
388.4618215511809
 30
0.0
 11
-560.3252184191319
 21
387.8182200758902
 31
0.0
  0
LINE
  5
17A
  8
GAH-APS
  6
CONTINUOUS
 62
     7
 10
-563.3252184191319
 20
388.4618215511809
 30
0.0
 11
-563.3252184191319
 21
387.8182200758902
 31
0.0
  0
LINE
  5
17B
  8
GAH-APS
  6
CONTINUOUS
 62
     7
 10
-563.3252184191319
 20
392.4010525632298
 30
0.0
 11
-560.3252184191319
 21
392.4010525632298
 31
0.0
  0
LINE
  5
17C
  8
GAH-APS
  6
CONTINUOUS
 62
     7
 10
-560.3252184191319
 20
392.4010525632298
 30
0.0
 11
-560.3252184191319
 21
388.4618215511809
 31
0.0
  0
LINE
  5
17D
  8
GAH-APS
  6
CONTINUOUS
 62
     7
 10
-563.3252184191319
 20
388.4618215511809
 30
0.0
 11
-563.3252184191319
 21
392.4010525632298
 31
0.0
  0
LINE
  5
17E
  8
GAH-APS
  6
CONTINUOUS
 62
     7
 10
-560.3252184191319
 20
400.9447520692564
 30
0.0
 11
-563.3252184191319
 21
400.9447520692564
 31
0.0
  0
LINE
  5
17F
  8
GAH-APS
  6
CONTINUOUS
 62
     7
 10
-560.3252184191319
 20
400.9447520692564
 30
0.0
 11
-560.3252184191319
 21
392.4010525632298
 31
0.0
  0
LINE
  5
180
  8
GAH-APS
  6
CONTINUOUS
 62
     7
 10
-563.3252184191319
 20
400.9447520692564
 30
0.0
 11
-563.3252184191319
 21
392.4010525632298
 31
0.0
  0
LINE
  5
181
  8
GAH-APS
  6
CONTINUOUS
 62
     7
 10
-560.3252184191319
 20
485.8973369840676
 30
0.0
 11
-563.3252184191319
 21
485.8973369840676
 31
0.0
  0
LINE
  5
182
  8
GAH-APS
  6
CONTINUOUS
 62
     7
 10
-560.3252184191319
 20
485.8973369840676
 30
0.0
 11
-560.3252184191319
 21
400.9447520692564
 31
0.0
  0
LINE
  5
183
  8
GAH-APS
  6
CONTINUOUS
 62
     7
 10
-563.3252184191319
 20
485.8973369840676
 30
0.0
 11
-563.3252184191319
 21
400.9447520692564
 31
0.0
  0
LINE
  5
184
  8
GAH-APS
  6
CONTINUOUS
 62
     7
 10
-563.3252184191319
 20
493.8182200758902
 30
0.0
 11
-560.3252184191319
 21
493.8182200758902
 31
0.0
  0
LINE
  5
185
  8
GAH-APS
  6
CONTINUOUS
 62
     7
 10
-560.3252184191319
 20
493.8182200758902
 30
0.0
 11
-560.3252184191319
 21
485.8973369840676
 31
0.0
  0
LINE
  5
186
  8
GAH-APS
  6
CONTINUOUS
 62
     7
 10
-563.3252184191319
 20
485.8973369840676
 30
0.0
 11
-563.3252184191319
 21
493.8182200758902
 31
0.0
  0
LINE
  5
187
  8
GAH-APS
  6
CONTINUOUS
 62
     7
 10
-613.3252184191319
 20
388.4618215511809
 30
0.0
 11
-616.3252184191319
 21
388.4618215511809
 31
0.0
  0
LINE
  5
188
  8
GAH-APS
  6
CONTINUOUS
 62
     7
 10
-616.3252184191319
 20
392.4010525632298
 30
0.0
 11
-613.3252184191319
 21
392.4010525632298
 31
0.0
  0
LINE
  5
189
  8
GAH-APS
  6
CONTINUOUS
 62
     7
 10
-613.3252184191319
 20
392.4010525632298
 30
0.0
 11
-613.3252184191319
 21
388.4618215511809
 31
0.0
  0
LINE
  5
18A
  8
GAH-APS
  6
CONTINUOUS
 62
     7
 10
-616.3252184191319
 20
388.4618215511809
 30
0.0
 11
-616.3252184191319
 21
392.4010525632298
 31
0.0
  0
LINE
  5
18B
  8
GAH-APS
  6
CONTINUOUS
 62
     7
 10
-613.3252184191319
 20
388.4618215511809
 30
0.0
 11
-613.3252184191319
 21
387.8182200758902
 31
0.0
  0
LINE
  5
18C
  8
GAH-APS
  6
CONTINUOUS
 62
     7
 10
-613.3252184191319
 20
387.8182200758902
 30
0.0
 11
-616.3252184191319
 21
387.8182200758902
 31
0.0
  0
LINE
  5
18D
  8
GAH-APS
  6
CONTINUOUS
 62
     7
 10
-616.3252184191319
 20
388.4618215511809
 30
0.0
 11
-616.3252184191319
 21
387.8182200758902
 31
0.0
  0
LINE
  5
18E
  8
GAH-APS
  6
CONTINUOUS
 62
     7
 10
-613.3252184191319
 20
400.9447520692564
 30
0.0
 11
-616.3252184191319
 21
400.9447520692564
 31
0.0
  0
LINE
  5
18F
  8
GAH-APS
  6
CONTINUOUS
 62
     7
 10
-613.3252184191319
 20
400.9447520692564
 30
0.0
 11
-613.3252184191319
 21
392.4010525632298
 31
0.0
  0
LINE
  5
190
  8
GAH-APS
  6
CONTINUOUS
 62
     7
 10
-616.3252184191319
 20
400.9447520692564
 30
0.0
 11
-616.3252184191319
 21
392.4010525632298
 31
0.0
  0
LINE
  5
191
  8
GAH-APS
  6
CONTINUOUS
 62
     7
 10
-613.3252184191319
 20
485.8973369840676
 30
0.0
 11
-616.3252184191319
 21
485.8973369840676
 31
0.0
  0
LINE
  5
192
  8
GAH-APS
  6
CONTINUOUS
 62
     7
 10
-613.3252184191319
 20
485.8973369840676
 30
0.0
 11
-613.3252184191319
 21
400.9447520692564
 31
0.0
  0
LINE
  5
193
  8
GAH-APS
  6
CONTINUOUS
 62
     7
 10
-616.3252184191319
 20
485.8973369840676
 30
0.0
 11
-616.3252184191319
 21
400.9447520692564
 31
0.0
  0
LINE
  5
194
  8
GAH-APS
  6
CONTINUOUS
 62
     7
 10
-616.3252184191319
 20
493.8182200758902
 30
0.0
 11
-613.3252184191319
 21
493.8182200758902
 31
0.0
  0
LINE
  5
195
  8
GAH-APS
  6
CONTINUOUS
 62
     7
 10
-613.3252184191319
 20
493.8182200758902
 30
0.0
 11
-613.3252184191319
 21
485.8973369840676
 31
0.0
  0
LINE
  5
196
  8
GAH-APS
  6
CONTINUOUS
 62
     7
 10
-616.3252184191319
 20
485.8973369840676
 30
0.0
 11
-616.3252184191319
 21
493.8182200758902
 31
0.0
  0
LINE
  5
197
  8
GAH-APS
  6
CONTINUOUS
 62
     7
 10
-620.3252184191319
 20
383.8182200758902
 30
0.0
 11
-620.3252184191319
 21
387.8182200758902
 31
0.0
  0
LINE
  5
198
  8
GAH-APS
  6
CONTINUOUS
 62
     7
 10
-620.3252184191319
 20
387.8182200758902
 30
0.0
 11
-616.3252184191319
 21
387.8182200758902
 31
0.0
  0
LINE
  5
199
  8
GAH-APS
  6
CONTINUOUS
 62
     7
 10
-616.3252184191319
 20
387.8182200758902
 30
0.0
 11
-616.3252184191319
 21
383.8182200758902
 31
0.0
  0
LINE
  5
19A
  8
GAH-APS
  6
CONTINUOUS
 62
     7
 10
-616.3252184191319
 20
383.8182200758902
 30
0.0
 11
-620.3252184191319
 21
383.8182200758902
 31
0.0
  0
LINE
  5
19B
  8
GAH-APS
  6
CONTINUOUS
 62
     7
 10
-560.3252184191319
 20
383.8182200758902
 30
0.0
 11
-560.3252184191319
 21
387.8182200758902
 31
0.0
  0
LINE
  5
19C
  8
GAH-APS
  6
CONTINUOUS
 62
     7
 10
-560.3252184191319
 20
387.8182200758902
 30
0.0
 11
-616.3252184191319
 21
387.8182200758902
 31
0.0
  0
LINE
  5
19D
  8
GAH-APS
  6
CONTINUOUS
 62
     7
 10
-560.3252184191319
 20
383.8182200758902
 30
0.0
 11
-616.3252184191319
 21
383.8182200758902
 31
0.0
  0
LINE
  5
19E
  8
GAH-APS
  6
CONTINUOUS
 62
     7
 10
-556.3252184191319
 20
387.8182200758902
 30
0.0
 11
-556.3252184191319
 21
383.8182200758902
 31
0.0
  0
LINE
  5
19F
  8
GAH-APS
  6
CONTINUOUS
 62
     7
 10
-560.3252184191319
 20
387.8182200758902
 30
0.0
 11
-556.3252184191319
 21
387.8182200758902
 31
0.0
  0
LINE
  5
1A0
  8
GAH-APS
  6
CONTINUOUS
 62
     7
 10
-556.3252184191319
 20
383.8182200758902
 30
0.0
 11
-560.3252184191319
 21
383.8182200758902
 31
0.0
  0
LINE
  5
1A1
  8
GAH-APS
  6
CONTINUOUS
 62
     7
 10
-556.3252184191319
 20
387.8182200758902
 30
0.0
 11
-556.3252184191319
 21
389.8182200758902
 31
0.0
  0
LINE
  5
1A2
  8
GAH-APS
  6
CONTINUOUS
 62
     7
 10
-620.3252184191319
 20
387.8182200758902
 30
0.0
 11
-620.3252184191319
 21
389.8182200758902
 31
0.0
  0
LINE
  5
1A3
  8
GAH-APS
  6
CONTINUOUS
 62
     7
 10
-556.3252184191319
 20
389.8182200758902
 30
0.0
 11
-556.3252184191319
 21
410.8182200758902
 31
0.0
  0
LINE
  5
1A4
  8
GAH-APS
  6
CONTINUOUS
 62
     7
 10
-620.3252184191319
 20
389.8182200758902
 30
0.0
 11
-620.3252184191319
 21
410.8182200758902
 31
0.0
  0
LINE
  5
1A5
  8
GAH-APS
  6
CONTINUOUS
 62
     7
 10
-556.3252184191319
 20
416.8182200758902
 30
0.0
 11
-560.3252184191319
 21
416.8182200758902
 31
0.0
  0
LINE
  5
1A6
  8
GAH-APS
  6
CONTINUOUS
 62
     7
 10
-563.3252184191319
 20
416.8182200758902
 30
0.0
 11
-563.6751730732354
 21
416.8182200758902
 31
0.0
  0
LINE
  5
1A7
  8
GAH-APS
  6
CONTINUOUS
 62
     7
 10
-612.975263765028
 20
416.8182200758902
 30
0.0
 11
-613.3252184191318
 21
416.8182200758902
 31
0.0
  0
LINE
  5
1A8
  8
GAH-APS
  6
CONTINUOUS
 62
     7
 10
-616.3252184191318
 20
416.8182200758902
 30
0.0
 11
-620.3252184191319
 21
416.8182200758902
 31
0.0
  0
LINE
  5
1A9
  8
GAH-APS
  6
CONTINUOUS
 62
     7
 10
-556.3252184191319
 20
410.8182200758902
 30
0.0
 11
-556.3252184191319
 21
416.8182200758902
 31
0.0
  0
LINE
  5
1AA
  8
GAH-APS
  6
CONTINUOUS
 62
     7
 10
-620.3252184191319
 20
410.8182200758902
 30
0.0
 11
-620.3252184191319
 21
416.8182200758902
 31
0.0
  0
LINE
  5
1AB
  8
GAH-APS
  6
CONTINUOUS
 62
   252
 10
-563.9605144821682
 20
420.0796873041331
 30
0.0
 11
-612.6899223560956
 21
420.0796873041331
 31
0.0
  0
LINE
  5
1AC
  8
GAH-APS
  6
CONTINUOUS
 62
   252
 10
-556.3252184191319
 20
389.8182200758902
 30
0.0
 11
-560.3252184191317
 21
389.8182200758902
 31
0.0
  0
LINE
  5
1AD
  8
GAH-APS
  6
CONTINUOUS
 62
   252
 10
-563.3252184191317
 20
389.8182200758902
 30
0.0
 11
-578.3252184191317
 21
389.8182200758902
 31
0.0
  0
LINE
  5
1AE
  8
GAH-APS
  6
CONTINUOUS
 62
   252
 10
-598.3252184191317
 20
389.8182200758902
 30
0.0
 11
-613.3252184191317
 21
389.8182200758902
 31
0.0
  0
LINE
  5
1AF
  8
GAH-APS
  6
CONTINUOUS
 62
   252
 10
-616.3252184191317
 20
389.8182200758902
 30
0.0
 11
-620.3252184191319
 21
389.8182200758902
 31
0.0
  0
LINE
  5
1B0
  8
GAH-APS
  6
CONTINUOUS
 62
   252
 10
-556.3252184191319
 20
410.8182200758902
 30
0.0
 11
-560.3252184191318
 21
410.8182200758902
 31
0.0
  0
LINE
  5
1B1
  8
GAH-APS
  6
CONTINUOUS
 62
   252
 10
-563.3252184191318
 20
410.8182200758902
 30
0.0
 11
-578.3252184191317
 21
410.8182200758902
 31
0.0
  0
LINE
  5
1B2
  8
GAH-APS
  6
CONTINUOUS
 62
   252
 10
-598.3252184191317
 20
410.8182200758902
 30
0.0
 11
-613.3252184191318
 21
410.8182200758902
 31
0.0
  0
LINE
  5
1B3
  8
GAH-APS
  6
CONTINUOUS
 62
   252
 10
-616.3252184191318
 20
410.8182200758902
 30
0.0
 11
-620.3252184191319
 21
410.8182200758902
 31
0.0
  0
TEXT
  5
1B4
  8
GAH-APS
 62
     7
 10
-285.424712665037
 20
-931.6863888888889
 30
0.0
 40
14.89314778645833
  1
2025.10改訂：APS-Pro対応を追記。
  7
_______
 11
-285.424712665037
 21
-916.7932411024306
 31
0.0
 73
     3
  0
LINE
  5
1B5
  8
GAH-APS
  6
CONTINUOUS
 62
     7
 10
-107.625
 20
-873.0
 30
0.0
 11
-107.625
 21
-893.0
 31
0.0
  0
LINE
  5
1B6
  8
GAH-APS
  6
CONTINUOUS
 62
     7
 10
-137.3125
 20
-878.0
 30
0.0
 11
-137.3125
 21
-888.0
 31
0.0
  0
LINE
  5
1B7
  8
GAH-APS
  6
CONTINUOUS
 62
     7
 10
-137.3125
 20
-878.0
 30
0.0
 11
-107.625
 21
-873.0
 31
0.0
  0
LINE
  5
1B8
  8
GAH-APS
  6
CONTINUOUS
 62
     7
 10
-137.3125
 20
-888.0
 30
0.0
 11
-107.625
 21
-893.0
 31
0.0
  0
POLYLINE
  5
1B9
  8
GAH-APS
  6
CONTINUOUS
 62
     7
 66
     1
 10
0.0
 20
0.0
 30
0.0
 70
   129
  0
VERTEX
  5
1BA
  8
GAH-APS
  6
CONTINUOUS
 62
     7
 10
-145.0131670194949
 20
-886.1622776601685
 30
0.0
  0
VERTEX
  5
1BB
  8
GAH-APS
  6
CONTINUOUS
 62
     7
 10
-145.368806126489
 20
-887.0769226684297
 30
0.0
  0
VERTEX
  5
1BC
  8
GAH-APS
  6
CONTINUOUS
 62
     7
 10
-145.8123836221033
 20
-887.9523046827212
 30
0.0
  0
VERTEX
  5
1BD
  8
GAH-APS
  6
CONTINUOUS
 62
     7
 10
-146.339627612571
 20
-888.779993295713
 30
0.0
  0
VERTEX
  5
1BE
  8
GAH-APS
  6
CONTINUOUS
 62
     7
 10
-146.945460450043
 20
-889.5520174136013
 30
0.0
  0
VERTEX
  5
1BF
  8
GAH-APS
  6
CONTINUOUS
 62
     7
 10
-147.6240476331124
 20
-890.2609420220997
 30
0.0
  0
VERTEX
  5
1C0
  8
GAH-APS
  6
CONTINUOUS
 62
     7
 10
-148.3688539962529
 20
-890.8999397896905
 30
0.0
  0
VERTEX
  5
1C1
  8
GAH-APS
  6
CONTINUOUS
 62
     7
 10
-149.1727066470347
 20
-891.4628568185603
 30
0.0
  0
VERTEX
  5
1C2
  8
GAH-APS
  6
CONTINUOUS
 62
     7
 10
-150.0278640450005
 20
-891.9442719099993
 30
0.0
  0
VERTEX
  5
1C3
  8
GAH-APS
  6
CONTINUOUS
 62
     7
 10
-150.926090556931
 20
-892.3395487735083
 30
0.0
  0
VERTEX
  5
1C4
  8
GAH-APS
  6
CONTINUOUS
 62
     7
 10
-151.858735770496
 20
-892.6448806768121
 30
0.0
  0
VERTEX
  5
1C5
  8
GAH-APS
  6
CONTINUOUS
 62
     7
 10
-152.8168178024529
 20
-892.8573271067698
 30
0.0
  0
VERTEX
  5
1C6
  8
GAH-APS
  6
CONTINUOUS
 62
     7
 10
-153.7911097990933
 20
-892.9748420881265
 30
0.0
  0
VERTEX
  5
1C7
  8
GAH-APS
  6
CONTINUOUS
 62
     7
 10
-154.7722287958871
 20
-892.9962938873709
 30
0.0
  0
VERTEX
  5
1C8
  8
GAH-APS
  6
CONTINUOUS
 62
     7
 10
-155.7507260805612
 20
-892.92147591195
 30
0.0
  0
VERTEX
  5
1C9
  8
GAH-APS
  6
CONTINUOUS
 62
     7
 10
-156.7171781893631
 20
-892.7511086998666
 30
0.0
  0
VERTEX
  5
1CA
  8
GAH-APS
  6
CONTINUOUS
 62
     7
 10
-157.6622776601685
 20
-892.4868329805051
 30
0.0
  0
VERTEX
  5
1CB
  8
GAH-APS
  6
CONTINUOUS
 62
     7
 10
-158.5769226684296
 20
-892.1311938735109
 30
0.0
  0
VERTEX
  5
1CC
  8
GAH-APS
  6
CONTINUOUS
 62
     7
 10
-159.4523046827212
 20
-891.6876163778966
 30
0.0
  0
VERTEX
  5
1CD
  8
GAH-APS
  6
CONTINUOUS
 62
     7
 10
-160.279993295713
 20
-891.1603723874289
 30
0.0
  0
VERTEX
  5
1CE
  8
GAH-APS
  6
CONTINUOUS
 62
     7
 10
-161.0520174136014
 20
-890.5545395499571
 30
0.0
  0
VERTEX
  5
1CF
  8
GAH-APS
  6
CONTINUOUS
 62
     7
 10
-161.7609420220997
 20
-889.8759523668875
 30
0.0
  0
VERTEX
  5
1D0
  8
GAH-APS
  6
CONTINUOUS
 62
     7
 10
-162.3999397896906
 20
-889.1311460037471
 30
0.0
  0
VERTEX
  5
1D1
  8
GAH-APS
  6
CONTINUOUS
 62
     7
 10
-162.9628568185603
 20
-888.3272933529652
 30
0.0
  0
VERTEX
  5
1D2
  8
GAH-APS
  6
CONTINUOUS
 62
     7
 10
-163.4442719099992
 20
-887.4721359549994
 30
0.0
  0
VERTEX
  5
1D3
  8
GAH-APS
  6
CONTINUOUS
 62
     7
 10
-163.8395487735085
 20
-886.5739094430689
 30
0.0
  0
VERTEX
  5
1D4
  8
GAH-APS
  6
CONTINUOUS
 62
     7
 10
-164.1448806768121
 20
-885.641264229504
 30
0.0
  0
VERTEX
  5
1D5
  8
GAH-APS
  6
CONTINUOUS
 62
     7
 10
-164.3573271067699
 20
-884.683182197547
 30
0.0
  0
VERTEX
  5
1D6
  8
GAH-APS
  6
CONTINUOUS
 62
     7
 10
-164.4748420881265
 20
-883.7088902009068
 30
0.0
  0
VERTEX
  5
1D7
  8
GAH-APS
  6
CONTINUOUS
 62
     7
 10
-164.496293887371
 20
-882.727771204113
 30
0.0
  0
VERTEX
  5
1D8
  8
GAH-APS
  6
CONTINUOUS
 62
     7
 10
-164.42147591195
 20
-881.7492739194388
 30
0.0
  0
VERTEX
  5
1D9
  8
GAH-APS
  6
CONTINUOUS
 62
     7
 10
-164.2511086998666
 20
-880.782821810637
 30
0.0
  0
VERTEX
  5
1DA
  8
GAH-APS
  6
CONTINUOUS
 62
     7
 10
-163.9868329805051
 20
-879.8377223398315
 30
0.0
  0
VERTEX
  5
1DB
  8
GAH-APS
  6
CONTINUOUS
 62
     7
 10
-163.631193873511
 20
-878.9230773315703
 30
0.0
  0
VERTEX
  5
1DC
  8
GAH-APS
  6
CONTINUOUS
 62
     7
 10
-163.1876163778967
 20
-878.0476953172788
 30
0.0
  0
VERTEX
  5
1DD
  8
GAH-APS
  6
CONTINUOUS
 62
     7
 10
-162.660372387429
 20
-877.220006704287
 30
0.0
  0
VERTEX
  5
1DE
  8
GAH-APS
  6
CONTINUOUS
 62
     7
 10
-162.054539549957
 20
-876.4479825863987
 30
0.0
  0
VERTEX
  5
1DF
  8
GAH-APS
  6
CONTINUOUS
 62
     7
 10
-161.3759523668876
 20
-875.7390579779003
 30
0.0
  0
VERTEX
  5
1E0
  8
GAH-APS
  6
CONTINUOUS
 62
     7
 10
-160.6311460037471
 20
-875.1000602103095
 30
0.0
  0
VERTEX
  5
1E1
  8
GAH-APS
  6
CONTINUOUS
 62
     7
 10
-159.8272933529653
 20
-874.5371431814397
 30
0.0
  0
VERTEX
  5
1E2
  8
GAH-APS
  6
CONTINUOUS
 62
     7
 10
-158.9721359549995
 20
-874.0557280900007
 30
0.0
  0
VERTEX
  5
1E3
  8
GAH-APS
  6
CONTINUOUS
 62
     7
 10
-158.073909443069
 20
-873.6604512264917
 30
0.0
  0
VERTEX
  5
1E4
  8
GAH-APS
  6
CONTINUOUS
 62
     7
 10
-157.141264229504
 20
-873.3551193231879
 30
0.0
  0
VERTEX
  5
1E5
  8
GAH-APS
  6
CONTINUOUS
 62
     7
 10
-156.1831821975471
 20
-873.1426728932302
 30
0.0
  0
VERTEX
  5
1E6
  8
GAH-APS
  6
CONTINUOUS
 62
     7
 10
-155.2088902009067
 20
-873.0251579118735
 30
0.0
  0
VERTEX
  5
1E7
  8
GAH-APS
  6
CONTINUOUS
 62
     7
 10
-154.2277712041129
 20
-873.0037061126291
 30
0.0
  0
VERTEX
  5
1E8
  8
GAH-APS
  6
CONTINUOUS
 62
     7
 10
-153.2492739194388
 20
-873.07852408805
 30
0.0
  0
VERTEX
  5
1E9
  8
GAH-APS
  6
CONTINUOUS
 62
     7
 10
-152.2828218106369
 20
-873.2488913001334
 30
0.0
  0
VERTEX
  5
1EA
  8
GAH-APS
  6
CONTINUOUS
 62
     7
 10
-151.3377223398315
 20
-873.5131670194949
 30
0.0
  0
VERTEX
  5
1EB
  8
GAH-APS
  6
CONTINUOUS
 62
     7
 10
-150.4230773315704
 20
-873.8688061264891
 30
0.0
  0
VERTEX
  5
1EC
  8
GAH-APS
  6
CONTINUOUS
 62
     7
 10
-149.5476953172788
 20
-874.3123836221034
 30
0.0
  0
VERTEX
  5
1ED
  8
GAH-APS
  6
CONTINUOUS
 62
     7
 10
-148.720006704287
 20
-874.8396276125711
 30
0.0
  0
VERTEX
  5
1EE
  8
GAH-APS
  6
CONTINUOUS
 62
     7
 10
-147.9479825863986
 20
-875.4454604500429
 30
0.0
  0
VERTEX
  5
1EF
  8
GAH-APS
  6
CONTINUOUS
 62
     7
 10
-147.2390579779003
 20
-876.1240476331125
 30
0.0
  0
VERTEX
  5
1F0
  8
GAH-APS
  6
CONTINUOUS
 62
     7
 10
-146.6000602103094
 20
-876.8688539962529
 30
0.0
  0
VERTEX
  5
1F1
  8
GAH-APS
  6
CONTINUOUS
 62
     7
 10
-146.0371431814397
 20
-877.6727066470348
 30
0.0
  0
VERTEX
  5
1F2
  8
GAH-APS
  6
CONTINUOUS
 62
     7
 10
-145.5557280900008
 20
-878.5278640450006
 30
0.0
  0
VERTEX
  5
1F3
  8
GAH-APS
  6
CONTINUOUS
 62
     7
 10
-145.1604512264915
 20
-879.4260905569311
 30
0.0
  0
VERTEX
  5
1F4
  8
GAH-APS
  6
CONTINUOUS
 62
     7
 10
-144.8551193231879
 20
-880.358735770496
 30
0.0
  0
VERTEX
  5
1F5
  8
GAH-APS
  6
CONTINUOUS
 62
     7
 10
-144.6426728932301
 20
-881.316817802453
 30
0.0
  0
VERTEX
  5
1F6
  8
GAH-APS
  6
CONTINUOUS
 62
     7
 10
-144.5251579118735
 20
-882.2911097990932
 30
0.0
  0
VERTEX
  5
1F7
  8
GAH-APS
  6
CONTINUOUS
 62
     7
 10
-144.503706112629
 20
-883.272228795887
 30
0.0
  0
VERTEX
  5
1F8
  8
GAH-APS
  6
CONTINUOUS
 62
     7
 10
-144.57852408805
 20
-884.2507260805612
 30
0.0
  0
VERTEX
  5
1F9
  8
GAH-APS
  6
CONTINUOUS
 62
     7
 10
-144.7488913001334
 20
-885.217178189363
 30
0.0
  0
SEQEND
  5
1FA
  8
GAH-APS
  6
CONTINUOUS
 62
     7
  0
POLYLINE
  5
1FB
  8
GAH-APS
  6
CONTINUOUS
 62
     7
 66
     1
 10
0.0
 20
0.0
 30
0.0
 70
   129
  0
VERTEX
  5
1FC
  8
GAH-APS
  6
CONTINUOUS
 62
     7
 10
-150.9644660940673
 20
-886.5355339059327
 30
0.0
  0
VERTEX
  5
1FD
  8
GAH-APS
  6
CONTINUOUS
 62
     7
 10
-151.3280335791818
 20
-886.8650522668136
 30
0.0
  0
VERTEX
  5
1FE
  8
GAH-APS
  6
CONTINUOUS
 62
     7
 10
-151.722148834902
 20
-887.1573480615127
 30
0.0
  0
VERTEX
  5
1FF
  8
GAH-APS
  6
CONTINUOUS
 62
     7
 10
-152.1430163158701
 20
-887.4096063217416
 30
0.0
  0
VERTEX
  5
200
  8
GAH-APS
  6
CONTINUOUS
 62
     7
 10
-152.5865828381746
 20
-887.6193976625564
 30
0.0
  0
VERTEX
  5
201
  8
GAH-APS
  6
CONTINUOUS
 62
     7
 10
-153.0485766137277
 20
-887.7847016786609
 30
0.0
  0
VERTEX
  5
202
  8
GAH-APS
  6
CONTINUOUS
 62
     7
 10
-153.5245483899194
 20
-887.9039264020162
 30
0.0
  0
VERTEX
  5
203
  8
GAH-APS
  6
CONTINUOUS
 62
     7
 10
-154.0099142983522
 20
-887.9759236333609
 30
0.0
  0
VERTEX
  5
204
  8
GAH-APS
  6
CONTINUOUS
 62
     7
 10
-154.5
 20
-888.0
 30
0.0
  0
VERTEX
  5
205
  8
GAH-APS
  6
CONTINUOUS
 62
     7
 10
-154.9900857016478
 20
-887.9759236333609
 30
0.0
  0
VERTEX
  5
206
  8
GAH-APS
  6
CONTINUOUS
 62
     7
 10
-155.4754516100806
 20
-887.9039264020162
 30
0.0
  0
VERTEX
  5
207
  8
GAH-APS
  6
CONTINUOUS
 62
     7
 10
-155.9514233862723
 20
-887.7847016786609
 30
0.0
  0
VERTEX
  5
208
  8
GAH-APS
  6
CONTINUOUS
 62
     7
 10
-156.4134171618254
 20
-887.6193976625564
 30
0.0
  0
VERTEX
  5
209
  8
GAH-APS
  6
CONTINUOUS
 62
     7
 10
-156.8569836841299
 20
-887.4096063217416
 30
0.0
  0
VERTEX
  5
20A
  8
GAH-APS
  6
CONTINUOUS
 62
     7
 10
-157.277851165098
 20
-887.1573480615127
 30
0.0
  0
VERTEX
  5
20B
  8
GAH-APS
  6
CONTINUOUS
 62
     7
 10
-157.6719664208182
 20
-886.8650522668136
 30
0.0
  0
VERTEX
  5
20C
  8
GAH-APS
  6
CONTINUOUS
 62
     7
 10
-158.0355339059327
 20
-886.5355339059327
 30
0.0
  0
VERTEX
  5
20D
  8
GAH-APS
  6
CONTINUOUS
 62
     7
 10
-158.3650522668136
 20
-886.1719664208181
 30
0.0
  0
VERTEX
  5
20E
  8
GAH-APS
  6
CONTINUOUS
 62
     7
 10
-158.6573480615127
 20
-885.7778511650979
 30
0.0
  0
VERTEX
  5
20F
  8
GAH-APS
  6
CONTINUOUS
 62
     7
 10
-158.9096063217417
 20
-885.35698368413
 30
0.0
  0
VERTEX
  5
210
  8
GAH-APS
  6
CONTINUOUS
 62
     7
 10
-159.1193976625564
 20
-884.9134171618255
 30
0.0
  0
VERTEX
  5
211
  8
GAH-APS
  6
CONTINUOUS
 62
     7
 10
-159.284701678661
 20
-884.4514233862724
 30
0.0
  0
VERTEX
  5
212
  8
GAH-APS
  6
CONTINUOUS
 62
     7
 10
-159.4039264020161
 20
-883.9754516100807
 30
0.0
  0
VERTEX
  5
213
  8
GAH-APS
  6
CONTINUOUS
 62
     7
 10
-159.4759236333609
 20
-883.4900857016478
 30
0.0
  0
VERTEX
  5
214
  8
GAH-APS
  6
CONTINUOUS
 62
     7
 10
-159.4999999999999
 20
-883.0
 30
0.0
  0
VERTEX
  5
215
  8
GAH-APS
  6
CONTINUOUS
 62
     7
 10
-159.4759236333609
 20
-882.5099142983522
 30
0.0
  0
VERTEX
  5
216
  8
GAH-APS
  6
CONTINUOUS
 62
     7
 10
-159.4039264020161
 20
-882.0245483899193
 30
0.0
  0
VERTEX
  5
217
  8
GAH-APS
  6
CONTINUOUS
 62
     7
 10
-159.284701678661
 20
-881.5485766137276
 30
0.0
  0
VERTEX
  5
218
  8
GAH-APS
  6
CONTINUOUS
 62
     7
 10
-159.1193976625564
 20
-881.0865828381745
 30
0.0
  0
VERTEX
  5
219
  8
GAH-APS
  6
CONTINUOUS
 62
     7
 10
-158.9096063217417
 20
-880.64301631587
 30
0.0
  0
VERTEX
  5
21A
  8
GAH-APS
  6
CONTINUOUS
 62
     7
 10
-158.6573480615127
 20
-880.2221488349021
 30
0.0
  0
VERTEX
  5
21B
  8
GAH-APS
  6
CONTINUOUS
 62
     7
 10
-158.3650522668136
 20
-879.8280335791819
 30
0.0
  0
VERTEX
  5
21C
  8
GAH-APS
  6
CONTINUOUS
 62
     7
 10
-158.0355339059327
 20
-879.4644660940673
 30
0.0
  0
VERTEX
  5
21D
  8
GAH-APS
  6
CONTINUOUS
 62
     7
 10
-157.6719664208182
 20
-879.1349477331864
 30
0.0
  0
VERTEX
  5
21E
  8
GAH-APS
  6
CONTINUOUS
 62
     7
 10
-157.277851165098
 20
-878.8426519384873
 30
0.0
  0
VERTEX
  5
21F
  8
GAH-APS
  6
CONTINUOUS
 62
     7
 10
-156.8569836841299
 20
-878.5903936782584
 30
0.0
  0
VERTEX
  5
220
  8
GAH-APS
  6
CONTINUOUS
 62
     7
 10
-156.4134171618254
 20
-878.3806023374436
 30
0.0
  0
VERTEX
  5
221
  8
GAH-APS
  6
CONTINUOUS
 62
     7
 10
-155.9514233862723
 20
-878.2152983213391
 30
0.0
  0
VERTEX
  5
222
  8
GAH-APS
  6
CONTINUOUS
 62
     7
 10
-155.4754516100806
 20
-878.0960735979838
 30
0.0
  0
VERTEX
  5
223
  8
GAH-APS
  6
CONTINUOUS
 62
     7
 10
-154.9900857016478
 20
-878.0240763666391
 30
0.0
  0
VERTEX
  5
224
  8
GAH-APS
  6
CONTINUOUS
 62
     7
 10
-154.5
 20
-878.0
 30
0.0
  0
VERTEX
  5
225
  8
GAH-APS
  6
CONTINUOUS
 62
     7
 10
-154.0099142983522
 20
-878.0240763666391
 30
0.0
  0
VERTEX
  5
226
  8
GAH-APS
  6
CONTINUOUS
 62
     7
 10
-153.5245483899194
 20
-878.0960735979838
 30
0.0
  0
VERTEX
  5
227
  8
GAH-APS
  6
CONTINUOUS
 62
     7
 10
-153.0485766137277
 20
-878.2152983213391
 30
0.0
  0
VERTEX
  5
228
  8
GAH-APS
  6
CONTINUOUS
 62
     7
 10
-152.5865828381746
 20
-878.3806023374436
 30
0.0
  0
VERTEX
  5
229
  8
GAH-APS
  6
CONTINUOUS
 62
     7
 10
-152.1430163158701
 20
-878.5903936782584
 30
0.0
  0
VERTEX
  5
22A
  8
GAH-APS
  6
CONTINUOUS
 62
     7
 10
-151.722148834902
 20
-878.8426519384873
 30
0.0
  0
VERTEX
  5
22B
  8
GAH-APS
  6
CONTINUOUS
 62
     7
 10
-151.3280335791818
 20
-879.1349477331864
 30
0.0
  0
VERTEX
  5
22C
  8
GAH-APS
  6
CONTINUOUS
 62
     7
 10
-150.9644660940673
 20
-879.4644660940673
 30
0.0
  0
VERTEX
  5
22D
  8
GAH-APS
  6
CONTINUOUS
 62
     7
 10
-150.6349477331864
 20
-879.8280335791819
 30
0.0
  0
VERTEX
  5
22E
  8
GAH-APS
  6
CONTINUOUS
 62
     7
 10
-150.3426519384873
 20
-880.2221488349021
 30
0.0
  0
VERTEX
  5
22F
  8
GAH-APS
  6
CONTINUOUS
 62
     7
 10
-150.0903936782583
 20
-880.64301631587
 30
0.0
  0
VERTEX
  5
230
  8
GAH-APS
  6
CONTINUOUS
 62
     7
 10
-149.8806023374436
 20
-881.0865828381745
 30
0.0
  0
VERTEX
  5
231
  8
GAH-APS
  6
CONTINUOUS
 62
     7
 10
-149.715298321339
 20
-881.5485766137276
 30
0.0
  0
VERTEX
  5
232
  8
GAH-APS
  6
CONTINUOUS
 62
     7
 10
-149.5960735979839
 20
-882.0245483899193
 30
0.0
  0
VERTEX
  5
233
  8
GAH-APS
  6
CONTINUOUS
 62
     7
 10
-149.5240763666391
 20
-882.5099142983522
 30
0.0
  0
VERTEX
  5
234
  8
GAH-APS
  6
CONTINUOUS
 62
     7
 10
-149.5000000000001
 20
-883.0
 30
0.0
  0
VERTEX
  5
235
  8
GAH-APS
  6
CONTINUOUS
 62
     7
 10
-149.5240763666391
 20
-883.4900857016478
 30
0.0
  0
VERTEX
  5
236
  8
GAH-APS
  6
CONTINUOUS
 62
     7
 10
-149.5960735979839
 20
-883.9754516100807
 30
0.0
  0
VERTEX
  5
237
  8
GAH-APS
  6
CONTINUOUS
 62
     7
 10
-149.715298321339
 20
-884.4514233862724
 30
0.0
  0
VERTEX
  5
238
  8
GAH-APS
  6
CONTINUOUS
 62
     7
 10
-149.8806023374436
 20
-884.9134171618255
 30
0.0
  0
VERTEX
  5
239
  8
GAH-APS
  6
CONTINUOUS
 62
     7
 10
-150.0903936782583
 20
-885.35698368413
 30
0.0
  0
VERTEX
  5
23A
  8
GAH-APS
  6
CONTINUOUS
 62
     7
 10
-150.3426519384873
 20
-885.7778511650979
 30
0.0
  0
VERTEX
  5
23B
  8
GAH-APS
  6
CONTINUOUS
 62
     7
 10
-150.6349477331864
 20
-886.1719664208181
 30
0.0
  0
SEQEND
  5
23C
  8
GAH-APS
  6
CONTINUOUS
 62
     7
  0
LINE
  5
23D
  8
GAH-APS
  6
______-6
 62
     7
 10
-167.0
 20
-883.0
 30
0.0
 11
-142.0
 21
-883.0
 31
0.0
  0
LINE
  5
23E
  8
GAH-APS
  6
______-6
 62
     7
 10
-154.5
 20
-895.5
 30
0.0
 11
-154.5
 21
-870.5
 31
0.0
  0
LINE
  5
23F
  8
GAH-APS
  6
______-6
 62
     7
 10
-154.5
 20
-883.0
 30
0.0
 11
-101.375
 21
-883.0
 31
0.0
  0
LINE
  5
240
  8
GAH-APS
  6
CONTINUOUS
 62
     7
 10
-154.5
 20
-893.0
 30
0.0
 11
-154.5
 21
-878.0
 31
0.0
  0
LINE
  5
241
  8
GAH-APS
  6
CONTINUOUS
 62
     7
 10
-305.8761198426884
 20
493.8182200758902
 30
0.0
 11
-466.0
 21
493.8182200758902
 31
0.0
  0
LINE
  5
242
  8
GAH-APS
  6
CONTINUOUS
 62
     7
 10
-395.3761198426885
 20
383.8182200758902
 30
0.0
 11
-466.0
 21
383.8182200758902
 31
0.0
  0
LINE
  5
243
  8
GAH-APS
  6
CONTINUOUS
 62
     7
 10
-446.0
 20
493.8182200758902
 30
0.0
 11
-446.0
 21
383.8182200758902
 31
0.0
  0
POLYLINE
  5
244
  8
GAH-APS
  6
CONTINUOUS
 62
     7
 66
     1
 10
0.0
 20
0.0
 30
0.0
 70
   128
  0
VERTEX
  5
245
  8
GAH-APS
  6
CONTINUOUS
 62
     7
 10
-452.7003979515024
 20
468.8119944899527
 30
0.0
  0
VERTEX
  5
246
  8
GAH-APS
  6
CONTINUOUS
 62
     7
 10
-446.0
 20
493.8182200758902
 30
0.0
  0
VERTEX
  5
247
  8
GAH-APS
  6
CONTINUOUS
 62
     7
 10
-439.2996020484976
 20
468.8119944899527
 30
0.0
  0
SEQEND
  5
248
  8
GAH-APS
  6
CONTINUOUS
 62
     7
  0
POLYLINE
  5
249
  8
GAH-APS
  6
CONTINUOUS
 62
     7
 66
     1
 10
0.0
 20
0.0
 30
0.0
 70
   128
  0
VERTEX
  5
24A
  8
GAH-APS
  6
CONTINUOUS
 62
     7
 10
-439.2996020484976
 20
408.8244456618277
 30
0.0
  0
VERTEX
  5
24B
  8
GAH-APS
  6
CONTINUOUS
 62
     7
 10
-446.0
 20
383.8182200758902
 30
0.0
  0
VERTEX
  5
24C
  8
GAH-APS
  6
CONTINUOUS
 62
     7
 10
-452.7003979515024
 20
408.8244456618277
 30
0.0
  0
SEQEND
  5
24D
  8
GAH-APS
  6
CONTINUOUS
 62
     7
  0
TEXT
  5
24E
  8
GAH-APS
 62
     7
 10
-456.4327777777779
 20
409.3259978536679
 30
0.0
 40
29.78629557291671
  1
110
 50
90.0
  7
_______
 11
-486.2190733506945
 21
409.3259978536679
 31
0.0
 73
     3
  0
DIMENSION
  5
24F
  8
GAH-APS
  6
CONTINUOUS
 62
     7
  2
*D1
 10
-375.3761198426885
 20
278.5
 30
0.0
 11
-314.3761198426885
 21
298.3931477864584
 31
0.0
 70
    32
  3
HIBINO
 13
-253.3761198426885
 23
412.8182200758902
 33
0.0
 14
-375.3761198426885
 24
383.8182200758902
 34
0.0
  0
DIMENSION
  5
250
  8
GAH-APS
  6
CONTINUOUS
 62
     7
  2
*D2
 10
-135.3236549240312
 20
278.5
 30
0.0
 11
-103.3236549240312
 21
298.3931477864584
 31
0.0
 70
    32
  3
HIBINO
 13
-71.32365492403119
 23
383.8182200758902
 33
0.0
 14
-135.3236549240312
 24
383.8182200758902
 34
0.0
  0
POLYLINE
  5
251
  8
GAH-APS
  6
CONTINUOUS
 62
     7
 66
     1
 10
0.0
 20
0.0
 30
0.0
 70
   129
  0
VERTEX
  5
252
  8
GAH-APS
  6
CONTINUOUS
 62
     7
 10
-329.9999999999999
 20
661.6364401517806
 30
0.0
  0
VERTEX
  5
253
  8
GAH-APS
  6
CONTINUOUS
 62
     7
 10
-330.1029318597303
 20
659.5412140134583
 30
0.0
  0
VERTEX
  5
254
  8
GAH-APS
  6
CONTINUOUS
 62
     7
 10
-330.4107361488441
 20
657.4661660482152
 30
0.0
  0
VERTEX
  5
255
  8
GAH-APS
  6
CONTINUOUS
 62
     7
 10
-330.9204485437742
 20
655.431280102293
 30
0.0
  0
VERTEX
  5
256
  8
GAH-APS
  6
CONTINUOUS
 62
     7
 10
-331.6271602355201
 20
653.4561532397331
 30
0.0
  0
VERTEX
  5
257
  8
GAH-APS
  6
CONTINUOUS
 62
     7
 10
-332.5240652041626
 20
651.5598070119358
 30
0.0
  0
VERTEX
  5
258
  8
GAH-APS
  6
CONTINUOUS
 62
     7
 10
-333.6025257645555
 20
649.7605042697232
 30
0.0
  0
VERTEX
  5
259
  8
GAH-APS
  6
CONTINUOUS
 62
     7
 10
-334.8521557519556
 20
648.0755732821017
 30
0.0
  0
VERTEX
  5
25A
  8
GAH-APS
  6
CONTINUOUS
 62
     7
 10
-336.2609205464671
 20
646.5212408555592
 30
0.0
  0
VERTEX
  5
25B
  8
GAH-APS
  6
CONTINUOUS
 62
     7
 10
-337.8152529730096
 20
645.1124760610478
 30
0.0
  0
VERTEX
  5
25C
  8
GAH-APS
  6
CONTINUOUS
 62
     7
 10
-339.500183960631
 20
643.8628460736477
 30
0.0
  0
VERTEX
  5
25D
  8
GAH-APS
  6
CONTINUOUS
 62
     7
 10
-341.2994867028436
 20
642.7843855132548
 30
0.0
  0
VERTEX
  5
25E
  8
GAH-APS
  6
CONTINUOUS
 62
     7
 10
-343.1958329306409
 20
641.8874805446123
 30
0.0
  0
VERTEX
  5
25F
  8
GAH-APS
  6
CONTINUOUS
 62
     7
 10
-345.1709597932009
 20
641.1807688528663
 30
0.0
  0
VERTEX
  5
260
  8
GAH-APS
  6
CONTINUOUS
 62
     7
 10
-347.205845739123
 20
640.6710564579363
 30
0.0
  0
VERTEX
  5
261
  8
GAH-APS
  6
CONTINUOUS
 62
     7
 10
-349.2808937043661
 20
640.3632521688226
 30
0.0
  0
VERTEX
  5
262
  8
GAH-APS
  6
CONTINUOUS
 62
     7
 10
-351.3761198426884
 20
640.2603203090921
 30
0.0
  0
VERTEX
  5
263
  8
GAH-APS
  6
CONTINUOUS
 62
     7
 10
-353.4713459810107
 20
640.3632521688226
 30
0.0
  0
VERTEX
  5
264
  8
GAH-APS
  6
CONTINUOUS
 62
     7
 10
-355.5463939462538
 20
640.6710564579363
 30
0.0
  0
VERTEX
  5
265
  8
GAH-APS
  6
CONTINUOUS
 62
     7
 10
-357.5812798921759
 20
641.1807688528663
 30
0.0
  0
VERTEX
  5
266
  8
GAH-APS
  6
CONTINUOUS
 62
     7
 10
-359.5564067547359
 20
641.8874805446123
 30
0.0
  0
VERTEX
  5
267
  8
GAH-APS
  6
CONTINUOUS
 62
     7
 10
-361.4527529825332
 20
642.7843855132548
 30
0.0
  0
VERTEX
  5
268
  8
GAH-APS
  6
CONTINUOUS
 62
     7
 10
-363.2520557247458
 20
643.8628460736477
 30
0.0
  0
VERTEX
  5
269
  8
GAH-APS
  6
CONTINUOUS
 62
     7
 10
-364.9369867123672
 20
645.1124760610478
 30
0.0
  0
VERTEX
  5
26A
  8
GAH-APS
  6
CONTINUOUS
 62
     7
 10
-366.4913191389097
 20
646.5212408555592
 30
0.0
  0
VERTEX
  5
26B
  8
GAH-APS
  6
CONTINUOUS
 62
     7
 10
-367.9000839334212
 20
648.0755732821017
 30
0.0
  0
VERTEX
  5
26C
  8
GAH-APS
  6
CONTINUOUS
 62
     7
 10
-369.1497139208213
 20
649.7605042697232
 30
0.0
  0
VERTEX
  5
26D
  8
GAH-APS
  6
CONTINUOUS
 62
     7
 10
-370.2281744812142
 20
651.5598070119358
 30
0.0
  0
VERTEX
  5
26E
  8
GAH-APS
  6
CONTINUOUS
 62
     7
 10
-371.1250794498567
 20
653.4561532397331
 30
0.0
  0
VERTEX
  5
26F
  8
GAH-APS
  6
CONTINUOUS
 62
     7
 10
-371.8317911416027
 20
655.431280102293
 30
0.0
  0
VERTEX
  5
270
  8
GAH-APS
  6
CONTINUOUS
 62
     7
 10
-372.3415035365327
 20
657.4661660482152
 30
0.0
  0
VERTEX
  5
271
  8
GAH-APS
  6
CONTINUOUS
 62
     7
 10
-372.6493078256465
 20
659.5412140134583
 30
0.0
  0
VERTEX
  5
272
  8
GAH-APS
  6
CONTINUOUS
 62
     7
 10
-372.7522396853769
 20
661.6364401517806
 30
0.0
  0
VERTEX
  5
273
  8
GAH-APS
  6
CONTINUOUS
 62
     7
 10
-372.6493078256465
 20
663.7316662901028
 30
0.0
  0
VERTEX
  5
274
  8
GAH-APS
  6
CONTINUOUS
 62
     7
 10
-372.3415035365327
 20
665.8067142553459
 30
0.0
  0
VERTEX
  5
275
  8
GAH-APS
  6
CONTINUOUS
 62
     7
 10
-371.8317911416027
 20
667.8416002012681
 30
0.0
  0
VERTEX
  5
276
  8
GAH-APS
  6
CONTINUOUS
 62
     7
 10
-371.1250794498567
 20
669.816727063828
 30
0.0
  0
VERTEX
  5
277
  8
GAH-APS
  6
CONTINUOUS
 62
     7
 10
-370.2281744812142
 20
671.7130732916253
 30
0.0
  0
VERTEX
  5
278
  8
GAH-APS
  6
CONTINUOUS
 62
     7
 10
-369.1497139208213
 20
673.5123760338379
 30
0.0
  0
VERTEX
  5
279
  8
GAH-APS
  6
CONTINUOUS
 62
     7
 10
-367.9000839334212
 20
675.1973070214594
 30
0.0
  0
VERTEX
  5
27A
  8
GAH-APS
  6
CONTINUOUS
 62
     7
 10
-366.4913191389097
 20
676.7516394480019
 30
0.0
  0
VERTEX
  5
27B
  8
GAH-APS
  6
CONTINUOUS
 62
     7
 10
-364.9369867123672
 20
678.1604042425133
 30
0.0
  0
VERTEX
  5
27C
  8
GAH-APS
  6
CONTINUOUS
 62
     7
 10
-363.2520557247458
 20
679.4100342299134
 30
0.0
  0
VERTEX
  5
27D
  8
GAH-APS
  6
CONTINUOUS
 62
     7
 10
-361.4527529825332
 20
680.4884947903063
 30
0.0
  0
VERTEX
  5
27E
  8
GAH-APS
  6
CONTINUOUS
 62
     7
 10
-359.5564067547359
 20
681.3853997589488
 30
0.0
  0
VERTEX
  5
27F
  8
GAH-APS
  6
CONTINUOUS
 62
     7
 10
-357.5812798921759
 20
682.0921114506948
 30
0.0
  0
VERTEX
  5
280
  8
GAH-APS
  6
CONTINUOUS
 62
     7
 10
-355.5463939462538
 20
682.6018238456248
 30
0.0
  0
VERTEX
  5
281
  8
GAH-APS
  6
CONTINUOUS
 62
     7
 10
-353.4713459810107
 20
682.9096281347386
 30
0.0
  0
VERTEX
  5
282
  8
GAH-APS
  6
CONTINUOUS
 62
     7
 10
-351.3761198426884
 20
683.012559994469
 30
0.0
  0
VERTEX
  5
283
  8
GAH-APS
  6
CONTINUOUS
 62
     7
 10
-349.2808937043661
 20
682.9096281347386
 30
0.0
  0
VERTEX
  5
284
  8
GAH-APS
  6
CONTINUOUS
 62
     7
 10
-347.205845739123
 20
682.6018238456248
 30
0.0
  0
VERTEX
  5
285
  8
GAH-APS
  6
CONTINUOUS
 62
     7
 10
-345.1709597932009
 20
682.0921114506948
 30
0.0
  0
VERTEX
  5
286
  8
GAH-APS
  6
CONTINUOUS
 62
     7
 10
-343.1958329306409
 20
681.3853997589488
 30
0.0
  0
VERTEX
  5
287
  8
GAH-APS
  6
CONTINUOUS
 62
     7
 10
-341.2994867028436
 20
680.4884947903063
 30
0.0
  0
VERTEX
  5
288
  8
GAH-APS
  6
CONTINUOUS
 62
     7
 10
-339.500183960631
 20
679.4100342299134
 30
0.0
  0
VERTEX
  5
289
  8
GAH-APS
  6
CONTINUOUS
 62
     7
 10
-337.8152529730096
 20
678.1604042425133
 30
0.0
  0
VERTEX
  5
28A
  8
GAH-APS
  6
CONTINUOUS
 62
     7
 10
-336.2609205464671
 20
676.7516394480019
 30
0.0
  0
VERTEX
  5
28B
  8
GAH-APS
  6
CONTINUOUS
 62
     7
 10
-334.8521557519556
 20
675.1973070214594
 30
0.0
  0
VERTEX
  5
28C
  8
GAH-APS
  6
CONTINUOUS
 62
     7
 10
-333.6025257645555
 20
673.5123760338379
 30
0.0
  0
VERTEX
  5
28D
  8
GAH-APS
  6
CONTINUOUS
 62
     7
 10
-332.5240652041626
 20
671.7130732916253
 30
0.0
  0
VERTEX
  5
28E
  8
GAH-APS
  6
CONTINUOUS
 62
     7
 10
-331.6271602355201
 20
669.816727063828
 30
0.0
  0
VERTEX
  5
28F
  8
GAH-APS
  6
CONTINUOUS
 62
     7
 10
-330.9204485437742
 20
667.8416002012681
 30
0.0
  0
VERTEX
  5
290
  8
GAH-APS
  6
CONTINUOUS
 62
     7
 10
-330.4107361488441
 20
665.8067142553459
 30
0.0
  0
VERTEX
  5
291
  8
GAH-APS
  6
CONTINUOUS
 62
     7
 10
-330.1029318597303
 20
663.7316662901028
 30
0.0
  0
SEQEND
  5
292
  8
GAH-APS
  6
CONTINUOUS
 62
     7
  0
POLYLINE
  5
293
  8
GAH-APS
  6
CONTINUOUS
 62
     7
 66
     1
 10
0.0
 20
0.0
 30
0.0
 70
   129
  0
VERTEX
  5
294
  8
GAH-APS
  6
CONTINUOUS
 62
     7
 10
-327.0114159057247
 20
661.6364401517806
 30
0.0
  0
VERTEX
  5
295
  8
GAH-APS
  6
CONTINUOUS
 62
     7
 10
-327.1287386147321
 20
659.248281546903
 30
0.0
  0
VERTEX
  5
296
  8
GAH-APS
  6
CONTINUOUS
 62
     7
 10
-327.4795768599317
 20
656.8831222148907
 30
0.0
  0
VERTEX
  5
297
  8
GAH-APS
  6
CONTINUOUS
 62
     7
 10
-328.0605518772344
 20
654.5637399330385
 30
0.0
  0
VERTEX
  5
298
  8
GAH-APS
  6
CONTINUOUS
 62
     7
 10
-328.8660685596304
 20
652.3124716206241
 30
0.0
  0
VERTEX
  5
299
  8
GAH-APS
  6
CONTINUOUS
 62
     7
 10
-329.888369341128
 20
650.1509982221644
 30
0.0
  0
VERTEX
  5
29A
  8
GAH-APS
  6
CONTINUOUS
 62
     7
 10
-331.1176089063549
 20
648.1001359080681
 30
0.0
  0
VERTEX
  5
29B
  8
GAH-APS
  6
CONTINUOUS
 62
     7
 10
-332.5419490063272
 20
646.1796356035352
 30
0.0
  0
VERTEX
  5
29C
  8
GAH-APS
  6
CONTINUOUS
 62
     7
 10
-334.1476724672588
 20
644.407992776351
 30
0.0
  0
VERTEX
  5
29D
  8
GAH-APS
  6
CONTINUOUS
 62
     7
 10
-335.9193152944431
 20
642.8022693154194
 30
0.0
  0
VERTEX
  5
29E
  8
GAH-APS
  6
CONTINUOUS
 62
     7
 10
-337.8398155989759
 20
641.377929215447
 30
0.0
  0
VERTEX
  5
29F
  8
GAH-APS
  6
CONTINUOUS
 62
     7
 10
-339.8906779130722
 20
640.1486896502201
 30
0.0
  0
VERTEX
  5
2A0
  8
GAH-APS
  6
CONTINUOUS
 62
     7
 10
-342.0521513115319
 20
639.1263888687226
 30
0.0
  0
VERTEX
  5
2A1
  8
GAH-APS
  6
CONTINUOUS
 62
     7
 10
-344.3034196239464
 20
638.3208721863266
 30
0.0
  0
VERTEX
  5
2A2
  8
GAH-APS
  6
CONTINUOUS
 62
     7
 10
-346.6228019057985
 20
637.7398971690238
 30
0.0
  0
VERTEX
  5
2A3
  8
GAH-APS
  6
CONTINUOUS
 62
     7
 10
-348.9879612378109
 20
637.3890589238242
 30
0.0
  0
VERTEX
  5
2A4
  8
GAH-APS
  6
CONTINUOUS
 62
     7
 10
-351.3761198426884
 20
637.2717362148169
 30
0.0
  0
VERTEX
  5
2A5
  8
GAH-APS
  6
CONTINUOUS
 62
     7
 10
-353.764278447566
 20
637.3890589238242
 30
0.0
  0
VERTEX
  5
2A6
  8
GAH-APS
  6
CONTINUOUS
 62
     7
 10
-356.1294377795783
 20
637.7398971690238
 30
0.0
  0
VERTEX
  5
2A7
  8
GAH-APS
  6
CONTINUOUS
 62
     7
 10
-358.4488200614305
 20
638.3208721863266
 30
0.0
  0
VERTEX
  5
2A8
  8
GAH-APS
  6
CONTINUOUS
 62
     7
 10
-360.7000883738449
 20
639.1263888687226
 30
0.0
  0
VERTEX
  5
2A9
  8
GAH-APS
  6
CONTINUOUS
 62
     7
 10
-362.8615617723046
 20
640.1486896502201
 30
0.0
  0
VERTEX
  5
2AA
  8
GAH-APS
  6
CONTINUOUS
 62
     7
 10
-364.912424086401
 20
641.377929215447
 30
0.0
  0
VERTEX
  5
2AB
  8
GAH-APS
  6
CONTINUOUS
 62
     7
 10
-366.8329243909337
 20
642.8022693154194
 30
0.0
  0
VERTEX
  5
2AC
  8
GAH-APS
  6
CONTINUOUS
 62
     7
 10
-368.6045672181181
 20
644.407992776351
 30
0.0
  0
VERTEX
  5
2AD
  8
GAH-APS
  6
CONTINUOUS
 62
     7
 10
-370.2102906790496
 20
646.1796356035352
 30
0.0
  0
VERTEX
  5
2AE
  8
GAH-APS
  6
CONTINUOUS
 62
     7
 10
-371.634630779022
 20
648.1001359080681
 30
0.0
  0
VERTEX
  5
2AF
  8
GAH-APS
  6
CONTINUOUS
 62
     7
 10
-372.8638703442488
 20
650.1509982221644
 30
0.0
  0
VERTEX
  5
2B0
  8
GAH-APS
  6
CONTINUOUS
 62
     7
 10
-373.8861711257464
 20
652.3124716206241
 30
0.0
  0
VERTEX
  5
2B1
  8
GAH-APS
  6
CONTINUOUS
 62
     7
 10
-374.6916878081424
 20
654.5637399330385
 30
0.0
  0
VERTEX
  5
2B2
  8
GAH-APS
  6
CONTINUOUS
 62
     7
 10
-375.2726628254451
 20
656.8831222148907
 30
0.0
  0
VERTEX
  5
2B3
  8
GAH-APS
  6
CONTINUOUS
 62
     7
 10
-375.6235010706447
 20
659.248281546903
 30
0.0
  0
VERTEX
  5
2B4
  8
GAH-APS
  6
CONTINUOUS
 62
     7
 10
-375.7408237796521
 20
661.6364401517806
 30
0.0
  0
VERTEX
  5
2B5
  8
GAH-APS
  6
CONTINUOUS
 62
     7
 10
-375.6235010706447
 20
664.0245987566582
 30
0.0
  0
VERTEX
  5
2B6
  8
GAH-APS
  6
CONTINUOUS
 62
     7
 10
-375.2726628254451
 20
666.3897580886704
 30
0.0
  0
VERTEX
  5
2B7
  8
GAH-APS
  6
CONTINUOUS
 62
     7
 10
-374.6916878081424
 20
668.7091403705226
 30
0.0
  0
VERTEX
  5
2B8
  8
GAH-APS
  6
CONTINUOUS
 62
     7
 10
-373.8861711257464
 20
670.960408682937
 30
0.0
  0
VERTEX
  5
2B9
  8
GAH-APS
  6
CONTINUOUS
 62
     7
 10
-372.8638703442488
 20
673.1218820813967
 30
0.0
  0
VERTEX
  5
2BA
  8
GAH-APS
  6
CONTINUOUS
 62
     7
 10
-371.634630779022
 20
675.172744395493
 30
0.0
  0
VERTEX
  5
2BB
  8
GAH-APS
  6
CONTINUOUS
 62
     7
 10
-370.2102906790496
 20
677.0932447000259
 30
0.0
  0
VERTEX
  5
2BC
  8
GAH-APS
  6
CONTINUOUS
 62
     7
 10
-368.6045672181181
 20
678.8648875272102
 30
0.0
  0
VERTEX
  5
2BD
  8
GAH-APS
  6
CONTINUOUS
 62
     7
 10
-366.8329243909337
 20
680.4706109881417
 30
0.0
  0
VERTEX
  5
2BE
  8
GAH-APS
  6
CONTINUOUS
 62
     7
 10
-364.912424086401
 20
681.8949510881141
 30
0.0
  0
VERTEX
  5
2BF
  8
GAH-APS
  6
CONTINUOUS
 62
     7
 10
-362.8615617723046
 20
683.124190653341
 30
0.0
  0
VERTEX
  5
2C0
  8
GAH-APS
  6
CONTINUOUS
 62
     7
 10
-360.7000883738449
 20
684.1464914348385
 30
0.0
  0
VERTEX
  5
2C1
  8
GAH-APS
  6
CONTINUOUS
 62
     7
 10
-358.4488200614305
 20
684.9520081172345
 30
0.0
  0
VERTEX
  5
2C2
  8
GAH-APS
  6
CONTINUOUS
 62
     7
 10
-356.1294377795783
 20
685.5329831345373
 30
0.0
  0
VERTEX
  5
2C3
  8
GAH-APS
  6
CONTINUOUS
 62
     7
 10
-353.764278447566
 20
685.8838213797369
 30
0.0
  0
VERTEX
  5
2C4
  8
GAH-APS
  6
CONTINUOUS
 62
     7
 10
-351.3761198426884
 20
686.0011440887442
 30
0.0
  0
VERTEX
  5
2C5
  8
GAH-APS
  6
CONTINUOUS
 62
     7
 10
-348.9879612378109
 20
685.8838213797369
 30
0.0
  0
VERTEX
  5
2C6
  8
GAH-APS
  6
CONTINUOUS
 62
     7
 10
-346.6228019057985
 20
685.5329831345373
 30
0.0
  0
VERTEX
  5
2C7
  8
GAH-APS
  6
CONTINUOUS
 62
     7
 10
-344.3034196239464
 20
684.9520081172345
 30
0.0
  0
VERTEX
  5
2C8
  8
GAH-APS
  6
CONTINUOUS
 62
     7
 10
-342.0521513115319
 20
684.1464914348385
 30
0.0
  0
VERTEX
  5
2C9
  8
GAH-APS
  6
CONTINUOUS
 62
     7
 10
-339.8906779130722
 20
683.124190653341
 30
0.0
  0
VERTEX
  5
2CA
  8
GAH-APS
  6
CONTINUOUS
 62
     7
 10
-337.8398155989759
 20
681.8949510881141
 30
0.0
  0
VERTEX
  5
2CB
  8
GAH-APS
  6
CONTINUOUS
 62
     7
 10
-335.9193152944431
 20
680.4706109881417
 30
0.0
  0
VERTEX
  5
2CC
  8
GAH-APS
  6
CONTINUOUS
 62
     7
 10
-334.1476724672588
 20
678.8648875272102
 30
0.0
  0
VERTEX
  5
2CD
  8
GAH-APS
  6
CONTINUOUS
 62
     7
 10
-332.5419490063272
 20
677.0932447000259
 30
0.0
  0
VERTEX
  5
2CE
  8
GAH-APS
  6
CONTINUOUS
 62
     7
 10
-331.1176089063549
 20
675.172744395493
 30
0.0
  0
VERTEX
  5
2CF
  8
GAH-APS
  6
CONTINUOUS
 62
     7
 10
-329.888369341128
 20
673.1218820813967
 30
0.0
  0
VERTEX
  5
2D0
  8
GAH-APS
  6
CONTINUOUS
 62
     7
 10
-328.8660685596304
 20
670.960408682937
 30
0.0
  0
VERTEX
  5
2D1
  8
GAH-APS
  6
CONTINUOUS
 62
     7
 10
-328.0605518772344
 20
668.7091403705226
 30
0.0
  0
VERTEX
  5
2D2
  8
GAH-APS
  6
CONTINUOUS
 62
     7
 10
-327.4795768599317
 20
666.3897580886704
 30
0.0
  0
VERTEX
  5
2D3
  8
GAH-APS
  6
CONTINUOUS
 62
     7
 10
-327.1287386147321
 20
664.0245987566582
 30
0.0
  0
SEQEND
  5
2D4
  8
GAH-APS
  6
CONTINUOUS
 62
     7
  0
POLYLINE
  5
2D5
  8
GAH-APS
  6
CONTINUOUS
 62
     7
 66
     1
 10
0.0
 20
0.0
 30
0.0
 70
   129
  0
VERTEX
  5
2D6
  8
GAH-APS
  6
CONTINUOUS
 62
     7
 10
-326.3761198426884
 20
661.6364401517806
 30
0.0
  0
VERTEX
  5
2D7
  8
GAH-APS
  6
CONTINUOUS
 62
     7
 10
-326.4965016758835
 20
659.1860116435416
 30
0.0
  0
VERTEX
  5
2D8
  8
GAH-APS
  6
CONTINUOUS
 62
     7
 10
-326.8564878326076
 20
656.7591821013773
 30
0.0
  0
VERTEX
  5
2D9
  8
GAH-APS
  6
CONTINUOUS
 62
     7
 10
-327.4526114493832
 20
654.379323220419
 30
0.0
  0
VERTEX
  5
2DA
  8
GAH-APS
  6
CONTINUOUS
 62
     7
 10
-328.2791315299062
 20
652.0693543426532
 30
0.0
  0
VERTEX
  5
2DB
  8
GAH-APS
  6
CONTINUOUS
 62
     7
 10
-329.3280882339795
 20
649.8515217311306
 30
0.0
  0
VERTEX
  5
2DC
  8
GAH-APS
  6
CONTINUOUS
 62
     7
 10
-330.5893795351248
 20
647.7471843262905
 30
0.0
  0
VERTEX
  5
2DD
  8
GAH-APS
  6
CONTINUOUS
 62
     7
 10
-332.05085850862
 20
645.7766080476895
 30
0.0
  0
VERTEX
  5
2DE
  8
GAH-APS
  6
CONTINUOUS
 62
     7
 10
-333.6984503130248
 20
643.9587706221168
 30
0.0
  0
VERTEX
  5
2DF
  8
GAH-APS
  6
CONTINUOUS
 62
     7
 10
-335.5162877385973
 20
642.3111788177121
 30
0.0
  0
VERTEX
  5
2E0
  8
GAH-APS
  6
CONTINUOUS
 62
     7
 10
-337.4868640171983
 20
640.849699844217
 30
0.0
  0
VERTEX
  5
2E1
  8
GAH-APS
  6
CONTINUOUS
 62
     7
 10
-339.5912014220385
 20
639.5884085430716
 30
0.0
  0
VERTEX
  5
2E2
  8
GAH-APS
  6
CONTINUOUS
 62
     7
 10
-341.8090340335611
 20
638.5394518389984
 30
0.0
  0
VERTEX
  5
2E3
  8
GAH-APS
  6
CONTINUOUS
 62
     7
 10
-344.1190029113268
 20
637.7129317584754
 30
0.0
  0
VERTEX
  5
2E4
  8
GAH-APS
  6
CONTINUOUS
 62
     7
 10
-346.4988617922852
 20
637.1168081416997
 30
0.0
  0
VERTEX
  5
2E5
  8
GAH-APS
  6
CONTINUOUS
 62
     7
 10
-348.9256913344494
 20
636.7568219849757
 30
0.0
  0
VERTEX
  5
2E6
  8
GAH-APS
  6
CONTINUOUS
 62
     7
 10
-351.3761198426884
 20
636.6364401517806
 30
0.0
  0
VERTEX
  5
2E7
  8
GAH-APS
  6
CONTINUOUS
 62
     7
 10
-353.8265483509274
 20
636.7568219849757
 30
0.0
  0
VERTEX
  5
2E8
  8
GAH-APS
  6
CONTINUOUS
 62
     7
 10
-356.2533778930916
 20
637.1168081416997
 30
0.0
  0
VERTEX
  5
2E9
  8
GAH-APS
  6
CONTINUOUS
 62
     7
 10
-358.63323677405
 20
637.7129317584754
 30
0.0
  0
VERTEX
  5
2EA
  8
GAH-APS
  6
CONTINUOUS
 62
     7
 10
-360.9432056518157
 20
638.5394518389984
 30
0.0
  0
VERTEX
  5
2EB
  8
GAH-APS
  6
CONTINUOUS
 62
     7
 10
-363.1610382633384
 20
639.5884085430716
 30
0.0
  0
VERTEX
  5
2EC
  8
GAH-APS
  6
CONTINUOUS
 62
     7
 10
-365.2653756681785
 20
640.849699844217
 30
0.0
  0
VERTEX
  5
2ED
  8
GAH-APS
  6
CONTINUOUS
 62
     7
 10
-367.2359519467796
 20
642.3111788177121
 30
0.0
  0
VERTEX
  5
2EE
  8
GAH-APS
  6
CONTINUOUS
 62
     7
 10
-369.0537893723521
 20
643.9587706221168
 30
0.0
  0
VERTEX
  5
2EF
  8
GAH-APS
  6
CONTINUOUS
 62
     7
 10
-370.7013811767569
 20
645.7766080476895
 30
0.0
  0
VERTEX
  5
2F0
  8
GAH-APS
  6
CONTINUOUS
 62
     7
 10
-372.1628601502521
 20
647.7471843262905
 30
0.0
  0
VERTEX
  5
2F1
  8
GAH-APS
  6
CONTINUOUS
 62
     7
 10
-373.4241514513973
 20
649.8515217311306
 30
0.0
  0
VERTEX
  5
2F2
  8
GAH-APS
  6
CONTINUOUS
 62
     7
 10
-374.4731081554706
 20
652.0693543426532
 30
0.0
  0
VERTEX
  5
2F3
  8
GAH-APS
  6
CONTINUOUS
 62
     7
 10
-375.2996282359936
 20
654.379323220419
 30
0.0
  0
VERTEX
  5
2F4
  8
GAH-APS
  6
CONTINUOUS
 62
     7
 10
-375.8957518527692
 20
656.7591821013773
 30
0.0
  0
VERTEX
  5
2F5
  8
GAH-APS
  6
CONTINUOUS
 62
     7
 10
-376.2557380094934
 20
659.1860116435416
 30
0.0
  0
VERTEX
  5
2F6
  8
GAH-APS
  6
CONTINUOUS
 62
     7
 10
-376.3761198426884
 20
661.6364401517806
 30
0.0
  0
VERTEX
  5
2F7
  8
GAH-APS
  6
CONTINUOUS
 62
     7
 10
-376.2557380094934
 20
664.0868686600195
 30
0.0
  0
VERTEX
  5
2F8
  8
GAH-APS
  6
CONTINUOUS
 62
     7
 10
-375.8957518527692
 20
666.5136982021838
 30
0.0
  0
VERTEX
  5
2F9
  8
GAH-APS
  6
CONTINUOUS
 62
     7
 10
-375.2996282359936
 20
668.8935570831421
 30
0.0
  0
VERTEX
  5
2FA
  8
GAH-APS
  6
CONTINUOUS
 62
     7
 10
-374.4731081554706
 20
671.2035259609079
 30
0.0
  0
VERTEX
  5
2FB
  8
GAH-APS
  6
CONTINUOUS
 62
     7
 10
-373.4241514513973
 20
673.4213585724306
 30
0.0
  0
VERTEX
  5
2FC
  8
GAH-APS
  6
CONTINUOUS
 62
     7
 10
-372.1628601502521
 20
675.5256959772706
 30
0.0
  0
VERTEX
  5
2FD
  8
GAH-APS
  6
CONTINUOUS
 62
     7
 10
-370.7013811767569
 20
677.4962722558716
 30
0.0
  0
VERTEX
  5
2FE
  8
GAH-APS
  6
CONTINUOUS
 62
     7
 10
-369.0537893723521
 20
679.3141096814443
 30
0.0
  0
VERTEX
  5
2FF
  8
GAH-APS
  6
CONTINUOUS
 62
     7
 10
-367.2359519467796
 20
680.9617014858491
 30
0.0
  0
VERTEX
  5
300
  8
GAH-APS
  6
CONTINUOUS
 62
     7
 10
-365.2653756681785
 20
682.4231804593442
 30
0.0
  0
VERTEX
  5
301
  8
GAH-APS
  6
CONTINUOUS
 62
     7
 10
-363.1610382633384
 20
683.6844717604895
 30
0.0
  0
VERTEX
  5
302
  8
GAH-APS
  6
CONTINUOUS
 62
     7
 10
-360.9432056518157
 20
684.7334284645627
 30
0.0
  0
VERTEX
  5
303
  8
GAH-APS
  6
CONTINUOUS
 62
     7
 10
-358.63323677405
 20
685.5599485450857
 30
0.0
  0
VERTEX
  5
304
  8
GAH-APS
  6
CONTINUOUS
 62
     7
 10
-356.2533778930916
 20
686.1560721618614
 30
0.0
  0
VERTEX
  5
305
  8
GAH-APS
  6
CONTINUOUS
 62
     7
 10
-353.8265483509274
 20
686.5160583185855
 30
0.0
  0
VERTEX
  5
306
  8
GAH-APS
  6
CONTINUOUS
 62
     7
 10
-351.3761198426884
 20
686.6364401517806
 30
0.0
  0
VERTEX
  5
307
  8
GAH-APS
  6
CONTINUOUS
 62
     7
 10
-348.9256913344494
 20
686.5160583185855
 30
0.0
  0
VERTEX
  5
308
  8
GAH-APS
  6
CONTINUOUS
 62
     7
 10
-346.4988617922852
 20
686.1560721618614
 30
0.0
  0
VERTEX
  5
309
  8
GAH-APS
  6
CONTINUOUS
 62
     7
 10
-344.1190029113268
 20
685.5599485450857
 30
0.0
  0
VERTEX
  5
30A
  8
GAH-APS
  6
CONTINUOUS
 62
     7
 10
-341.8090340335611
 20
684.7334284645627
 30
0.0
  0
VERTEX
  5
30B
  8
GAH-APS
  6
CONTINUOUS
 62
     7
 10
-339.5912014220385
 20
683.6844717604895
 30
0.0
  0
VERTEX
  5
30C
  8
GAH-APS
  6
CONTINUOUS
 62
     7
 10
-337.4868640171983
 20
682.4231804593442
 30
0.0
  0
VERTEX
  5
30D
  8
GAH-APS
  6
CONTINUOUS
 62
     7
 10
-335.5162877385973
 20
680.9617014858491
 30
0.0
  0
VERTEX
  5
30E
  8
GAH-APS
  6
CONTINUOUS
 62
     7
 10
-333.6984503130248
 20
679.3141096814443
 30
0.0
  0
VERTEX
  5
30F
  8
GAH-APS
  6
CONTINUOUS
 62
     7
 10
-332.05085850862
 20
677.4962722558716
 30
0.0
  0
VERTEX
  5
310
  8
GAH-APS
  6
CONTINUOUS
 62
     7
 10
-330.5893795351248
 20
675.5256959772706
 30
0.0
  0
VERTEX
  5
311
  8
GAH-APS
  6
CONTINUOUS
 62
     7
 10
-329.3280882339795
 20
673.4213585724306
 30
0.0
  0
VERTEX
  5
312
  8
GAH-APS
  6
CONTINUOUS
 62
     7
 10
-328.2791315299062
 20
671.2035259609079
 30
0.0
  0
VERTEX
  5
313
  8
GAH-APS
  6
CONTINUOUS
 62
     7
 10
-327.4526114493832
 20
668.8935570831421
 30
0.0
  0
VERTEX
  5
314
  8
GAH-APS
  6
CONTINUOUS
 62
     7
 10
-326.8564878326076
 20
666.5136982021838
 30
0.0
  0
VERTEX
  5
315
  8
GAH-APS
  6
CONTINUOUS
 62
     7
 10
-326.4965016758835
 20
664.0868686600195
 30
0.0
  0
SEQEND
  5
316
  8
GAH-APS
  6
CONTINUOUS
 62
     7
  0
POLYLINE
  5
317
  8
GAH-APS
  6
CONTINUOUS
 62
     7
 66
     1
 10
0.0
 20
0.0
 30
0.0
 70
   129
  0
VERTEX
  5
318
  8
GAH-APS
  6
CONTINUOUS
 62
     7
 10
-257.3761198426885
 20
661.6364401517806
 30
0.0
  0
VERTEX
  5
319
  8
GAH-APS
  6
CONTINUOUS
 62
     7
 10
-257.4050114826553
 20
661.0483373098032
 30
0.0
  0
VERTEX
  5
31A
  8
GAH-APS
  6
CONTINUOUS
 62
     7
 10
-257.4914081602691
 20
660.4658982196838
 30
0.0
  0
VERTEX
  5
31B
  8
GAH-APS
  6
CONTINUOUS
 62
     7
 10
-257.6344778282952
 20
659.8947320882537
 30
0.0
  0
VERTEX
  5
31C
  8
GAH-APS
  6
CONTINUOUS
 62
     7
 10
-257.8328426476207
 20
659.34033955759
 30
0.0
  0
VERTEX
  5
31D
  8
GAH-APS
  6
CONTINUOUS
 62
     7
 10
-258.0845922565983
 20
658.8080597308247
 30
0.0
  0
VERTEX
  5
31E
  8
GAH-APS
  6
CONTINUOUS
 62
     7
 10
-258.3873021688732
 20
658.303018753663
 30
0.0
  0
VERTEX
  5
31F
  8
GAH-APS
  6
CONTINUOUS
 62
     7
 10
-258.738057122512
 20
657.8300804467987
 30
0.0
  0
VERTEX
  5
320
  8
GAH-APS
  6
CONTINUOUS
 62
     7
 10
-259.1334791555691
 20
657.3937994646612
 30
0.0
  0
VERTEX
  5
321
  8
GAH-APS
  6
CONTINUOUS
 62
     7
 10
-259.5697601377066
 20
656.9983774316041
 30
0.0
  0
VERTEX
  5
322
  8
GAH-APS
  6
CONTINUOUS
 62
     7
 10
-260.0426984445708
 20
656.6476224779653
 30
0.0
  0
VERTEX
  5
323
  8
GAH-APS
  6
CONTINUOUS
 62
     7
 10
-260.5477394217324
 20
656.3449125656905
 30
0.0
  0
VERTEX
  5
324
  8
GAH-APS
  6
CONTINUOUS
 62
     7
 10
-261.0800192484979
 20
656.0931629567128
 30
0.0
  0
VERTEX
  5
325
  8
GAH-APS
  6
CONTINUOUS
 62
     7
 10
-261.6344117791617
 20
655.8947981373873
 30
0.0
  0
VERTEX
  5
326
  8
GAH-APS
  6
CONTINUOUS
 62
     7
 10
-262.2055779105917
 20
655.7517284693612
 30
0.0
  0
VERTEX
  5
327
  8
GAH-APS
  6
CONTINUOUS
 62
     7
 10
-262.7880170007111
 20
655.6653317917473
 30
0.0
  0
VERTEX
  5
328
  8
GAH-APS
  6
CONTINUOUS
 62
     7
 10
-263.3761198426885
 20
655.6364401517806
 30
0.0
  0
VERTEX
  5
329
  8
GAH-APS
  6
CONTINUOUS
 62
     7
 10
-263.9642226846658
 20
655.6653317917473
 30
0.0
  0
VERTEX
  5
32A
  8
GAH-APS
  6
CONTINUOUS
 62
     7
 10
-264.5466617747852
 20
655.7517284693612
 30
0.0
  0
VERTEX
  5
32B
  8
GAH-APS
  6
CONTINUOUS
 62
     7
 10
-265.1178279062152
 20
655.8947981373873
 30
0.0
  0
VERTEX
  5
32C
  8
GAH-APS
  6
CONTINUOUS
 62
     7
 10
-265.672220436879
 20
656.0931629567128
 30
0.0
  0
VERTEX
  5
32D
  8
GAH-APS
  6
CONTINUOUS
 62
     7
 10
-266.2045002636444
 20
656.3449125656905
 30
0.0
  0
VERTEX
  5
32E
  8
GAH-APS
  6
CONTINUOUS
 62
     7
 10
-266.7095412408061
 20
656.6476224779653
 30
0.0
  0
VERTEX
  5
32F
  8
GAH-APS
  6
CONTINUOUS
 62
     7
 10
-267.1824795476703
 20
656.9983774316041
 30
0.0
  0
VERTEX
  5
330
  8
GAH-APS
  6
CONTINUOUS
 62
     7
 10
-267.6187605298077
 20
657.3937994646612
 30
0.0
  0
VERTEX
  5
331
  8
GAH-APS
  6
CONTINUOUS
 62
     7
 10
-268.0141825628649
 20
657.8300804467987
 30
0.0
  0
VERTEX
  5
332
  8
GAH-APS
  6
CONTINUOUS
 62
     7
 10
-268.3649375165037
 20
658.303018753663
 30
0.0
  0
VERTEX
  5
333
  8
GAH-APS
  6
CONTINUOUS
 62
     7
 10
-268.6676474287786
 20
658.8080597308247
 30
0.0
  0
VERTEX
  5
334
  8
GAH-APS
  6
CONTINUOUS
 62
     7
 10
-268.9193970377562
 20
659.34033955759
 30
0.0
  0
VERTEX
  5
335
  8
GAH-APS
  6
CONTINUOUS
 62
     7
 10
-269.1177618570817
 20
659.8947320882537
 30
0.0
  0
VERTEX
  5
336
  8
GAH-APS
  6
CONTINUOUS
 62
     7
 10
-269.2608315251078
 20
660.4658982196838
 30
0.0
  0
VERTEX
  5
337
  8
GAH-APS
  6
CONTINUOUS
 62
     7
 10
-269.3472282027216
 20
661.0483373098032
 30
0.0
  0
VERTEX
  5
338
  8
GAH-APS
  6
CONTINUOUS
 62
     7
 10
-269.3761198426885
 20
661.6364401517806
 30
0.0
  0
VERTEX
  5
339
  8
GAH-APS
  6
CONTINUOUS
 62
     7
 10
-269.3472282027216
 20
662.224542993758
 30
0.0
  0
VERTEX
  5
33A
  8
GAH-APS
  6
CONTINUOUS
 62
     7
 10
-269.2608315251078
 20
662.8069820838773
 30
0.0
  0
VERTEX
  5
33B
  8
GAH-APS
  6
CONTINUOUS
 62
     7
 10
-269.1177618570817
 20
663.3781482153074
 30
0.0
  0
VERTEX
  5
33C
  8
GAH-APS
  6
CONTINUOUS
 62
     7
 10
-268.9193970377562
 20
663.9325407459711
 30
0.0
  0
VERTEX
  5
33D
  8
GAH-APS
  6
CONTINUOUS
 62
     7
 10
-268.6676474287786
 20
664.4648205727365
 30
0.0
  0
VERTEX
  5
33E
  8
GAH-APS
  6
CONTINUOUS
 62
     7
 10
-268.3649375165037
 20
664.9698615498982
 30
0.0
  0
VERTEX
  5
33F
  8
GAH-APS
  6
CONTINUOUS
 62
     7
 10
-268.0141825628649
 20
665.4427998567625
 30
0.0
  0
VERTEX
  5
340
  8
GAH-APS
  6
CONTINUOUS
 62
     7
 10
-267.6187605298077
 20
665.8790808388999
 30
0.0
  0
VERTEX
  5
341
  8
GAH-APS
  6
CONTINUOUS
 62
     7
 10
-267.1824795476703
 20
666.274502871957
 30
0.0
  0
VERTEX
  5
342
  8
GAH-APS
  6
CONTINUOUS
 62
     7
 10
-266.7095412408061
 20
666.6252578255958
 30
0.0
  0
VERTEX
  5
343
  8
GAH-APS
  6
CONTINUOUS
 62
     7
 10
-266.2045002636444
 20
666.9279677378706
 30
0.0
  0
VERTEX
  5
344
  8
GAH-APS
  6
CONTINUOUS
 62
     7
 10
-265.672220436879
 20
667.1797173468483
 30
0.0
  0
VERTEX
  5
345
  8
GAH-APS
  6
CONTINUOUS
 62
     7
 10
-265.1178279062152
 20
667.3780821661738
 30
0.0
  0
VERTEX
  5
346
  8
GAH-APS
  6
CONTINUOUS
 62
     7
 10
-264.5466617747852
 20
667.5211518341999
 30
0.0
  0
VERTEX
  5
347
  8
GAH-APS
  6
CONTINUOUS
 62
     7
 10
-263.9642226846658
 20
667.6075485118138
 30
0.0
  0
VERTEX
  5
348
  8
GAH-APS
  6
CONTINUOUS
 62
     7
 10
-263.3761198426885
 20
667.6364401517806
 30
0.0
  0
VERTEX
  5
349
  8
GAH-APS
  6
CONTINUOUS
 62
     7
 10
-262.7880170007111
 20
667.6075485118138
 30
0.0
  0
VERTEX
  5
34A
  8
GAH-APS
  6
CONTINUOUS
 62
     7
 10
-262.2055779105917
 20
667.5211518341999
 30
0.0
  0
VERTEX
  5
34B
  8
GAH-APS
  6
CONTINUOUS
 62
     7
 10
-261.6344117791617
 20
667.3780821661738
 30
0.0
  0
VERTEX
  5
34C
  8
GAH-APS
  6
CONTINUOUS
 62
     7
 10
-261.0800192484979
 20
667.1797173468483
 30
0.0
  0
VERTEX
  5
34D
  8
GAH-APS
  6
CONTINUOUS
 62
     7
 10
-260.5477394217324
 20
666.9279677378706
 30
0.0
  0
VERTEX
  5
34E
  8
GAH-APS
  6
CONTINUOUS
 62
     7
 10
-260.0426984445708
 20
666.6252578255958
 30
0.0
  0
VERTEX
  5
34F
  8
GAH-APS
  6
CONTINUOUS
 62
     7
 10
-259.5697601377066
 20
666.274502871957
 30
0.0
  0
VERTEX
  5
350
  8
GAH-APS
  6
CONTINUOUS
 62
     7
 10
-259.1334791555691
 20
665.8790808388999
 30
0.0
  0
VERTEX
  5
351
  8
GAH-APS
  6
CONTINUOUS
 62
     7
 10
-258.738057122512
 20
665.4427998567625
 30
0.0
  0
VERTEX
  5
352
  8
GAH-APS
  6
CONTINUOUS
 62
     7
 10
-258.3873021688732
 20
664.9698615498982
 30
0.0
  0
VERTEX
  5
353
  8
GAH-APS
  6
CONTINUOUS
 62
     7
 10
-258.0845922565983
 20
664.4648205727365
 30
0.0
  0
VERTEX
  5
354
  8
GAH-APS
  6
CONTINUOUS
 62
     7
 10
-257.8328426476207
 20
663.9325407459711
 30
0.0
  0
VERTEX
  5
355
  8
GAH-APS
  6
CONTINUOUS
 62
     7
 10
-257.6344778282952
 20
663.3781482153074
 30
0.0
  0
VERTEX
  5
356
  8
GAH-APS
  6
CONTINUOUS
 62
     7
 10
-257.4914081602691
 20
662.8069820838773
 30
0.0
  0
VERTEX
  5
357
  8
GAH-APS
  6
CONTINUOUS
 62
     7
 10
-257.4050114826553
 20
662.224542993758
 30
0.0
  0
SEQEND
  5
358
  8
GAH-APS
  6
CONTINUOUS
 62
     7
  0
LINE
  5
359
  8
GAH-APS
  6
CONTINUOUS
 62
     7
 10
-265.3761198426885
 20
660.4817406901598
 30
0.0
 11
-263.3761198426885
 21
659.3270401517806
 31
0.0
  0
LINE
  5
35A
  8
GAH-APS
  6
CONTINUOUS
 62
     7
 10
-263.3761198426885
 20
659.3270401517806
 30
0.0
 11
-261.3761198426885
 21
660.4817406901598
 31
0.0
  0
LINE
  5
35B
  8
GAH-APS
  6
CONTINUOUS
 62
     7
 10
-261.3761198426885
 20
660.4817406901598
 30
0.0
 11
-261.3761198426885
 21
662.7911396134014
 31
0.0
  0
LINE
  5
35C
  8
GAH-APS
  6
CONTINUOUS
 62
     7
 10
-261.3761198426885
 20
662.7911396134014
 30
0.0
 11
-263.3761198426885
 21
663.9458401517805
 31
0.0
  0
LINE
  5
35D
  8
GAH-APS
  6
CONTINUOUS
 62
     7
 10
-263.3761198426885
 20
663.9458401517805
 30
0.0
 11
-265.3761198426885
 21
662.7911396134014
 31
0.0
  0
LINE
  5
35E
  8
GAH-APS
  6
CONTINUOUS
 62
     7
 10
-265.3761198426885
 20
662.7911396134014
 30
0.0
 11
-265.3761198426885
 21
660.4817406901598
 31
0.0
  0
LINE
  5
35F
  8
GAH-APS
  6
CONTINUOUS
 62
     7
 10
-288.8761198426884
 20
636.6364401517806
 30
0.0
 11
-285.8761198426884
 21
636.6364401517806
 31
0.0
  0
LINE
  5
360
  8
GAH-APS
  6
CONTINUOUS
 62
     7
 10
-288.8761198426884
 20
686.6364401517806
 30
0.0
 11
-285.8761198426884
 21
686.6364401517806
 31
0.0
  0
LINE
  5
361
  8
GAH-APS
  6
CONTINUOUS
 62
     7
 10
-285.8761198426884
 20
636.6364401517806
 30
0.0
 11
-285.8761198426884
 21
686.6364401517806
 31
0.0
  0
LINE
  5
362
  8
GAH-APS
  6
CONTINUOUS
 62
     7
 10
-288.8761198426884
 20
636.6364401517806
 30
0.0
 11
-288.8761198426884
 21
686.6364401517806
 31
0.0
  0
LINE
  5
363
  8
GAH-APS
  6
CONTINUOUS
 62
     7
 10
-295.7782795107383
 20
636.6364401517806
 30
0.0
 11
-295.7782795107383
 21
633.6364401517806
 31
0.0
  0
LINE
  5
364
  8
GAH-APS
  6
CONTINUOUS
 62
     7
 10
-285.8761198426884
 20
636.6364401517806
 30
0.0
 11
-295.7782795107383
 21
636.6364401517806
 31
0.0
  0
LINE
  5
365
  8
GAH-APS
  6
CONTINUOUS
 62
     7
 10
-285.8761198426884
 20
633.6364401517806
 30
0.0
 11
-285.8761198426884
 21
636.6364401517806
 31
0.0
  0
LINE
  5
366
  8
GAH-APS
  6
CONTINUOUS
 62
     7
 10
-285.8761198426884
 20
633.6364401517806
 30
0.0
 11
-295.7782795107383
 21
633.6364401517806
 31
0.0
  0
LINE
  5
367
  8
GAH-APS
  6
CONTINUOUS
 62
     7
 10
-305.5597555180764
 20
633.6364401517806
 30
0.0
 11
-305.5597555180764
 21
636.6364401517806
 31
0.0
  0
LINE
  5
368
  8
GAH-APS
  6
CONTINUOUS
 62
     7
 10
-305.5597555180764
 20
636.6364401517806
 30
0.0
 11
-295.7782795107383
 21
636.6364401517806
 31
0.0
  0
LINE
  5
369
  8
GAH-APS
  6
CONTINUOUS
 62
     7
 10
-295.7782795107383
 20
633.6364401517806
 30
0.0
 11
-305.5597555180764
 21
633.6364401517806
 31
0.0
  0
LINE
  5
36A
  8
GAH-APS
  6
CONTINUOUS
 62
     7
 10
-323.6169848725486
 20
633.6364401517806
 30
0.0
 11
-323.6169848725486
 21
636.6364401517806
 31
0.0
  0
LINE
  5
36B
  8
GAH-APS
  6
CONTINUOUS
 62
     7
 10
-305.5597555180764
 20
636.6364401517806
 30
0.0
 11
-323.6169848725486
 21
636.6364401517806
 31
0.0
  0
LINE
  5
36C
  8
GAH-APS
  6
CONTINUOUS
 62
     7
 10
-305.5597555180764
 20
633.6364401517806
 30
0.0
 11
-323.6169848725486
 21
633.6364401517806
 31
0.0
  0
LINE
  5
36D
  8
GAH-APS
  6
CONTINUOUS
 62
     7
 10
-281.8761198426884
 20
636.6364401517806
 30
0.0
 11
-281.8761198426884
 21
633.6364401517806
 31
0.0
  0
LINE
  5
36E
  8
GAH-APS
  6
CONTINUOUS
 62
     7
 10
-285.8761198426884
 20
636.6364401517806
 30
0.0
 11
-281.8761198426884
 21
636.6364401517806
 31
0.0
  0
LINE
  5
36F
  8
GAH-APS
  6
CONTINUOUS
 62
     7
 10
-281.8761198426884
 20
633.6364401517806
 30
0.0
 11
-285.8761198426884
 21
633.6364401517806
 31
0.0
  0
LINE
  5
370
  8
GAH-APS
  6
CONTINUOUS
 62
     7
 10
-258.3761198426885
 20
633.6364401517806
 30
0.0
 11
-258.3761198426885
 21
636.6364401517806
 31
0.0
  0
LINE
  5
371
  8
GAH-APS
  6
CONTINUOUS
 62
     7
 10
-258.3761198426885
 20
636.6364401517806
 30
0.0
 11
-281.8761198426884
 21
636.6364401517806
 31
0.0
  0
LINE
  5
372
  8
GAH-APS
  6
CONTINUOUS
 62
     7
 10
-258.3761198426885
 20
633.6364401517806
 30
0.0
 11
-281.8761198426884
 21
633.6364401517806
 31
0.0
  0
LINE
  5
373
  8
GAH-APS
  6
CONTINUOUS
 62
     7
 10
-253.3761198426885
 20
636.6364401517806
 30
0.0
 11
-253.3761198426885
 21
633.6364401517806
 31
0.0
  0
LINE
  5
374
  8
GAH-APS
  6
CONTINUOUS
 62
     7
 10
-258.3761198426885
 20
636.6364401517806
 30
0.0
 11
-253.3761198426885
 21
636.6364401517806
 31
0.0
  0
LINE
  5
375
  8
GAH-APS
  6
CONTINUOUS
 62
     7
 10
-253.3761198426885
 20
633.6364401517806
 30
0.0
 11
-258.3761198426885
 21
633.6364401517806
 31
0.0
  0
LINE
  5
376
  8
GAH-APS
  6
CONTINUOUS
 62
     7
 10
-372.0707125533561
 20
636.6364401517806
 30
0.0
 11
-372.0707125533561
 21
633.6364401517806
 31
0.0
  0
LINE
  5
377
  8
GAH-APS
  6
CONTINUOUS
 62
     7
 10
-323.6169848725486
 20
636.6364401517806
 30
0.0
 11
-372.0707125533561
 21
636.6364401517806
 31
0.0
  0
LINE
  5
378
  8
GAH-APS
  6
CONTINUOUS
 62
     7
 10
-323.6169848725486
 20
633.6364401517806
 30
0.0
 11
-372.0707125533561
 21
633.6364401517806
 31
0.0
  0
LINE
  5
379
  8
GAH-APS
  6
CONTINUOUS
 62
     7
 10
-375.3761198426885
 20
633.6364401517806
 30
0.0
 11
-375.3761198426885
 21
636.6364401517806
 31
0.0
  0
LINE
  5
37A
  8
GAH-APS
  6
CONTINUOUS
 62
     7
 10
-375.3761198426885
 20
636.6364401517806
 30
0.0
 11
-372.0707125533561
 21
636.6364401517806
 31
0.0
  0
LINE
  5
37B
  8
GAH-APS
  6
CONTINUOUS
 62
     7
 10
-372.0707125533561
 20
633.6364401517806
 30
0.0
 11
-375.3761198426885
 21
633.6364401517806
 31
0.0
  0
LINE
  5
37C
  8
GAH-APS
  6
CONTINUOUS
 62
     7
 10
-285.8761198426884
 20
686.6364401517806
 30
0.0
 11
-285.8761198426884
 21
689.6364401517806
 31
0.0
  0
LINE
  5
37D
  8
GAH-APS
  6
CONTINUOUS
 62
     7
 10
-285.8761198426884
 20
686.6364401517806
 30
0.0
 11
-295.7782795107383
 21
686.6364401517806
 31
0.0
  0
LINE
  5
37E
  8
GAH-APS
  6
CONTINUOUS
 62
     7
 10
-295.7782795107383
 20
689.6364401517806
 30
0.0
 11
-295.7782795107383
 21
686.6364401517806
 31
0.0
  0
LINE
  5
37F
  8
GAH-APS
  6
CONTINUOUS
 62
     7
 10
-285.8761198426884
 20
689.6364401517806
 30
0.0
 11
-295.7782795107383
 21
689.6364401517806
 31
0.0
  0
LINE
  5
380
  8
GAH-APS
  6
CONTINUOUS
 62
     7
 10
-305.5597555180764
 20
686.6364401517806
 30
0.0
 11
-305.5597555180764
 21
689.6364401517806
 31
0.0
  0
LINE
  5
381
  8
GAH-APS
  6
CONTINUOUS
 62
     7
 10
-295.7782795107383
 20
686.6364401517806
 30
0.0
 11
-305.5597555180764
 21
686.6364401517806
 31
0.0
  0
LINE
  5
382
  8
GAH-APS
  6
CONTINUOUS
 62
     7
 10
-305.5597555180764
 20
689.6364401517806
 30
0.0
 11
-295.7782795107383
 21
689.6364401517806
 31
0.0
  0
LINE
  5
383
  8
GAH-APS
  6
CONTINUOUS
 62
     7
 10
-323.6169848725486
 20
686.6364401517806
 30
0.0
 11
-323.6169848725486
 21
689.6364401517806
 31
0.0
  0
LINE
  5
384
  8
GAH-APS
  6
CONTINUOUS
 62
     7
 10
-305.5597555180764
 20
686.6364401517806
 30
0.0
 11
-323.6169848725486
 21
686.6364401517806
 31
0.0
  0
LINE
  5
385
  8
GAH-APS
  6
CONTINUOUS
 62
     7
 10
-305.5597555180764
 20
689.6364401517806
 30
0.0
 11
-323.6169848725486
 21
689.6364401517806
 31
0.0
  0
LINE
  5
386
  8
GAH-APS
  6
CONTINUOUS
 62
     7
 10
-281.8761198426884
 20
689.6364401517806
 30
0.0
 11
-281.8761198426884
 21
686.6364401517806
 31
0.0
  0
LINE
  5
387
  8
GAH-APS
  6
CONTINUOUS
 62
     7
 10
-281.8761198426884
 20
686.6364401517806
 30
0.0
 11
-285.8761198426884
 21
686.6364401517806
 31
0.0
  0
LINE
  5
388
  8
GAH-APS
  6
CONTINUOUS
 62
     7
 10
-285.8761198426884
 20
689.6364401517806
 30
0.0
 11
-281.8761198426884
 21
689.6364401517806
 31
0.0
  0
LINE
  5
389
  8
GAH-APS
  6
CONTINUOUS
 62
     7
 10
-258.3761198426885
 20
686.6364401517806
 30
0.0
 11
-258.3761198426885
 21
689.6364401517806
 31
0.0
  0
LINE
  5
38A
  8
GAH-APS
  6
CONTINUOUS
 62
     7
 10
-258.3761198426885
 20
686.6364401517806
 30
0.0
 11
-281.8761198426884
 21
686.6364401517806
 31
0.0
  0
LINE
  5
38B
  8
GAH-APS
  6
CONTINUOUS
 62
     7
 10
-258.3761198426885
 20
689.6364401517806
 30
0.0
 11
-281.8761198426884
 21
689.6364401517806
 31
0.0
  0
LINE
  5
38C
  8
GAH-APS
  6
CONTINUOUS
 62
     7
 10
-253.3761198426885
 20
689.6364401517806
 30
0.0
 11
-253.3761198426885
 21
686.6364401517806
 31
0.0
  0
LINE
  5
38D
  8
GAH-APS
  6
CONTINUOUS
 62
     7
 10
-253.3761198426885
 20
686.6364401517806
 30
0.0
 11
-258.3761198426885
 21
686.6364401517806
 31
0.0
  0
LINE
  5
38E
  8
GAH-APS
  6
CONTINUOUS
 62
     7
 10
-258.3761198426885
 20
689.6364401517806
 30
0.0
 11
-253.3761198426885
 21
689.6364401517806
 31
0.0
  0
LINE
  5
38F
  8
GAH-APS
  6
CONTINUOUS
 62
     7
 10
-372.0707125533561
 20
689.6364401517806
 30
0.0
 11
-372.0707125533561
 21
686.6364401517806
 31
0.0
  0
LINE
  5
390
  8
GAH-APS
  6
CONTINUOUS
 62
     7
 10
-323.6169848725486
 20
686.6364401517806
 30
0.0
 11
-372.0707125533561
 21
686.6364401517806
 31
0.0
  0
LINE
  5
391
  8
GAH-APS
  6
CONTINUOUS
 62
     7
 10
-323.6169848725486
 20
689.6364401517806
 30
0.0
 11
-372.0707125533561
 21
689.6364401517806
 31
0.0
  0
LINE
  5
392
  8
GAH-APS
  6
CONTINUOUS
 62
     7
 10
-375.3761198426885
 20
686.6364401517806
 30
0.0
 11
-375.3761198426885
 21
689.6364401517806
 31
0.0
  0
LINE
  5
393
  8
GAH-APS
  6
CONTINUOUS
 62
     7
 10
-372.0707125533561
 20
686.6364401517806
 30
0.0
 11
-375.3761198426885
 21
686.6364401517806
 31
0.0
  0
LINE
  5
394
  8
GAH-APS
  6
CONTINUOUS
 62
     7
 10
-375.3761198426885
 20
689.6364401517806
 30
0.0
 11
-372.0707125533561
 21
689.6364401517806
 31
0.0
  0
LINE
  5
395
  8
GAH-APS
  6
CONTINUOUS
 62
     7
 10
-253.3761198426885
 20
636.6364401517806
 30
0.0
 11
-253.3761198426885
 21
686.6364401517806
 31
0.0
  0
ARC
  5
396
  8
GAH-APS
  6
CONTINUOUS
 62
     7
 10
-257.3761198426885
 20
633.6364401517806
 30
0.0
 40
4.0
 50
270.0000000000011
 51
0.0
  0
LINE
  5
397
  8
GAH-APS
  6
CONTINUOUS
 62
     7
 10
-301.3761198426885
 20
629.6364401517806
 30
0.0
 11
-257.3761198426885
 21
629.6364401517806
 31
0.0
  0
POLYLINE
  5
398
  8
GAH-APS
  6
CONTINUOUS
 62
     7
 66
     1
 10
0.0
 20
0.0
 30
0.0
 70
   129
  0
VERTEX
  5
399
  8
GAH-APS
  6
CONTINUOUS
 62
     7
 10
-256.7761198426885
 20
661.6364401517806
 30
0.0
  0
VERTEX
  5
39A
  8
GAH-APS
  6
CONTINUOUS
 62
     7
 10
-256.807900646652
 20
660.9895270256054
 30
0.0
  0
VERTEX
  5
39B
  8
GAH-APS
  6
CONTINUOUS
 62
     7
 10
-256.9029369920272
 20
660.3488440264741
 30
0.0
  0
VERTEX
  5
39C
  8
GAH-APS
  6
CONTINUOUS
 62
     7
 10
-257.0603136268559
 20
659.7205612819012
 30
0.0
  0
VERTEX
  5
39D
  8
GAH-APS
  6
CONTINUOUS
 62
     7
 10
-257.278514928114
 20
659.1107294981709
 30
0.0
  0
VERTEX
  5
39E
  8
GAH-APS
  6
CONTINUOUS
 62
     7
 10
-257.5554394979894
 20
658.5252216887291
 30
0.0
  0
VERTEX
  5
39F
  8
GAH-APS
  6
CONTINUOUS
 62
     7
 10
-257.8884204014917
 20
657.9696766138512
 30
0.0
  0
VERTEX
  5
3A0
  8
GAH-APS
  6
CONTINUOUS
 62
     7
 10
-258.2742508504944
 20
657.4494444763005
 30
0.0
  0
VERTEX
  5
3A1
  8
GAH-APS
  6
CONTINUOUS
 62
     7
 10
-258.7092150868573
 20
656.9695353959494
 30
0.0
  0
VERTEX
  5
3A2
  8
GAH-APS
  6
CONTINUOUS
 62
     7
 10
-259.1891241672084
 20
656.5345711595864
 30
0.0
  0
VERTEX
  5
3A3
  8
GAH-APS
  6
CONTINUOUS
 62
     7
 10
-259.7093563047591
 20
656.1487407105838
 30
0.0
  0
VERTEX
  5
3A4
  8
GAH-APS
  6
CONTINUOUS
 62
     7
 10
-260.2649013796369
 20
655.8157598070815
 30
0.0
  0
VERTEX
  5
3A5
  8
GAH-APS
  6
CONTINUOUS
 62
     7
 10
-260.8504091890788
 20
655.5388352372061
 30
0.0
  0
VERTEX
  5
3A6
  8
GAH-APS
  6
CONTINUOUS
 62
     7
 10
-261.460240972809
 20
655.3206339359481
 30
0.0
  0
VERTEX
  5
3A7
  8
GAH-APS
  6
CONTINUOUS
 62
     7
 10
-262.088523717382
 20
655.1632573011193
 30
0.0
  0
VERTEX
  5
3A8
  8
GAH-APS
  6
CONTINUOUS
 62
     7
 10
-262.7292067165134
 20
655.0682209557441
 30
0.0
  0
VERTEX
  5
3A9
  8
GAH-APS
  6
CONTINUOUS
 62
     7
 10
-263.3761198426885
 20
655.0364401517807
 30
0.0
  0
VERTEX
  5
3AA
  8
GAH-APS
  6
CONTINUOUS
 62
     7
 10
-264.0230329688636
 20
655.0682209557441
 30
0.0
  0
VERTEX
  5
3AB
  8
GAH-APS
  6
CONTINUOUS
 62
     7
 10
-264.6637159679949
 20
655.1632573011193
 30
0.0
  0
VERTEX
  5
3AC
  8
GAH-APS
  6
CONTINUOUS
 62
     7
 10
-265.2919987125679
 20
655.3206339359481
 30
0.0
  0
VERTEX
  5
3AD
  8
GAH-APS
  6
CONTINUOUS
 62
     7
 10
-265.901830496298
 20
655.5388352372061
 30
0.0
  0
VERTEX
  5
3AE
  8
GAH-APS
  6
CONTINUOUS
 62
     7
 10
-266.48733830574
 20
655.8157598070815
 30
0.0
  0
VERTEX
  5
3AF
  8
GAH-APS
  6
CONTINUOUS
 62
     7
 10
-267.0428833806178
 20
656.1487407105838
 30
0.0
  0
VERTEX
  5
3B0
  8
GAH-APS
  6
CONTINUOUS
 62
     7
 10
-267.5631155181685
 20
656.5345711595864
 30
0.0
  0
VERTEX
  5
3B1
  8
GAH-APS
  6
CONTINUOUS
 62
     7
 10
-268.0430245985197
 20
656.9695353959494
 30
0.0
  0
VERTEX
  5
3B2
  8
GAH-APS
  6
CONTINUOUS
 62
     7
 10
-268.4779888348825
 20
657.4494444763005
 30
0.0
  0
VERTEX
  5
3B3
  8
GAH-APS
  6
CONTINUOUS
 62
     7
 10
-268.8638192838852
 20
657.9696766138512
 30
0.0
  0
VERTEX
  5
3B4
  8
GAH-APS
  6
CONTINUOUS
 62
     7
 10
-269.1968001873876
 20
658.5252216887291
 30
0.0
  0
VERTEX
  5
3B5
  8
GAH-APS
  6
CONTINUOUS
 62
     7
 10
-269.4737247572629
 20
659.1107294981709
 30
0.0
  0
VERTEX
  5
3B6
  8
GAH-APS
  6
CONTINUOUS
 62
     7
 10
-269.691926058521
 20
659.7205612819012
 30
0.0
  0
VERTEX
  5
3B7
  8
GAH-APS
  6
CONTINUOUS
 62
     7
 10
-269.8493026933497
 20
660.3488440264741
 30
0.0
  0
VERTEX
  5
3B8
  8
GAH-APS
  6
CONTINUOUS
 62
     7
 10
-269.9443390387249
 20
660.9895270256054
 30
0.0
  0
VERTEX
  5
3B9
  8
GAH-APS
  6
CONTINUOUS
 62
     7
 10
-269.9761198426884
 20
661.6364401517806
 30
0.0
  0
VERTEX
  5
3BA
  8
GAH-APS
  6
CONTINUOUS
 62
     7
 10
-269.9443390387249
 20
662.2833532779557
 30
0.0
  0
VERTEX
  5
3BB
  8
GAH-APS
  6
CONTINUOUS
 62
     7
 10
-269.8493026933497
 20
662.924036277087
 30
0.0
  0
VERTEX
  5
3BC
  8
GAH-APS
  6
CONTINUOUS
 62
     7
 10
-269.691926058521
 20
663.55231902166
 30
0.0
  0
VERTEX
  5
3BD
  8
GAH-APS
  6
CONTINUOUS
 62
     7
 10
-269.4737247572629
 20
664.1621508053902
 30
0.0
  0
VERTEX
  5
3BE
  8
GAH-APS
  6
CONTINUOUS
 62
     7
 10
-269.1968001873876
 20
664.7476586148321
 30
0.0
  0
VERTEX
  5
3BF
  8
GAH-APS
  6
CONTINUOUS
 62
     7
 10
-268.8638192838852
 20
665.3032036897099
 30
0.0
  0
VERTEX
  5
3C0
  8
GAH-APS
  6
CONTINUOUS
 62
     7
 10
-268.4779888348825
 20
665.8234358272606
 30
0.0
  0
VERTEX
  5
3C1
  8
GAH-APS
  6
CONTINUOUS
 62
     7
 10
-268.0430245985197
 20
666.3033449076117
 30
0.0
  0
VERTEX
  5
3C2
  8
GAH-APS
  6
CONTINUOUS
 62
     7
 10
-267.5631155181685
 20
666.7383091439747
 30
0.0
  0
VERTEX
  5
3C3
  8
GAH-APS
  6
CONTINUOUS
 62
     7
 10
-267.0428833806178
 20
667.1241395929774
 30
0.0
  0
VERTEX
  5
3C4
  8
GAH-APS
  6
CONTINUOUS
 62
     7
 10
-266.48733830574
 20
667.4571204964797
 30
0.0
  0
VERTEX
  5
3C5
  8
GAH-APS
  6
CONTINUOUS
 62
     7
 10
-265.901830496298
 20
667.7340450663551
 30
0.0
  0
VERTEX
  5
3C6
  8
GAH-APS
  6
CONTINUOUS
 62
     7
 10
-265.2919987125679
 20
667.952246367613
 30
0.0
  0
VERTEX
  5
3C7
  8
GAH-APS
  6
CONTINUOUS
 62
     7
 10
-264.6637159679949
 20
668.1096230024418
 30
0.0
  0
VERTEX
  5
3C8
  8
GAH-APS
  6
CONTINUOUS
 62
     7
 10
-264.0230329688636
 20
668.204659347817
 30
0.0
  0
VERTEX
  5
3C9
  8
GAH-APS
  6
CONTINUOUS
 62
     7
 10
-263.3761198426885
 20
668.2364401517805
 30
0.0
  0
VERTEX
  5
3CA
  8
GAH-APS
  6
CONTINUOUS
 62
     7
 10
-262.7292067165134
 20
668.204659347817
 30
0.0
  0
VERTEX
  5
3CB
  8
GAH-APS
  6
CONTINUOUS
 62
     7
 10
-262.088523717382
 20
668.1096230024418
 30
0.0
  0
VERTEX
  5
3CC
  8
GAH-APS
  6
CONTINUOUS
 62
     7
 10
-261.460240972809
 20
667.952246367613
 30
0.0
  0
VERTEX
  5
3CD
  8
GAH-APS
  6
CONTINUOUS
 62
     7
 10
-260.8504091890788
 20
667.7340450663551
 30
0.0
  0
VERTEX
  5
3CE
  8
GAH-APS
  6
CONTINUOUS
 62
     7
 10
-260.2649013796369
 20
667.4571204964797
 30
0.0
  0
VERTEX
  5
3CF
  8
GAH-APS
  6
CONTINUOUS
 62
     7
 10
-259.7093563047591
 20
667.1241395929774
 30
0.0
  0
VERTEX
  5
3D0
  8
GAH-APS
  6
CONTINUOUS
 62
     7
 10
-259.1891241672084
 20
666.7383091439747
 30
0.0
  0
VERTEX
  5
3D1
  8
GAH-APS
  6
CONTINUOUS
 62
     7
 10
-258.7092150868573
 20
666.3033449076117
 30
0.0
  0
VERTEX
  5
3D2
  8
GAH-APS
  6
CONTINUOUS
 62
     7
 10
-258.2742508504944
 20
665.8234358272606
 30
0.0
  0
VERTEX
  5
3D3
  8
GAH-APS
  6
CONTINUOUS
 62
     7
 10
-257.8884204014917
 20
665.3032036897099
 30
0.0
  0
VERTEX
  5
3D4
  8
GAH-APS
  6
CONTINUOUS
 62
     7
 10
-257.5554394979894
 20
664.7476586148321
 30
0.0
  0
VERTEX
  5
3D5
  8
GAH-APS
  6
CONTINUOUS
 62
     7
 10
-257.278514928114
 20
664.1621508053902
 30
0.0
  0
VERTEX
  5
3D6
  8
GAH-APS
  6
CONTINUOUS
 62
     7
 10
-257.0603136268559
 20
663.55231902166
 30
0.0
  0
VERTEX
  5
3D7
  8
GAH-APS
  6
CONTINUOUS
 62
     7
 10
-256.9029369920272
 20
662.924036277087
 30
0.0
  0
VERTEX
  5
3D8
  8
GAH-APS
  6
CONTINUOUS
 62
     7
 10
-256.807900646652
 20
662.2833532779557
 30
0.0
  0
SEQEND
  5
3D9
  8
GAH-APS
  6
CONTINUOUS
 62
     7
  0
LINE
  5
3DA
  8
GAH-APS
  6
CONTINUOUS
 62
     7
 10
-301.3761198426885
 20
693.6364401517806
 30
0.0
 11
-257.3761198426885
 21
693.6364401517806
 31
0.0
  0
ARC
  5
3DB
  8
GAH-APS
  6
CONTINUOUS
 62
     7
 10
-257.3761198426884
 20
689.6364401517806
 30
0.0
 40
3.999999999999936
 50
359.9999999999993
 51
90.00000000000092
  0
LINE
  5
3DC
  8
GAH-APS
  6
CONTINUOUS
 62
     7
 10
-307.3761198426885
 20
629.6364401517806
 30
0.0
 11
-301.3761198426885
 21
629.6364401517806
 31
0.0
  0
LINE
  5
3DD
  8
GAH-APS
  6
CONTINUOUS
 62
     7
 10
-307.3761198426885
 20
629.6364401517806
 30
0.0
 11
-307.3761198426885
 21
633.6364401517803
 31
0.0
  0
LINE
  5
3DE
  8
GAH-APS
  6
CONTINUOUS
 62
     7
 10
-307.3761198426885
 20
636.6364401517803
 30
0.0
 11
-307.3761198426885
 21
686.6364401517803
 31
0.0
  0
LINE
  5
3DF
  8
GAH-APS
  6
CONTINUOUS
 62
     7
 10
-307.3761198426885
 20
689.6364401517803
 30
0.0
 11
-307.3761198426885
 21
693.6364401517806
 31
0.0
  0
LINE
  5
3E0
  8
GAH-APS
  6
CONTINUOUS
 62
     7
 10
-307.3761198426885
 20
693.6364401517806
 30
0.0
 11
-301.3761198426885
 21
693.6364401517806
 31
0.0
  0
LINE
  5
3E1
  8
GAH-APS
  6
CONTINUOUS
 62
     7
 10
-309.3761198426885
 20
629.6364401517806
 30
0.0
 11
-307.3761198426885
 21
629.6364401517806
 31
0.0
  0
LINE
  5
3E2
  8
GAH-APS
  6
CONTINUOUS
 62
     7
 10
-309.3761198426885
 20
693.6364401517806
 30
0.0
 11
-307.3761198426885
 21
693.6364401517806
 31
0.0
  0
LINE
  5
3E3
  8
GAH-APS
  6
CONTINUOUS
 62
     7
 10
-371.3761198426885
 20
629.6364401517806
 30
0.0
 11
-309.3761198426885
 21
629.6364401517806
 31
0.0
  0
ARC
  5
3E4
  8
GAH-APS
  6
CONTINUOUS
 62
     7
 10
-371.3761198426885
 20
633.6364401517806
 30
0.0
 40
4.000000000000014
 50
180.0
 51
270.0000000000006
  0
LINE
  5
3E5
  8
GAH-APS
  6
CONTINUOUS
 62
     7
 10
-375.3761198426885
 20
636.6364401517806
 30
0.0
 11
-375.3761198426885
 21
654.6364401517804
 31
0.0
  0
LINE
  5
3E6
  8
GAH-APS
  6
CONTINUOUS
 62
     7
 10
-375.3761198426885
 20
668.6364401517804
 30
0.0
 11
-375.3761198426885
 21
686.6364401517806
 31
0.0
  0
ARC
  5
3E7
  8
GAH-APS
  6
CONTINUOUS
 62
     7
 10
-371.3761198426885
 20
689.6364401517806
 30
0.0
 40
3.999999999999943
 50
89.99999999999919
 51
180.0000000000009
  0
LINE
  5
3E8
  8
GAH-APS
  6
CONTINUOUS
 62
     7
 10
-371.3761198426885
 20
693.6364401517806
 30
0.0
 11
-309.3761198426885
 21
693.6364401517806
 31
0.0
  0
LINE
  5
3E9
  8
GAH-APS
  6
CONTINUOUS
 62
   252
 10
-301.3761198426885
 20
629.6364401517806
 30
0.0
 11
-301.3761198426885
 21
633.6364401517803
 31
0.0
  0
LINE
  5
3EA
  8
GAH-APS
  6
CONTINUOUS
 62
   252
 10
-301.3761198426885
 20
636.6364401517803
 30
0.0
 11
-301.3761198426885
 21
686.6364401517803
 31
0.0
  0
LINE
  5
3EB
  8
GAH-APS
  6
CONTINUOUS
 62
   252
 10
-301.3761198426885
 20
689.6364401517803
 30
0.0
 11
-301.3761198426885
 21
693.6364401517806
 31
0.0
  0
LINE
  5
3EC
  8
GAH-APS
  6
CONTINUOUS
 62
   252
 10
-309.3761198426885
 20
629.6364401517806
 30
0.0
 11
-309.3761198426885
 21
633.6364401517803
 31
0.0
  0
LINE
  5
3ED
  8
GAH-APS
  6
CONTINUOUS
 62
   252
 10
-309.3761198426885
 20
636.6364401517803
 30
0.0
 11
-309.3761198426885
 21
686.6364401517802
 31
0.0
  0
LINE
  5
3EE
  8
GAH-APS
  6
CONTINUOUS
 62
   252
 10
-309.3761198426885
 20
689.6364401517802
 30
0.0
 11
-309.3761198426885
 21
693.6364401517806
 31
0.0
  0
TEXT
  5
3EF
  8
GAH-APS
 62
     7
 10
-776.7364878058922
 20
1227.734231171081
 30
0.0
 40
18.95491536458333
  1
塗装　標準：黒
  7
_______
 11
-776.7364878058922
 21
1246.689146535664
 31
0.0
 73
     3
  0
TEXT
  5
3F0
  8
GAH-APS
 62
     7
 10
-1104.581472441376
 20
1264.333178889705
 30
0.0
 40
18.95491536458333
  1
接続方法
  7
_______
 11
-1104.581472441376
 21
1283.288094254289
 31
0.0
 73
     3
  0
VIEWPORT
  5
65
 67
     1
  8
0
 10
128.5
 20
97.5
 30
0.0
 40
314.226
 41
222.18
 68
     1
 69
     1
1001
ACAD
1000
MVIEW
1002
{
1070
    16
1010
0.0
1020
0.0
1030
0.0
1010
0.0
1020
0.0
1030
1.0
1040
0.0
1040
222.18
1040
128.5
1040
97.5
1040
50.0
1040
0.0
1040
0.0
1070
     0
1070
   100
1070
     0
1070
     3
1070
     0
1070
     0
1070
     0
1070
     0
1040
0.0
1040
0.0
1040
0.0
1040
10.0
1040
10.0
1040
10.0
1040
10.0
1070
     0
1002
{
1002
}
1002
}
  0
ENDSEC
  0
EOF
